osu file format v14

[General]
AudioFilename: 02. Welcome To The Cyphisonia.mp3
AudioLeadIn: 0
PreviewTime: 83520
Countdown: 0
SampleSet: None
StackLeniency: 0.7
Mode: 3
LetterboxInBreaks: 0
SpecialStyle: 0
WidescreenStoryboard: 1

[Editor]
Bookmarks: 171645,214770,218520
DistanceSpacing: 1
BeatDivisor: 4
GridSize: 8
TimelineZoom: 2.1

[Metadata]
Title:Cyphisonia E.P.
TitleUnicode:Cyphisonia E.P.
Artist:Camellia
ArtistUnicode:かめりあ
Creator:LastExceed
Version:Welcome to the Cyphisonia
Source:
Tags:hiranaka
BeatmapID:1277815
BeatmapSetID:598266

[Difficulty]
HPDrainRate:8
CircleSize:4
OverallDifficulty:8
ApproachRate:5
SliderMultiplier:1.4
SliderTickRate:1

[Events]
//Background and Video events
0,0,"jacket.jpg",0,0
//Break Periods
//Storyboard Layer 0 (Background)
//Storyboard Layer 1 (Fail)
//Storyboard Layer 2 (Pass)
//Storyboard Layer 3 (Foreground)
//Storyboard Sound Samples

[TimingPoints]
8520,468.75,4,2,1,40,1,0
68520,-52.6315789473684,4,2,1,40,0,0
68549,-1000,4,2,1,40,0,0
68578,-52.6315789473684,4,2,1,40,0,0
68607,-1000,4,2,1,40,0,0
68637,-52.6315789473684,4,2,1,40,0,0
68666,-1000,4,2,1,40,0,0
68695,-52.6315789473684,4,2,1,40,0,0
68725,-1000,4,2,1,40,0,0
68754,-52.6315789473684,4,2,1,40,0,0
68783,-1000,4,2,1,40,0,0
68812,-52.6315789473684,4,2,1,40,0,0
68842,-1000,4,2,1,40,0,0
68871,-52.6315789473684,4,2,1,40,0,0
68900,-1000,4,2,1,40,0,0
68930,-52.6315789473684,4,2,1,40,0,0
68959,-1000,4,2,1,40,0,0
68988,-100,4,2,1,40,0,0
72270,-52.632,4,2,1,40,0,0
72299,-1000,4,2,1,40,0,0
72328,-52.632,4,2,1,40,0,0
72357,-1000,4,2,1,40,0,0
72387,-52.632,4,2,1,40,0,0
72416,-1000,4,2,1,40,0,0
72445,-52.632,4,2,1,40,0,0
72475,-1000,4,2,1,40,0,0
72504,-52.632,4,2,1,40,0,0
72533,-1000,4,2,1,40,0,0
72562,-52.632,4,2,1,40,0,0
72592,-1000,4,2,1,40,0,0
72621,-52.632,4,2,1,40,0,0
72650,-1000,4,2,1,40,0,0
72680,-52.632,4,2,1,40,0,0
72709,-1000,4,2,1,40,0,0
72738,-100,4,2,1,40,0,0
74145,-52.632,4,2,1,40,0,0
74174,-1000,4,2,1,40,0,0
74203,-52.632,4,2,1,40,0,0
74232,-1000,4,2,1,40,0,0
74262,-52.632,4,2,1,40,0,0
74291,-1000,4,2,1,40,0,0
74320,-52.632,4,2,1,40,0,0
74350,-1000,4,2,1,40,0,0
74379,-52.632,4,2,1,40,0,0
74408,-1000,4,2,1,40,0,0
74437,-52.632,4,2,1,40,0,0
74467,-1000,4,2,1,40,0,0
74496,-52.632,4,2,1,40,0,0
74525,-1000,4,2,1,40,0,0
74555,-52.632,4,2,1,40,0,0
74584,-1000,4,2,1,40,0,0
74613,-100,4,2,1,40,0,0
74965,-52.632,4,2,1,40,0,0
74994,-1000,4,2,1,40,0,0
75023,-52.632,4,2,1,40,0,0
75052,-1000,4,2,1,40,0,0
75082,-52.632,4,2,1,40,0,0
75111,-1000,4,2,1,40,0,0
75140,-52.632,4,2,1,40,0,0
75170,-1000,4,2,1,40,0,0
75199,-52.632,4,2,1,40,0,0
75228,-1000,4,2,1,40,0,0
75257,-52.632,4,2,1,40,0,0
75287,-1000,4,2,1,40,0,0
75316,-52.632,4,2,1,40,0,0
75345,-1000,4,2,1,40,0,0
75375,-52.632,4,2,1,40,0,0
75404,-1000,4,2,1,40,0,0
75433,-100,4,2,1,40,0,0
75668,-52.6315789473684,4,2,1,40,0,0
75697,-1000,4,2,1,40,0,0
75727,-52.6315789473684,4,2,1,40,0,0
75756,-1000,4,2,1,40,0,0
75785,-52.6315789473684,4,2,1,40,0,0
75814,-1000,4,2,1,40,0,0
75844,-52.6315789473684,4,2,1,40,0,0
75873,-1000,4,2,1,40,0,0
75902,-100,4,2,1,40,0,0
76020,-71.4285714285714,4,2,1,40,0,0
76078,-166.666666666667,4,2,1,40,0,0
76137,-71.4285714285714,4,2,1,40,0,0
76195,-166.666666666667,4,2,1,40,0,0
76254,-71.4285714285714,4,2,1,40,0,0
76312,-166.666666666667,4,2,1,40,0,0
76371,-71.4285714285714,4,2,1,40,0,0
76430,-166.666666666667,4,2,1,40,0,0
76488,-71.4285714285714,4,2,1,40,0,0
76547,-166.666666666667,4,2,1,40,0,0
76605,-71.4285714285714,4,2,1,40,0,0
76664,-166.666666666667,4,2,1,40,0,0
76723,-71.4285714285714,4,2,1,40,0,0
76781,-166.666666666667,4,2,1,40,0,0
76840,-71.4285714285714,4,2,1,40,0,0
76898,-166.666666666667,4,2,1,40,0,0
76957,-71.4285714285714,4,2,1,40,0,0
77016,-166.666666666667,4,2,1,40,0,0
77074,-71.4285714285714,4,2,1,40,0,0
77133,-166.666666666667,4,2,1,40,0,0
77191,-71.4285714285714,4,2,1,40,0,0
77250,-166.666666666667,4,2,1,40,0,0
77309,-71.4285714285714,4,2,1,40,0,0
77367,-166.666666666667,4,2,1,40,0,0
77426,-71.4285714285714,4,2,1,40,0,0
77484,-166.666666666667,4,2,1,40,0,0
77543,-71.4285714285714,4,2,1,40,0,0
77602,-166.666666666667,4,2,1,40,0,0
77660,-71.4285714285714,4,2,1,40,0,0
77719,-166.666666666667,4,2,1,40,0,0
77777,-71.4285714285714,4,2,1,40,0,0
77836,-166.666666666667,4,2,1,40,0,0
77895,-71.4285714285714,4,2,1,40,0,0
77953,-166.666666666667,4,2,1,40,0,0
78012,-71.4285714285714,4,2,1,40,0,0
78070,-166.666666666667,4,2,1,40,0,0
78129,-71.4285714285714,4,2,1,40,0,0
78187,-166.666666666667,4,2,1,40,0,0
78246,-71.4285714285714,4,2,1,40,0,0
78305,-166.666666666667,4,2,1,40,0,0
78363,-71.4285714285714,4,2,1,40,0,0
78422,-166.666666666667,4,2,1,40,0,0
78480,-71.4285714285714,4,2,1,40,0,0
78539,-166.666666666667,4,2,1,40,0,0
78598,-71.4285714285714,4,2,1,40,0,0
78656,-166.666666666667,4,2,1,40,0,0
78715,-71.4285714285714,4,2,1,40,0,0
78773,-166.666666666667,4,2,1,40,0,0
78832,-71.4285714285714,4,2,1,40,0,0
78891,-166.666666666667,4,2,1,40,0,0
78949,-71.4285714285714,4,2,1,40,0,0
79008,-166.666666666667,4,2,1,40,0,0
79066,-71.4285714285714,4,2,1,40,0,0
79125,-166.666666666667,4,2,1,40,0,0
79184,-71.4285714285714,4,2,1,40,0,0
79242,-166.666666666667,4,2,1,40,0,0
79301,-71.4285714285714,4,2,1,40,0,0
79359,-166.666666666667,4,2,1,40,0,0
79418,-71.4285714285714,4,2,1,40,0,0
79477,-166.666666666667,4,2,1,40,0,0
79535,-71.4285714285714,4,2,1,40,0,0
79594,-166.666666666667,4,2,1,40,0,0
79652,-71.4285714285714,4,2,1,40,0,0
79711,-166.666666666667,4,2,1,40,0,0
79770,-55.5555555555556,4,2,1,40,0,0
79828,-500,4,2,1,40,0,0
79887,-55.5555555555556,4,2,1,40,0,0
79945,-500,4,2,1,40,0,0
80004,-55.5555555555556,4,2,1,40,0,0
80062,-500,4,2,1,40,0,0
80121,-55.5555555555556,4,2,1,40,0,0
80180,-500,4,2,1,40,0,0
80238,-55.5555555555556,4,2,1,40,0,0
80297,-500,4,2,1,40,0,0
80355,-55.5555555555556,4,2,1,40,0,0
80414,-500,4,2,1,40,0,0
80473,-55.5555555555556,4,2,1,40,0,0
80531,-500,4,2,1,40,0,0
80590,-55.5555555555556,4,2,1,40,0,0
80648,-500,4,2,1,40,0,0
80707,-55.5555555555556,4,2,1,40,0,0
80766,-500,4,2,1,40,0,0
80824,-55.5555555555556,4,2,1,40,0,0
80883,-500,4,2,1,40,0,0
80941,-55.5555555555556,4,2,1,40,0,0
81000,-500,4,2,1,40,0,0
81059,-55.5555555555556,4,2,1,40,0,0
81117,-500,4,2,1,40,0,0
81176,-55.5555555555556,4,2,1,40,0,0
81234,-500,4,2,1,40,0,0
81293,-55.5555555555556,4,2,1,40,0,0
81352,-500,4,2,1,40,0,0
81410,-55.5555555555556,4,2,1,40,0,0
81439,-500,4,2,1,40,0,0
81469,-55.5555555555556,4,2,1,40,0,0
81498,-500,4,2,1,40,0,0
81527,-55.5555555555556,4,2,1,40,0,0
81557,-500,4,2,1,40,0,0
81586,-55.5555555555556,4,2,1,40,0,0
81615,-500,4,2,1,40,0,0
81645,-55.5555555555556,4,2,1,40,0,0
81674,-100,4,2,1,40,0,0
83051,-52.6315789473684,4,2,1,40,0,0
83109,-1000,4,2,1,40,0,0
83168,-52.6315789473684,4,2,1,40,0,0
83227,-1000,4,2,1,40,0,0
83285,-52.6315789473684,4,2,1,40,0,0
83344,-100,4,2,1,40,0,0
83520,-50,4,2,1,40,0,0
83637,-200,4,2,1,40,0,0
83871,-100,4,2,1,40,0,0
83988,-55.5555555555556,4,2,1,40,0,0
84018,-500,4,2,1,40,0,0
84047,-100,4,2,1,40,0,0
84105,-55.5555555555556,4,2,1,40,0,0
84135,-500,4,2,1,40,0,0
84164,-100,4,2,1,40,0,0
84223,-55.5555555555556,4,2,1,40,0,0
84252,-500,4,2,1,40,0,0
84281,-100,4,2,1,40,0,0
84340,-50,4,2,1,40,0,0
84398,-200,4,2,1,40,0,0
84516,-100,4,2,1,40,0,0
84691,-66.6666666666667,4,2,1,40,0,0
84809,-200,4,2,1,40,0,0
84926,-100,4,2,1,40,0,0
85160,-66.6666666666667,4,2,1,40,0,0
85277,-200,4,2,1,40,0,0
85395,-100,4,2,1,40,0,0
85863,-52.6315789473684,4,2,1,40,0,0
85922,-1000,4,2,1,40,0,0
85980,-52.6315789473684,4,2,1,40,0,0
86039,-1000,4,2,1,40,0,0
86098,-52.6315789473684,4,2,1,40,0,0
86156,-1000,4,2,1,40,0,0
86215,-52.6315789473684,4,2,1,40,0,0
86273,-1000,4,2,1,40,0,0
86332,-52.6315789473684,4,2,1,40,0,0
86391,-1000,4,2,1,40,0,0
86449,-52.6315789473684,4,2,1,40,0,0
86508,-1000,4,2,1,40,0,0
86566,-100,4,2,1,40,0,0
87270,-50,4,2,1,40,0,0
87387,-200,4,2,1,40,0,0
87621,-100,4,2,1,40,0,0
87738,-55.5555555555556,4,2,1,40,0,0
87768,-1000,4,2,1,40,0,0
87797,-100,4,2,1,40,0,0
87855,-52.6315789473684,4,2,1,40,0,0
87885,-1000,4,2,1,40,0,0
87914,-100,4,2,1,40,0,0
87973,-52.6315789473684,4,2,1,40,0,0
88002,-1000,4,2,1,40,0,0
88031,-100,4,2,1,40,0,0
88090,-50,4,2,1,40,0,0
88148,-149.253731343284,4,2,1,40,0,0
88324,-100,4,2,1,40,0,0
88676,-50,4,2,1,40,0,0
88793,-200,4,2,1,40,0,0
89027,-100,4,2,1,40,0,0
89145,-50,4,2,1,40,0,0
89262,-200,4,2,1,40,0,0
89496,-100,4,2,1,40,0,0
89965,-50,4,2,1,40,0,0
90082,-200,4,2,1,40,0,0
90199,-100,4,2,1,40,0,0
90668,-52.6315789473684,4,2,1,40,0,0
90785,-1000,4,2,1,40,0,0
90902,-100,4,2,1,40,0,0
91020,-50,4,2,1,40,0,0
91137,-200,4,2,1,40,0,0
91371,-100,4,2,1,40,0,0
91488,-55.5555555555556,4,2,1,40,0,0
91518,-500,4,2,1,40,0,0
91547,-100,4,2,1,40,0,0
91605,-55.5555555555556,4,2,1,40,0,0
91635,-500,4,2,1,40,0,0
91664,-100,4,2,1,40,0,0
91723,-55.5555555555556,4,2,1,40,0,0
91752,-500,4,2,1,40,0,0
91781,-100,4,2,1,40,0,0
91840,-50,4,2,1,40,0,0
91898,-149.253731343284,4,2,1,40,0,0
92074,-100,4,2,1,40,0,0
92191,-66.6666666666667,4,2,1,40,0,0
92309,-200,4,2,1,40,0,0
92426,-100,4,2,1,40,0,0
92660,-66.6666666666667,4,2,1,40,0,0
92777,-200,4,2,1,40,0,0
92895,-100,4,2,1,40,0,0
93363,-52.6315789473684,4,2,1,40,0,0
93422,-1000,4,2,1,40,0,0
93480,-52.6315789473684,4,2,1,40,0,0
93539,-1000,4,2,1,40,0,0
93598,-52.6315789473684,4,2,1,40,0,0
93656,-1000,4,2,1,40,0,0
93715,-52.6315789473684,4,2,1,40,0,0
93773,-1000,4,2,1,40,0,0
93832,-52.6315789473684,4,2,1,40,0,0
93891,-1000,4,2,1,40,0,0
93949,-52.6315789473684,4,2,1,40,0,0
94008,-1000,4,2,1,40,0,0
94066,-100,4,2,1,40,0,0
94770,-50,4,2,1,40,0,0
94887,-200,4,2,1,40,0,0
95121,-100,4,2,1,40,0,0
95238,-55.5555555555556,4,2,1,40,0,0
95268,-500,4,2,1,40,0,0
95297,-100,4,2,1,40,0,0
95355,-55.5555555555556,4,2,1,40,0,0
95385,-500,4,2,1,40,0,0
95414,-100,4,2,1,40,0,0
95473,-55.5555555555556,4,2,1,40,0,0
95502,-500,4,2,1,40,0,0
95531,-100,4,2,1,40,0,0
95590,-50,4,2,1,40,0,0
95648,-149.253731343284,4,2,1,40,0,0
95824,-100,4,2,1,40,0,0
96176,-50,4,2,1,40,0,0
96293,-200,4,2,1,40,0,0
96527,-100,4,2,1,40,0,0
96645,-50,4,2,1,40,0,0
96762,-200,4,2,1,40,0,0
96996,-100,4,2,1,40,0,0
97465,-50,4,2,1,40,0,0
97582,-200,4,2,1,40,0,0
97816,-100,4,2,1,40,0,0
98168,-52.6315789473684,4,2,1,40,0,0
98285,-1000,4,2,1,40,0,0
98402,-100,4,2,1,40,0,0
98520,-50,4,2,1,40,0,0
98637,-200,4,2,1,40,0,0
98871,-100,4,2,1,40,0,0
100336,-50,4,2,1,40,0,0
100453,-200,4,2,1,40,0,0
100746,-100,4,2,1,40,0,0
102270,-50,4,2,1,40,0,0
102387,-200,4,2,1,40,0,0
102621,-100,4,2,1,40,0,0
102738,-52.6315789473684,4,2,1,40,0,0
102797,-1000,4,2,1,40,0,0
102855,-52.6315789473684,4,2,1,40,0,0
102914,-1000,4,2,1,40,0,0
102973,-52.6315789473684,4,2,1,40,0,0
103031,-1000,4,2,1,40,0,0
103090,-52.6315789473684,4,2,1,40,0,0
103148,-1000,4,2,1,40,0,0
103207,-52.6315789473684,4,2,1,40,0,0
103266,-1000,4,2,1,40,0,0
103324,-52.6315789473684,4,2,1,40,0,0
103383,-100,4,2,1,40,0,0
103676,-50,4,2,1,40,0,0
103793,-200,4,2,1,40,0,0
104027,-100,4,2,1,40,0,0
104145,-50,4,2,1,40,0,0
104262,-200,4,2,1,40,0,0
104496,-100,4,2,1,40,0,0
104965,-50,4,2,1,40,0,0
105082,-200,4,2,1,40,0,0
105316,-100,4,2,1,40,0,0
105668,-50,4,2,1,40,0,0
105785,-200,4,2,1,40,0,0
106020,-50,4,2,1,40,0,0
106020,-100,4,2,1,40,0,0
106137,-200,4,2,1,40,0,0
106371,-100,4,2,1,40,0,0
106488,-50,4,2,1,40,0,0
106605,-200,4,2,1,40,0,0
106840,-100,4,2,1,40,0,0
107895,-52.6315789473684,4,2,1,40,0,0
107953,-1000,4,2,1,40,0,0
108012,-52.6315789473684,4,2,1,40,0,0
108070,-1000,4,2,1,40,0,0
108129,-52.6315789473684,4,2,1,40,0,0
108187,-1000,4,2,1,40,0,0
108246,-52.6315789473684,4,2,1,40,0,0
108305,-1000,4,2,1,40,0,0
108363,-100,4,2,1,40,0,0
109301,-52.6315789473684,4,2,1,40,0,0
109359,-1000,4,2,1,40,0,0
109418,-52.6315789473684,4,2,1,40,0,0
109535,-1000,4,2,1,40,0,0
109652,-100,4,2,1,40,0,0
109770,-50,4,2,1,40,0,0
109887,-200,4,2,1,40,0,0
110121,-100,4,2,1,40,0,0
110238,-52.6315789473684,4,2,1,40,0,0
110297,-1000,4,2,1,40,0,0
110355,-52.6315789473684,4,2,1,40,0,0
110414,-1000,4,2,1,40,0,0
110473,-52.6315789473684,4,2,1,40,0,0
110531,-100,4,2,1,40,0,0
111645,-50,4,2,1,40,0,0
111762,-200,4,2,1,40,0,0
111996,-100,4,2,1,40,0,0
112465,-50,4,2,1,40,0,0
112523,-149.253731343284,4,2,1,40,0,0
112699,-100,4,2,1,40,0,0
112934,-52.6315789473684,4,2,1,40,0,0
112992,-1000,4,2,1,40,0,0
113051,-52.6315789473684,4,2,1,40,0,0
113109,-1000,4,2,1,40,0,0
113168,-50,4,2,1,40,0,0
113227,-149.253731343284,4,2,1,40,0,0
113402,-100,4,2,1,40,0,0
113520,-50,4,2,1,40,0,0
113637,-200,4,2,1,40,0,0
113871,-100,4,2,1,40,0,0
113988,-55.5555555555556,4,2,1,40,0,0
114018,-500,4,2,1,40,0,0
114047,-100,4,2,1,40,0,0
114105,-55.5555555555556,4,2,1,40,0,0
114135,-500,4,2,1,40,0,0
114164,-100,4,2,1,40,0,0
114223,-55.5555555555556,4,2,1,40,0,0
114252,-500,4,2,1,40,0,0
114281,-100,4,2,1,40,0,0
114340,-55.5555555555556,4,2,1,40,0,0
114369,-500,4,2,1,40,0,0
114398,-100,4,2,1,40,0,0
114457,-55.5555555555556,4,2,1,40,0,0
114486,-500,4,2,1,40,0,0
114516,-100,4,2,1,40,0,0
114574,-55.5555555555556,4,2,1,40,0,0
114603,-500,4,2,1,40,0,0
114633,-100,4,2,1,40,0,0
114691,-55.5555555555556,4,2,1,40,0,0
114750,-163.934426229508,4,2,1,40,0,0
114867,-100,4,2,1,40,0,0
114926,-55.5555555555556,4,2,1,40,0,0
114984,-500,4,2,1,40,0,0
115043,-100,4,2,1,40,0,0
115160,-55.5555555555556,4,2,1,40,0,0
115219,-163.934426229508,4,2,1,40,0,0
115336,-100,4,2,1,40,0,0
117270,-50,4,2,1,40,0,0
117387,-200,4,2,1,40,0,0
117621,-100,4,2,1,40,0,0
117738,-55.5555555555556,4,2,1,40,0,0
117768,-500,4,2,1,40,0,0
117797,-100,4,2,1,40,0,0
117855,-55.5555555555556,4,2,1,40,0,0
117885,-500,4,2,1,40,0,0
117914,-100,4,2,1,40,0,0
117973,-55.5555555555556,4,2,1,40,0,0
118002,-500,4,2,1,40,0,0
118031,-100,4,2,1,40,0,0
118090,-55.5555555555556,4,2,1,40,0,0
118119,-500,4,2,1,40,0,0
118148,-100,4,2,1,40,0,0
118207,-55.5555555555556,4,2,1,40,0,0
118236,-500,4,2,1,40,0,0
118266,-100,4,2,1,40,0,0
118324,-55.5555555555556,4,2,1,40,0,0
118353,-500,4,2,1,40,0,0
118383,-100,4,2,1,40,0,0
118676,-50,4,2,1,40,0,0
118793,-200,4,2,1,40,0,0
119027,-100,4,2,1,40,0,0
119145,-50,4,2,1,40,0,0
119262,-200,4,2,1,40,0,0
119496,-100,4,2,1,40,0,0
119965,-50,4,2,1,40,0,0
120082,-200,4,2,1,40,0,0
120316,-100,4,2,1,40,0,0
120668,-50,4,2,1,40,0,0
120727,-149.253731343284,4,2,1,40,0,0
120902,-100,4,2,1,40,0,0
121020,-50,4,2,1,40,0,0
121137,-200,4,2,1,40,0,0
121371,-100,4,2,1,40,0,0
136020,-100,4,2,1,30,0,0
166020,-100,4,2,1,40,0,0
201645,-83.3333333333333,4,2,1,40,0,0
201703,-125,4,2,1,40,0,0
201762,-83.3333333333333,4,2,1,40,0,0
201820,-125,4,2,1,40,0,0
201879,-76.9230769230769,4,2,1,40,0,0
201937,-142.857142857143,4,2,1,40,0,0
201996,-76.9230769230769,4,2,1,40,0,0
202055,-142.857142857143,4,2,1,40,0,0
202113,-71.4285714285714,4,2,1,40,0,0
202172,-166.666666666667,4,2,1,40,0,0
202230,-71.4285714285714,4,2,1,40,0,0
202289,-166.666666666667,4,2,1,40,0,0
202348,-66.6666666666667,4,2,1,40,0,0
202406,-200,4,2,1,40,0,0
202465,-66.6666666666667,4,2,1,40,0,0
202523,-200,4,2,1,40,0,0
202582,-62.5,4,2,1,40,0,0
202641,-250,4,2,1,40,0,0
202699,-62.5,4,2,1,40,0,0
202758,-250,4,2,1,40,0,0
202816,-58.8235294117647,4,2,1,40,0,0
202875,-333.333333333333,4,2,1,40,0,0
202934,-58.8235294117647,4,2,1,40,0,0
202992,-333.333333333333,4,2,1,40,0,0
203051,-55.5555555555556,4,2,1,40,0,0
203109,-500,4,2,1,40,0,0
203168,-55.5555555555556,4,2,1,40,0,0
203227,-500,4,2,1,40,0,0
203285,-52.6315789473684,4,2,1,40,0,0
203344,-1000,4,2,1,40,0,0
203402,-52.6315789473684,4,2,1,40,0,0
203461,-1000,4,2,1,40,0,0
203520,-100,4,2,1,40,0,0
211020,-66.6666666666667,4,2,1,40,0,0
211078,-200,4,2,1,40,0,0
211137,-66.6666666666667,4,2,1,40,0,0
211195,-200,4,2,1,40,0,0
211254,-66.6666666666667,4,2,1,40,0,0
211312,-200,4,2,1,40,0,0
211371,-66.6666666666667,4,2,1,40,0,0
211430,-200,4,2,1,40,0,0
211488,-66.6666666666667,4,2,1,40,0,0
211547,-200,4,2,1,40,0,0
211605,-66.6666666666667,4,2,1,40,0,0
211664,-200,4,2,1,40,0,0
211723,-66.6666666666667,4,2,1,40,0,0
211781,-200,4,2,1,40,0,0
211840,-66.6666666666667,4,2,1,40,0,0
211898,-200,4,2,1,40,0,0
211957,-66.6666666666667,4,2,1,40,0,0
212016,-200,4,2,1,40,0,0
212074,-66.6666666666667,4,2,1,40,0,0
212133,-200,4,2,1,40,0,0
212191,-66.6666666666667,4,2,1,40,0,0
212250,-200,4,2,1,40,0,0
212309,-66.6666666666667,4,2,1,40,0,0
212367,-200,4,2,1,40,0,0
212426,-66.6666666666667,4,2,1,40,0,0
212484,-200,4,2,1,40,0,0
212543,-66.6666666666667,4,2,1,40,0,0
212602,-200,4,2,1,40,0,0
212660,-66.6666666666667,4,2,1,40,0,0
212719,-200,4,2,1,40,0,0
212777,-66.6666666666667,4,2,1,40,0,0
212836,-200,4,2,1,40,0,0
212895,-66.6666666666667,4,2,1,40,0,0
212953,-200,4,2,1,40,0,0
213012,-66.6666666666667,4,2,1,40,0,0
213070,-200,4,2,1,40,0,0
213129,-66.6666666666667,4,2,1,40,0,0
213187,-200,4,2,1,40,0,0
213246,-66.6666666666667,4,2,1,40,0,0
213305,-200,4,2,1,40,0,0
213363,-66.6666666666667,4,2,1,40,0,0
213422,-200,4,2,1,40,0,0
213480,-66.6666666666667,4,2,1,40,0,0
213539,-200,4,2,1,40,0,0
213598,-66.6666666666667,4,2,1,40,0,0
213656,-200,4,2,1,40,0,0
213715,-66.6666666666667,4,2,1,40,0,0
213773,-200,4,2,1,40,0,0
213832,-66.6666666666667,4,2,1,40,0,0
213891,-200,4,2,1,40,0,0
213949,-66.6666666666667,4,2,1,40,0,0
214008,-200,4,2,1,40,0,0
214066,-66.6666666666667,4,2,1,40,0,0
214125,-200,4,2,1,40,0,0
214184,-66.6666666666667,4,2,1,40,0,0
214242,-200,4,2,1,40,0,0
214301,-66.6666666666667,4,2,1,40,0,0
214359,-200,4,2,1,40,0,0
214418,-66.6666666666667,4,2,1,40,0,0
214477,-200,4,2,1,40,0,0
214535,-66.6666666666667,4,2,1,40,0,0
214594,-200,4,2,1,40,0,0
214652,-66.6666666666667,4,2,1,40,0,0
214711,-200,4,2,1,40,0,0
214770,-100,4,2,1,40,0,0
215004,-95.2380952380952,4,2,1,40,0,0
215238,-90.9090909090909,4,2,1,40,0,0
215473,-86.9565217391304,4,2,1,40,0,0
215707,-83.3333333333333,4,2,1,40,0,0
215941,-80,4,2,1,40,0,0
216176,-76.9230769230769,4,2,1,40,0,0
216410,-74.0740740740741,4,2,1,40,0,0
216645,-100,4,2,1,40,0,0
217934,-52.6315789473684,4,2,1,40,0,0
217992,-1000,4,2,1,40,0,0
218051,-52.6315789473684,4,2,1,40,0,0
218109,-1000,4,2,1,40,0,0
218168,-52.6315789473684,4,2,1,40,0,0
218227,-1000,4,2,1,40,0,0
218285,-52.6315789473684,4,2,1,40,0,0
218344,-1000,4,2,1,40,0,0
218402,-100,4,2,1,40,0,0
218520,-68.9655172413793,4,2,1,40,0,0
218754,-769.230769230769,4,2,1,40,0,0
218871,-100,4,2,1,40,0,0
218988,-50,4,2,1,40,0,0
219105,-200,4,2,1,40,0,0
219340,-100,4,2,1,40,0,0
219457,-55.5555555555556,4,2,1,40,0,0
219486,-500,4,2,1,40,0,0
219516,-100,4,2,1,40,0,0
219574,-55.5555555555556,4,2,1,40,0,0
219603,-500,4,2,1,40,0,0
219633,-100,4,2,1,40,0,0
219691,-55.5555555555556,4,2,1,40,0,0
219721,-500,4,2,1,40,0,0
219750,-100,4,2,1,40,0,0
219926,-55.5555555555556,4,2,1,40,0,0
219955,-500,4,2,1,40,0,0
219984,-100,4,2,1,40,0,0
220043,-55.5555555555556,4,2,1,40,0,0
220072,-500,4,2,1,40,0,0
220102,-100,4,2,1,40,0,0
220160,-55.5555555555556,4,2,1,40,0,0
220277,-500,4,2,1,40,0,0
220395,-100,4,2,1,40,0,0
220863,-66.6666666666667,4,2,1,40,0,0
220922,-200,4,2,1,40,0,0
220980,-100,4,2,1,40,0,0
221098,-66.6666666666667,4,2,1,40,0,0
221215,-200,4,2,1,40,0,0
221332,-66.6666666666667,4,2,1,40,0,0
221449,-200,4,2,1,40,0,0
221566,-100,4,2,1,40,0,0
222270,-50,4,2,1,40,0,0
222387,-200,4,2,1,40,0,0
222621,-100,4,2,1,40,0,0
222738,-66.6666666666667,4,2,1,40,0,0
222855,-200,4,2,1,40,0,0
222973,-100,4,2,1,40,0,0
223207,-55.5555555555556,4,2,1,40,0,0
223236,-500,4,2,1,40,0,0
223266,-100,4,2,1,40,0,0
223324,-55.5555555555556,4,2,1,40,0,0
223353,-500,4,2,1,40,0,0
223383,-100,4,2,1,40,0,0
223441,-55.5555555555556,4,2,1,40,0,0
223471,-500,4,2,1,40,0,0
223500,-100,4,2,1,40,0,0
223676,-71.4285714285714,4,2,1,40,0,0
223793,-166.666666666667,4,2,1,40,0,0
223910,-71.4285714285714,4,2,1,40,0,0
224027,-166.666666666667,4,2,1,40,0,0
224145,-66.6666666666667,4,2,1,40,0,0
224262,-200,4,2,1,40,0,0
224379,-100,4,2,1,40,0,0
224848,-55.5555555555556,4,2,1,40,0,0
224877,-500,4,2,1,40,0,0
224906,-100,4,2,1,40,0,0
224965,-55.5555555555556,4,2,1,40,0,0
224994,-500,4,2,1,40,0,0
225023,-100,4,2,1,40,0,0
225082,-55.5555555555556,4,2,1,40,0,0
225111,-500,4,2,1,40,0,0
225141,-100,4,2,1,40,0,0
225199,-55.5555555555556,4,2,1,40,0,0
225228,-500,4,2,1,40,0,0
225258,-100,4,2,1,40,0,0
225316,-55.5555555555556,4,2,1,40,0,0
225346,-500,4,2,1,40,0,0
225375,-100,4,2,1,40,0,0
225434,-55.5555555555556,4,2,1,40,0,0
225463,-500,4,2,1,40,0,0
225492,-100,4,2,1,40,0,0
225551,-55.5555555555556,4,2,1,40,0,0
225580,-500,4,2,1,40,0,0
225609,-100,4,2,1,40,0,0
225668,-55.5555555555556,4,2,1,40,0,0
225697,-500,4,2,1,40,0,0
225727,-100,4,2,1,40,0,0
225785,-55.5555555555556,4,2,1,40,0,0
225814,-500,4,2,1,40,0,0
225844,-100,4,2,1,40,0,0
225902,-55.5555555555556,4,2,1,40,0,0
225932,-500,4,2,1,40,0,0
225961,-100,4,2,1,40,0,0
226020,-50,4,2,1,40,0,0
226137,-200,4,2,1,40,0,0
226371,-100,4,2,1,40,0,0
226957,-55.5555555555556,4,2,1,40,0,0
226986,-500,4,2,1,40,0,0
227016,-100,4,2,1,40,0,0
227074,-55.5555555555556,4,2,1,40,0,0
227103,-500,4,2,1,40,0,0
227133,-100,4,2,1,40,0,0
227191,-55.5555555555556,4,2,1,40,0,0
227221,-500,4,2,1,40,0,0
227250,-100,4,2,1,40,0,0
227426,-55.5555555555556,4,2,1,40,0,0
227455,-500,4,2,1,40,0,0
227484,-100,4,2,1,40,0,0
227543,-55.5555555555556,4,2,1,40,0,0
227572,-500,4,2,1,40,0,0
227602,-100,4,2,1,40,0,0
227660,-55.5555555555556,4,2,1,40,0,0
227777,-500,4,2,1,40,0,0
227895,-71.4285714285714,4,2,1,40,0,0
228012,-166.666666666667,4,2,1,40,0,0
228129,-71.4285714285714,4,2,1,40,0,0
228246,-166.666666666667,4,2,1,40,0,0
228363,-66.6666666666667,4,2,1,40,0,0
228480,-200,4,2,1,40,0,0
228598,-66.6666666666667,4,2,1,40,0,0
228715,-200,4,2,1,40,0,0
228832,-66.6666666666667,4,2,1,40,0,0
228949,-200,4,2,1,40,0,0
229066,-100,4,2,1,40,0,0
229770,-50,4,2,1,40,0,0
229887,-200,4,2,1,40,0,0
230121,-100,4,2,1,40,0,0
230238,-66.6666666666667,4,2,1,40,0,0
230355,-200,4,2,1,40,0,0
230473,-100,4,2,1,40,0,0
230707,-55.5555555555556,4,2,1,40,0,0
230736,-500,4,2,1,40,0,0
230766,-100,4,2,1,40,0,0
230824,-55.5555555555556,4,2,1,40,0,0
230853,-500,4,2,1,40,0,0
230883,-100,4,2,1,40,0,0
230941,-55.5555555555556,4,2,1,40,0,0
230971,-500,4,2,1,40,0,0
231000,-100,4,2,1,40,0,0
231176,-71.4285714285714,4,2,1,40,0,0
231293,-166.666666666667,4,2,1,40,0,0
231410,-71.4285714285714,4,2,1,40,0,0
231527,-166.666666666667,4,2,1,40,0,0
231645,-66.6666666666667,4,2,1,40,0,0
231762,-200,4,2,1,40,0,0
231879,-100,4,2,1,40,0,0
232113,-55.5555555555556,4,2,1,40,0,0
232143,-500,4,2,1,40,0,0
232172,-100,4,2,1,40,0,0
232230,-55.5555555555556,4,2,1,40,0,0
232260,-500,4,2,1,40,0,0
232289,-100,4,2,1,40,0,0
232348,-55.5555555555556,4,2,1,40,0,0
232377,-500,4,2,1,40,0,0
232406,-100,4,2,1,40,0,0
232465,-52.6315789473684,4,2,1,40,0,0
232523,-1000,4,2,1,40,0,0
232582,-52.6315789473684,4,2,1,40,0,0
232641,-1000,4,2,1,40,0,0
232699,-52.6315789473684,4,2,1,40,0,0
232758,-1000,4,2,1,40,0,0
232816,-52.6315789473684,4,2,1,40,0,0
232875,-1000,4,2,1,40,0,0
232934,-52.6315789473684,4,2,1,40,0,0
232992,-1000,4,2,1,40,0,0
233051,-52.6315789473684,4,2,1,40,0,0
233109,-1000,4,2,1,40,0,0
233168,-52.6315789473684,4,2,1,40,0,0
233227,-1000,4,2,1,40,0,0
233285,-52.6315789473684,4,2,1,40,0,0
233344,-1000,4,2,1,40,0,0
233402,-52.6315789473684,4,2,1,40,0,0
233461,-1000,4,2,1,40,0,0
233520,-50,4,2,1,40,0,0
233637,-200,4,2,1,40,0,0
233871,-100,4,2,1,40,0,0
233988,-55.5555555555556,4,2,1,40,0,0
234018,-500,4,2,1,40,0,0
234047,-100,4,2,1,40,0,0
234105,-55.5555555555556,4,2,1,40,0,0
234135,-500,4,2,1,40,0,0
234164,-100,4,2,1,40,0,0
234223,-55.5555555555556,4,2,1,40,0,0
234252,-500,4,2,1,40,0,0
234281,-100,4,2,1,40,0,0
234691,-66.6666666666667,4,2,1,40,0,0
234809,-200,4,2,1,40,0,0
234926,-66.6666666666667,4,2,1,40,0,0
235043,-200,4,2,1,40,0,0
235160,-100,4,2,1,40,0,0
235863,-55.5555555555556,4,2,1,40,0,0
235893,-500,4,2,1,40,0,0
235922,-100,4,2,1,40,0,0
235980,-55.5555555555556,4,2,1,40,0,0
236010,-500,4,2,1,40,0,0
236039,-100,4,2,1,40,0,0
236098,-55.5555555555556,4,2,1,40,0,0
236127,-500,4,2,1,40,0,0
236156,-100,4,2,1,40,0,0
236332,-55.5555555555556,4,2,1,40,0,0
236361,-500,4,2,1,40,0,0
236391,-100,4,2,1,40,0,0
236449,-55.5555555555556,4,2,1,40,0,0
236478,-500,4,2,1,40,0,0
236508,-100,4,2,1,40,0,0
237270,-50,4,2,1,40,0,0
237328,-149.253731343284,4,2,1,40,0,0
237504,-100,4,2,1,40,0,0
237738,-55.5555555555556,4,2,1,40,0,0
237768,-500,4,2,1,40,0,0
237797,-100,4,2,1,40,0,0
237855,-55.5555555555556,4,2,1,40,0,0
237885,-500,4,2,1,40,0,0
237914,-100,4,2,1,40,0,0
237973,-55.5555555555556,4,2,1,40,0,0
238002,-500,4,2,1,40,0,0
238031,-100,4,2,1,40,0,0
238676,-50,4,2,1,40,0,0
238793,-200,4,2,1,40,0,0
239027,-100,4,2,1,40,0,0
239145,-50,4,2,1,40,0,0
239262,-200,4,2,1,40,0,0
239496,-100,4,2,1,40,0,0
239965,-50,4,2,1,40,0,0
240082,-200,4,2,1,40,0,0
240316,-100,4,2,1,40,0,0
241137,-52.6315789473684,4,2,1,40,0,0
241166,-1000,4,2,1,40,0,0
241195,-100,4,2,1,40,0,0
241254,-52.6315789473684,4,2,1,40,0,0
241283,-1000,4,2,1,40,0,0
241312,-100,4,2,1,40,0,0
241371,-52.6315789473684,4,2,1,40,0,0
241400,-1000,4,2,1,40,0,0
241430,-100,4,2,1,40,0,0
241488,-50,4,2,1,40,0,0
241605,-200,4,2,1,40,0,0
241840,-100,4,2,1,40,0,0
242191,-66.6666666666667,4,2,1,40,0,0
242309,-200,4,2,1,40,0,0
242426,-100,4,2,1,40,0,0
243363,-55.5555555555556,4,2,1,40,0,0
243393,-500,4,2,1,40,0,0
243422,-100,4,2,1,40,0,0
243480,-55.5555555555556,4,2,1,40,0,0
243510,-500,4,2,1,40,0,0
243539,-100,4,2,1,40,0,0
243598,-55.5555555555556,4,2,1,40,0,0
243627,-500,4,2,1,40,0,0
243656,-100,4,2,1,40,0,0
243832,-55.5555555555556,4,2,1,40,0,0
243861,-500,4,2,1,40,0,0
243891,-100,4,2,1,40,0,0
243949,-55.5555555555556,4,2,1,40,0,0
243978,-500,4,2,1,40,0,0
244008,-100,4,2,1,40,0,0
244770,-58.8235294117647,4,2,1,40,0,0
244828,-333.333333333333,4,2,1,40,0,0
244887,-58.8235294117647,4,2,1,40,0,0
244945,-333.333333333333,4,2,1,40,0,0
245004,-58.8235294117647,4,2,1,40,0,0
245062,-333.333333333333,4,2,1,40,0,0
245121,-58.8235294117647,4,2,1,40,0,0
245180,-333.333333333333,4,2,1,40,0,0
245238,-58.8235294117647,4,2,1,40,0,0
245297,-333.333333333333,4,2,1,40,0,0
245355,-58.8235294117647,4,2,1,40,0,0
245414,-333.333333333333,4,2,1,40,0,0
245473,-58.8235294117647,4,2,1,40,0,0
245531,-333.333333333333,4,2,1,40,0,0
245590,-58.8235294117647,4,2,1,40,0,0
245619,-333.333333333333,4,2,1,40,0,0
245648,-58.8235294117647,4,2,1,40,0,0
245678,-333.333333333333,4,2,1,40,0,0
245707,-58.8235294117647,4,2,1,40,0,0
245766,-333.333333333333,4,2,1,40,0,0
245824,-58.8235294117647,4,2,1,40,0,0
245883,-333.333333333333,4,2,1,40,0,0
245941,-58.8235294117647,4,2,1,40,0,0
246000,-333.333333333333,4,2,1,40,0,0
246059,-58.8235294117647,4,2,1,40,0,0
246117,-333.333333333333,4,2,1,40,0,0
246176,-71.4285714285714,4,2,1,40,0,0
246293,-166.666666666667,4,2,1,40,0,0
246410,-71.4285714285714,4,2,1,40,0,0
246527,-166.666666666667,4,2,1,40,0,0
246645,-50,4,2,1,40,0,0
246762,-200,4,2,1,40,0,0
246996,-100,4,2,1,40,0,0
247113,-58.8235294117647,4,2,1,40,0,0
247172,-333.333333333333,4,2,1,40,0,0
247230,-58.8235294117647,4,2,1,40,0,0
247289,-333.333333333333,4,2,1,40,0,0
247348,-58.8235294117647,4,2,1,40,0,0
247377,-333.333333333333,4,2,1,40,0,0
247406,-58.8235294117647,4,2,1,40,0,0
247436,-333.333333333333,4,2,1,40,0,0
247465,-50,4,2,1,40,0,0
247523,-149.253731343284,4,2,1,40,0,0
247699,-58.8235294117647,4,2,1,40,0,0
247758,-333.333333333333,4,2,1,40,0,0
247816,-58.8235294117647,4,2,1,40,0,0
247875,-333.333333333333,4,2,1,40,0,0
247934,-58.8235294117647,4,2,1,40,0,0
247992,-333.333333333333,4,2,1,40,0,0
248051,-58.8235294117647,4,2,1,40,0,0
248109,-333.333333333333,4,2,1,40,0,0
248168,-58.8235294117647,4,2,1,40,0,0
248227,-333.333333333333,4,2,1,40,0,0
248285,-58.8235294117647,4,2,1,40,0,0
248344,-333.333333333333,4,2,1,40,0,0
248402,-100,4,2,1,40,0,0
248520,-50,4,2,1,40,0,0
248637,-200,4,2,1,40,0,0
248871,-100,4,2,1,40,0,0
263520,-133.333333333333,4,2,1,40,0,0

[HitObjects]
64,192,8520,5,0,0:0:0:0:
192,192,9457,1,0,0:0:0:0:
448,192,10395,1,0,0:0:0:0:
320,192,11332,1,0,0:0:0:0:
192,192,12270,1,0,0:0:0:0:
448,192,13207,1,0,0:0:0:0:
64,192,14145,1,0,0:0:0:0:
320,192,15082,1,0,0:0:0:0:
64,192,16020,128,0,16488:0:0:0:0:
192,192,16254,1,0,0:0:0:0:
448,192,16488,128,0,16957:0:0:0:0:
64,192,16723,1,0,0:0:0:0:
192,192,16957,128,0,17426:0:0:0:0:
448,192,17191,1,0,0:0:0:0:
448,192,17426,128,0,17895:0:0:0:0:
192,192,17660,1,0,0:0:0:0:
64,192,17895,128,0,18363:0:0:0:0:
448,192,18129,1,0,0:0:0:0:
320,192,18363,128,0,18832:0:0:0:0:
64,192,18598,1,0,0:0:0:0:
192,192,18832,128,0,19301:0:0:0:0:
320,192,19066,1,0,0:0:0:0:
448,192,19301,128,0,19770:0:0:0:0:
192,192,19535,1,0,0:0:0:0:
64,192,19770,128,0,20238:0:0:0:0:
448,192,20004,1,0,0:0:0:0:
192,192,20238,128,0,20707:0:0:0:0:
64,192,20473,1,0,0:0:0:0:
448,192,20707,128,0,21176:0:0:0:0:
192,192,20941,1,0,0:0:0:0:
320,192,21176,128,0,21645:0:0:0:0:
448,192,21410,1,0,0:0:0:0:
64,192,21645,128,0,22113:0:0:0:0:
320,192,21879,1,0,0:0:0:0:
192,192,22113,128,0,22582:0:0:0:0:
64,192,22348,1,0,0:0:0:0:
448,192,22582,128,0,23051:0:0:0:0:
192,192,22816,1,0,0:0:0:0:
320,192,23051,128,0,23520:0:0:0:0:
448,192,23285,1,0,0:0:0:0:
64,192,23520,128,0,25395:0:0:0:0:
192,192,23520,128,0,23988:0:0:0:0:
320,192,23988,128,0,24457:0:0:0:0:
448,192,24457,128,0,26332:0:0:0:0:
192,192,24457,128,0,24926:0:0:0:0:
320,192,24926,128,0,25395:0:0:0:0:
192,192,25395,128,0,25863:0:0:0:0:
64,192,25863,128,0,26332:0:0:0:0:
192,192,26332,128,0,27973:0:0:0:0:
320,192,26332,128,0,26801:0:0:0:0:
448,192,26801,128,0,27270:0:0:0:0:
64,192,27270,128,0,27738:0:0:0:0:
448,192,27738,128,0,28207:0:0:0:0:
192,192,28207,128,0,29848:0:0:0:0:
320,192,28207,128,0,28676:0:0:0:0:
64,192,28676,128,0,29145:0:0:0:0:
448,192,29145,128,0,29613:0:0:0:0:
64,192,29613,128,0,30082:0:0:0:0:
192,192,30082,128,0,31020:0:0:0:0:
448,192,30082,128,0,30551:0:0:0:0:
64,192,30551,128,0,31020:0:0:0:0:
448,192,31020,128,0,31957:0:0:0:0:
320,192,31020,128,0,31488:0:0:0:0:
64,192,31137,1,0,0:0:0:0:
192,192,31195,1,0,0:0:0:0:
192,192,31488,128,0,31957:0:0:0:0:
64,192,31957,128,0,33832:0:0:0:0:
320,192,31957,128,0,32426:0:0:0:0:
448,192,32426,128,0,32895:0:0:0:0:
192,192,32895,128,0,33363:0:0:0:0:
320,192,33363,128,0,33832:0:0:0:0:
448,192,33832,128,0,35473:0:0:0:0:
192,192,33832,128,0,34301:0:0:0:0:
320,192,34301,128,0,34770:0:0:0:0:
64,192,34770,128,0,35238:0:0:0:0:
192,192,35238,128,0,35707:0:0:0:0:
448,192,35707,128,0,37348:0:0:0:0:
64,192,35707,128,0,36176:0:0:0:0:
320,192,36176,128,0,36645:0:0:0:0:
192,192,36645,128,0,37113:0:0:0:0:
320,192,37113,128,0,37582:0:0:0:0:
448,192,37582,128,0,38520:0:0:0:0:
64,192,37582,128,0,38051:0:0:0:0:
192,192,38051,128,0,38520:0:0:0:0:
64,192,38520,128,0,38754:0:0:0:0:
320,192,38520,128,0,38754:0:0:0:0:
192,192,38754,1,0,0:0:0:0:
448,192,38871,1,0,0:0:0:0:
320,192,38988,1,0,0:0:0:0:
64,192,38988,1,0,0:0:0:0:
448,192,39223,1,0,0:0:0:0:
192,192,39457,1,0,0:0:0:0:
64,192,39691,1,0,0:0:0:0:
320,192,39691,1,0,0:0:0:0:
448,192,39926,1,0,0:0:0:0:
192,192,39926,1,0,0:0:0:0:
64,192,40160,1,0,0:0:0:0:
320,192,40395,1,0,0:0:0:0:
448,192,40395,1,0,0:0:0:0:
192,192,40629,1,0,0:0:0:0:
320,192,40746,1,0,0:0:0:0:
64,192,40863,1,0,0:0:0:0:
448,192,40863,1,0,0:0:0:0:
192,192,41098,1,0,0:0:0:0:
64,192,41332,1,0,0:0:0:0:
320,192,41566,1,0,0:0:0:0:
448,192,41566,1,0,0:0:0:0:
64,192,41801,1,0,0:0:0:0:
192,192,41801,1,0,0:0:0:0:
320,192,42035,1,0,0:0:0:0:
448,192,42270,1,0,0:0:0:0:
192,192,42270,1,0,0:0:0:0:
64,192,42504,1,0,0:0:0:0:
192,192,42621,1,0,0:0:0:0:
320,192,42738,1,0,0:0:0:0:
448,192,42738,1,0,0:0:0:0:
192,192,42973,1,0,0:0:0:0:
64,192,43207,1,0,0:0:0:0:
320,192,43441,1,0,0:0:0:0:
448,192,43441,1,0,0:0:0:0:
64,192,43676,1,0,0:0:0:0:
192,192,43676,1,0,0:0:0:0:
448,192,43910,1,0,0:0:0:0:
320,192,44145,1,0,0:0:0:0:
192,192,44145,1,0,0:0:0:0:
448,192,44379,1,0,0:0:0:0:
320,192,44496,1,0,0:0:0:0:
192,192,44613,1,0,0:0:0:0:
64,192,44613,1,0,0:0:0:0:
448,192,44848,1,0,0:0:0:0:
64,192,45082,1,0,0:0:0:0:
192,192,45316,1,0,0:0:0:0:
320,192,45316,1,0,0:0:0:0:
448,192,45551,1,0,0:0:0:0:
64,192,45551,1,0,0:0:0:0:
320,192,45785,1,0,0:0:0:0:
64,192,46020,128,0,46254:0:0:0:0:
448,192,46020,128,0,46254:0:0:0:0:
192,192,46254,1,0,0:0:0:0:
320,192,46371,1,0,0:0:0:0:
448,192,46488,1,0,0:0:0:0:
64,192,46488,1,0,0:0:0:0:
192,192,46723,1,0,0:0:0:0:
448,192,46957,1,0,0:0:0:0:
320,192,47191,1,0,0:0:0:0:
64,192,47191,1,0,0:0:0:0:
192,192,47426,1,0,0:0:0:0:
448,192,47426,1,0,0:0:0:0:
64,192,47660,1,0,0:0:0:0:
448,192,47895,1,0,0:0:0:0:
320,192,47895,1,0,0:0:0:0:
64,192,48129,1,0,0:0:0:0:
320,192,48246,1,0,0:0:0:0:
448,192,48363,1,0,0:0:0:0:
192,192,48363,1,0,0:0:0:0:
64,192,48598,1,0,0:0:0:0:
448,192,48832,1,0,0:0:0:0:
64,192,49066,1,0,0:0:0:0:
192,192,49066,1,0,0:0:0:0:
320,192,49301,1,0,0:0:0:0:
448,192,49301,1,0,0:0:0:0:
64,192,49535,1,0,0:0:0:0:
192,192,49770,1,0,0:0:0:0:
448,192,49770,1,0,0:0:0:0:
320,192,50004,1,0,0:0:0:0:
192,192,50121,1,0,0:0:0:0:
64,192,50238,1,0,0:0:0:0:
448,192,50238,1,0,0:0:0:0:
320,192,50473,1,0,0:0:0:0:
64,192,50707,1,0,0:0:0:0:
320,192,50941,1,0,0:0:0:0:
448,192,50941,1,0,0:0:0:0:
192,192,51176,1,0,0:0:0:0:
64,192,51176,1,0,0:0:0:0:
448,192,51410,1,0,0:0:0:0:
64,192,51645,1,0,0:0:0:0:
192,192,51645,1,0,0:0:0:0:
64,192,51879,1,0,0:0:0:0:
192,192,51879,1,0,0:0:0:0:
448,192,52113,1,0,0:0:0:0:
320,192,52113,1,0,0:0:0:0:
64,192,52348,1,0,0:0:0:0:
192,192,52406,1,0,0:0:0:0:
448,192,52465,1,0,0:0:0:0:
320,192,52523,1,0,0:0:0:0:
192,192,52582,1,0,0:0:0:0:
64,192,52582,128,0,52699:0:0:0:0:
448,192,52699,1,0,0:0:0:0:
64,192,52816,1,0,0:0:0:0:
448,192,52934,1,0,0:0:0:0:
320,192,52934,128,0,53051:0:0:0:0:
192,192,53051,128,0,53168:0:0:0:0:
64,192,53168,128,0,53285:0:0:0:0:
448,192,53285,128,0,53520:0:0:0:0:
320,192,53520,1,0,0:0:0:0:
64,192,53520,128,0,58207:0:0:0:0:
192,192,54691,128,0,54926:0:0:0:0:
448,192,54926,128,0,55160:0:0:0:0:
320,192,55160,128,0,56332:0:0:0:0:
192,192,56566,128,0,56801:0:0:0:0:
448,192,56801,128,0,57035:0:0:0:0:
192,192,57035,128,0,57738:0:0:0:0:
448,192,57738,1,0,0:0:0:0:
320,192,57738,128,0,57973:0:0:0:0:
192,192,57973,1,0,0:0:0:0:
448,192,57973,128,0,58676:0:0:0:0:
320,192,58207,1,0,0:0:0:0:
192,192,58676,128,0,58910:0:0:0:0:
64,192,58676,1,0,0:0:0:0:
448,192,58910,1,0,0:0:0:0:
320,192,58910,128,0,59848:0:0:0:0:
64,192,59145,1,0,0:0:0:0:
448,192,59848,1,0,0:0:0:0:
64,192,60082,1,0,0:0:0:0:
320,192,60316,128,0,60551:0:0:0:0:
192,192,60551,128,0,60785:0:0:0:0:
448,192,60785,128,0,61723:0:0:0:0:
192,192,61723,1,0,0:0:0:0:
448,192,61957,1,0,0:0:0:0:
64,192,62191,128,0,62426:0:0:0:0:
320,192,62426,128,0,62660:0:0:0:0:
192,192,62660,128,0,63598:0:0:0:0:
448,192,63598,1,0,0:0:0:0:
64,192,63832,1,0,0:0:0:0:
192,192,64066,128,0,64301:0:0:0:0:
448,192,64301,128,0,64535:0:0:0:0:
320,192,64535,128,0,65004:0:0:0:0:
64,192,65004,128,0,65473:0:0:0:0:
320,192,65473,128,0,66332:0:0:0:0:
64,192,66332,128,0,66488:0:0:0:0:
192,192,66488,128,0,66645:0:0:0:0:
320,192,66645,128,0,66957:0:0:0:0:
448,192,66957,128,0,67270:0:0:0:0:
192,192,67270,128,0,67582:0:0:0:0:
64,192,67582,128,0,67895:0:0:0:0:
320,192,67895,128,0,68207:0:0:0:0:
192,192,68207,128,0,68520:0:0:0:0:
448,192,68520,128,0,68988:0:0:0:0:
64,192,68520,128,0,68988:0:0:0:0:
320,192,68520,128,0,68988:0:0:0:0:
192,192,68988,1,0,0:0:0:0:
448,192,69223,1,0,0:0:0:0:
320,192,69340,1,0,0:0:0:0:
64,192,69457,1,0,0:0:0:0:
192,192,69574,1,0,0:0:0:0:
448,192,69691,1,0,0:0:0:0:
64,192,69809,1,0,0:0:0:0:
320,192,69926,1,0,0:0:0:0:
192,192,69926,1,0,0:0:0:0:
448,192,70160,1,0,0:0:0:0:
320,192,70277,1,0,0:0:0:0:
64,192,70395,1,0,0:0:0:0:
192,192,70512,1,0,0:0:0:0:
448,192,70629,1,0,0:0:0:0:
320,192,70746,1,0,0:0:0:0:
64,192,70863,1,0,0:0:0:0:
192,192,70980,1,0,0:0:0:0:
448,192,71098,1,0,0:0:0:0:
64,192,71215,1,0,0:0:0:0:
320,192,71332,1,0,0:0:0:0:
192,192,71449,1,0,0:0:0:0:
448,192,71566,1,0,0:0:0:0:
64,192,71684,1,0,0:0:0:0:
320,192,71801,1,0,0:0:0:0:
192,192,71801,1,0,0:0:0:0:
448,192,71918,1,0,0:0:0:0:
320,192,72035,1,0,0:0:0:0:
192,192,72152,1,0,0:0:0:0:
448,192,72270,128,0,72738:0:0:0:0:
64,192,72270,128,0,72738:0:0:0:0:
320,192,72270,128,0,72738:0:0:0:0:
192,192,72738,1,0,0:0:0:0:
448,192,72855,1,0,0:0:0:0:
64,192,72973,1,0,0:0:0:0:
320,192,73090,1,0,0:0:0:0:
192,192,73207,1,0,0:0:0:0:
448,192,73324,1,0,0:0:0:0:
64,192,73441,1,0,0:0:0:0:
320,192,73559,1,0,0:0:0:0:
192,192,73676,1,0,0:0:0:0:
64,192,73676,1,0,0:0:0:0:
448,192,73793,1,0,0:0:0:0:
320,192,73910,1,0,0:0:0:0:
64,192,74027,1,0,0:0:0:0:
192,192,74145,128,0,74613:0:0:0:0:
320,192,74145,128,0,74613:0:0:0:0:
448,192,74145,128,0,74613:0:0:0:0:
64,192,74613,1,0,0:0:0:0:
448,192,74730,1,0,0:0:0:0:
192,192,74848,1,0,0:0:0:0:
320,192,74965,128,0,75434:0:0:0:0:
448,192,74965,128,0,75434:0:0:0:0:
64,192,74965,128,0,75434:0:0:0:0:
192,192,75551,1,0,0:0:0:0:
320,192,75668,128,0,75902:0:0:0:0:
64,192,75668,128,0,75902:0:0:0:0:
448,192,75668,128,0,75902:0:0:0:0:
192,192,76020,1,0,0:0:0:0:
64,192,76020,1,0,0:0:0:0:
192,192,76137,1,0,0:0:0:0:
320,192,76254,1,0,0:0:0:0:
448,192,76254,1,0,0:0:0:0:
448,192,76371,1,0,0:0:0:0:
64,192,76488,1,0,0:0:0:0:
320,192,76488,1,0,0:0:0:0:
64,192,76605,1,0,0:0:0:0:
192,192,76723,1,0,0:0:0:0:
448,192,76723,1,0,0:0:0:0:
448,192,76840,1,0,0:0:0:0:
64,192,76957,1,0,0:0:0:0:
192,192,76957,1,0,0:0:0:0:
64,192,77074,1,0,0:0:0:0:
448,192,77191,1,0,0:0:0:0:
320,192,77191,1,0,0:0:0:0:
448,192,77309,1,0,0:0:0:0:
64,192,77426,1,0,0:0:0:0:
320,192,77426,1,0,0:0:0:0:
64,192,77543,1,0,0:0:0:0:
448,192,77660,1,0,0:0:0:0:
320,192,77660,1,0,0:0:0:0:
320,192,77777,1,0,0:0:0:0:
64,192,77895,1,0,0:0:0:0:
448,192,77895,1,0,0:0:0:0:
64,192,78012,1,0,0:0:0:0:
192,192,78129,1,0,0:0:0:0:
320,192,78129,1,0,0:0:0:0:
320,192,78246,1,0,0:0:0:0:
448,192,78363,1,0,0:0:0:0:
192,192,78363,1,0,0:0:0:0:
192,192,78480,1,0,0:0:0:0:
64,192,78598,1,0,0:0:0:0:
448,192,78598,1,0,0:0:0:0:
64,192,78715,1,0,0:0:0:0:
320,192,78832,1,0,0:0:0:0:
192,192,78832,1,0,0:0:0:0:
320,192,78949,1,0,0:0:0:0:
448,192,79066,1,0,0:0:0:0:
64,192,79066,1,0,0:0:0:0:
448,192,79184,1,0,0:0:0:0:
192,192,79301,1,0,0:0:0:0:
64,192,79301,1,0,0:0:0:0:
192,192,79418,1,0,0:0:0:0:
320,192,79535,1,0,0:0:0:0:
448,192,79535,1,0,0:0:0:0:
320,192,79652,1,0,0:0:0:0:
64,192,79770,1,0,0:0:0:0:
192,192,79770,1,0,0:0:0:0:
448,192,79887,1,0,0:0:0:0:
64,192,79887,1,0,0:0:0:0:
192,192,80004,1,0,0:0:0:0:
448,192,80004,1,0,0:0:0:0:
320,192,80121,1,0,0:0:0:0:
192,192,80121,1,0,0:0:0:0:
64,192,80238,1,0,0:0:0:0:
320,192,80238,1,0,0:0:0:0:
448,192,80355,1,0,0:0:0:0:
64,192,80355,1,0,0:0:0:0:
448,192,80473,1,0,0:0:0:0:
192,192,80473,1,0,0:0:0:0:
320,192,80590,1,0,0:0:0:0:
192,192,80590,1,0,0:0:0:0:
64,192,80707,1,0,0:0:0:0:
320,192,80707,1,0,0:0:0:0:
448,192,80824,1,0,0:0:0:0:
64,192,80824,1,0,0:0:0:0:
192,192,80941,1,0,0:0:0:0:
448,192,80941,1,0,0:0:0:0:
320,192,81059,1,0,0:0:0:0:
192,192,81059,1,0,0:0:0:0:
64,192,81176,1,0,0:0:0:0:
320,192,81176,1,0,0:0:0:0:
448,192,81293,1,0,0:0:0:0:
64,192,81293,1,0,0:0:0:0:
448,192,81410,1,0,0:0:0:0:
320,192,81410,1,0,0:0:0:0:
64,192,81469,1,0,0:0:0:0:
192,192,81469,1,0,0:0:0:0:
320,192,81527,1,0,0:0:0:0:
448,192,81527,1,0,0:0:0:0:
64,192,81586,1,0,0:0:0:0:
192,192,81586,1,0,0:0:0:0:
320,192,81645,1,0,0:0:0:0:
448,192,81645,128,0,83051:0:0:0:0:
64,192,81996,1,0,0:0:0:0:
192,192,82113,1,0,0:0:0:0:
320,192,82348,1,0,0:0:0:0:
192,192,82465,1,0,0:0:0:0:
64,192,82582,1,0,0:0:0:0:
320,192,82699,1,0,0:0:0:0:
192,192,82816,1,0,0:0:0:0:
320,192,82934,1,0,0:0:0:0:
64,192,83051,1,0,0:0:0:0:
192,192,83051,1,0,0:0:0:0:
64,192,83168,1,0,0:0:0:0:
192,192,83168,1,0,0:0:0:0:
448,192,83285,128,0,83520:0:0:0:0:
320,192,83285,1,0,0:0:0:0:
64,192,83520,128,0,83871:0:0:0:0:
192,192,83520,128,0,83871:0:0:0:0:
320,192,83520,1,0,0:0:0:0:
448,192,83988,128,0,84047:0:0:0:0:
320,192,83988,1,0,0:0:0:0:
64,192,83988,1,0,0:0:0:0:
448,192,84105,128,0,84164:0:0:0:0:
448,192,84223,128,0,84281:0:0:0:0:
192,192,84340,1,0,0:0:0:0:
64,192,84340,128,0,84516:0:0:0:0:
320,192,84516,1,0,0:0:0:0:
192,192,84574,1,0,0:0:0:0:
64,192,84633,1,0,0:0:0:0:
320,192,84691,1,0,0:0:0:0:
448,192,84691,128,0,84926:0:0:0:0:
192,192,84926,1,0,0:0:0:0:
320,192,84926,1,0,0:0:0:0:
64,192,84926,1,0,0:0:0:0:
448,192,85043,1,0,0:0:0:0:
64,192,85160,1,0,0:0:0:0:
192,192,85160,128,0,85395:0:0:0:0:
64,192,85395,1,0,0:0:0:0:
448,192,85395,128,0,85512:0:0:0:0:
320,192,85512,1,0,0:0:0:0:
192,192,85570,1,0,0:0:0:0:
64,192,85629,1,0,0:0:0:0:
448,192,85687,1,0,0:0:0:0:
320,192,85746,1,0,0:0:0:0:
64,192,85805,1,0,0:0:0:0:
192,192,85863,1,0,0:0:0:0:
320,192,85863,1,0,0:0:0:0:
448,192,85863,1,0,0:0:0:0:
192,192,85980,1,0,0:0:0:0:
192,192,86098,1,0,0:0:0:0:
320,192,86215,1,0,0:0:0:0:
64,192,86215,1,0,0:0:0:0:
448,192,86215,1,0,0:0:0:0:
320,192,86332,1,0,0:0:0:0:
320,192,86449,1,0,0:0:0:0:
192,192,86566,1,0,0:0:0:0:
64,192,86566,128,0,86918:0:0:0:0:
448,192,86566,1,0,0:0:0:0:
320,192,86801,1,0,0:0:0:0:
448,192,86801,1,0,0:0:0:0:
192,192,86801,1,0,0:0:0:0:
448,192,86918,128,0,87270:0:0:0:0:
192,192,86918,1,0,0:0:0:0:
320,192,87035,1,0,0:0:0:0:
192,192,87270,128,0,87621:0:0:0:0:
64,192,87270,128,0,87621:0:0:0:0:
320,192,87270,1,0,0:0:0:0:
64,192,87738,1,0,0:0:0:0:
448,192,87738,128,0,87797:0:0:0:0:
320,192,87738,1,0,0:0:0:0:
448,192,87855,128,0,87914:0:0:0:0:
448,192,87973,128,0,88031:0:0:0:0:
192,192,88090,128,0,88324:0:0:0:0:
64,192,88090,128,0,88324:0:0:0:0:
320,192,88090,1,0,0:0:0:0:
448,192,88324,1,0,0:0:0:0:
320,192,88383,1,0,0:0:0:0:
64,192,88441,128,0,88500:0:0:0:0:
448,192,88500,128,0,88559:0:0:0:0:
320,192,88559,128,0,88617:0:0:0:0:
192,192,88676,1,0,0:0:0:0:
448,192,88676,1,0,0:0:0:0:
64,192,88676,128,0,89027:0:0:0:0:
320,192,88793,1,0,0:0:0:0:
448,192,88910,1,0,0:0:0:0:
320,192,89027,1,0,0:0:0:0:
448,192,89145,128,0,89496:0:0:0:0:
192,192,89145,128,0,89496:0:0:0:0:
64,192,89145,1,0,0:0:0:0:
320,192,89613,1,0,0:0:0:0:
448,192,89613,1,0,0:0:0:0:
64,192,89613,1,0,0:0:0:0:
192,192,89730,1,0,0:0:0:0:
448,192,89848,128,0,89906:0:0:0:0:
64,192,89965,128,0,90316:0:0:0:0:
192,192,89965,128,0,90316:0:0:0:0:
320,192,89965,1,0,0:0:0:0:
320,192,90316,1,0,0:0:0:0:
448,192,90316,1,0,0:0:0:0:
448,192,90434,1,0,0:0:0:0:
64,192,90551,1,0,0:0:0:0:
192,192,90551,1,0,0:0:0:0:
320,192,90551,1,0,0:0:0:0:
64,192,90668,1,0,0:0:0:0:
448,192,90668,128,0,90902:0:0:0:0:
64,192,91020,128,0,91371:0:0:0:0:
320,192,91020,128,0,91371:0:0:0:0:
448,192,91020,1,0,0:0:0:0:
320,192,91488,1,0,0:0:0:0:
448,192,91488,1,0,0:0:0:0:
192,192,91488,128,0,91547:0:0:0:0:
192,192,91605,128,0,91664:0:0:0:0:
192,192,91723,128,0,91781:0:0:0:0:
448,192,91840,128,0,92074:0:0:0:0:
64,192,91840,128,0,92074:0:0:0:0:
320,192,91840,1,0,0:0:0:0:
192,192,92074,1,0,0:0:0:0:
320,192,92133,1,0,0:0:0:0:
64,192,92191,128,0,92426:0:0:0:0:
448,192,92191,1,0,0:0:0:0:
192,192,92426,1,0,0:0:0:0:
320,192,92426,1,0,0:0:0:0:
448,192,92426,1,0,0:0:0:0:
320,192,92543,1,0,0:0:0:0:
448,192,92660,128,0,92895:0:0:0:0:
64,192,92660,1,0,0:0:0:0:
192,192,92777,1,0,0:0:0:0:
320,192,92895,1,0,0:0:0:0:
64,192,92895,128,0,93012:0:0:0:0:
192,192,93012,1,0,0:0:0:0:
320,192,93070,1,0,0:0:0:0:
448,192,93129,1,0,0:0:0:0:
64,192,93187,1,0,0:0:0:0:
192,192,93246,1,0,0:0:0:0:
320,192,93305,1,0,0:0:0:0:
64,192,93363,1,0,0:0:0:0:
448,192,93363,1,0,0:0:0:0:
192,192,93363,1,0,0:0:0:0:
448,192,93480,1,0,0:0:0:0:
448,192,93598,1,0,0:0:0:0:
64,192,93715,1,0,0:0:0:0:
320,192,93715,1,0,0:0:0:0:
192,192,93715,1,0,0:0:0:0:
64,192,93832,1,0,0:0:0:0:
64,192,93949,1,0,0:0:0:0:
320,192,94066,1,0,0:0:0:0:
192,192,94066,128,0,94418:0:0:0:0:
448,192,94066,1,0,0:0:0:0:
64,192,94301,1,0,0:0:0:0:
320,192,94301,1,0,0:0:0:0:
448,192,94301,1,0,0:0:0:0:
448,192,94418,128,0,94770:0:0:0:0:
64,192,94418,1,0,0:0:0:0:
320,192,94770,128,0,95121:0:0:0:0:
64,192,94770,128,0,95121:0:0:0:0:
192,192,94770,1,0,0:0:0:0:
192,192,95238,1,0,0:0:0:0:
320,192,95238,1,0,0:0:0:0:
448,192,95238,128,0,95297:0:0:0:0:
448,192,95355,128,0,95414:0:0:0:0:
448,192,95473,128,0,95531:0:0:0:0:
64,192,95590,128,0,95824:0:0:0:0:
192,192,95590,128,0,95824:0:0:0:0:
320,192,95590,1,0,0:0:0:0:
448,192,95824,1,0,0:0:0:0:
320,192,95883,1,0,0:0:0:0:
64,192,95941,128,0,96000:0:0:0:0:
448,192,96000,128,0,96059:0:0:0:0:
192,192,96059,128,0,96117:0:0:0:0:
64,192,96176,1,0,0:0:0:0:
448,192,96176,128,0,96527:0:0:0:0:
320,192,96176,1,0,0:0:0:0:
320,192,96645,128,0,96996:0:0:0:0:
192,192,96645,128,0,96996:0:0:0:0:
64,192,96645,1,0,0:0:0:0:
64,192,97113,1,0,0:0:0:0:
320,192,97113,1,0,0:0:0:0:
448,192,97113,1,0,0:0:0:0:
192,192,97230,1,0,0:0:0:0:
448,192,97348,1,0,0:0:0:0:
64,192,97465,128,0,97816:0:0:0:0:
320,192,97465,128,0,97816:0:0:0:0:
192,192,97465,1,0,0:0:0:0:
448,192,97816,128,0,98168:0:0:0:0:
64,192,98051,1,0,0:0:0:0:
192,192,98051,1,0,0:0:0:0:
320,192,98051,1,0,0:0:0:0:
320,192,98168,128,0,98402:0:0:0:0:
64,192,98168,1,0,0:0:0:0:
192,192,98520,128,0,98871:0:0:0:0:
64,192,98520,128,0,98871:0:0:0:0:
448,192,98520,1,0,0:0:0:0:
320,192,98988,1,0,0:0:0:0:
448,192,98988,1,0,0:0:0:0:
64,192,99105,1,0,0:0:0:0:
448,192,99223,1,0,0:0:0:0:
192,192,99340,1,0,0:0:0:0:
320,192,99457,1,0,0:0:0:0:
64,192,99574,1,0,0:0:0:0:
448,192,99691,1,0,0:0:0:0:
192,192,99809,1,0,0:0:0:0:
64,192,99926,1,0,0:0:0:0:
448,192,99926,1,0,0:0:0:0:
320,192,100043,1,0,0:0:0:0:
192,192,100160,1,0,0:0:0:0:
448,192,100277,1,0,0:0:0:0:
64,192,100395,128,0,100746:0:0:0:0:
320,192,100395,128,0,100746:0:0:0:0:
192,192,100395,128,0,100746:0:0:0:0:
192,192,100863,1,0,0:0:0:0:
320,192,100863,1,0,0:0:0:0:
448,192,100980,1,0,0:0:0:0:
64,192,101098,1,0,0:0:0:0:
320,192,101215,1,0,0:0:0:0:
448,192,101332,1,0,0:0:0:0:
192,192,101449,1,0,0:0:0:0:
320,192,101566,1,0,0:0:0:0:
64,192,101684,1,0,0:0:0:0:
192,192,101742,1,0,0:0:0:0:
448,192,101801,128,0,102270:0:0:0:0:
320,192,101801,1,0,0:0:0:0:
192,192,102270,128,0,102621:0:0:0:0:
320,192,102270,128,0,102621:0:0:0:0:
64,192,102270,1,0,0:0:0:0:
64,192,102738,1,0,0:0:0:0:
320,192,102738,1,0,0:0:0:0:
448,192,102738,1,0,0:0:0:0:
448,192,102855,1,0,0:0:0:0:
448,192,102973,1,0,0:0:0:0:
64,192,103090,1,0,0:0:0:0:
320,192,103090,1,0,0:0:0:0:
192,192,103090,1,0,0:0:0:0:
64,192,103207,1,0,0:0:0:0:
64,192,103324,1,0,0:0:0:0:
448,192,103441,128,0,103500:0:0:0:0:
192,192,103500,128,0,103559:0:0:0:0:
320,192,103559,128,0,103617:0:0:0:0:
64,192,103676,128,0,104027:0:0:0:0:
448,192,103676,1,0,0:0:0:0:
192,192,103676,1,0,0:0:0:0:
64,192,104145,1,0,0:0:0:0:
192,192,104145,128,0,104496:0:0:0:0:
448,192,104145,128,0,104496:0:0:0:0:
64,192,104613,1,0,0:0:0:0:
192,192,104613,1,0,0:0:0:0:
448,192,104730,1,0,0:0:0:0:
320,192,104848,1,0,0:0:0:0:
192,192,104965,1,0,0:0:0:0:
448,192,104965,128,0,105316:0:0:0:0:
64,192,104965,128,0,105316:0:0:0:0:
192,192,105316,1,0,0:0:0:0:
320,192,105316,128,0,105668:0:0:0:0:
64,192,105551,1,0,0:0:0:0:
448,192,105551,1,0,0:0:0:0:
192,192,105668,128,0,106020:0:0:0:0:
448,192,106020,128,0,106371:0:0:0:0:
320,192,106137,1,0,0:0:0:0:
192,192,106137,1,0,0:0:0:0:
64,192,106137,1,0,0:0:0:0:
192,192,106371,1,0,0:0:0:0:
320,192,106430,1,0,0:0:0:0:
448,192,106488,1,0,0:0:0:0:
192,192,106488,128,0,106840:0:0:0:0:
64,192,106488,128,0,106840:0:0:0:0:
448,192,106840,1,0,0:0:0:0:
320,192,106840,1,0,0:0:0:0:
192,192,106957,1,0,0:0:0:0:
320,192,107016,1,0,0:0:0:0:
448,192,107074,1,0,0:0:0:0:
64,192,107191,1,0,0:0:0:0:
448,192,107309,1,0,0:0:0:0:
320,192,107367,1,0,0:0:0:0:
192,192,107426,1,0,0:0:0:0:
64,192,107426,1,0,0:0:0:0:
448,192,107426,1,0,0:0:0:0:
320,192,107543,1,0,0:0:0:0:
64,192,107660,1,0,0:0:0:0:
192,192,107719,1,0,0:0:0:0:
320,192,107777,1,0,0:0:0:0:
64,192,107895,1,0,0:0:0:0:
192,192,107895,128,0,108363:0:0:0:0:
448,192,107895,1,0,0:0:0:0:
64,192,108363,1,0,0:0:0:0:
320,192,108363,1,0,0:0:0:0:
448,192,108422,1,0,0:0:0:0:
320,192,108480,1,0,0:0:0:0:
64,192,108598,1,0,0:0:0:0:
448,192,108715,1,0,0:0:0:0:
320,192,108715,1,0,0:0:0:0:
64,192,108773,1,0,0:0:0:0:
192,192,108832,1,0,0:0:0:0:
448,192,108949,1,0,0:0:0:0:
64,192,109066,1,0,0:0:0:0:
192,192,109066,1,0,0:0:0:0:
448,192,109184,1,0,0:0:0:0:
64,192,109301,1,0,0:0:0:0:
320,192,109301,1,0,0:0:0:0:
192,192,109301,1,0,0:0:0:0:
448,192,109418,1,0,0:0:0:0:
320,192,109418,128,0,109652:0:0:0:0:
64,192,109418,1,0,0:0:0:0:
192,192,109770,1,0,0:0:0:0:
64,192,109770,128,0,110121:0:0:0:0:
448,192,109770,128,0,110121:0:0:0:0:
192,192,110238,1,0,0:0:0:0:
320,192,110238,1,0,0:0:0:0:
64,192,110238,1,0,0:0:0:0:
192,192,110355,1,0,0:0:0:0:
192,192,110473,1,0,0:0:0:0:
320,192,110590,1,0,0:0:0:0:
448,192,110590,1,0,0:0:0:0:
64,192,110648,1,0,0:0:0:0:
192,192,110648,1,0,0:0:0:0:
448,192,110707,1,0,0:0:0:0:
320,192,110766,1,0,0:0:0:0:
64,192,110824,1,0,0:0:0:0:
192,192,110883,1,0,0:0:0:0:
448,192,110941,1,0,0:0:0:0:
320,192,111000,1,0,0:0:0:0:
64,192,111059,1,0,0:0:0:0:
192,192,111117,1,0,0:0:0:0:
448,192,111176,1,0,0:0:0:0:
320,192,111234,1,0,0:0:0:0:
64,192,111293,1,0,0:0:0:0:
192,192,111352,1,0,0:0:0:0:
448,192,111410,1,0,0:0:0:0:
320,192,111469,1,0,0:0:0:0:
64,192,111527,1,0,0:0:0:0:
192,192,111586,1,0,0:0:0:0:
64,192,111645,1,0,0:0:0:0:
320,192,111645,128,0,111996:0:0:0:0:
448,192,111645,128,0,111996:0:0:0:0:
64,192,112113,1,0,0:0:0:0:
448,192,112113,1,0,0:0:0:0:
320,192,112348,1,0,0:0:0:0:
192,192,112406,1,0,0:0:0:0:
320,192,112465,1,0,0:0:0:0:
448,192,112465,128,0,112699:0:0:0:0:
64,192,112465,128,0,112699:0:0:0:0:
192,192,112699,1,0,0:0:0:0:
320,192,112699,1,0,0:0:0:0:
64,192,112816,1,0,0:0:0:0:
320,192,112934,1,0,0:0:0:0:
448,192,112934,1,0,0:0:0:0:
192,192,113051,1,0,0:0:0:0:
64,192,113051,1,0,0:0:0:0:
64,192,113168,128,0,113402:0:0:0:0:
448,192,113168,1,0,0:0:0:0:
192,192,113520,128,0,113871:0:0:0:0:
448,192,113520,128,0,113871:0:0:0:0:
320,192,113520,1,0,0:0:0:0:
192,192,113988,1,0,0:0:0:0:
64,192,113988,128,0,114047:0:0:0:0:
448,192,114105,1,0,0:0:0:0:
64,192,114105,128,0,114164:0:0:0:0:
320,192,114223,1,0,0:0:0:0:
64,192,114223,128,0,114281:0:0:0:0:
192,192,114340,1,0,0:0:0:0:
64,192,114340,128,0,114398:0:0:0:0:
320,192,114457,1,0,0:0:0:0:
448,192,114457,1,0,0:0:0:0:
64,192,114457,128,0,114516:0:0:0:0:
192,192,114574,1,0,0:0:0:0:
64,192,114574,128,0,114633:0:0:0:0:
64,192,114691,128,0,114867:0:0:0:0:
320,192,114691,1,0,0:0:0:0:
448,192,114809,1,0,0:0:0:0:
192,192,114926,128,0,115043:0:0:0:0:
320,192,114926,1,0,0:0:0:0:
64,192,115043,1,0,0:0:0:0:
448,192,115160,128,0,115336:0:0:0:0:
320,192,115160,1,0,0:0:0:0:
64,192,115277,1,0,0:0:0:0:
192,192,115395,1,0,0:0:0:0:
64,192,115453,1,0,0:0:0:0:
448,192,115512,1,0,0:0:0:0:
320,192,115570,1,0,0:0:0:0:
64,192,115629,1,0,0:0:0:0:
192,192,115687,1,0,0:0:0:0:
320,192,115746,1,0,0:0:0:0:
448,192,115805,1,0,0:0:0:0:
64,192,115863,1,0,0:0:0:0:
192,192,115922,1,0,0:0:0:0:
64,192,115980,1,0,0:0:0:0:
192,192,116098,1,0,0:0:0:0:
448,192,116215,1,0,0:0:0:0:
320,192,116273,1,0,0:0:0:0:
448,192,116332,1,0,0:0:0:0:
64,192,116332,1,0,0:0:0:0:
192,192,116332,1,0,0:0:0:0:
320,192,116449,1,0,0:0:0:0:
64,192,116566,128,0,116918:0:0:0:0:
448,192,116566,1,0,0:0:0:0:
192,192,116684,1,0,0:0:0:0:
320,192,116801,1,0,0:0:0:0:
448,192,116918,128,0,117270:0:0:0:0:
192,192,116918,1,0,0:0:0:0:
64,192,117035,1,0,0:0:0:0:
320,192,117152,1,0,0:0:0:0:
192,192,117270,1,0,0:0:0:0:
320,192,117270,128,0,117621:0:0:0:0:
64,192,117270,128,0,117621:0:0:0:0:
448,192,117738,128,0,117797:0:0:0:0:
320,192,117738,1,0,0:0:0:0:
448,192,117855,128,0,117914:0:0:0:0:
192,192,117855,1,0,0:0:0:0:
448,192,117973,128,0,118031:0:0:0:0:
64,192,117973,1,0,0:0:0:0:
448,192,118090,128,0,118148:0:0:0:0:
320,192,118090,1,0,0:0:0:0:
448,192,118207,128,0,118266:0:0:0:0:
192,192,118207,1,0,0:0:0:0:
64,192,118207,1,0,0:0:0:0:
448,192,118324,128,0,118383:0:0:0:0:
320,192,118324,1,0,0:0:0:0:
64,192,118441,128,0,118500:0:0:0:0:
192,192,118500,128,0,118559:0:0:0:0:
320,192,118559,128,0,118617:0:0:0:0:
64,192,118676,128,0,119027:0:0:0:0:
192,192,119145,1,0,0:0:0:0:
320,192,119145,128,0,119496:0:0:0:0:
448,192,119145,128,0,119496:0:0:0:0:
64,192,119379,1,0,0:0:0:0:
192,192,119613,1,0,0:0:0:0:
448,192,119730,1,0,0:0:0:0:
64,192,119848,1,0,0:0:0:0:
320,192,119965,128,0,120316:0:0:0:0:
192,192,119965,128,0,120316:0:0:0:0:
64,192,120082,1,0,0:0:0:0:
448,192,120082,1,0,0:0:0:0:
448,192,120316,1,0,0:0:0:0:
64,192,120434,1,0,0:0:0:0:
320,192,120551,1,0,0:0:0:0:
64,192,120668,128,0,120902:0:0:0:0:
448,192,120668,128,0,120902:0:0:0:0:
64,192,121020,1,0,0:0:0:0:
448,192,121020,128,0,121371:0:0:0:0:
320,192,121020,128,0,121371:0:0:0:0:
64,192,121488,1,0,0:0:0:0:
192,192,121488,1,0,0:0:0:0:
448,192,121488,1,0,0:0:0:0:
320,192,121605,1,0,0:0:0:0:
64,192,121723,1,0,0:0:0:0:
448,192,121840,1,0,0:0:0:0:
192,192,121840,1,0,0:0:0:0:
320,192,121957,1,0,0:0:0:0:
64,192,122074,1,0,0:0:0:0:
448,192,122191,1,0,0:0:0:0:
192,192,122309,1,0,0:0:0:0:
320,192,122426,1,0,0:0:0:0:
64,192,122426,1,0,0:0:0:0:
448,192,122426,1,0,0:0:0:0:
192,192,122543,1,0,0:0:0:0:
448,192,122660,1,0,0:0:0:0:
320,192,122777,1,0,0:0:0:0:
192,192,122895,1,0,0:0:0:0:
64,192,122895,1,0,0:0:0:0:
320,192,123012,1,0,0:0:0:0:
448,192,123129,1,0,0:0:0:0:
64,192,123246,1,0,0:0:0:0:
192,192,123363,1,0,0:0:0:0:
320,192,123363,1,0,0:0:0:0:
448,192,123363,1,0,0:0:0:0:
64,192,123480,1,0,0:0:0:0:
320,192,123598,1,0,0:0:0:0:
192,192,123715,1,0,0:0:0:0:
448,192,123715,1,0,0:0:0:0:
64,192,123832,1,0,0:0:0:0:
320,192,123949,1,0,0:0:0:0:
192,192,124066,1,0,0:0:0:0:
64,192,124066,1,0,0:0:0:0:
448,192,124184,1,0,0:0:0:0:
320,192,124301,1,0,0:0:0:0:
192,192,124301,1,0,0:0:0:0:
64,192,124301,1,0,0:0:0:0:
64,192,124418,1,0,0:0:0:0:
448,192,124418,1,0,0:0:0:0:
320,192,124535,1,0,0:0:0:0:
192,192,124652,1,0,0:0:0:0:
320,192,124770,1,0,0:0:0:0:
448,192,124770,1,0,0:0:0:0:
64,192,124887,1,0,0:0:0:0:
448,192,125004,1,0,0:0:0:0:
192,192,125121,1,0,0:0:0:0:
320,192,125238,1,0,0:0:0:0:
448,192,125238,1,0,0:0:0:0:
64,192,125238,1,0,0:0:0:0:
192,192,125355,1,0,0:0:0:0:
64,192,125473,1,0,0:0:0:0:
320,192,125590,1,0,0:0:0:0:
448,192,125590,1,0,0:0:0:0:
192,192,125707,1,0,0:0:0:0:
64,192,125824,1,0,0:0:0:0:
320,192,125941,1,0,0:0:0:0:
448,192,126059,1,0,0:0:0:0:
64,192,126176,1,0,0:0:0:0:
192,192,126176,1,0,0:0:0:0:
320,192,126176,1,0,0:0:0:0:
448,192,126293,1,0,0:0:0:0:
192,192,126410,1,0,0:0:0:0:
320,192,126527,1,0,0:0:0:0:
64,192,126645,1,0,0:0:0:0:
448,192,126645,1,0,0:0:0:0:
192,192,126762,1,0,0:0:0:0:
448,192,126879,1,0,0:0:0:0:
64,192,126996,1,0,0:0:0:0:
192,192,127113,1,0,0:0:0:0:
320,192,127113,1,0,0:0:0:0:
448,192,127113,1,0,0:0:0:0:
64,192,127230,1,0,0:0:0:0:
320,192,127348,1,0,0:0:0:0:
192,192,127465,1,0,0:0:0:0:
64,192,127465,1,0,0:0:0:0:
448,192,127582,1,0,0:0:0:0:
64,192,127699,1,0,0:0:0:0:
192,192,127816,1,0,0:0:0:0:
320,192,127816,1,0,0:0:0:0:
448,192,127934,1,0,0:0:0:0:
64,192,128051,1,0,0:0:0:0:
192,192,128051,1,0,0:0:0:0:
320,192,128051,1,0,0:0:0:0:
448,192,128168,1,0,0:0:0:0:
320,192,128168,1,0,0:0:0:0:
64,192,128285,1,0,0:0:0:0:
192,192,128402,1,0,0:0:0:0:
64,192,128520,1,0,0:0:0:0:
448,192,128520,1,0,0:0:0:0:
320,192,128637,1,0,0:0:0:0:
64,192,128754,1,0,0:0:0:0:
192,192,128871,1,0,0:0:0:0:
320,192,128988,1,0,0:0:0:0:
64,192,128988,1,0,0:0:0:0:
448,192,128988,1,0,0:0:0:0:
192,192,129105,1,0,0:0:0:0:
448,192,129223,1,0,0:0:0:0:
320,192,129340,1,0,0:0:0:0:
64,192,129340,1,0,0:0:0:0:
192,192,129457,1,0,0:0:0:0:
448,192,129574,1,0,0:0:0:0:
64,192,129691,1,0,0:0:0:0:
320,192,129809,1,0,0:0:0:0:
192,192,129926,1,0,0:0:0:0:
448,192,129926,1,0,0:0:0:0:
64,192,129926,1,0,0:0:0:0:
320,192,130043,1,0,0:0:0:0:
64,192,130160,1,0,0:0:0:0:
448,192,130277,1,0,0:0:0:0:
320,192,130395,1,0,0:0:0:0:
192,192,130395,1,0,0:0:0:0:
64,192,130629,1,0,0:0:0:0:
320,192,130863,1,0,0:0:0:0:
448,192,130863,1,0,0:0:0:0:
192,192,130863,1,0,0:0:0:0:
192,192,131098,1,0,0:0:0:0:
64,192,131215,1,0,0:0:0:0:
448,192,131215,1,0,0:0:0:0:
192,192,131566,1,0,0:0:0:0:
320,192,131566,1,0,0:0:0:0:
64,192,131801,1,0,0:0:0:0:
192,192,131801,1,0,0:0:0:0:
448,192,131801,1,0,0:0:0:0:
320,192,131918,1,0,0:0:0:0:
64,192,131918,1,0,0:0:0:0:
320,192,132270,1,0,0:0:0:0:
448,192,132270,1,0,0:0:0:0:
64,192,132270,128,0,136020:0:0:0:0:
448,192,132738,1,0,0:0:0:0:
192,192,132738,1,0,0:0:0:0:
192,192,133090,1,0,0:0:0:0:
320,192,133090,1,0,0:0:0:0:
448,192,133676,1,0,0:0:0:0:
320,192,133676,1,0,0:0:0:0:
192,192,134145,1,0,0:0:0:0:
320,192,134145,1,0,0:0:0:0:
448,192,134379,1,0,0:0:0:0:
192,192,134613,1,0,0:0:0:0:
320,192,134613,1,0,0:0:0:0:
448,192,134730,1,0,0:0:0:0:
320,192,134848,1,0,0:0:0:0:
448,192,134965,1,0,0:0:0:0:
192,192,134965,1,0,0:0:0:0:
320,192,135023,1,0,0:0:0:0:
448,192,135082,1,0,0:0:0:0:
192,192,135199,1,0,0:0:0:0:
448,192,135316,1,0,0:0:0:0:
320,192,135316,128,0,135434:0:0:0:0:
192,192,135434,128,0,135551:0:0:0:0:
448,192,135551,128,0,135668:0:0:0:0:
320,192,135668,128,0,135785:0:0:0:0:
448,192,135785,128,0,136020:0:0:0:0:
320,192,136020,1,0,0:0:0:0:
192,192,136020,128,0,136488:0:0:0:0:
448,192,136488,128,0,136957:0:0:0:0:
320,192,136723,1,0,0:0:0:0:
64,192,136840,1,0,0:0:0:0:
192,192,136957,128,0,137426:0:0:0:0:
320,192,136957,1,0,0:0:0:0:
64,192,137074,1,0,0:0:0:0:
64,192,137426,1,0,0:0:0:0:
320,192,137426,128,0,137895:0:0:0:0:
448,192,137543,1,0,0:0:0:0:
64,192,137660,1,0,0:0:0:0:
192,192,137777,1,0,0:0:0:0:
448,192,137895,128,0,138363:0:0:0:0:
64,192,138363,128,0,138832:0:0:0:0:
448,192,138598,1,0,0:0:0:0:
192,192,138715,1,0,0:0:0:0:
320,192,138832,1,0,0:0:0:0:
448,192,138832,128,0,139301:0:0:0:0:
64,192,138949,1,0,0:0:0:0:
320,192,139301,1,0,0:0:0:0:
192,192,139301,128,0,139770:0:0:0:0:
64,192,139418,1,0,0:0:0:0:
448,192,139535,1,0,0:0:0:0:
64,192,139652,1,0,0:0:0:0:
448,192,139770,1,0,0:0:0:0:
320,192,139770,128,0,140238:0:0:0:0:
192,192,139887,1,0,0:0:0:0:
64,192,140004,1,0,0:0:0:0:
448,192,140121,1,0,0:0:0:0:
192,192,140238,128,0,140707:0:0:0:0:
64,192,140473,1,0,0:0:0:0:
320,192,140590,1,0,0:0:0:0:
64,192,140707,128,0,141176:0:0:0:0:
448,192,140707,1,0,0:0:0:0:
320,192,140824,1,0,0:0:0:0:
320,192,141176,1,0,0:0:0:0:
192,192,141176,128,0,141645:0:0:0:0:
448,192,141293,1,0,0:0:0:0:
320,192,141410,1,0,0:0:0:0:
64,192,141527,1,0,0:0:0:0:
448,192,141645,128,0,142113:0:0:0:0:
320,192,142113,128,0,142582:0:0:0:0:
64,192,142348,1,0,0:0:0:0:
192,192,142465,1,0,0:0:0:0:
64,192,142582,128,0,143051:0:0:0:0:
448,192,142582,1,0,0:0:0:0:
320,192,142699,1,0,0:0:0:0:
192,192,143051,1,0,0:0:0:0:
320,192,143051,128,0,143520:0:0:0:0:
448,192,143168,1,0,0:0:0:0:
192,192,143285,1,0,0:0:0:0:
64,192,143402,1,0,0:0:0:0:
448,192,143520,1,0,0:0:0:0:
192,192,143520,128,0,143988:0:0:0:0:
64,192,143637,1,0,0:0:0:0:
320,192,143754,1,0,0:0:0:0:
64,192,143871,1,0,0:0:0:0:
448,192,143988,128,0,144457:0:0:0:0:
192,192,144223,1,0,0:0:0:0:
320,192,144340,1,0,0:0:0:0:
192,192,144457,1,0,0:0:0:0:
64,192,144457,128,0,144926:0:0:0:0:
448,192,144574,1,0,0:0:0:0:
320,192,144926,128,0,145395:0:0:0:0:
448,192,144926,1,0,0:0:0:0:
192,192,145043,1,0,0:0:0:0:
448,192,145160,1,0,0:0:0:0:
64,192,145277,1,0,0:0:0:0:
192,192,145395,128,0,145863:0:0:0:0:
64,192,145863,128,0,146332:0:0:0:0:
448,192,146098,1,0,0:0:0:0:
192,192,146215,1,0,0:0:0:0:
320,192,146332,1,0,0:0:0:0:
448,192,146332,128,0,146801:0:0:0:0:
192,192,146449,1,0,0:0:0:0:
192,192,146801,128,0,147270:0:0:0:0:
320,192,146801,1,0,0:0:0:0:
64,192,146918,1,0,0:0:0:0:
320,192,147035,1,0,0:0:0:0:
448,192,147152,1,0,0:0:0:0:
64,192,147270,1,0,0:0:0:0:
320,192,147270,128,0,147738:0:0:0:0:
448,192,147387,1,0,0:0:0:0:
192,192,147504,1,0,0:0:0:0:
64,192,147621,1,0,0:0:0:0:
448,192,147738,128,0,148207:0:0:0:0:
64,192,147973,1,0,0:0:0:0:
320,192,148090,1,0,0:0:0:0:
192,192,148207,1,0,0:0:0:0:
64,192,148207,128,0,148676:0:0:0:0:
320,192,148324,1,0,0:0:0:0:
320,192,148676,1,0,0:0:0:0:
448,192,148676,128,0,149145:0:0:0:0:
192,192,148793,1,0,0:0:0:0:
64,192,148910,1,0,0:0:0:0:
320,192,149027,1,0,0:0:0:0:
192,192,149145,128,0,149613:0:0:0:0:
448,192,149613,128,0,150082:0:0:0:0:
64,192,149848,1,0,0:0:0:0:
192,192,149965,1,0,0:0:0:0:
320,192,150082,1,0,0:0:0:0:
64,192,150082,128,0,150551:0:0:0:0:
192,192,150199,1,0,0:0:0:0:
448,192,150551,1,0,0:0:0:0:
320,192,150551,128,0,151020:0:0:0:0:
64,192,150668,1,0,0:0:0:0:
192,192,150785,1,0,0:0:0:0:
448,192,150902,1,0,0:0:0:0:
64,192,151020,128,0,152895:0:0:0:0:
192,192,151020,1,0,0:0:0:0:
448,192,151137,1,0,0:0:0:0:
192,192,151254,1,0,0:0:0:0:
448,192,151371,1,0,0:0:0:0:
192,192,151488,1,0,0:0:0:0:
320,192,151723,1,0,0:0:0:0:
448,192,151840,1,0,0:0:0:0:
192,192,151957,1,0,0:0:0:0:
448,192,152074,1,0,0:0:0:0:
192,192,152191,1,0,0:0:0:0:
320,192,152309,1,0,0:0:0:0:
192,192,152426,1,0,0:0:0:0:
448,192,152543,1,0,0:0:0:0:
192,192,152660,1,0,0:0:0:0:
320,192,152777,1,0,0:0:0:0:
192,192,152895,128,0,154770:0:0:0:0:
448,192,152895,1,0,0:0:0:0:
320,192,153129,1,0,0:0:0:0:
64,192,153246,1,0,0:0:0:0:
448,192,153598,1,0,0:0:0:0:
320,192,153715,1,0,0:0:0:0:
64,192,153832,1,0,0:0:0:0:
448,192,153949,1,0,0:0:0:0:
320,192,154066,1,0,0:0:0:0:
448,192,154184,1,0,0:0:0:0:
64,192,154301,1,0,0:0:0:0:
320,192,154418,1,0,0:0:0:0:
448,192,154535,1,0,0:0:0:0:
64,192,154652,1,0,0:0:0:0:
320,192,154770,128,0,156645:0:0:0:0:
448,192,154770,1,0,0:0:0:0:
64,192,154887,1,0,0:0:0:0:
448,192,155004,1,0,0:0:0:0:
192,192,155121,1,0,0:0:0:0:
64,192,155238,1,0,0:0:0:0:
448,192,155473,1,0,0:0:0:0:
192,192,155590,1,0,0:0:0:0:
64,192,155707,1,0,0:0:0:0:
192,192,155824,1,0,0:0:0:0:
448,192,155941,1,0,0:0:0:0:
64,192,156059,1,0,0:0:0:0:
192,192,156176,1,0,0:0:0:0:
448,192,156293,1,0,0:0:0:0:
192,192,156410,1,0,0:0:0:0:
64,192,156527,1,0,0:0:0:0:
448,192,156645,128,0,158520:0:0:0:0:
192,192,156645,1,0,0:0:0:0:
64,192,156879,1,0,0:0:0:0:
320,192,156996,1,0,0:0:0:0:
192,192,157113,1,0,0:0:0:0:
64,192,157348,1,0,0:0:0:0:
320,192,157465,1,0,0:0:0:0:
192,192,157582,1,0,0:0:0:0:
320,192,157699,1,0,0:0:0:0:
64,192,157816,1,0,0:0:0:0:
320,192,157934,1,0,0:0:0:0:
192,192,158051,1,0,0:0:0:0:
64,192,158168,1,0,0:0:0:0:
192,192,158285,1,0,0:0:0:0:
320,192,158402,1,0,0:0:0:0:
64,192,158520,128,0,160395:0:0:0:0:
192,192,158520,1,0,0:0:0:0:
320,192,158637,1,0,0:0:0:0:
448,192,158754,1,0,0:0:0:0:
192,192,158871,1,0,0:0:0:0:
320,192,158988,1,0,0:0:0:0:
448,192,159223,1,0,0:0:0:0:
192,192,159340,1,0,0:0:0:0:
320,192,159457,1,0,0:0:0:0:
448,192,159574,1,0,0:0:0:0:
192,192,159691,1,0,0:0:0:0:
448,192,159809,1,0,0:0:0:0:
320,192,159926,1,0,0:0:0:0:
192,192,160043,1,0,0:0:0:0:
448,192,160160,1,0,0:0:0:0:
320,192,160277,1,0,0:0:0:0:
192,192,160395,128,0,162270:0:0:0:0:
448,192,160395,1,0,0:0:0:0:
64,192,160629,1,0,0:0:0:0:
448,192,160746,1,0,0:0:0:0:
320,192,160863,1,0,0:0:0:0:
64,192,161098,1,0,0:0:0:0:
448,192,161215,1,0,0:0:0:0:
320,192,161332,1,0,0:0:0:0:
64,192,161449,1,0,0:0:0:0:
320,192,161566,1,0,0:0:0:0:
448,192,161684,1,0,0:0:0:0:
64,192,161801,1,0,0:0:0:0:
320,192,161918,1,0,0:0:0:0:
448,192,162035,1,0,0:0:0:0:
64,192,162152,1,0,0:0:0:0:
320,192,162270,128,0,164145:0:0:0:0:
448,192,162270,1,0,0:0:0:0:
64,192,162387,1,0,0:0:0:0:
448,192,162504,1,0,0:0:0:0:
192,192,162621,1,0,0:0:0:0:
64,192,162738,1,0,0:0:0:0:
192,192,162973,1,0,0:0:0:0:
448,192,163090,1,0,0:0:0:0:
64,192,163207,1,0,0:0:0:0:
192,192,163324,1,0,0:0:0:0:
448,192,163441,1,0,0:0:0:0:
192,192,163559,1,0,0:0:0:0:
64,192,163676,1,0,0:0:0:0:
448,192,163793,1,0,0:0:0:0:
192,192,163910,1,0,0:0:0:0:
448,192,164145,128,0,166020:0:0:0:0:
64,192,164145,1,0,0:0:0:0:
192,192,164379,1,0,0:0:0:0:
320,192,164496,1,0,0:0:0:0:
64,192,164613,1,0,0:0:0:0:
320,192,164848,1,0,0:0:0:0:
192,192,164965,1,0,0:0:0:0:
64,192,165082,1,0,0:0:0:0:
320,192,165199,1,0,0:0:0:0:
192,192,165316,1,0,0:0:0:0:
320,192,165551,1,0,0:0:0:0:
64,192,165668,1,0,0:0:0:0:
192,192,165785,1,0,0:0:0:0:
320,192,165902,1,0,0:0:0:0:
64,192,166020,1,0,0:0:0:0:
192,192,166020,1,0,0:0:0:0:
320,192,166254,1,0,0:0:0:0:
192,192,166371,1,0,0:0:0:0:
448,192,166488,1,0,0:0:0:0:
64,192,166723,1,0,0:0:0:0:
320,192,166840,1,0,0:0:0:0:
448,192,166957,1,0,0:0:0:0:
64,192,166957,1,0,0:0:0:0:
320,192,167074,1,0,0:0:0:0:
192,192,167191,1,0,0:0:0:0:
448,192,167426,1,0,0:0:0:0:
320,192,167426,1,0,0:0:0:0:
64,192,167543,1,0,0:0:0:0:
192,192,167660,1,0,0:0:0:0:
448,192,167777,1,0,0:0:0:0:
64,192,167895,1,0,0:0:0:0:
320,192,167895,1,0,0:0:0:0:
192,192,168012,1,0,0:0:0:0:
448,192,168363,1,0,0:0:0:0:
192,192,168832,1,0,0:0:0:0:
320,192,169301,1,0,0:0:0:0:
64,192,169770,1,0,0:0:0:0:
192,192,169770,1,0,0:0:0:0:
320,192,169887,1,0,0:0:0:0:
448,192,170004,1,0,0:0:0:0:
192,192,170121,1,0,0:0:0:0:
64,192,170238,1,0,0:0:0:0:
320,192,170473,1,0,0:0:0:0:
448,192,170590,1,0,0:0:0:0:
64,192,170707,1,0,0:0:0:0:
192,192,170707,1,0,0:0:0:0:
448,192,170824,1,0,0:0:0:0:
320,192,170941,1,0,0:0:0:0:
64,192,171176,1,0,0:0:0:0:
448,192,171176,1,0,0:0:0:0:
320,192,171293,1,0,0:0:0:0:
192,192,171410,1,0,0:0:0:0:
64,192,171527,1,0,0:0:0:0:
192,192,171586,1,0,0:0:0:0:
320,192,171645,1,0,0:0:0:0:
448,192,171645,1,0,0:0:0:0:
64,192,171645,1,0,0:0:0:0:
192,192,171703,1,0,0:0:0:0:
448,192,171762,1,0,0:0:0:0:
320,192,171820,1,0,0:0:0:0:
320,192,171996,1,0,0:0:0:0:
192,192,171996,1,0,0:0:0:0:
64,192,171996,1,0,0:0:0:0:
448,192,172055,1,0,0:0:0:0:
64,192,172113,1,0,0:0:0:0:
192,192,172172,1,0,0:0:0:0:
448,192,172348,1,0,0:0:0:0:
320,192,172348,1,0,0:0:0:0:
64,192,172348,1,0,0:0:0:0:
192,192,172406,1,0,0:0:0:0:
448,192,172465,1,0,0:0:0:0:
320,192,172523,1,0,0:0:0:0:
320,192,172699,1,0,0:0:0:0:
192,192,172699,1,0,0:0:0:0:
64,192,172699,1,0,0:0:0:0:
448,192,172758,1,0,0:0:0:0:
192,192,172816,1,0,0:0:0:0:
64,192,172816,128,0,173051:0:0:0:0:
320,192,172875,1,0,0:0:0:0:
192,192,173051,128,0,173285:0:0:0:0:
448,192,173051,1,0,0:0:0:0:
320,192,173285,128,0,174691:0:0:0:0:
64,192,173520,1,0,0:0:0:0:
192,192,173520,1,0,0:0:0:0:
192,192,173871,1,0,0:0:0:0:
64,192,173988,1,0,0:0:0:0:
448,192,173988,1,0,0:0:0:0:
64,192,174223,1,0,0:0:0:0:
448,192,174457,1,0,0:0:0:0:
192,192,174457,1,0,0:0:0:0:
448,192,174691,128,0,174926:0:0:0:0:
64,192,174809,1,0,0:0:0:0:
192,192,174926,128,0,175160:0:0:0:0:
320,192,174926,1,0,0:0:0:0:
64,192,174926,1,0,0:0:0:0:
64,192,175160,128,0,176566:0:0:0:0:
320,192,175160,1,0,0:0:0:0:
448,192,175395,1,0,0:0:0:0:
192,192,175395,1,0,0:0:0:0:
448,192,175746,1,0,0:0:0:0:
320,192,175863,1,0,0:0:0:0:
192,192,175863,1,0,0:0:0:0:
448,192,176098,1,0,0:0:0:0:
192,192,176332,1,0,0:0:0:0:
448,192,176332,1,0,0:0:0:0:
320,192,176566,128,0,176801:0:0:0:0:
64,192,176684,1,0,0:0:0:0:
448,192,176801,128,0,177035:0:0:0:0:
192,192,176801,1,0,0:0:0:0:
64,192,176801,1,0,0:0:0:0:
192,192,177035,128,0,177738:0:0:0:0:
320,192,177035,1,0,0:0:0:0:
64,192,177270,1,0,0:0:0:0:
448,192,177270,1,0,0:0:0:0:
448,192,177621,1,0,0:0:0:0:
64,192,177738,128,0,177855:0:0:0:0:
320,192,177738,1,0,0:0:0:0:
448,192,177738,1,0,0:0:0:0:
64,192,177973,128,0,178676:0:0:0:0:
320,192,177973,1,0,0:0:0:0:
192,192,178207,1,0,0:0:0:0:
448,192,178207,1,0,0:0:0:0:
448,192,178559,1,0,0:0:0:0:
320,192,178676,1,0,0:0:0:0:
448,192,178676,1,0,0:0:0:0:
192,192,178676,128,0,180316:0:0:0:0:
64,192,178910,1,0,0:0:0:0:
448,192,179145,1,0,0:0:0:0:
320,192,179145,1,0,0:0:0:0:
320,192,179496,1,0,0:0:0:0:
448,192,179613,1,0,0:0:0:0:
64,192,179613,1,0,0:0:0:0:
320,192,179848,1,0,0:0:0:0:
64,192,180082,1,0,0:0:0:0:
320,192,180082,1,0,0:0:0:0:
320,192,180316,128,0,180551:0:0:0:0:
64,192,180434,1,0,0:0:0:0:
448,192,180551,128,0,180785:0:0:0:0:
192,192,180551,1,0,0:0:0:0:
64,192,180551,1,0,0:0:0:0:
64,192,180785,128,0,182191:0:0:0:0:
192,192,180785,1,0,0:0:0:0:
320,192,181020,1,0,0:0:0:0:
448,192,181020,1,0,0:0:0:0:
320,192,181371,1,0,0:0:0:0:
448,192,181488,1,0,0:0:0:0:
192,192,181488,1,0,0:0:0:0:
320,192,181723,1,0,0:0:0:0:
448,192,181957,1,0,0:0:0:0:
320,192,181957,1,0,0:0:0:0:
192,192,182191,128,0,182426:0:0:0:0:
320,192,182309,1,0,0:0:0:0:
448,192,182426,128,0,182660:0:0:0:0:
64,192,182426,1,0,0:0:0:0:
320,192,182426,1,0,0:0:0:0:
320,192,182660,128,0,184066:0:0:0:0:
64,192,182660,1,0,0:0:0:0:
448,192,182895,1,0,0:0:0:0:
192,192,182895,1,0,0:0:0:0:
64,192,183246,1,0,0:0:0:0:
448,192,183363,1,0,0:0:0:0:
192,192,183363,1,0,0:0:0:0:
64,192,183598,1,0,0:0:0:0:
192,192,183832,1,0,0:0:0:0:
448,192,183832,1,0,0:0:0:0:
64,192,184066,128,0,184301:0:0:0:0:
448,192,184184,1,0,0:0:0:0:
192,192,184301,128,0,184535:0:0:0:0:
320,192,184301,1,0,0:0:0:0:
448,192,184301,1,0,0:0:0:0:
320,192,184535,128,0,186176:0:0:0:0:
64,192,184535,1,0,0:0:0:0:
448,192,184770,1,0,0:0:0:0:
64,192,184770,1,0,0:0:0:0:
64,192,185121,1,0,0:0:0:0:
448,192,185238,1,0,0:0:0:0:
192,192,185238,1,0,0:0:0:0:
64,192,185473,1,0,0:0:0:0:
192,192,185707,1,0,0:0:0:0:
64,192,185707,1,0,0:0:0:0:
448,192,186059,1,0,0:0:0:0:
448,192,186176,1,0,0:0:0:0:
192,192,186176,1,0,0:0:0:0:
64,192,186176,128,0,186293:0:0:0:0:
192,192,186293,128,0,186410:0:0:0:0:
320,192,186410,128,0,186527:0:0:0:0:
64,192,186410,1,0,0:0:0:0:
448,192,186527,128,0,186645:0:0:0:0:
64,192,186645,128,0,187113:0:0:0:0:
192,192,186645,1,0,0:0:0:0:
320,192,186645,1,0,0:0:0:0:
448,192,186996,1,0,0:0:0:0:
192,192,187113,128,0,187582:0:0:0:0:
448,192,187113,1,0,0:0:0:0:
320,192,187113,1,0,0:0:0:0:
64,192,187348,1,0,0:0:0:0:
320,192,187582,128,0,188051:0:0:0:0:
448,192,187582,1,0,0:0:0:0:
64,192,187582,1,0,0:0:0:0:
192,192,187934,1,0,0:0:0:0:
448,192,188051,128,0,188402:0:0:0:0:
64,192,188051,1,0,0:0:0:0:
192,192,188051,1,0,0:0:0:0:
192,192,188285,1,0,0:0:0:0:
64,192,188402,1,0,0:0:0:0:
192,192,188461,1,0,0:0:0:0:
320,192,188520,128,0,189691:0:0:0:0:
64,192,188520,1,0,0:0:0:0:
448,192,188520,1,0,0:0:0:0:
192,192,188871,1,0,0:0:0:0:
64,192,188988,1,0,0:0:0:0:
448,192,188988,1,0,0:0:0:0:
64,192,189223,1,0,0:0:0:0:
192,192,189457,1,0,0:0:0:0:
448,192,189457,1,0,0:0:0:0:
64,192,189691,128,0,189926:0:0:0:0:
448,192,189809,1,0,0:0:0:0:
192,192,189926,128,0,190160:0:0:0:0:
320,192,189926,1,0,0:0:0:0:
448,192,189926,1,0,0:0:0:0:
320,192,190160,128,0,190395:0:0:0:0:
64,192,190160,1,0,0:0:0:0:
448,192,190395,128,0,191566:0:0:0:0:
192,192,190395,1,0,0:0:0:0:
64,192,190395,1,0,0:0:0:0:
192,192,190746,1,0,0:0:0:0:
320,192,190863,1,0,0:0:0:0:
64,192,190863,1,0,0:0:0:0:
320,192,191098,1,0,0:0:0:0:
64,192,191332,1,0,0:0:0:0:
192,192,191332,1,0,0:0:0:0:
320,192,191566,128,0,191801:0:0:0:0:
192,192,191684,1,0,0:0:0:0:
64,192,191801,128,0,192035:0:0:0:0:
192,192,191801,1,0,0:0:0:0:
448,192,191801,1,0,0:0:0:0:
192,192,192035,128,0,192270:0:0:0:0:
320,192,192035,1,0,0:0:0:0:
448,192,192270,128,0,193090:0:0:0:0:
64,192,192270,1,0,0:0:0:0:
320,192,192270,1,0,0:0:0:0:
320,192,192621,1,0,0:0:0:0:
64,192,192738,1,0,0:0:0:0:
192,192,192738,1,0,0:0:0:0:
64,192,192973,1,0,0:0:0:0:
320,192,193090,1,0,0:0:0:0:
192,192,193148,1,0,0:0:0:0:
64,192,193207,128,0,193441:0:0:0:0:
320,192,193207,1,0,0:0:0:0:
448,192,193207,1,0,0:0:0:0:
448,192,193441,128,0,193676:0:0:0:0:
192,192,193559,1,0,0:0:0:0:
320,192,193676,128,0,193910:0:0:0:0:
192,192,193676,1,0,0:0:0:0:
64,192,193676,1,0,0:0:0:0:
448,192,193910,1,0,0:0:0:0:
192,192,193910,128,0,194496:0:0:0:0:
64,192,194145,1,0,0:0:0:0:
320,192,194145,1,0,0:0:0:0:
448,192,194496,1,0,0:0:0:0:
320,192,194555,1,0,0:0:0:0:
64,192,194613,128,0,195316:0:0:0:0:
192,192,194613,1,0,0:0:0:0:
448,192,194613,1,0,0:0:0:0:
320,192,194848,1,0,0:0:0:0:
192,192,195082,1,0,0:0:0:0:
448,192,195082,1,0,0:0:0:0:
192,192,195316,128,0,195551:0:0:0:0:
448,192,195434,1,0,0:0:0:0:
320,192,195551,128,0,195785:0:0:0:0:
64,192,195551,1,0,0:0:0:0:
448,192,195551,1,0,0:0:0:0:
448,192,195785,128,0,196020:0:0:0:0:
64,192,195785,1,0,0:0:0:0:
192,192,196020,128,0,197191:0:0:0:0:
320,192,196020,1,0,0:0:0:0:
64,192,196020,1,0,0:0:0:0:
64,192,196371,1,0,0:0:0:0:
448,192,196488,1,0,0:0:0:0:
320,192,196488,1,0,0:0:0:0:
448,192,196723,1,0,0:0:0:0:
64,192,196957,1,0,0:0:0:0:
320,192,196957,1,0,0:0:0:0:
64,192,197191,128,0,197426:0:0:0:0:
448,192,197309,1,0,0:0:0:0:
192,192,197426,128,0,197660:0:0:0:0:
320,192,197426,1,0,0:0:0:0:
448,192,197426,1,0,0:0:0:0:
320,192,197660,128,0,197895:0:0:0:0:
64,192,197660,1,0,0:0:0:0:
448,192,197895,128,0,199066:0:0:0:0:
192,192,197895,1,0,0:0:0:0:
64,192,197895,1,0,0:0:0:0:
320,192,198246,1,0,0:0:0:0:
192,192,198363,1,0,0:0:0:0:
64,192,198363,1,0,0:0:0:0:
64,192,198598,1,0,0:0:0:0:
320,192,198832,1,0,0:0:0:0:
192,192,198832,1,0,0:0:0:0:
64,192,199066,128,0,199301:0:0:0:0:
320,192,199184,1,0,0:0:0:0:
448,192,199301,128,0,199535:0:0:0:0:
320,192,199301,1,0,0:0:0:0:
192,192,199301,1,0,0:0:0:0:
320,192,199535,128,0,200941:0:0:0:0:
64,192,199535,1,0,0:0:0:0:
192,192,199770,1,0,0:0:0:0:
448,192,199770,1,0,0:0:0:0:
192,192,200121,1,0,0:0:0:0:
64,192,200238,1,0,0:0:0:0:
448,192,200238,1,0,0:0:0:0:
448,192,200473,1,0,0:0:0:0:
192,192,200707,1,0,0:0:0:0:
64,192,200707,1,0,0:0:0:0:
448,192,201059,1,0,0:0:0:0:
192,192,201176,1,0,0:0:0:0:
64,192,201176,1,0,0:0:0:0:
448,192,201410,1,0,0:0:0:0:
192,192,201527,1,0,0:0:0:0:
64,192,201586,1,0,0:0:0:0:
320,192,201645,1,0,0:0:0:0:
192,192,201645,1,0,0:0:0:0:
448,192,201645,1,0,0:0:0:0:
320,192,201762,1,0,0:0:0:0:
64,192,201879,1,0,0:0:0:0:
64,192,201996,1,0,0:0:0:0:
448,192,202113,1,0,0:0:0:0:
448,192,202230,1,0,0:0:0:0:
192,192,202348,1,0,0:0:0:0:
192,192,202465,1,0,0:0:0:0:
320,192,202582,1,0,0:0:0:0:
320,192,202699,1,0,0:0:0:0:
64,192,202816,1,0,0:0:0:0:
64,192,202934,1,0,0:0:0:0:
448,192,203051,1,0,0:0:0:0:
448,192,203168,1,0,0:0:0:0:
192,192,203285,1,0,0:0:0:0:
192,192,203402,1,0,0:0:0:0:
64,192,203520,1,0,0:0:0:0:
320,192,203520,1,0,0:0:0:0:
448,192,203520,1,0,0:0:0:0:
64,192,203754,1,0,0:0:0:0:
448,192,203754,1,0,0:0:0:0:
64,192,203988,1,0,0:0:0:0:
192,192,203988,1,0,0:0:0:0:
320,192,203988,1,0,0:0:0:0:
320,192,204105,1,0,0:0:0:0:
448,192,204105,1,0,0:0:0:0:
64,192,204340,1,0,0:0:0:0:
192,192,204340,1,0,0:0:0:0:
64,192,204457,1,0,0:0:0:0:
320,192,204457,1,0,0:0:0:0:
448,192,204457,1,0,0:0:0:0:
192,192,204691,1,0,0:0:0:0:
320,192,204691,1,0,0:0:0:0:
64,192,204926,1,0,0:0:0:0:
192,192,204926,1,0,0:0:0:0:
320,192,204926,1,0,0:0:0:0:
64,192,205043,1,0,0:0:0:0:
448,192,205043,1,0,0:0:0:0:
320,192,205277,1,0,0:0:0:0:
448,192,205277,1,0,0:0:0:0:
192,192,205395,1,0,0:0:0:0:
64,192,205395,1,0,0:0:0:0:
448,192,205395,1,0,0:0:0:0:
64,192,205629,1,0,0:0:0:0:
448,192,205629,1,0,0:0:0:0:
192,192,205863,1,0,0:0:0:0:
320,192,205863,1,0,0:0:0:0:
448,192,205863,1,0,0:0:0:0:
64,192,205980,1,0,0:0:0:0:
320,192,205980,1,0,0:0:0:0:
192,192,206215,1,0,0:0:0:0:
448,192,206215,1,0,0:0:0:0:
320,192,206332,1,0,0:0:0:0:
192,192,206332,1,0,0:0:0:0:
64,192,206332,1,0,0:0:0:0:
448,192,206566,1,0,0:0:0:0:
320,192,206566,1,0,0:0:0:0:
64,192,206801,1,0,0:0:0:0:
192,192,206801,1,0,0:0:0:0:
448,192,206801,1,0,0:0:0:0:
320,192,206918,1,0,0:0:0:0:
192,192,206918,1,0,0:0:0:0:
64,192,207152,1,0,0:0:0:0:
192,192,207152,1,0,0:0:0:0:
64,192,207270,1,0,0:0:0:0:
320,192,207270,1,0,0:0:0:0:
448,192,207270,1,0,0:0:0:0:
448,192,207504,1,0,0:0:0:0:
192,192,207504,1,0,0:0:0:0:
64,192,207738,1,0,0:0:0:0:
192,192,207738,1,0,0:0:0:0:
448,192,207738,1,0,0:0:0:0:
320,192,207855,1,0,0:0:0:0:
64,192,207855,1,0,0:0:0:0:
320,192,208090,1,0,0:0:0:0:
448,192,208090,1,0,0:0:0:0:
320,192,208207,1,0,0:0:0:0:
192,192,208207,1,0,0:0:0:0:
64,192,208207,1,0,0:0:0:0:
448,192,208441,1,0,0:0:0:0:
64,192,208441,1,0,0:0:0:0:
192,192,208676,1,0,0:0:0:0:
320,192,208676,1,0,0:0:0:0:
448,192,208676,1,0,0:0:0:0:
320,192,208793,1,0,0:0:0:0:
64,192,208793,1,0,0:0:0:0:
192,192,209027,1,0,0:0:0:0:
320,192,209027,1,0,0:0:0:0:
448,192,209145,1,0,0:0:0:0:
64,192,209145,1,0,0:0:0:0:
192,192,209145,1,0,0:0:0:0:
320,192,209379,1,0,0:0:0:0:
448,192,209379,1,0,0:0:0:0:
64,192,209613,1,0,0:0:0:0:
192,192,209613,1,0,0:0:0:0:
448,192,209613,1,0,0:0:0:0:
320,192,209730,1,0,0:0:0:0:
64,192,209730,1,0,0:0:0:0:
192,192,209965,1,0,0:0:0:0:
448,192,209965,1,0,0:0:0:0:
320,192,210082,1,0,0:0:0:0:
192,192,210082,1,0,0:0:0:0:
64,192,210082,1,0,0:0:0:0:
192,192,210316,1,0,0:0:0:0:
320,192,210316,1,0,0:0:0:0:
320,192,210551,1,0,0:0:0:0:
448,192,210551,1,0,0:0:0:0:
64,192,210551,1,0,0:0:0:0:
192,192,210668,1,0,0:0:0:0:
448,192,210668,1,0,0:0:0:0:
64,192,210902,1,0,0:0:0:0:
192,192,210902,1,0,0:0:0:0:
320,192,211020,1,0,0:0:0:0:
448,192,211020,1,0,0:0:0:0:
64,192,211020,1,0,0:0:0:0:
192,192,211137,1,0,0:0:0:0:
320,192,211137,1,0,0:0:0:0:
448,192,211254,1,0,0:0:0:0:
64,192,211254,1,0,0:0:0:0:
64,192,211371,1,0,0:0:0:0:
192,192,211371,1,0,0:0:0:0:
448,192,211488,1,0,0:0:0:0:
320,192,211488,1,0,0:0:0:0:
64,192,211605,1,0,0:0:0:0:
448,192,211605,1,0,0:0:0:0:
320,192,211723,1,0,0:0:0:0:
64,192,211723,1,0,0:0:0:0:
320,192,211840,1,0,0:0:0:0:
448,192,211840,1,0,0:0:0:0:
64,192,211957,1,0,0:0:0:0:
192,192,211957,1,0,0:0:0:0:
64,192,212074,1,0,0:0:0:0:
448,192,212074,1,0,0:0:0:0:
320,192,212191,1,0,0:0:0:0:
192,192,212191,1,0,0:0:0:0:
448,192,212309,1,0,0:0:0:0:
320,192,212309,1,0,0:0:0:0:
64,192,212426,1,0,0:0:0:0:
448,192,212426,1,0,0:0:0:0:
64,192,212543,1,0,0:0:0:0:
320,192,212543,1,0,0:0:0:0:
192,192,212660,1,0,0:0:0:0:
448,192,212660,1,0,0:0:0:0:
64,192,212777,1,0,0:0:0:0:
448,192,212777,1,0,0:0:0:0:
192,192,212895,1,0,0:0:0:0:
320,192,212895,1,0,0:0:0:0:
64,192,213012,1,0,0:0:0:0:
320,192,213012,1,0,0:0:0:0:
448,192,213129,1,0,0:0:0:0:
192,192,213129,1,0,0:0:0:0:
320,192,213246,1,0,0:0:0:0:
192,192,213246,1,0,0:0:0:0:
64,192,213363,1,0,0:0:0:0:
448,192,213363,1,0,0:0:0:0:
320,192,213480,1,0,0:0:0:0:
64,192,213480,1,0,0:0:0:0:
192,192,213598,1,0,0:0:0:0:
448,192,213598,1,0,0:0:0:0:
320,192,213715,1,0,0:0:0:0:
448,192,213715,1,0,0:0:0:0:
64,192,213832,1,0,0:0:0:0:
192,192,213832,1,0,0:0:0:0:
448,192,213949,1,0,0:0:0:0:
64,192,213949,1,0,0:0:0:0:
320,192,214066,1,0,0:0:0:0:
192,192,214066,1,0,0:0:0:0:
64,192,214184,1,0,0:0:0:0:
448,192,214184,1,0,0:0:0:0:
320,192,214301,1,0,0:0:0:0:
64,192,214301,1,0,0:0:0:0:
192,192,214418,1,0,0:0:0:0:
448,192,214418,1,0,0:0:0:0:
64,192,214535,1,0,0:0:0:0:
192,192,214535,1,0,0:0:0:0:
448,192,214652,1,0,0:0:0:0:
320,192,214652,1,0,0:0:0:0:
64,192,214770,1,0,0:0:0:0:
192,192,214770,1,0,0:0:0:0:
448,192,214828,1,0,0:0:0:0:
320,192,214887,1,0,0:0:0:0:
64,192,214887,1,0,0:0:0:0:
192,192,214945,1,0,0:0:0:0:
320,192,215004,1,0,0:0:0:0:
448,192,215004,1,0,0:0:0:0:
64,192,215062,1,0,0:0:0:0:
192,192,215121,1,0,0:0:0:0:
320,192,215121,1,0,0:0:0:0:
448,192,215180,1,0,0:0:0:0:
64,192,215238,1,0,0:0:0:0:
192,192,215238,1,0,0:0:0:0:
320,192,215297,1,0,0:0:0:0:
448,192,215355,1,0,0:0:0:0:
64,192,215355,1,0,0:0:0:0:
192,192,215414,1,0,0:0:0:0:
320,192,215473,1,0,0:0:0:0:
448,192,215473,1,0,0:0:0:0:
64,192,215531,1,0,0:0:0:0:
192,192,215590,1,0,0:0:0:0:
448,192,215590,1,0,0:0:0:0:
320,192,215648,1,0,0:0:0:0:
64,192,215707,1,0,0:0:0:0:
448,192,215707,1,0,0:0:0:0:
192,192,215766,1,0,0:0:0:0:
320,192,215824,1,0,0:0:0:0:
448,192,215824,1,0,0:0:0:0:
64,192,215883,1,0,0:0:0:0:
320,192,215941,1,0,0:0:0:0:
192,192,215941,1,0,0:0:0:0:
448,192,216000,1,0,0:0:0:0:
64,192,216059,1,0,0:0:0:0:
320,192,216059,1,0,0:0:0:0:
192,192,216117,1,0,0:0:0:0:
448,192,216176,1,0,0:0:0:0:
320,192,216176,1,0,0:0:0:0:
64,192,216234,1,0,0:0:0:0:
192,192,216293,1,0,0:0:0:0:
448,192,216293,1,0,0:0:0:0:
320,192,216352,1,0,0:0:0:0:
64,192,216410,1,0,0:0:0:0:
192,192,216410,1,0,0:0:0:0:
448,192,216469,1,0,0:0:0:0:
64,192,216527,1,0,0:0:0:0:
320,192,216527,1,0,0:0:0:0:
192,192,216586,1,0,0:0:0:0:
448,192,216645,1,0,0:0:0:0:
320,192,216645,1,0,0:0:0:0:
64,192,216645,1,0,0:0:0:0:
192,192,216996,1,0,0:0:0:0:
320,192,217113,1,0,0:0:0:0:
448,192,217348,1,0,0:0:0:0:
64,192,217465,1,0,0:0:0:0:
320,192,217582,1,0,0:0:0:0:
448,192,217582,1,0,0:0:0:0:
192,192,217699,1,0,0:0:0:0:
64,192,217934,1,0,0:0:0:0:
192,192,217934,1,0,0:0:0:0:
448,192,218051,1,0,0:0:0:0:
64,192,218051,1,0,0:0:0:0:
448,192,218168,1,0,0:0:0:0:
192,192,218168,1,0,0:0:0:0:
64,192,218285,1,0,0:0:0:0:
320,192,218285,1,0,0:0:0:0:
192,192,218285,1,0,0:0:0:0:
64,192,218520,128,0,218871:0:0:0:0:
320,192,218520,128,0,218871:0:0:0:0:
448,192,218520,128,0,218871:0:0:0:0:
192,192,218988,128,0,219340:0:0:0:0:
64,192,218988,128,0,219340:0:0:0:0:
448,192,218988,1,0,0:0:0:0:
448,192,219223,1,0,0:0:0:0:
320,192,219340,1,0,0:0:0:0:
64,192,219457,1,0,0:0:0:0:
192,192,219457,1,0,0:0:0:0:
448,192,219457,128,0,219516:0:0:0:0:
448,192,219574,128,0,219633:0:0:0:0:
448,192,219691,128,0,219750:0:0:0:0:
64,192,219691,1,0,0:0:0:0:
192,192,219809,1,0,0:0:0:0:
448,192,219926,128,0,219984:0:0:0:0:
64,192,219926,1,0,0:0:0:0:
320,192,219926,1,0,0:0:0:0:
448,192,220043,128,0,220102:0:0:0:0:
448,192,220160,128,0,220395:0:0:0:0:
192,192,220160,1,0,0:0:0:0:
64,192,220395,128,0,220746:0:0:0:0:
192,192,220395,1,0,0:0:0:0:
320,192,220395,1,0,0:0:0:0:
448,192,220629,1,0,0:0:0:0:
320,192,220746,1,0,0:0:0:0:
448,192,220863,128,0,220980:0:0:0:0:
192,192,220863,1,0,0:0:0:0:
64,192,220863,1,0,0:0:0:0:
320,192,220980,1,0,0:0:0:0:
448,192,221098,128,0,221332:0:0:0:0:
64,192,221098,1,0,0:0:0:0:
320,192,221332,1,0,0:0:0:0:
192,192,221332,128,0,221566:0:0:0:0:
64,192,221566,1,0,0:0:0:0:
448,192,221566,128,0,221918:0:0:0:0:
320,192,221684,1,0,0:0:0:0:
64,192,221801,1,0,0:0:0:0:
192,192,221801,1,0,0:0:0:0:
64,192,221918,128,0,222270:0:0:0:0:
320,192,222035,1,0,0:0:0:0:
192,192,222152,1,0,0:0:0:0:
320,192,222270,128,0,222621:0:0:0:0:
448,192,222270,128,0,222621:0:0:0:0:
192,192,222270,1,0,0:0:0:0:
192,192,222504,1,0,0:0:0:0:
64,192,222621,1,0,0:0:0:0:
320,192,222738,1,0,0:0:0:0:
448,192,222738,1,0,0:0:0:0:
192,192,222738,128,0,222973:0:0:0:0:
64,192,222973,128,0,223090:0:0:0:0:
320,192,222973,1,0,0:0:0:0:
448,192,223090,1,0,0:0:0:0:
320,192,223148,1,0,0:0:0:0:
448,192,223207,1,0,0:0:0:0:
64,192,223207,128,0,223266:0:0:0:0:
192,192,223207,1,0,0:0:0:0:
64,192,223324,128,0,223383:0:0:0:0:
64,192,223441,128,0,223500:0:0:0:0:
320,192,223441,1,0,0:0:0:0:
448,192,223559,1,0,0:0:0:0:
192,192,223559,1,0,0:0:0:0:
320,192,223617,1,0,0:0:0:0:
64,192,223676,1,0,0:0:0:0:
192,192,223676,1,0,0:0:0:0:
448,192,223676,128,0,224145:0:0:0:0:
64,192,223910,1,0,0:0:0:0:
192,192,224027,1,0,0:0:0:0:
320,192,224145,1,0,0:0:0:0:
192,192,224145,1,0,0:0:0:0:
64,192,224145,128,0,224379:0:0:0:0:
448,192,224379,128,0,224496:0:0:0:0:
320,192,224379,1,0,0:0:0:0:
192,192,224496,1,0,0:0:0:0:
64,192,224613,1,0,0:0:0:0:
320,192,224613,1,0,0:0:0:0:
448,192,224613,1,0,0:0:0:0:
64,192,224848,128,0,224906:0:0:0:0:
64,192,224965,128,0,225023:0:0:0:0:
192,192,225082,1,0,0:0:0:0:
320,192,225082,1,0,0:0:0:0:
448,192,225082,128,0,225141:0:0:0:0:
320,192,225199,128,0,225258:0:0:0:0:
192,192,225316,128,0,225375:0:0:0:0:
64,192,225434,128,0,225492:0:0:0:0:
192,192,225551,1,0,0:0:0:0:
320,192,225551,1,0,0:0:0:0:
448,192,225551,128,0,225609:0:0:0:0:
320,192,225668,128,0,225727:0:0:0:0:
192,192,225785,128,0,225844:0:0:0:0:
64,192,225902,128,0,225961:0:0:0:0:
192,192,226020,1,0,0:0:0:0:
320,192,226020,128,0,226371:0:0:0:0:
448,192,226020,128,0,226371:0:0:0:0:
64,192,226254,1,0,0:0:0:0:
192,192,226371,1,0,0:0:0:0:
320,192,226488,1,0,0:0:0:0:
448,192,226488,1,0,0:0:0:0:
64,192,226488,128,0,226723:0:0:0:0:
448,192,226723,1,0,0:0:0:0:
320,192,226840,1,0,0:0:0:0:
192,192,226957,1,0,0:0:0:0:
448,192,226957,1,0,0:0:0:0:
64,192,226957,128,0,227016:0:0:0:0:
64,192,227074,128,0,227133:0:0:0:0:
64,192,227191,128,0,227250:0:0:0:0:
192,192,227309,1,0,0:0:0:0:
320,192,227367,1,0,0:0:0:0:
64,192,227426,128,0,227484:0:0:0:0:
448,192,227426,1,0,0:0:0:0:
192,192,227426,1,0,0:0:0:0:
64,192,227543,128,0,227602:0:0:0:0:
64,192,227660,128,0,227895:0:0:0:0:
448,192,227895,128,0,228363:0:0:0:0:
192,192,227895,1,0,0:0:0:0:
320,192,227895,1,0,0:0:0:0:
64,192,228129,1,0,0:0:0:0:
192,192,228246,1,0,0:0:0:0:
320,192,228363,128,0,228598:0:0:0:0:
64,192,228363,1,0,0:0:0:0:
192,192,228363,1,0,0:0:0:0:
192,192,228598,128,0,228832:0:0:0:0:
64,192,228598,1,0,0:0:0:0:
448,192,228832,1,0,0:0:0:0:
64,192,228832,1,0,0:0:0:0:
320,192,228832,128,0,229066:0:0:0:0:
64,192,229066,128,0,229418:0:0:0:0:
448,192,229066,1,0,0:0:0:0:
192,192,229184,1,0,0:0:0:0:
192,192,229301,1,0,0:0:0:0:
320,192,229301,1,0,0:0:0:0:
448,192,229301,1,0,0:0:0:0:
448,192,229418,128,0,229770:0:0:0:0:
320,192,229535,1,0,0:0:0:0:
192,192,229652,1,0,0:0:0:0:
320,192,229770,1,0,0:0:0:0:
64,192,229770,128,0,230121:0:0:0:0:
192,192,229770,128,0,230121:0:0:0:0:
448,192,230004,1,0,0:0:0:0:
320,192,230121,1,0,0:0:0:0:
64,192,230238,1,0,0:0:0:0:
192,192,230238,1,0,0:0:0:0:
448,192,230238,128,0,230473:0:0:0:0:
64,192,230473,128,0,230590:0:0:0:0:
320,192,230473,1,0,0:0:0:0:
192,192,230590,1,0,0:0:0:0:
320,192,230648,1,0,0:0:0:0:
64,192,230707,128,0,230766:0:0:0:0:
192,192,230707,1,0,0:0:0:0:
448,192,230707,1,0,0:0:0:0:
64,192,230824,128,0,230883:0:0:0:0:
64,192,230941,128,0,231000:0:0:0:0:
192,192,231059,1,0,0:0:0:0:
320,192,231117,1,0,0:0:0:0:
448,192,231176,128,0,231645:0:0:0:0:
64,192,231410,1,0,0:0:0:0:
320,192,231527,1,0,0:0:0:0:
192,192,231645,1,0,0:0:0:0:
320,192,231645,1,0,0:0:0:0:
64,192,231645,128,0,231879:0:0:0:0:
448,192,231879,1,0,0:0:0:0:
320,192,231879,1,0,0:0:0:0:
192,192,231996,1,0,0:0:0:0:
64,192,231996,1,0,0:0:0:0:
64,192,232113,1,0,0:0:0:0:
320,192,232113,1,0,0:0:0:0:
448,192,232113,128,0,232172:0:0:0:0:
448,192,232230,128,0,232289:0:0:0:0:
448,192,232348,128,0,232406:0:0:0:0:
192,192,232348,1,0,0:0:0:0:
64,192,232465,1,0,0:0:0:0:
320,192,232465,1,0,0:0:0:0:
64,192,232582,1,0,0:0:0:0:
448,192,232582,1,0,0:0:0:0:
192,192,232582,1,0,0:0:0:0:
192,192,232699,1,0,0:0:0:0:
192,192,232816,1,0,0:0:0:0:
320,192,232934,1,0,0:0:0:0:
448,192,232934,1,0,0:0:0:0:
64,192,232934,1,0,0:0:0:0:
320,192,233051,1,0,0:0:0:0:
320,192,233168,1,0,0:0:0:0:
64,192,233285,1,0,0:0:0:0:
192,192,233285,1,0,0:0:0:0:
448,192,233285,1,0,0:0:0:0:
192,192,233402,1,0,0:0:0:0:
64,192,233520,1,0,0:0:0:0:
320,192,233520,128,0,233871:0:0:0:0:
448,192,233520,128,0,233871:0:0:0:0:
192,192,233988,1,0,0:0:0:0:
448,192,233988,1,0,0:0:0:0:
64,192,233988,128,0,234047:0:0:0:0:
64,192,234105,128,0,234164:0:0:0:0:
64,192,234223,128,0,234281:0:0:0:0:
320,192,234223,1,0,0:0:0:0:
448,192,234340,128,0,234457:0:0:0:0:
192,192,234340,1,0,0:0:0:0:
64,192,234457,1,0,0:0:0:0:
192,192,234457,1,0,0:0:0:0:
320,192,234457,1,0,0:0:0:0:
448,192,234574,1,0,0:0:0:0:
320,192,234633,1,0,0:0:0:0:
192,192,234691,1,0,0:0:0:0:
64,192,234691,128,0,234926:0:0:0:0:
448,192,234809,1,0,0:0:0:0:
192,192,234926,1,0,0:0:0:0:
448,192,234926,1,0,0:0:0:0:
320,192,234926,128,0,235160:0:0:0:0:
64,192,235160,1,0,0:0:0:0:
192,192,235277,1,0,0:0:0:0:
448,192,235395,1,0,0:0:0:0:
320,192,235395,1,0,0:0:0:0:
64,192,235395,128,0,235512:0:0:0:0:
192,192,235512,1,0,0:0:0:0:
320,192,235570,1,0,0:0:0:0:
448,192,235629,1,0,0:0:0:0:
320,192,235687,1,0,0:0:0:0:
192,192,235746,1,0,0:0:0:0:
64,192,235805,1,0,0:0:0:0:
192,192,235863,1,0,0:0:0:0:
320,192,235863,1,0,0:0:0:0:
448,192,235863,128,0,235922:0:0:0:0:
448,192,235980,128,0,236039:0:0:0:0:
448,192,236098,128,0,236156:0:0:0:0:
320,192,236098,1,0,0:0:0:0:
192,192,236215,1,0,0:0:0:0:
320,192,236273,1,0,0:0:0:0:
448,192,236332,128,0,236391:0:0:0:0:
64,192,236332,1,0,0:0:0:0:
192,192,236332,1,0,0:0:0:0:
448,192,236449,128,0,236508:0:0:0:0:
64,192,236566,128,0,236918:0:0:0:0:
192,192,236566,1,0,0:0:0:0:
320,192,236684,1,0,0:0:0:0:
192,192,236801,1,0,0:0:0:0:
320,192,236801,1,0,0:0:0:0:
448,192,236801,1,0,0:0:0:0:
448,192,236918,128,0,237270:0:0:0:0:
192,192,237035,1,0,0:0:0:0:
320,192,237152,1,0,0:0:0:0:
64,192,237270,128,0,237504:0:0:0:0:
192,192,237270,128,0,237504:0:0:0:0:
320,192,237504,1,0,0:0:0:0:
448,192,237504,1,0,0:0:0:0:
192,192,237621,1,0,0:0:0:0:
320,192,237738,1,0,0:0:0:0:
448,192,237738,1,0,0:0:0:0:
64,192,237738,128,0,237797:0:0:0:0:
64,192,237855,128,0,237914:0:0:0:0:
64,192,237973,128,0,238031:0:0:0:0:
320,192,237973,1,0,0:0:0:0:
448,192,238090,128,0,238207:0:0:0:0:
192,192,238090,1,0,0:0:0:0:
64,192,238207,1,0,0:0:0:0:
192,192,238207,1,0,0:0:0:0:
320,192,238207,1,0,0:0:0:0:
320,192,238324,1,0,0:0:0:0:
448,192,238383,1,0,0:0:0:0:
64,192,238441,128,0,238500:0:0:0:0:
192,192,238500,128,0,238559:0:0:0:0:
320,192,238559,128,0,238617:0:0:0:0:
192,192,238676,1,0,0:0:0:0:
64,192,238676,1,0,0:0:0:0:
448,192,238676,128,0,239027:0:0:0:0:
64,192,238910,1,0,0:0:0:0:
320,192,239027,1,0,0:0:0:0:
64,192,239145,128,0,239496:0:0:0:0:
192,192,239145,128,0,239496:0:0:0:0:
448,192,239145,1,0,0:0:0:0:
320,192,239379,1,0,0:0:0:0:
448,192,239496,1,0,0:0:0:0:
64,192,239613,1,0,0:0:0:0:
192,192,239613,1,0,0:0:0:0:
320,192,239613,1,0,0:0:0:0:
64,192,239848,1,0,0:0:0:0:
320,192,239965,128,0,240316:0:0:0:0:
448,192,239965,128,0,240316:0:0:0:0:
192,192,239965,1,0,0:0:0:0:
192,192,240316,1,0,0:0:0:0:
64,192,240316,1,0,0:0:0:0:
320,192,240434,1,0,0:0:0:0:
64,192,240551,1,0,0:0:0:0:
448,192,240551,1,0,0:0:0:0:
192,192,240668,1,0,0:0:0:0:
448,192,240668,1,0,0:0:0:0:
64,192,240785,1,0,0:0:0:0:
192,192,240785,1,0,0:0:0:0:
320,192,240902,128,0,241020:0:0:0:0:
448,192,240902,128,0,241020:0:0:0:0:
64,192,240902,1,0,0:0:0:0:
192,192,241020,1,0,0:0:0:0:
64,192,241137,128,0,241195:0:0:0:0:
64,192,241254,128,0,241312:0:0:0:0:
64,192,241371,128,0,241430:0:0:0:0:
192,192,241488,128,0,241840:0:0:0:0:
320,192,241488,128,0,241840:0:0:0:0:
448,192,241488,1,0,0:0:0:0:
448,192,241723,1,0,0:0:0:0:
64,192,241840,1,0,0:0:0:0:
64,192,241957,1,0,0:0:0:0:
320,192,241957,1,0,0:0:0:0:
448,192,241957,1,0,0:0:0:0:
192,192,242074,1,0,0:0:0:0:
320,192,242133,1,0,0:0:0:0:
448,192,242191,128,0,242426:0:0:0:0:
64,192,242191,1,0,0:0:0:0:
192,192,242309,1,0,0:0:0:0:
64,192,242426,1,0,0:0:0:0:
192,192,242426,1,0,0:0:0:0:
320,192,242426,1,0,0:0:0:0:
64,192,242660,1,0,0:0:0:0:
320,192,242777,1,0,0:0:0:0:
64,192,242895,1,0,0:0:0:0:
192,192,242895,1,0,0:0:0:0:
448,192,242895,128,0,243012:0:0:0:0:
320,192,243012,1,0,0:0:0:0:
192,192,243070,1,0,0:0:0:0:
64,192,243129,1,0,0:0:0:0:
192,192,243187,1,0,0:0:0:0:
320,192,243246,1,0,0:0:0:0:
448,192,243305,1,0,0:0:0:0:
320,192,243363,1,0,0:0:0:0:
192,192,243363,1,0,0:0:0:0:
64,192,243363,128,0,243422:0:0:0:0:
64,192,243480,128,0,243539:0:0:0:0:
64,192,243598,128,0,243656:0:0:0:0:
192,192,243598,1,0,0:0:0:0:
320,192,243715,1,0,0:0:0:0:
448,192,243715,1,0,0:0:0:0:
192,192,243773,1,0,0:0:0:0:
64,192,243832,128,0,243891:0:0:0:0:
64,192,243949,128,0,244008:0:0:0:0:
320,192,244066,128,0,244301:0:0:0:0:
448,192,244066,1,0,0:0:0:0:
64,192,244184,1,0,0:0:0:0:
192,192,244301,128,0,244535:0:0:0:0:
448,192,244301,1,0,0:0:0:0:
64,192,244301,1,0,0:0:0:0:
320,192,244535,1,0,0:0:0:0:
448,192,244652,1,0,0:0:0:0:
64,192,244770,1,0,0:0:0:0:
192,192,244770,1,0,0:0:0:0:
448,192,244887,1,0,0:0:0:0:
320,192,244887,1,0,0:0:0:0:
320,192,245004,1,0,0:0:0:0:
192,192,245004,1,0,0:0:0:0:
64,192,245004,1,0,0:0:0:0:
448,192,245121,1,0,0:0:0:0:
64,192,245121,1,0,0:0:0:0:
192,192,245238,1,0,0:0:0:0:
320,192,245238,1,0,0:0:0:0:
448,192,245355,1,0,0:0:0:0:
64,192,245355,1,0,0:0:0:0:
320,192,245473,1,0,0:0:0:0:
192,192,245473,1,0,0:0:0:0:
448,192,245473,1,0,0:0:0:0:
64,192,245590,1,0,0:0:0:0:
192,192,245590,1,0,0:0:0:0:
320,192,245648,1,0,0:0:0:0:
448,192,245648,1,0,0:0:0:0:
192,192,245707,1,0,0:0:0:0:
64,192,245707,1,0,0:0:0:0:
448,192,245824,1,0,0:0:0:0:
320,192,245824,1,0,0:0:0:0:
64,192,245941,1,0,0:0:0:0:
192,192,245941,1,0,0:0:0:0:
320,192,246059,1,0,0:0:0:0:
448,192,246059,1,0,0:0:0:0:
64,192,246176,128,0,246645:0:0:0:0:
192,192,246645,1,0,0:0:0:0:
320,192,246645,128,0,246996:0:0:0:0:
448,192,246645,128,0,246996:0:0:0:0:
64,192,246996,1,0,0:0:0:0:
64,192,247113,1,0,0:0:0:0:
448,192,247113,1,0,0:0:0:0:
192,192,247113,1,0,0:0:0:0:
448,192,247230,1,0,0:0:0:0:
320,192,247230,1,0,0:0:0:0:
64,192,247348,1,0,0:0:0:0:
192,192,247348,1,0,0:0:0:0:
320,192,247406,1,0,0:0:0:0:
448,192,247406,1,0,0:0:0:0:
64,192,247465,128,0,247699:0:0:0:0:
192,192,247465,128,0,247699:0:0:0:0:
448,192,247465,1,0,0:0:0:0:
320,192,247699,1,0,0:0:0:0:
448,192,247699,1,0,0:0:0:0:
64,192,247816,1,0,0:0:0:0:
448,192,247816,1,0,0:0:0:0:
192,192,247934,1,0,0:0:0:0:
320,192,247934,1,0,0:0:0:0:
64,192,248051,1,0,0:0:0:0:
192,192,248051,1,0,0:0:0:0:
448,192,248168,128,0,248285:0:0:0:0:
320,192,248168,128,0,248285:0:0:0:0:
64,192,248285,128,0,248402:0:0:0:0:
192,192,248285,128,0,248402:0:0:0:0:
64,192,248520,1,0,0:0:0:0:
320,192,248520,128,0,248871:0:0:0:0:
448,192,248520,128,0,248871:0:0:0:0:
64,192,248988,1,0,0:0:0:0:
192,192,248988,1,0,0:0:0:0:
448,192,248988,1,0,0:0:0:0:
320,192,249105,1,0,0:0:0:0:
64,192,249223,1,0,0:0:0:0:
320,192,249340,1,0,0:0:0:0:
448,192,249340,1,0,0:0:0:0:
192,192,249457,1,0,0:0:0:0:
448,192,249574,1,0,0:0:0:0:
64,192,249691,1,0,0:0:0:0:
192,192,249809,1,0,0:0:0:0:
64,192,249926,1,0,0:0:0:0:
320,192,249926,1,0,0:0:0:0:
448,192,249926,1,0,0:0:0:0:
192,192,250043,1,0,0:0:0:0:
448,192,250160,1,0,0:0:0:0:
64,192,250277,1,0,0:0:0:0:
192,192,250395,1,0,0:0:0:0:
320,192,250395,1,0,0:0:0:0:
448,192,250512,1,0,0:0:0:0:
320,192,250629,1,0,0:0:0:0:
192,192,250746,1,0,0:0:0:0:
64,192,250863,1,0,0:0:0:0:
320,192,250863,1,0,0:0:0:0:
448,192,250863,1,0,0:0:0:0:
192,192,250980,1,0,0:0:0:0:
64,192,251098,1,0,0:0:0:0:
320,192,251215,1,0,0:0:0:0:
448,192,251215,1,0,0:0:0:0:
64,192,251332,1,0,0:0:0:0:
448,192,251449,1,0,0:0:0:0:
192,192,251566,1,0,0:0:0:0:
64,192,251566,1,0,0:0:0:0:
320,192,251684,1,0,0:0:0:0:
448,192,251801,1,0,0:0:0:0:
192,192,251801,1,0,0:0:0:0:
64,192,251801,1,0,0:0:0:0:
320,192,251918,1,0,0:0:0:0:
448,192,251918,1,0,0:0:0:0:
192,192,252035,1,0,0:0:0:0:
64,192,252152,1,0,0:0:0:0:
320,192,252270,1,0,0:0:0:0:
448,192,252270,1,0,0:0:0:0:
192,192,252387,1,0,0:0:0:0:
448,192,252504,1,0,0:0:0:0:
64,192,252621,1,0,0:0:0:0:
192,192,252738,1,0,0:0:0:0:
320,192,252738,1,0,0:0:0:0:
448,192,252738,1,0,0:0:0:0:
64,192,252855,1,0,0:0:0:0:
448,192,252973,1,0,0:0:0:0:
192,192,253090,1,0,0:0:0:0:
320,192,253090,1,0,0:0:0:0:
64,192,253207,1,0,0:0:0:0:
448,192,253324,1,0,0:0:0:0:
64,192,253441,1,0,0:0:0:0:
192,192,253559,1,0,0:0:0:0:
64,192,253676,1,0,0:0:0:0:
320,192,253676,1,0,0:0:0:0:
448,192,253676,1,0,0:0:0:0:
192,192,253793,1,0,0:0:0:0:
448,192,253910,1,0,0:0:0:0:
64,192,254027,1,0,0:0:0:0:
320,192,254145,1,0,0:0:0:0:
448,192,254145,1,0,0:0:0:0:
192,192,254262,1,0,0:0:0:0:
64,192,254379,1,0,0:0:0:0:
448,192,254496,1,0,0:0:0:0:
320,192,254613,1,0,0:0:0:0:
192,192,254613,1,0,0:0:0:0:
64,192,254613,1,0,0:0:0:0:
448,192,254730,1,0,0:0:0:0:
64,192,254848,1,0,0:0:0:0:
192,192,254965,1,0,0:0:0:0:
448,192,254965,1,0,0:0:0:0:
320,192,255082,1,0,0:0:0:0:
64,192,255199,1,0,0:0:0:0:
448,192,255316,1,0,0:0:0:0:
320,192,255316,1,0,0:0:0:0:
192,192,255434,1,0,0:0:0:0:
64,192,255551,1,0,0:0:0:0:
320,192,255551,1,0,0:0:0:0:
448,192,255551,1,0,0:0:0:0:
64,192,255668,1,0,0:0:0:0:
192,192,255668,1,0,0:0:0:0:
448,192,255785,1,0,0:0:0:0:
320,192,255902,1,0,0:0:0:0:
64,192,256020,1,0,0:0:0:0:
448,192,256020,1,0,0:0:0:0:
192,192,256137,1,0,0:0:0:0:
448,192,256254,1,0,0:0:0:0:
64,192,256371,1,0,0:0:0:0:
192,192,256488,1,0,0:0:0:0:
320,192,256488,1,0,0:0:0:0:
448,192,256488,1,0,0:0:0:0:
64,192,256605,1,0,0:0:0:0:
448,192,256723,1,0,0:0:0:0:
192,192,256840,1,0,0:0:0:0:
320,192,256840,1,0,0:0:0:0:
448,192,256957,1,0,0:0:0:0:
64,192,257074,1,0,0:0:0:0:
320,192,257191,1,0,0:0:0:0:
448,192,257309,1,0,0:0:0:0:
192,192,257426,1,0,0:0:0:0:
320,192,257426,1,0,0:0:0:0:
64,192,257426,1,0,0:0:0:0:
448,192,257543,1,0,0:0:0:0:
64,192,257660,1,0,0:0:0:0:
320,192,257777,1,0,0:0:0:0:
192,192,257895,1,0,0:0:0:0:
448,192,257895,1,0,0:0:0:0:
64,192,258012,1,0,0:0:0:0:
448,192,258129,1,0,0:0:0:0:
192,192,258246,1,0,0:0:0:0:
320,192,258363,1,0,0:0:0:0:
448,192,258363,1,0,0:0:0:0:
64,192,258363,1,0,0:0:0:0:
192,192,258480,1,0,0:0:0:0:
448,192,258598,1,0,0:0:0:0:
64,192,258715,1,0,0:0:0:0:
192,192,258715,1,0,0:0:0:0:
320,192,258832,1,0,0:0:0:0:
64,192,258949,1,0,0:0:0:0:
448,192,259066,1,0,0:0:0:0:
320,192,259066,1,0,0:0:0:0:
192,192,259184,1,0,0:0:0:0:
320,192,259301,1,0,0:0:0:0:
64,192,259301,1,0,0:0:0:0:
448,192,259301,1,0,0:0:0:0:
448,192,259418,1,0,0:0:0:0:
192,192,259418,1,0,0:0:0:0:
320,192,259535,1,0,0:0:0:0:
64,192,259652,1,0,0:0:0:0:
192,192,259770,1,0,0:0:0:0:
320,192,259770,1,0,0:0:0:0:
448,192,259887,1,0,0:0:0:0:
64,192,260004,1,0,0:0:0:0:
320,192,260121,1,0,0:0:0:0:
192,192,260238,1,0,0:0:0:0:
448,192,260238,1,0,0:0:0:0:
64,192,260238,1,0,0:0:0:0:
320,192,260355,1,0,0:0:0:0:
448,192,260473,1,0,0:0:0:0:
64,192,260590,1,0,0:0:0:0:
192,192,260590,1,0,0:0:0:0:
320,192,260707,1,0,0:0:0:0:
448,192,260824,1,0,0:0:0:0:
192,192,260941,1,0,0:0:0:0:
64,192,261059,1,0,0:0:0:0:
192,192,261176,1,0,0:0:0:0:
320,192,261176,1,0,0:0:0:0:
448,192,261176,1,0,0:0:0:0:
64,192,261293,1,0,0:0:0:0:
448,192,261410,1,0,0:0:0:0:
192,192,261527,1,0,0:0:0:0:
320,192,261645,1,0,0:0:0:0:
448,192,261645,1,0,0:0:0:0:
64,192,261762,1,0,0:0:0:0:
448,192,261879,1,0,0:0:0:0:
192,192,261996,1,0,0:0:0:0:
320,192,262113,1,0,0:0:0:0:
448,192,262113,1,0,0:0:0:0:
64,192,262113,1,0,0:0:0:0:
192,192,262230,1,0,0:0:0:0:
448,192,262348,1,0,0:0:0:0:
320,192,262465,1,0,0:0:0:0:
64,192,262465,1,0,0:0:0:0:
192,192,262582,1,0,0:0:0:0:
448,192,262699,1,0,0:0:0:0:
320,192,262816,1,0,0:0:0:0:
64,192,262816,1,0,0:0:0:0:
192,192,262934,1,0,0:0:0:0:
320,192,263051,1,0,0:0:0:0:
448,192,263051,1,0,0:0:0:0:
64,192,263051,1,0,0:0:0:0:
64,192,263168,1,0,0:0:0:0:
192,192,263168,1,0,0:0:0:0:
448,192,263285,1,0,0:0:0:0:
320,192,263402,1,0,0:0:0:0:
64,192,263520,1,0,0:0:0:0:
192,192,263520,1,0,0:0:0:0:
448,192,263988,1,0,0:0:0:0:
192,192,264457,1,0,0:0:0:0:
320,192,264926,1,0,0:0:0:0:
448,192,265395,1,0,0:0:0:0:
64,192,265863,1,0,0:0:0:0:
320,192,266332,1,0,0:0:0:0:
192,192,266801,1,0,0:0:0:0:
448,192,267270,1,0,0:0:0:0:
320,192,267738,1,0,0:0:0:0:
192,192,268207,1,0,0:0:0:0:
64,192,268676,1,0,0:0:0:0:
448,192,269145,1,0,0:0:0:0:
320,192,269613,1,0,0:0:0:0:
192,192,270082,1,0,0:0:0:0:
448,192,270551,1,0,0:0:0:0:
192,192,271020,1,0,0:0:0:0:
64,192,271020,128,0,271254:0:0:0:0:
448,192,271488,1,0,0:0:0:0:
64,192,271957,1,0,0:0:0:0:
320,192,272426,1,0,0:0:0:0:
192,192,272895,1,0,0:0:0:0:
448,192,273363,1,0,0:0:0:0:
64,192,273832,1,0,0:0:0:0:
192,192,274301,1,0,0:0:0:0:
448,192,274770,1,0,0:0:0:0:
320,192,275238,1,0,0:0:0:0:
64,192,275707,1,0,0:0:0:0:
448,192,276176,1,0,0:0:0:0:
192,192,276645,1,0,0:0:0:0:
320,192,277113,1,0,0:0:0:0:
64,192,277582,1,0,0:0:0:0:
448,192,278051,1,0,0:0:0:0:
192,192,278520,1,0,0:0:0:0:
448,192,278988,1,0,0:0:0:0:
192,192,279457,1,0,0:0:0:0:
64,192,279926,1,0,0:0:0:0:
320,192,280395,1,0,0:0:0:0:
192,192,280863,1,0,0:0:0:0:
448,192,281332,1,0,0:0:0:0:
64,192,281801,1,0,0:0:0:0:
320,192,282270,1,0,0:0:0:0:
448,192,282738,1,0,0:0:0:0:
64,192,283207,1,0,0:0:0:0:
320,192,283676,1,0,0:0:0:0:
448,192,284145,1,0,0:0:0:0:
192,192,284613,1,0,0:0:0:0:
64,192,285082,1,0,0:0:0:0:
320,192,285551,1,0,0:0:0:0:
448,192,286020,1,0,0:0:0:0:
64,192,286488,1,0,0:0:0:0:
320,192,286957,1,0,0:0:0:0:
192,192,287484,1,0,0:0:0:0:
448,192,288012,1,0,0:0:0:0:
64,192,288480,1,0,0:0:0:0:
448,192,289066,1,0,0:0:0:0:
192,192,289594,1,0,0:0:0:0:
320,192,290238,1,0,0:0:0:0:
64,192,290824,1,0,0:0:0:0:
320,192,291439,1,0,0:0:0:0:
192,192,292084,1,0,0:0:0:0:
448,192,292787,1,0,0:0:0:0:
64,192,293520,1,0,0:0:0:0:
320,192,294252,1,0,0:0:0:0:
192,192,295072,1,0,0:0:0:0:
