osu file format v14

[General]
AudioFilename: 07. The Lost Place In The New World.mp3
AudioLeadIn: 0
PreviewTime: 200400
Countdown: 0
SampleSet: Normal
StackLeniency: 0.7
Mode: 3
LetterboxInBreaks: 0
SpecialStyle: 0
WidescreenStoryboard: 1

[Editor]
Bookmarks: 136400,158800
DistanceSpacing: 1
BeatDivisor: 4
GridSize: 8
TimelineZoom: 1.7

[Metadata]
Title:Cyphisonia E.P.
TitleUnicode:Cyphisonia E.P.
Artist:Camellia
ArtistUnicode:かめりあ
Creator:LastExceed
Version:The Lost Place In The New World
Source:Marathon
Tags:
BeatmapID:1277814
BeatmapSetID:598266

[Difficulty]
HPDrainRate:8
CircleSize:4
OverallDifficulty:8
ApproachRate:5
SliderMultiplier:1.4
SliderTickRate:1

[Events]
//Background and Video events
0,0,"jacket.jpg",0,0
//Break Periods
//Storyboard Layer 0 (Background)
//Storyboard Layer 1 (Fail)
//Storyboard Layer 2 (Pass)
//Storyboard Layer 3 (Foreground)
//Storyboard Sound Samples

[TimingPoints]
8375,400,4,1,1,40,1,0

[HitObjects]
448,192,8375,128,0,10775:0:0:0:0:
64,192,8575,1,0,0:0:0:0:
192,192,8775,1,0,0:0:0:0:
320,192,8975,1,0,0:0:0:0:
64,192,9375,1,0,0:0:0:0:
192,192,9575,1,0,0:0:0:0:
320,192,9775,1,0,0:0:0:0:
64,192,10175,1,0,0:0:0:0:
192,192,10375,1,0,0:0:0:0:
320,192,10575,1,0,0:0:0:0:
192,192,11575,128,0,13975:0:0:0:0:
64,192,11775,1,0,0:0:0:0:
320,192,11975,1,0,0:0:0:0:
448,192,12175,1,0,0:0:0:0:
64,192,12575,1,0,0:0:0:0:
320,192,12775,1,0,0:0:0:0:
448,192,12975,1,0,0:0:0:0:
64,192,13375,1,0,0:0:0:0:
320,192,13575,1,0,0:0:0:0:
448,192,13775,1,0,0:0:0:0:
320,192,14775,128,0,17175:0:0:0:0:
64,192,14975,1,0,0:0:0:0:
192,192,15175,1,0,0:0:0:0:
448,192,15375,1,0,0:0:0:0:
64,192,15775,1,0,0:0:0:0:
192,192,15975,1,0,0:0:0:0:
448,192,16175,1,0,0:0:0:0:
64,192,16575,1,0,0:0:0:0:
192,192,16775,1,0,0:0:0:0:
448,192,16975,1,0,0:0:0:0:
64,192,17975,128,0,20375:0:0:0:0:
192,192,18175,1,0,0:0:0:0:
320,192,18375,1,0,0:0:0:0:
448,192,18575,1,0,0:0:0:0:
192,192,18975,1,0,0:0:0:0:
320,192,19175,1,0,0:0:0:0:
448,192,19375,1,0,0:0:0:0:
192,192,19775,1,0,0:0:0:0:
320,192,19975,1,0,0:0:0:0:
448,192,20175,1,0,0:0:0:0:
448,192,21175,128,0,23575:0:0:0:0:
64,192,21375,1,0,0:0:0:0:
192,192,21575,1,0,0:0:0:0:
320,192,21775,1,0,0:0:0:0:
64,192,22175,1,0,0:0:0:0:
192,192,22375,1,0,0:0:0:0:
320,192,22575,1,0,0:0:0:0:
64,192,22975,1,0,0:0:0:0:
192,192,23175,1,0,0:0:0:0:
320,192,23375,1,0,0:0:0:0:
192,192,24375,128,0,26775:0:0:0:0:
64,192,24575,1,0,0:0:0:0:
320,192,24775,1,0,0:0:0:0:
448,192,24975,1,0,0:0:0:0:
64,192,25375,1,0,0:0:0:0:
320,192,25575,1,0,0:0:0:0:
448,192,25775,1,0,0:0:0:0:
64,192,26175,1,0,0:0:0:0:
320,192,26375,1,0,0:0:0:0:
448,192,26575,1,0,0:0:0:0:
320,192,27575,128,0,29975:0:0:0:0:
64,192,27775,1,0,0:0:0:0:
192,192,27975,1,0,0:0:0:0:
448,192,28175,1,0,0:0:0:0:
64,192,28575,1,0,0:0:0:0:
192,192,28775,1,0,0:0:0:0:
448,192,28975,1,0,0:0:0:0:
64,192,29375,1,0,0:0:0:0:
192,192,29575,1,0,0:0:0:0:
448,192,29775,1,0,0:0:0:0:
64,192,30775,128,0,33175:0:0:0:0:
192,192,30975,1,0,0:0:0:0:
320,192,31175,1,0,0:0:0:0:
448,192,31375,1,0,0:0:0:0:
192,192,31775,1,0,0:0:0:0:
320,192,31975,1,0,0:0:0:0:
448,192,32175,1,0,0:0:0:0:
192,192,32575,1,0,0:0:0:0:
320,192,32775,1,0,0:0:0:0:
448,192,32975,1,0,0:0:0:0:
448,192,33975,128,0,36375:0:0:0:0:
192,192,33975,1,0,0:0:0:0:
320,192,35575,128,0,36375:0:0:0:0:
448,192,37175,1,0,0:0:0:0:
192,192,37175,128,0,39575:0:0:0:0:
320,192,37475,1,0,0:0:0:0:
448,192,37575,1,0,0:0:0:0:
320,192,37875,1,0,0:0:0:0:
448,192,37975,1,0,0:0:0:0:
320,192,38275,1,0,0:0:0:0:
448,192,38375,1,0,0:0:0:0:
320,192,38675,1,0,0:0:0:0:
64,192,38775,128,0,39575:0:0:0:0:
448,192,38775,1,0,0:0:0:0:
320,192,39075,1,0,0:0:0:0:
448,192,39175,1,0,0:0:0:0:
320,192,39475,1,0,0:0:0:0:
448,192,39575,1,0,0:0:0:0:
320,192,39875,1,0,0:0:0:0:
448,192,39975,1,0,0:0:0:0:
192,192,40275,1,0,0:0:0:0:
320,192,40375,128,0,42775:0:0:0:0:
64,192,40375,1,0,0:0:0:0:
64,192,40575,1,0,0:0:0:0:
192,192,40675,1,0,0:0:0:0:
64,192,40775,1,0,0:0:0:0:
64,192,40975,1,0,0:0:0:0:
192,192,41075,1,0,0:0:0:0:
64,192,41175,1,0,0:0:0:0:
64,192,41375,1,0,0:0:0:0:
192,192,41475,1,0,0:0:0:0:
64,192,41575,1,0,0:0:0:0:
64,192,41775,1,0,0:0:0:0:
192,192,41875,1,0,0:0:0:0:
448,192,41975,128,0,42775:0:0:0:0:
64,192,41975,1,0,0:0:0:0:
64,192,42175,1,0,0:0:0:0:
192,192,42275,1,0,0:0:0:0:
64,192,42375,1,0,0:0:0:0:
64,192,42575,1,0,0:0:0:0:
192,192,42675,1,0,0:0:0:0:
64,192,42775,1,0,0:0:0:0:
64,192,42975,1,0,0:0:0:0:
192,192,43075,1,0,0:0:0:0:
64,192,43175,1,0,0:0:0:0:
320,192,43275,1,0,0:0:0:0:
64,192,43375,1,0,0:0:0:0:
192,192,43475,1,0,0:0:0:0:
64,192,43575,128,0,45975:0:0:0:0:
448,192,43575,1,0,0:0:0:0:
448,192,43775,1,0,0:0:0:0:
320,192,43875,1,0,0:0:0:0:
448,192,43975,1,0,0:0:0:0:
448,192,44175,1,0,0:0:0:0:
320,192,44275,1,0,0:0:0:0:
448,192,44375,1,0,0:0:0:0:
448,192,44575,1,0,0:0:0:0:
320,192,44675,1,0,0:0:0:0:
448,192,44775,1,0,0:0:0:0:
448,192,44975,1,0,0:0:0:0:
320,192,45075,1,0,0:0:0:0:
192,192,45175,128,0,45975:0:0:0:0:
448,192,45175,1,0,0:0:0:0:
448,192,45375,1,0,0:0:0:0:
320,192,45475,1,0,0:0:0:0:
448,192,45575,1,0,0:0:0:0:
448,192,45775,1,0,0:0:0:0:
320,192,45875,1,0,0:0:0:0:
448,192,45975,1,0,0:0:0:0:
448,192,46175,1,0,0:0:0:0:
320,192,46375,1,0,0:0:0:0:
192,192,46475,1,0,0:0:0:0:
64,192,46575,1,0,0:0:0:0:
192,192,46675,1,0,0:0:0:0:
448,192,46775,1,0,0:0:0:0:
320,192,46775,1,0,0:0:0:0:
64,192,46775,1,0,0:0:0:0:
192,192,46975,1,0,0:0:0:0:
64,192,47075,1,0,0:0:0:0:
320,192,47075,1,0,0:0:0:0:
192,192,47175,1,0,0:0:0:0:
320,192,47175,1,0,0:0:0:0:
448,192,47175,1,0,0:0:0:0:
64,192,47375,1,0,0:0:0:0:
192,192,47475,1,0,0:0:0:0:
320,192,47475,1,0,0:0:0:0:
64,192,47575,1,0,0:0:0:0:
192,192,47575,1,0,0:0:0:0:
448,192,47575,1,0,0:0:0:0:
320,192,47775,1,0,0:0:0:0:
192,192,47875,1,0,0:0:0:0:
448,192,47875,1,0,0:0:0:0:
448,192,47975,1,0,0:0:0:0:
320,192,47975,1,0,0:0:0:0:
64,192,47975,1,0,0:0:0:0:
192,192,48175,1,0,0:0:0:0:
64,192,48275,1,0,0:0:0:0:
448,192,48275,1,0,0:0:0:0:
320,192,48375,1,0,0:0:0:0:
192,192,48375,1,0,0:0:0:0:
64,192,48375,1,0,0:0:0:0:
448,192,48575,1,0,0:0:0:0:
320,192,48675,1,0,0:0:0:0:
192,192,48675,1,0,0:0:0:0:
448,192,48775,1,0,0:0:0:0:
64,192,48775,1,0,0:0:0:0:
320,192,48775,1,0,0:0:0:0:
192,192,48975,1,0,0:0:0:0:
64,192,49075,1,0,0:0:0:0:
320,192,49075,1,0,0:0:0:0:
64,192,49175,1,0,0:0:0:0:
192,192,49175,1,0,0:0:0:0:
448,192,49175,1,0,0:0:0:0:
320,192,49375,1,0,0:0:0:0:
64,192,49475,1,0,0:0:0:0:
448,192,49475,1,0,0:0:0:0:
448,192,49575,1,0,0:0:0:0:
192,192,49575,1,0,0:0:0:0:
320,192,49575,1,0,0:0:0:0:
64,192,49775,1,0,0:0:0:0:
192,192,49875,1,0,0:0:0:0:
448,192,49875,1,0,0:0:0:0:
64,192,49975,1,0,0:0:0:0:
192,192,49975,1,0,0:0:0:0:
320,192,49975,1,0,0:0:0:0:
448,192,50175,1,0,0:0:0:0:
320,192,50275,1,0,0:0:0:0:
192,192,50275,1,0,0:0:0:0:
448,192,50375,1,0,0:0:0:0:
64,192,50375,1,0,0:0:0:0:
320,192,50375,1,0,0:0:0:0:
192,192,50575,1,0,0:0:0:0:
64,192,50675,1,0,0:0:0:0:
320,192,50675,1,0,0:0:0:0:
448,192,50775,1,0,0:0:0:0:
192,192,50775,1,0,0:0:0:0:
64,192,50775,1,0,0:0:0:0:
320,192,50975,1,0,0:0:0:0:
64,192,51075,1,0,0:0:0:0:
448,192,51075,1,0,0:0:0:0:
448,192,51175,1,0,0:0:0:0:
320,192,51175,1,0,0:0:0:0:
192,192,51175,1,0,0:0:0:0:
64,192,51375,1,0,0:0:0:0:
192,192,51475,1,0,0:0:0:0:
320,192,51475,1,0,0:0:0:0:
320,192,51575,1,0,0:0:0:0:
64,192,51575,1,0,0:0:0:0:
448,192,51575,1,0,0:0:0:0:
192,192,51775,1,0,0:0:0:0:
320,192,51875,1,0,0:0:0:0:
64,192,51875,1,0,0:0:0:0:
448,192,51975,1,0,0:0:0:0:
192,192,51975,1,0,0:0:0:0:
64,192,51975,1,0,0:0:0:0:
320,192,52175,1,0,0:0:0:0:
192,192,52275,1,0,0:0:0:0:
448,192,52275,1,0,0:0:0:0:
320,192,52375,1,0,0:0:0:0:
192,192,52375,1,0,0:0:0:0:
64,192,52375,1,0,0:0:0:0:
448,192,52575,1,0,0:0:0:0:
320,192,52575,1,0,0:0:0:0:
64,192,52675,1,0,0:0:0:0:
192,192,52675,1,0,0:0:0:0:
64,192,52775,1,0,0:0:0:0:
448,192,52775,1,0,0:0:0:0:
320,192,52775,1,0,0:0:0:0:
320,192,52875,1,0,0:0:0:0:
192,192,52875,1,0,0:0:0:0:
192,192,53075,1,0,0:0:0:0:
64,192,53075,1,0,0:0:0:0:
320,192,53175,1,0,0:0:0:0:
448,192,53175,1,0,0:0:0:0:
192,192,53175,1,0,0:0:0:0:
64,192,53175,1,0,0:0:0:0:
448,192,53375,1,0,0:0:0:0:
320,192,53375,1,0,0:0:0:0:
192,192,53375,1,0,0:0:0:0:
64,192,53475,1,0,0:0:0:0:
192,192,53575,1,0,0:0:0:0:
320,192,53575,1,0,0:0:0:0:
448,192,53575,1,0,0:0:0:0:
64,192,53775,1,0,0:0:0:0:
320,192,53775,1,0,0:0:0:0:
448,192,53775,1,0,0:0:0:0:
192,192,53875,1,0,0:0:0:0:
64,192,53975,1,0,0:0:0:0:
320,192,53975,1,0,0:0:0:0:
448,192,53975,1,0,0:0:0:0:
192,192,54175,1,0,0:0:0:0:
64,192,54175,1,0,0:0:0:0:
448,192,54175,1,0,0:0:0:0:
320,192,54275,1,0,0:0:0:0:
64,192,54375,1,0,0:0:0:0:
192,192,54375,1,0,0:0:0:0:
448,192,54375,1,0,0:0:0:0:
320,192,54575,1,0,0:0:0:0:
192,192,54575,1,0,0:0:0:0:
64,192,54575,1,0,0:0:0:0:
448,192,54675,1,0,0:0:0:0:
320,192,54775,1,0,0:0:0:0:
192,192,54775,1,0,0:0:0:0:
64,192,54775,1,0,0:0:0:0:
448,192,54975,1,0,0:0:0:0:
320,192,54975,1,0,0:0:0:0:
192,192,54975,1,0,0:0:0:0:
64,192,55075,1,0,0:0:0:0:
192,192,55175,1,0,0:0:0:0:
320,192,55175,1,0,0:0:0:0:
448,192,55175,1,0,0:0:0:0:
64,192,55375,1,0,0:0:0:0:
320,192,55375,1,0,0:0:0:0:
448,192,55375,1,0,0:0:0:0:
192,192,55475,1,0,0:0:0:0:
64,192,55575,1,0,0:0:0:0:
320,192,55575,1,0,0:0:0:0:
448,192,55575,1,0,0:0:0:0:
192,192,55775,1,0,0:0:0:0:
64,192,55775,1,0,0:0:0:0:
448,192,55775,1,0,0:0:0:0:
320,192,55875,1,0,0:0:0:0:
64,192,55975,1,0,0:0:0:0:
192,192,55975,1,0,0:0:0:0:
448,192,55975,1,0,0:0:0:0:
320,192,56175,1,0,0:0:0:0:
192,192,56175,1,0,0:0:0:0:
64,192,56175,1,0,0:0:0:0:
448,192,56275,1,0,0:0:0:0:
320,192,56375,1,0,0:0:0:0:
192,192,56375,1,0,0:0:0:0:
64,192,56375,1,0,0:0:0:0:
320,192,56475,1,0,0:0:0:0:
448,192,56475,1,0,0:0:0:0:
192,192,56575,1,0,0:0:0:0:
64,192,56575,1,0,0:0:0:0:
448,192,56675,1,0,0:0:0:0:
192,192,56675,1,0,0:0:0:0:
320,192,56775,1,0,0:0:0:0:
64,192,56775,1,0,0:0:0:0:
64,192,56875,1,0,0:0:0:0:
448,192,56875,1,0,0:0:0:0:
192,192,56975,1,0,0:0:0:0:
320,192,56975,1,0,0:0:0:0:
192,192,57075,1,0,0:0:0:0:
64,192,57075,1,0,0:0:0:0:
448,192,57175,1,0,0:0:0:0:
320,192,57175,1,0,0:0:0:0:
192,192,57225,1,0,0:0:0:0:
64,192,57275,1,0,0:0:0:0:
448,192,57275,1,0,0:0:0:0:
320,192,57325,1,0,0:0:0:0:
192,192,57375,1,0,0:0:0:0:
64,192,57375,1,0,0:0:0:0:
320,192,57425,1,0,0:0:0:0:
448,192,57475,1,0,0:0:0:0:
64,192,57475,1,0,0:0:0:0:
192,192,57525,1,0,0:0:0:0:
448,192,57575,1,0,0:0:0:0:
320,192,57575,1,0,0:0:0:0:
192,192,57675,1,0,0:0:0:0:
64,192,57675,1,0,0:0:0:0:
320,192,57775,1,0,0:0:0:0:
448,192,57775,1,0,0:0:0:0:
64,192,57875,1,0,0:0:0:0:
192,192,57875,1,0,0:0:0:0:
448,192,57975,1,0,0:0:0:0:
320,192,58025,1,0,0:0:0:0:
192,192,58075,1,0,0:0:0:0:
320,192,58125,1,0,0:0:0:0:
448,192,58175,1,0,0:0:0:0:
64,192,58275,1,0,0:0:0:0:
448,192,58375,1,0,0:0:0:0:
64,192,58475,1,0,0:0:0:0:
448,192,58575,1,0,0:0:0:0:
320,192,58575,1,0,0:0:0:0:
192,192,58575,1,0,0:0:0:0:
64,192,58675,1,0,0:0:0:0:
192,192,58775,1,0,0:0:0:0:
320,192,58775,1,0,0:0:0:0:
64,192,58875,1,0,0:0:0:0:
448,192,58875,1,0,0:0:0:0:
192,192,58875,1,0,0:0:0:0:
320,192,58975,1,0,0:0:0:0:
448,192,59075,1,0,0:0:0:0:
64,192,59075,1,0,0:0:0:0:
448,192,59175,1,0,0:0:0:0:
320,192,59175,1,0,0:0:0:0:
192,192,59175,1,0,0:0:0:0:
64,192,59375,1,0,0:0:0:0:
448,192,59375,1,0,0:0:0:0:
192,192,59475,1,0,0:0:0:0:
320,192,59575,1,0,0:0:0:0:
448,192,59575,1,0,0:0:0:0:
64,192,59575,128,0,59675:0:0:0:0:
192,192,59675,128,0,59775:0:0:0:0:
320,192,59775,128,0,59875:0:0:0:0:
64,192,59775,1,0,0:0:0:0:
448,192,59875,128,0,59975:0:0:0:0:
192,192,59875,1,0,0:0:0:0:
320,192,59975,1,0,0:0:0:0:
64,192,59975,1,0,0:0:0:0:
192,192,59975,1,0,0:0:0:0:
64,192,60175,1,0,0:0:0:0:
192,192,60175,1,0,0:0:0:0:
320,192,60275,1,0,0:0:0:0:
448,192,60275,1,0,0:0:0:0:
192,192,60375,1,0,0:0:0:0:
448,192,60375,1,0,0:0:0:0:
64,192,60375,1,0,0:0:0:0:
320,192,60575,128,0,60675:0:0:0:0:
192,192,60575,1,0,0:0:0:0:
448,192,60675,128,0,60775:0:0:0:0:
64,192,60675,1,0,0:0:0:0:
192,192,60775,1,0,0:0:0:0:
64,192,60775,1,0,0:0:0:0:
320,192,60775,1,0,0:0:0:0:
448,192,60975,1,0,0:0:0:0:
192,192,60975,1,0,0:0:0:0:
64,192,61075,1,0,0:0:0:0:
320,192,61075,1,0,0:0:0:0:
192,192,61175,1,0,0:0:0:0:
320,192,61175,1,0,0:0:0:0:
448,192,61175,1,0,0:0:0:0:
320,192,61375,128,0,61475:0:0:0:0:
64,192,61375,1,0,0:0:0:0:
448,192,61475,128,0,61575:0:0:0:0:
192,192,61475,1,0,0:0:0:0:
320,192,61575,1,0,0:0:0:0:
192,192,61575,1,0,0:0:0:0:
64,192,61575,1,0,0:0:0:0:
320,192,61775,1,0,0:0:0:0:
64,192,61775,1,0,0:0:0:0:
448,192,61875,1,0,0:0:0:0:
192,192,61875,1,0,0:0:0:0:
320,192,61975,1,0,0:0:0:0:
448,192,61975,1,0,0:0:0:0:
64,192,61975,1,0,0:0:0:0:
320,192,62175,128,0,62275:0:0:0:0:
192,192,62175,1,0,0:0:0:0:
448,192,62275,128,0,62375:0:0:0:0:
64,192,62275,1,0,0:0:0:0:
320,192,62375,1,0,0:0:0:0:
192,192,62375,1,0,0:0:0:0:
64,192,62375,1,0,0:0:0:0:
448,192,62475,1,0,0:0:0:0:
320,192,62475,1,0,0:0:0:0:
192,192,62575,1,0,0:0:0:0:
64,192,62575,1,0,0:0:0:0:
320,192,62675,1,0,0:0:0:0:
448,192,62675,1,0,0:0:0:0:
192,192,62775,1,0,0:0:0:0:
64,192,62775,1,0,0:0:0:0:
320,192,62775,1,0,0:0:0:0:
64,192,62975,128,0,63075:0:0:0:0:
448,192,62975,1,0,0:0:0:0:
320,192,63075,128,0,63175:0:0:0:0:
192,192,63075,1,0,0:0:0:0:
448,192,63175,1,0,0:0:0:0:
192,192,63175,1,0,0:0:0:0:
64,192,63175,1,0,0:0:0:0:
320,192,63375,1,0,0:0:0:0:
448,192,63375,1,0,0:0:0:0:
64,192,63475,1,0,0:0:0:0:
192,192,63475,1,0,0:0:0:0:
64,192,63575,1,0,0:0:0:0:
320,192,63575,1,0,0:0:0:0:
448,192,63575,1,0,0:0:0:0:
64,192,63775,128,0,63875:0:0:0:0:
192,192,63775,1,0,0:0:0:0:
448,192,63875,1,0,0:0:0:0:
320,192,63875,128,0,63975:0:0:0:0:
64,192,63975,1,0,0:0:0:0:
448,192,63975,1,0,0:0:0:0:
192,192,63975,1,0,0:0:0:0:
320,192,64175,1,0,0:0:0:0:
192,192,64175,1,0,0:0:0:0:
448,192,64275,1,0,0:0:0:0:
64,192,64275,1,0,0:0:0:0:
320,192,64375,1,0,0:0:0:0:
192,192,64375,1,0,0:0:0:0:
64,192,64375,1,0,0:0:0:0:
448,192,64575,1,0,0:0:0:0:
64,192,64575,128,0,64675:0:0:0:0:
320,192,64675,128,0,64775:0:0:0:0:
192,192,64675,1,0,0:0:0:0:
192,192,64775,1,0,0:0:0:0:
448,192,64775,1,0,0:0:0:0:
64,192,64775,1,0,0:0:0:0:
448,192,64975,1,0,0:0:0:0:
192,192,64975,1,0,0:0:0:0:
320,192,65075,1,0,0:0:0:0:
64,192,65075,1,0,0:0:0:0:
320,192,65175,1,0,0:0:0:0:
448,192,65175,1,0,0:0:0:0:
192,192,65175,1,0,0:0:0:0:
64,192,65375,128,0,65475:0:0:0:0:
192,192,65375,1,0,0:0:0:0:
448,192,65475,1,0,0:0:0:0:
320,192,65475,128,0,65575:0:0:0:0:
64,192,65575,1,0,0:0:0:0:
448,192,65575,1,0,0:0:0:0:
192,192,65575,1,0,0:0:0:0:
320,192,65675,1,0,0:0:0:0:
192,192,65675,1,0,0:0:0:0:
64,192,65775,1,0,0:0:0:0:
448,192,65775,1,0,0:0:0:0:
320,192,65875,1,0,0:0:0:0:
192,192,65875,1,0,0:0:0:0:
64,192,65975,1,0,0:0:0:0:
448,192,65975,1,0,0:0:0:0:
320,192,65975,1,0,0:0:0:0:
192,192,66175,128,0,66275:0:0:0:0:
320,192,66175,1,0,0:0:0:0:
448,192,66275,128,0,66375:0:0:0:0:
64,192,66275,1,0,0:0:0:0:
320,192,66375,1,0,0:0:0:0:
192,192,66375,1,0,0:0:0:0:
64,192,66375,1,0,0:0:0:0:
320,192,66575,1,0,0:0:0:0:
192,192,66575,1,0,0:0:0:0:
64,192,66675,1,0,0:0:0:0:
448,192,66675,1,0,0:0:0:0:
192,192,66775,1,0,0:0:0:0:
320,192,66775,1,0,0:0:0:0:
448,192,66775,1,0,0:0:0:0:
192,192,66975,128,0,67075:0:0:0:0:
64,192,66975,1,0,0:0:0:0:
448,192,67075,128,0,67175:0:0:0:0:
320,192,67075,1,0,0:0:0:0:
320,192,67175,1,0,0:0:0:0:
64,192,67175,1,0,0:0:0:0:
192,192,67175,1,0,0:0:0:0:
320,192,67375,1,0,0:0:0:0:
448,192,67375,1,0,0:0:0:0:
192,192,67475,1,0,0:0:0:0:
64,192,67475,1,0,0:0:0:0:
192,192,67575,1,0,0:0:0:0:
320,192,67575,1,0,0:0:0:0:
448,192,67575,1,0,0:0:0:0:
320,192,67775,1,0,0:0:0:0:
192,192,67775,128,0,67875:0:0:0:0:
64,192,67875,1,0,0:0:0:0:
448,192,67875,128,0,67975:0:0:0:0:
320,192,67975,1,0,0:0:0:0:
64,192,67975,1,0,0:0:0:0:
192,192,67975,1,0,0:0:0:0:
320,192,68175,1,0,0:0:0:0:
64,192,68175,1,0,0:0:0:0:
448,192,68275,1,0,0:0:0:0:
192,192,68275,1,0,0:0:0:0:
320,192,68375,1,0,0:0:0:0:
448,192,68375,1,0,0:0:0:0:
64,192,68375,1,0,0:0:0:0:
64,192,68575,1,0,0:0:0:0:
192,192,68575,128,0,68675:0:0:0:0:
320,192,68675,1,0,0:0:0:0:
448,192,68675,128,0,68775:0:0:0:0:
320,192,68775,1,0,0:0:0:0:
64,192,68775,1,0,0:0:0:0:
192,192,68775,1,0,0:0:0:0:
448,192,68875,1,0,0:0:0:0:
64,192,68875,1,0,0:0:0:0:
320,192,68975,1,0,0:0:0:0:
192,192,68975,1,0,0:0:0:0:
64,192,69075,1,0,0:0:0:0:
448,192,69075,1,0,0:0:0:0:
192,192,69175,1,0,0:0:0:0:
320,192,69175,1,0,0:0:0:0:
448,192,69175,1,0,0:0:0:0:
64,192,69375,128,0,69475:0:0:0:0:
448,192,69375,1,0,0:0:0:0:
192,192,69475,128,0,69575:0:0:0:0:
320,192,69475,1,0,0:0:0:0:
64,192,69575,1,0,0:0:0:0:
320,192,69575,1,0,0:0:0:0:
448,192,69575,1,0,0:0:0:0:
448,192,69775,1,0,0:0:0:0:
320,192,69775,1,0,0:0:0:0:
192,192,69875,1,0,0:0:0:0:
64,192,69875,1,0,0:0:0:0:
192,192,69975,1,0,0:0:0:0:
448,192,69975,1,0,0:0:0:0:
320,192,69975,1,0,0:0:0:0:
64,192,70175,128,0,70275:0:0:0:0:
320,192,70175,1,0,0:0:0:0:
192,192,70275,128,0,70375:0:0:0:0:
448,192,70275,1,0,0:0:0:0:
64,192,70375,1,0,0:0:0:0:
320,192,70375,1,0,0:0:0:0:
448,192,70375,1,0,0:0:0:0:
192,192,70575,1,0,0:0:0:0:
320,192,70575,1,0,0:0:0:0:
64,192,70675,1,0,0:0:0:0:
448,192,70675,1,0,0:0:0:0:
64,192,70775,1,0,0:0:0:0:
320,192,70775,1,0,0:0:0:0:
192,192,70775,1,0,0:0:0:0:
64,192,70975,128,0,71075:0:0:0:0:
448,192,70975,1,0,0:0:0:0:
192,192,71075,128,0,71175:0:0:0:0:
320,192,71075,1,0,0:0:0:0:
64,192,71175,1,0,0:0:0:0:
320,192,71175,1,0,0:0:0:0:
448,192,71175,1,0,0:0:0:0:
448,192,71375,1,0,0:0:0:0:
320,192,71375,1,0,0:0:0:0:
192,192,71475,1,0,0:0:0:0:
64,192,71475,1,0,0:0:0:0:
192,192,71575,1,0,0:0:0:0:
448,192,71575,1,0,0:0:0:0:
320,192,71575,1,0,0:0:0:0:
64,192,71775,128,0,71875:0:0:0:0:
320,192,71775,1,0,0:0:0:0:
192,192,71875,128,0,71975:0:0:0:0:
448,192,71875,1,0,0:0:0:0:
64,192,71975,1,0,0:0:0:0:
320,192,71975,1,0,0:0:0:0:
448,192,71975,1,0,0:0:0:0:
192,192,72075,1,0,0:0:0:0:
64,192,72075,1,0,0:0:0:0:
320,192,72175,1,0,0:0:0:0:
448,192,72175,1,0,0:0:0:0:
192,192,72275,1,0,0:0:0:0:
64,192,72275,1,0,0:0:0:0:
320,192,72375,1,0,0:0:0:0:
448,192,72375,1,0,0:0:0:0:
192,192,72375,1,0,0:0:0:0:
320,192,72575,128,0,72675:0:0:0:0:
64,192,72575,1,0,0:0:0:0:
448,192,72675,128,0,72775:0:0:0:0:
192,192,72675,1,0,0:0:0:0:
320,192,72775,1,0,0:0:0:0:
64,192,72775,1,0,0:0:0:0:
192,192,72775,1,0,0:0:0:0:
64,192,72975,1,0,0:0:0:0:
192,192,72975,1,0,0:0:0:0:
320,192,73075,1,0,0:0:0:0:
448,192,73075,1,0,0:0:0:0:
192,192,73175,1,0,0:0:0:0:
448,192,73175,1,0,0:0:0:0:
64,192,73175,1,0,0:0:0:0:
320,192,73375,128,0,73475:0:0:0:0:
192,192,73375,1,0,0:0:0:0:
448,192,73475,128,0,73575:0:0:0:0:
64,192,73475,1,0,0:0:0:0:
192,192,73575,1,0,0:0:0:0:
64,192,73575,1,0,0:0:0:0:
320,192,73575,1,0,0:0:0:0:
448,192,73775,1,0,0:0:0:0:
192,192,73775,1,0,0:0:0:0:
64,192,73875,1,0,0:0:0:0:
320,192,73875,1,0,0:0:0:0:
192,192,73975,1,0,0:0:0:0:
320,192,73975,1,0,0:0:0:0:
448,192,73975,1,0,0:0:0:0:
320,192,74175,128,0,74275:0:0:0:0:
64,192,74175,1,0,0:0:0:0:
448,192,74275,128,0,74375:0:0:0:0:
192,192,74275,1,0,0:0:0:0:
320,192,74375,1,0,0:0:0:0:
192,192,74375,1,0,0:0:0:0:
64,192,74375,1,0,0:0:0:0:
320,192,74575,1,0,0:0:0:0:
64,192,74575,1,0,0:0:0:0:
448,192,74675,1,0,0:0:0:0:
192,192,74675,1,0,0:0:0:0:
320,192,74775,1,0,0:0:0:0:
448,192,74775,1,0,0:0:0:0:
64,192,74775,1,0,0:0:0:0:
320,192,74975,128,0,75075:0:0:0:0:
192,192,74975,1,0,0:0:0:0:
448,192,75075,128,0,75175:0:0:0:0:
64,192,75075,1,0,0:0:0:0:
320,192,75175,1,0,0:0:0:0:
192,192,75175,1,0,0:0:0:0:
64,192,75175,1,0,0:0:0:0:
448,192,75275,1,0,0:0:0:0:
320,192,75275,1,0,0:0:0:0:
192,192,75375,1,0,0:0:0:0:
64,192,75375,1,0,0:0:0:0:
320,192,75475,1,0,0:0:0:0:
448,192,75475,1,0,0:0:0:0:
192,192,75575,1,0,0:0:0:0:
64,192,75575,1,0,0:0:0:0:
320,192,75575,1,0,0:0:0:0:
64,192,75775,128,0,75875:0:0:0:0:
448,192,75775,1,0,0:0:0:0:
320,192,75875,128,0,75975:0:0:0:0:
192,192,75875,1,0,0:0:0:0:
448,192,75975,1,0,0:0:0:0:
192,192,75975,1,0,0:0:0:0:
64,192,75975,1,0,0:0:0:0:
320,192,76175,1,0,0:0:0:0:
448,192,76175,1,0,0:0:0:0:
64,192,76275,1,0,0:0:0:0:
192,192,76275,1,0,0:0:0:0:
64,192,76375,1,0,0:0:0:0:
320,192,76375,1,0,0:0:0:0:
448,192,76375,1,0,0:0:0:0:
64,192,76575,128,0,76675:0:0:0:0:
192,192,76575,1,0,0:0:0:0:
448,192,76675,1,0,0:0:0:0:
320,192,76675,128,0,76775:0:0:0:0:
64,192,76775,1,0,0:0:0:0:
448,192,76775,1,0,0:0:0:0:
192,192,76775,1,0,0:0:0:0:
320,192,76975,1,0,0:0:0:0:
192,192,76975,1,0,0:0:0:0:
448,192,77075,1,0,0:0:0:0:
64,192,77075,1,0,0:0:0:0:
320,192,77175,1,0,0:0:0:0:
192,192,77175,1,0,0:0:0:0:
64,192,77175,1,0,0:0:0:0:
448,192,77375,1,0,0:0:0:0:
64,192,77375,128,0,77475:0:0:0:0:
320,192,77475,128,0,77575:0:0:0:0:
192,192,77475,1,0,0:0:0:0:
192,192,77575,1,0,0:0:0:0:
448,192,77575,1,0,0:0:0:0:
64,192,77575,1,0,0:0:0:0:
448,192,77775,1,0,0:0:0:0:
192,192,77775,1,0,0:0:0:0:
320,192,77875,1,0,0:0:0:0:
64,192,77875,1,0,0:0:0:0:
320,192,77975,1,0,0:0:0:0:
448,192,77975,1,0,0:0:0:0:
192,192,77975,1,0,0:0:0:0:
64,192,78175,128,0,78275:0:0:0:0:
192,192,78175,1,0,0:0:0:0:
448,192,78275,1,0,0:0:0:0:
320,192,78275,128,0,78375:0:0:0:0:
64,192,78375,1,0,0:0:0:0:
448,192,78375,1,0,0:0:0:0:
192,192,78375,1,0,0:0:0:0:
320,192,78475,1,0,0:0:0:0:
192,192,78475,1,0,0:0:0:0:
64,192,78575,1,0,0:0:0:0:
448,192,78575,1,0,0:0:0:0:
320,192,78675,1,0,0:0:0:0:
192,192,78675,1,0,0:0:0:0:
64,192,78775,1,0,0:0:0:0:
448,192,78775,1,0,0:0:0:0:
320,192,78775,1,0,0:0:0:0:
192,192,78975,128,0,79075:0:0:0:0:
320,192,78975,1,0,0:0:0:0:
448,192,79075,128,0,79175:0:0:0:0:
64,192,79075,1,0,0:0:0:0:
320,192,79175,1,0,0:0:0:0:
192,192,79175,1,0,0:0:0:0:
64,192,79175,1,0,0:0:0:0:
320,192,79375,1,0,0:0:0:0:
192,192,79375,1,0,0:0:0:0:
64,192,79475,1,0,0:0:0:0:
448,192,79475,1,0,0:0:0:0:
192,192,79575,1,0,0:0:0:0:
320,192,79575,1,0,0:0:0:0:
448,192,79575,1,0,0:0:0:0:
192,192,79775,128,0,79875:0:0:0:0:
64,192,79775,1,0,0:0:0:0:
448,192,79875,128,0,79975:0:0:0:0:
320,192,79875,1,0,0:0:0:0:
320,192,79975,1,0,0:0:0:0:
64,192,79975,1,0,0:0:0:0:
192,192,79975,1,0,0:0:0:0:
320,192,80175,1,0,0:0:0:0:
448,192,80175,1,0,0:0:0:0:
192,192,80275,1,0,0:0:0:0:
64,192,80275,1,0,0:0:0:0:
192,192,80375,1,0,0:0:0:0:
320,192,80375,1,0,0:0:0:0:
448,192,80375,1,0,0:0:0:0:
320,192,80575,1,0,0:0:0:0:
192,192,80575,128,0,80675:0:0:0:0:
64,192,80675,1,0,0:0:0:0:
448,192,80675,128,0,80775:0:0:0:0:
320,192,80775,1,0,0:0:0:0:
64,192,80775,1,0,0:0:0:0:
192,192,80775,1,0,0:0:0:0:
320,192,80975,1,0,0:0:0:0:
64,192,80975,1,0,0:0:0:0:
448,192,81075,1,0,0:0:0:0:
192,192,81075,1,0,0:0:0:0:
320,192,81175,1,0,0:0:0:0:
448,192,81175,1,0,0:0:0:0:
64,192,81175,1,0,0:0:0:0:
64,192,81375,1,0,0:0:0:0:
192,192,81375,128,0,81475:0:0:0:0:
320,192,81475,1,0,0:0:0:0:
448,192,81475,128,0,81575:0:0:0:0:
320,192,81575,1,0,0:0:0:0:
64,192,81575,1,0,0:0:0:0:
192,192,81575,1,0,0:0:0:0:
448,192,81675,1,0,0:0:0:0:
64,192,81675,1,0,0:0:0:0:
320,192,81775,1,0,0:0:0:0:
192,192,81775,1,0,0:0:0:0:
64,192,81875,1,0,0:0:0:0:
448,192,81875,1,0,0:0:0:0:
192,192,81975,1,0,0:0:0:0:
320,192,81975,1,0,0:0:0:0:
448,192,81975,1,0,0:0:0:0:
64,192,82175,128,0,82275:0:0:0:0:
448,192,82175,1,0,0:0:0:0:
192,192,82275,128,0,82375:0:0:0:0:
320,192,82275,1,0,0:0:0:0:
64,192,82375,1,0,0:0:0:0:
320,192,82375,1,0,0:0:0:0:
448,192,82375,1,0,0:0:0:0:
448,192,82575,1,0,0:0:0:0:
320,192,82575,1,0,0:0:0:0:
192,192,82675,1,0,0:0:0:0:
64,192,82675,1,0,0:0:0:0:
192,192,82775,1,0,0:0:0:0:
448,192,82775,1,0,0:0:0:0:
320,192,82775,1,0,0:0:0:0:
64,192,82975,128,0,83075:0:0:0:0:
320,192,82975,1,0,0:0:0:0:
192,192,83075,128,0,83175:0:0:0:0:
448,192,83075,1,0,0:0:0:0:
64,192,83175,1,0,0:0:0:0:
320,192,83175,1,0,0:0:0:0:
448,192,83175,1,0,0:0:0:0:
192,192,83375,1,0,0:0:0:0:
320,192,83375,1,0,0:0:0:0:
64,192,83475,1,0,0:0:0:0:
448,192,83475,1,0,0:0:0:0:
64,192,83575,1,0,0:0:0:0:
320,192,83575,1,0,0:0:0:0:
192,192,83575,1,0,0:0:0:0:
64,192,83775,128,0,83875:0:0:0:0:
448,192,83775,1,0,0:0:0:0:
192,192,83875,128,0,83975:0:0:0:0:
320,192,83875,1,0,0:0:0:0:
64,192,83975,1,0,0:0:0:0:
320,192,83975,1,0,0:0:0:0:
448,192,83975,1,0,0:0:0:0:
448,192,84175,1,0,0:0:0:0:
320,192,84175,1,0,0:0:0:0:
192,192,84275,1,0,0:0:0:0:
64,192,84275,1,0,0:0:0:0:
192,192,84375,1,0,0:0:0:0:
448,192,84375,1,0,0:0:0:0:
320,192,84375,1,0,0:0:0:0:
64,192,84575,128,0,84675:0:0:0:0:
320,192,84575,1,0,0:0:0:0:
192,192,84675,128,0,84775:0:0:0:0:
448,192,84675,1,0,0:0:0:0:
64,192,84775,1,0,0:0:0:0:
320,192,84775,1,0,0:0:0:0:
448,192,84775,1,0,0:0:0:0:
192,192,84875,1,0,0:0:0:0:
64,192,84875,1,0,0:0:0:0:
320,192,84975,1,0,0:0:0:0:
448,192,84975,1,0,0:0:0:0:
192,192,85075,1,0,0:0:0:0:
64,192,85075,1,0,0:0:0:0:
320,192,85175,1,0,0:0:0:0:
192,192,85175,1,0,0:0:0:0:
448,192,85175,128,0,88375:0:0:0:0:
64,192,85375,1,0,0:0:0:0:
192,192,85475,1,0,0:0:0:0:
320,192,85475,1,0,0:0:0:0:
64,192,85575,1,0,0:0:0:0:
320,192,85575,1,0,0:0:0:0:
192,192,85775,1,0,0:0:0:0:
320,192,85875,1,0,0:0:0:0:
64,192,85875,1,0,0:0:0:0:
192,192,85975,1,0,0:0:0:0:
64,192,85975,1,0,0:0:0:0:
320,192,86175,1,0,0:0:0:0:
192,192,86275,1,0,0:0:0:0:
64,192,86275,1,0,0:0:0:0:
192,192,86375,1,0,0:0:0:0:
320,192,86375,1,0,0:0:0:0:
64,192,86575,1,0,0:0:0:0:
192,192,86675,1,0,0:0:0:0:
320,192,86675,1,0,0:0:0:0:
64,192,86775,1,0,0:0:0:0:
192,192,86775,1,0,0:0:0:0:
320,192,86975,1,0,0:0:0:0:
192,192,87075,1,0,0:0:0:0:
64,192,87075,1,0,0:0:0:0:
320,192,87175,1,0,0:0:0:0:
64,192,87175,1,0,0:0:0:0:
192,192,87375,1,0,0:0:0:0:
64,192,87475,1,0,0:0:0:0:
320,192,87475,1,0,0:0:0:0:
320,192,87575,1,0,0:0:0:0:
192,192,87575,1,0,0:0:0:0:
64,192,87775,1,0,0:0:0:0:
192,192,87875,1,0,0:0:0:0:
320,192,87875,1,0,0:0:0:0:
64,192,87975,1,0,0:0:0:0:
192,192,87975,1,0,0:0:0:0:
320,192,88075,1,0,0:0:0:0:
192,192,88175,1,0,0:0:0:0:
64,192,88275,1,0,0:0:0:0:
192,192,88375,128,0,91575:0:0:0:0:
320,192,88375,1,0,0:0:0:0:
64,192,88575,1,0,0:0:0:0:
320,192,88675,1,0,0:0:0:0:
448,192,88675,1,0,0:0:0:0:
64,192,88775,1,0,0:0:0:0:
448,192,88775,1,0,0:0:0:0:
320,192,88975,1,0,0:0:0:0:
448,192,89075,1,0,0:0:0:0:
64,192,89075,1,0,0:0:0:0:
320,192,89175,1,0,0:0:0:0:
64,192,89175,1,0,0:0:0:0:
448,192,89375,1,0,0:0:0:0:
320,192,89475,1,0,0:0:0:0:
64,192,89475,1,0,0:0:0:0:
320,192,89575,1,0,0:0:0:0:
448,192,89575,1,0,0:0:0:0:
64,192,89775,1,0,0:0:0:0:
320,192,89875,1,0,0:0:0:0:
448,192,89875,1,0,0:0:0:0:
64,192,89975,1,0,0:0:0:0:
320,192,89975,1,0,0:0:0:0:
448,192,90175,1,0,0:0:0:0:
320,192,90275,1,0,0:0:0:0:
64,192,90275,1,0,0:0:0:0:
448,192,90375,1,0,0:0:0:0:
64,192,90375,1,0,0:0:0:0:
320,192,90575,1,0,0:0:0:0:
448,192,90675,1,0,0:0:0:0:
64,192,90675,1,0,0:0:0:0:
320,192,90775,1,0,0:0:0:0:
448,192,90775,1,0,0:0:0:0:
64,192,90975,1,0,0:0:0:0:
320,192,91075,1,0,0:0:0:0:
448,192,91075,1,0,0:0:0:0:
64,192,91175,1,0,0:0:0:0:
320,192,91175,1,0,0:0:0:0:
448,192,91275,1,0,0:0:0:0:
320,192,91375,1,0,0:0:0:0:
64,192,91475,1,0,0:0:0:0:
320,192,91575,128,0,94775:0:0:0:0:
448,192,91575,1,0,0:0:0:0:
64,192,91775,1,0,0:0:0:0:
192,192,91875,1,0,0:0:0:0:
448,192,91875,1,0,0:0:0:0:
64,192,91975,1,0,0:0:0:0:
192,192,91975,1,0,0:0:0:0:
448,192,92175,1,0,0:0:0:0:
192,192,92275,1,0,0:0:0:0:
64,192,92275,1,0,0:0:0:0:
448,192,92375,1,0,0:0:0:0:
64,192,92375,1,0,0:0:0:0:
192,192,92575,1,0,0:0:0:0:
64,192,92675,1,0,0:0:0:0:
448,192,92675,1,0,0:0:0:0:
192,192,92775,1,0,0:0:0:0:
448,192,92775,1,0,0:0:0:0:
64,192,92975,1,0,0:0:0:0:
192,192,93075,1,0,0:0:0:0:
448,192,93075,1,0,0:0:0:0:
64,192,93175,1,0,0:0:0:0:
448,192,93175,1,0,0:0:0:0:
192,192,93375,1,0,0:0:0:0:
64,192,93475,1,0,0:0:0:0:
448,192,93475,1,0,0:0:0:0:
192,192,93575,1,0,0:0:0:0:
64,192,93575,1,0,0:0:0:0:
448,192,93775,1,0,0:0:0:0:
192,192,93875,1,0,0:0:0:0:
64,192,93875,1,0,0:0:0:0:
448,192,93975,1,0,0:0:0:0:
192,192,93975,1,0,0:0:0:0:
64,192,94175,1,0,0:0:0:0:
192,192,94275,1,0,0:0:0:0:
448,192,94275,1,0,0:0:0:0:
64,192,94375,1,0,0:0:0:0:
448,192,94375,1,0,0:0:0:0:
192,192,94475,1,0,0:0:0:0:
448,192,94575,1,0,0:0:0:0:
192,192,94675,1,0,0:0:0:0:
64,192,94775,128,0,97975:0:0:0:0:
448,192,94775,1,0,0:0:0:0:
192,192,94975,1,0,0:0:0:0:
320,192,95075,1,0,0:0:0:0:
448,192,95075,1,0,0:0:0:0:
192,192,95175,1,0,0:0:0:0:
320,192,95175,1,0,0:0:0:0:
448,192,95375,1,0,0:0:0:0:
320,192,95475,1,0,0:0:0:0:
192,192,95475,1,0,0:0:0:0:
448,192,95575,1,0,0:0:0:0:
192,192,95575,1,0,0:0:0:0:
320,192,95775,1,0,0:0:0:0:
192,192,95875,1,0,0:0:0:0:
448,192,95875,1,0,0:0:0:0:
320,192,95975,1,0,0:0:0:0:
448,192,95975,1,0,0:0:0:0:
192,192,96175,1,0,0:0:0:0:
320,192,96275,1,0,0:0:0:0:
448,192,96275,1,0,0:0:0:0:
192,192,96375,1,0,0:0:0:0:
448,192,96375,1,0,0:0:0:0:
320,192,96575,1,0,0:0:0:0:
192,192,96675,1,0,0:0:0:0:
448,192,96675,1,0,0:0:0:0:
320,192,96775,1,0,0:0:0:0:
192,192,96775,1,0,0:0:0:0:
448,192,96975,1,0,0:0:0:0:
320,192,97075,1,0,0:0:0:0:
192,192,97075,1,0,0:0:0:0:
448,192,97175,1,0,0:0:0:0:
320,192,97175,1,0,0:0:0:0:
192,192,97375,1,0,0:0:0:0:
320,192,97475,1,0,0:0:0:0:
448,192,97475,1,0,0:0:0:0:
192,192,97575,1,0,0:0:0:0:
448,192,97575,1,0,0:0:0:0:
320,192,97675,1,0,0:0:0:0:
448,192,97775,1,0,0:0:0:0:
192,192,97875,1,0,0:0:0:0:
320,192,97975,1,0,0:0:0:0:
448,192,97975,128,0,101175:0:0:0:0:
64,192,98175,1,0,0:0:0:0:
192,192,98275,1,0,0:0:0:0:
320,192,98275,1,0,0:0:0:0:
64,192,98375,1,0,0:0:0:0:
320,192,98375,1,0,0:0:0:0:
192,192,98575,1,0,0:0:0:0:
320,192,98675,1,0,0:0:0:0:
64,192,98675,1,0,0:0:0:0:
192,192,98775,1,0,0:0:0:0:
64,192,98775,1,0,0:0:0:0:
320,192,98975,1,0,0:0:0:0:
192,192,99075,1,0,0:0:0:0:
64,192,99075,1,0,0:0:0:0:
192,192,99175,1,0,0:0:0:0:
320,192,99175,1,0,0:0:0:0:
64,192,99375,1,0,0:0:0:0:
192,192,99475,1,0,0:0:0:0:
320,192,99475,1,0,0:0:0:0:
64,192,99575,1,0,0:0:0:0:
192,192,99575,1,0,0:0:0:0:
320,192,99775,1,0,0:0:0:0:
192,192,99875,1,0,0:0:0:0:
64,192,99875,1,0,0:0:0:0:
320,192,99975,1,0,0:0:0:0:
64,192,99975,1,0,0:0:0:0:
192,192,100175,1,0,0:0:0:0:
64,192,100275,1,0,0:0:0:0:
320,192,100275,1,0,0:0:0:0:
320,192,100375,1,0,0:0:0:0:
192,192,100375,1,0,0:0:0:0:
64,192,100575,1,0,0:0:0:0:
192,192,100675,1,0,0:0:0:0:
320,192,100675,1,0,0:0:0:0:
64,192,100775,1,0,0:0:0:0:
192,192,100775,1,0,0:0:0:0:
320,192,100875,1,0,0:0:0:0:
192,192,100975,1,0,0:0:0:0:
64,192,101075,1,0,0:0:0:0:
192,192,101175,128,0,104375:0:0:0:0:
320,192,101175,1,0,0:0:0:0:
64,192,101375,1,0,0:0:0:0:
320,192,101475,1,0,0:0:0:0:
448,192,101475,1,0,0:0:0:0:
64,192,101575,1,0,0:0:0:0:
448,192,101575,1,0,0:0:0:0:
320,192,101775,1,0,0:0:0:0:
448,192,101875,1,0,0:0:0:0:
64,192,101875,1,0,0:0:0:0:
320,192,101975,1,0,0:0:0:0:
64,192,101975,1,0,0:0:0:0:
448,192,102175,1,0,0:0:0:0:
320,192,102275,1,0,0:0:0:0:
64,192,102275,1,0,0:0:0:0:
320,192,102375,1,0,0:0:0:0:
448,192,102375,1,0,0:0:0:0:
64,192,102575,1,0,0:0:0:0:
320,192,102675,1,0,0:0:0:0:
448,192,102675,1,0,0:0:0:0:
64,192,102775,1,0,0:0:0:0:
320,192,102775,1,0,0:0:0:0:
448,192,102975,1,0,0:0:0:0:
320,192,103075,1,0,0:0:0:0:
64,192,103075,1,0,0:0:0:0:
448,192,103175,1,0,0:0:0:0:
64,192,103175,1,0,0:0:0:0:
320,192,103375,1,0,0:0:0:0:
448,192,103475,1,0,0:0:0:0:
64,192,103475,1,0,0:0:0:0:
320,192,103575,1,0,0:0:0:0:
448,192,103575,1,0,0:0:0:0:
64,192,103775,1,0,0:0:0:0:
320,192,103875,1,0,0:0:0:0:
448,192,103875,1,0,0:0:0:0:
64,192,103975,1,0,0:0:0:0:
320,192,103975,1,0,0:0:0:0:
448,192,104075,1,0,0:0:0:0:
320,192,104175,1,0,0:0:0:0:
64,192,104275,1,0,0:0:0:0:
320,192,104375,128,0,107575:0:0:0:0:
448,192,104375,1,0,0:0:0:0:
64,192,104575,1,0,0:0:0:0:
192,192,104675,1,0,0:0:0:0:
448,192,104675,1,0,0:0:0:0:
64,192,104775,1,0,0:0:0:0:
192,192,104775,1,0,0:0:0:0:
448,192,104975,1,0,0:0:0:0:
192,192,105075,1,0,0:0:0:0:
64,192,105075,1,0,0:0:0:0:
448,192,105175,1,0,0:0:0:0:
64,192,105175,1,0,0:0:0:0:
192,192,105375,1,0,0:0:0:0:
64,192,105475,1,0,0:0:0:0:
448,192,105475,1,0,0:0:0:0:
192,192,105575,1,0,0:0:0:0:
448,192,105575,1,0,0:0:0:0:
64,192,105775,1,0,0:0:0:0:
192,192,105875,1,0,0:0:0:0:
448,192,105875,1,0,0:0:0:0:
64,192,105975,1,0,0:0:0:0:
448,192,105975,1,0,0:0:0:0:
192,192,106175,1,0,0:0:0:0:
64,192,106275,1,0,0:0:0:0:
448,192,106275,1,0,0:0:0:0:
192,192,106375,1,0,0:0:0:0:
64,192,106375,1,0,0:0:0:0:
448,192,106575,1,0,0:0:0:0:
192,192,106675,1,0,0:0:0:0:
64,192,106675,1,0,0:0:0:0:
448,192,106775,1,0,0:0:0:0:
192,192,106775,1,0,0:0:0:0:
64,192,106975,1,0,0:0:0:0:
192,192,107075,1,0,0:0:0:0:
448,192,107075,1,0,0:0:0:0:
64,192,107175,1,0,0:0:0:0:
448,192,107175,1,0,0:0:0:0:
192,192,107275,1,0,0:0:0:0:
448,192,107375,1,0,0:0:0:0:
192,192,107475,1,0,0:0:0:0:
64,192,107575,128,0,110775:0:0:0:0:
448,192,107575,1,0,0:0:0:0:
192,192,107775,1,0,0:0:0:0:
320,192,107875,1,0,0:0:0:0:
448,192,107875,1,0,0:0:0:0:
192,192,107975,1,0,0:0:0:0:
320,192,107975,1,0,0:0:0:0:
448,192,108175,1,0,0:0:0:0:
320,192,108275,1,0,0:0:0:0:
192,192,108275,1,0,0:0:0:0:
448,192,108375,1,0,0:0:0:0:
192,192,108375,1,0,0:0:0:0:
320,192,108575,1,0,0:0:0:0:
192,192,108675,1,0,0:0:0:0:
448,192,108675,1,0,0:0:0:0:
320,192,108775,1,0,0:0:0:0:
448,192,108775,1,0,0:0:0:0:
192,192,108975,1,0,0:0:0:0:
320,192,109075,1,0,0:0:0:0:
448,192,109075,1,0,0:0:0:0:
192,192,109175,1,0,0:0:0:0:
448,192,109175,1,0,0:0:0:0:
320,192,109375,1,0,0:0:0:0:
192,192,109475,1,0,0:0:0:0:
448,192,109475,1,0,0:0:0:0:
320,192,109575,1,0,0:0:0:0:
192,192,109575,1,0,0:0:0:0:
448,192,109775,1,0,0:0:0:0:
320,192,109875,1,0,0:0:0:0:
192,192,109875,1,0,0:0:0:0:
448,192,109975,1,0,0:0:0:0:
320,192,109975,1,0,0:0:0:0:
192,192,110175,1,0,0:0:0:0:
320,192,110275,1,0,0:0:0:0:
448,192,110275,1,0,0:0:0:0:
192,192,110375,1,0,0:0:0:0:
448,192,110375,1,0,0:0:0:0:
320,192,110475,1,0,0:0:0:0:
448,192,110575,128,0,110675:0:0:0:0:
320,192,110675,128,0,110775:0:0:0:0:
192,192,110775,128,0,110875:0:0:0:0:
192,192,111375,128,0,111475:0:0:0:0:
320,192,111475,128,0,111575:0:0:0:0:
448,192,111575,128,0,111675:0:0:0:0:
448,192,112175,128,0,112275:0:0:0:0:
320,192,112275,128,0,112375:0:0:0:0:
192,192,112375,128,0,112475:0:0:0:0:
192,192,112975,128,0,113075:0:0:0:0:
320,192,113075,128,0,113175:0:0:0:0:
448,192,113175,128,0,113275:0:0:0:0:
448,192,113775,128,0,113875:0:0:0:0:
320,192,113875,128,0,113975:0:0:0:0:
192,192,113975,128,0,114075:0:0:0:0:
64,192,114375,128,0,114475:0:0:0:0:
64,192,115375,128,0,115475:0:0:0:0:
192,192,115475,128,0,115575:0:0:0:0:
320,192,115575,128,0,115675:0:0:0:0:
320,192,116175,128,0,116275:0:0:0:0:
192,192,116275,128,0,116375:0:0:0:0:
64,192,116375,128,0,116475:0:0:0:0:
448,192,116975,128,0,117075:0:0:0:0:
320,192,117075,128,0,117175:0:0:0:0:
192,192,117175,128,0,117275:0:0:0:0:
192,192,117775,128,0,117875:0:0:0:0:
320,192,117875,128,0,117975:0:0:0:0:
448,192,117975,128,0,118075:0:0:0:0:
448,192,118575,128,0,118675:0:0:0:0:
320,192,118675,128,0,118775:0:0:0:0:
192,192,118775,128,0,118875:0:0:0:0:
192,192,119375,128,0,119475:0:0:0:0:
320,192,119475,128,0,119575:0:0:0:0:
448,192,119575,128,0,119675:0:0:0:0:
448,192,120175,128,0,120275:0:0:0:0:
320,192,120275,128,0,120375:0:0:0:0:
192,192,120375,128,0,120475:0:0:0:0:
448,192,120775,128,0,120875:0:0:0:0:
320,192,120975,128,0,121075:0:0:0:0:
448,192,121875,128,0,121975:0:0:0:0:
320,192,121975,128,0,122075:0:0:0:0:
320,192,122275,128,0,122375:0:0:0:0:
192,192,122375,128,0,122475:0:0:0:0:
192,192,122675,128,0,122775:0:0:0:0:
64,192,122775,128,0,122875:0:0:0:0:
320,192,123075,128,0,123175:0:0:0:0:
192,192,123175,128,0,123275:0:0:0:0:
64,192,123575,128,0,123675:0:0:0:0:
192,192,124175,128,0,124275:0:0:0:0:
320,192,124275,128,0,124375:0:0:0:0:
448,192,124375,128,0,124475:0:0:0:0:
448,192,124975,128,0,125075:0:0:0:0:
320,192,125075,128,0,125175:0:0:0:0:
192,192,125175,128,0,125275:0:0:0:0:
192,192,125775,128,0,125875:0:0:0:0:
320,192,125875,128,0,125975:0:0:0:0:
448,192,125975,128,0,126075:0:0:0:0:
448,192,126575,128,0,126675:0:0:0:0:
320,192,126675,128,0,126775:0:0:0:0:
192,192,126775,128,0,126875:0:0:0:0:
64,192,127175,128,0,127275:0:0:0:0:
64,192,128175,128,0,128275:0:0:0:0:
192,192,128275,128,0,128375:0:0:0:0:
320,192,128375,128,0,128475:0:0:0:0:
320,192,128975,128,0,129075:0:0:0:0:
192,192,129075,128,0,129175:0:0:0:0:
64,192,129175,128,0,129275:0:0:0:0:
448,192,129775,128,0,129875:0:0:0:0:
320,192,129875,128,0,129975:0:0:0:0:
192,192,129975,128,0,130075:0:0:0:0:
192,192,130575,128,0,130675:0:0:0:0:
320,192,130675,128,0,130775:0:0:0:0:
448,192,130775,128,0,130875:0:0:0:0:
448,192,131375,128,0,131475:0:0:0:0:
320,192,131475,128,0,131575:0:0:0:0:
192,192,131575,128,0,131675:0:0:0:0:
192,192,132175,128,0,132275:0:0:0:0:
320,192,132275,128,0,132375:0:0:0:0:
448,192,132375,128,0,132475:0:0:0:0:
448,192,132975,128,0,133075:0:0:0:0:
320,192,133075,128,0,133175:0:0:0:0:
192,192,133175,128,0,133275:0:0:0:0:
64,192,134775,1,0,0:0:0:0:
192,192,134775,1,0,0:0:0:0:
320,192,134825,1,0,0:0:0:0:
448,192,134825,1,0,0:0:0:0:
192,192,134875,1,0,0:0:0:0:
64,192,134875,1,0,0:0:0:0:
320,192,134925,1,0,0:0:0:0:
448,192,134925,1,0,0:0:0:0:
64,192,134975,1,0,0:0:0:0:
192,192,135075,1,0,0:0:0:0:
320,192,135075,1,0,0:0:0:0:
64,192,135175,1,0,0:0:0:0:
448,192,135175,1,0,0:0:0:0:
320,192,135275,1,0,0:0:0:0:
192,192,135275,1,0,0:0:0:0:
64,192,135375,1,0,0:0:0:0:
192,192,135375,1,0,0:0:0:0:
448,192,135375,1,0,0:0:0:0:
320,192,135475,1,0,0:0:0:0:
448,192,135575,1,0,0:0:0:0:
64,192,135575,1,0,0:0:0:0:
192,192,135675,1,0,0:0:0:0:
320,192,135675,1,0,0:0:0:0:
448,192,135675,1,0,0:0:0:0:
64,192,135775,128,0,135875:0:0:0:0:
448,192,135975,1,0,0:0:0:0:
320,192,135975,1,0,0:0:0:0:
448,192,136075,1,0,0:0:0:0:
192,192,136175,1,0,0:0:0:0:
64,192,136175,1,0,0:0:0:0:
64,192,136275,1,0,0:0:0:0:
192,192,136375,128,0,139575:0:0:0:0:
320,192,136375,1,0,0:0:0:0:
448,192,136375,128,0,136575:0:0:0:0:
448,192,136675,128,0,136875:0:0:0:0:
64,192,137775,1,0,0:0:0:0:
448,192,138075,128,0,138175:0:0:0:0:
448,192,138275,128,0,138375:0:0:0:0:
448,192,138475,128,0,138575:0:0:0:0:
64,192,139575,128,0,142775:0:0:0:0:
320,192,139675,128,0,139875:0:0:0:0:
320,192,139975,128,0,140175:0:0:0:0:
448,192,140975,1,0,0:0:0:0:
320,192,141275,128,0,141475:0:0:0:0:
320,192,141575,128,0,141675:0:0:0:0:
320,192,142775,128,0,145975:0:0:0:0:
192,192,142875,128,0,143275:0:0:0:0:
64,192,144175,1,0,0:0:0:0:
192,192,144475,128,0,144675:0:0:0:0:
192,192,144775,128,0,144875:0:0:0:0:
192,192,144975,128,0,145075:0:0:0:0:
192,192,145975,128,0,149175:0:0:0:0:
64,192,146175,128,0,146275:0:0:0:0:
64,192,146475,128,0,146575:0:0:0:0:
448,192,147375,1,0,0:0:0:0:
320,192,147675,128,0,147725:0:0:0:0:
64,192,147725,128,0,147975:0:0:0:0:
64,192,148075,128,0,148275:0:0:0:0:
448,192,149175,128,0,152375:0:0:0:0:
320,192,149375,128,0,149575:0:0:0:0:
320,192,149675,128,0,149875:0:0:0:0:
64,192,150575,1,0,0:0:0:0:
320,192,150875,128,0,150975:0:0:0:0:
320,192,152375,128,0,155575:0:0:0:0:
192,192,152475,128,0,152875:0:0:0:0:
64,192,152875,128,0,153175:0:0:0:0:
448,192,153775,1,0,0:0:0:0:
192,192,154075,128,0,154175:0:0:0:0:
192,192,154275,128,0,154375:0:0:0:0:
192,192,155575,128,0,158775:0:0:0:0:
64,192,155675,128,0,155875:0:0:0:0:
64,192,155975,128,0,156175:0:0:0:0:
448,192,156975,1,0,0:0:0:0:
64,192,157175,128,0,157375:0:0:0:0:
64,192,157475,128,0,157675:0:0:0:0:
64,192,158775,128,0,161975:0:0:0:0:
320,192,158775,128,0,159975:0:0:0:0:
448,192,161975,1,0,0:0:0:0:
192,192,165175,1,0,0:0:0:0:
320,192,168375,1,0,0:0:0:0:
64,192,171575,1,0,0:0:0:0:
192,192,174775,128,0,174875:0:0:0:0:
320,192,174775,128,0,174875:0:0:0:0:
64,192,174975,128,0,175075:0:0:0:0:
192,192,175075,128,0,175175:0:0:0:0:
320,192,175175,128,0,175275:0:0:0:0:
448,192,175275,128,0,175375:0:0:0:0:
320,192,175375,128,0,175475:0:0:0:0:
64,192,175475,128,0,175575:0:0:0:0:
192,192,175575,128,0,175675:0:0:0:0:
448,192,175775,128,0,175875:0:0:0:0:
320,192,175875,128,0,175975:0:0:0:0:
192,192,175975,128,0,176075:0:0:0:0:
64,192,176075,128,0,176175:0:0:0:0:
192,192,176175,128,0,176275:0:0:0:0:
448,192,176275,128,0,176375:0:0:0:0:
320,192,176375,128,0,176475:0:0:0:0:
64,192,176575,128,0,176675:0:0:0:0:
192,192,176675,128,0,176775:0:0:0:0:
320,192,176775,128,0,176875:0:0:0:0:
448,192,176875,128,0,176975:0:0:0:0:
320,192,176975,128,0,177075:0:0:0:0:
192,192,177075,128,0,177175:0:0:0:0:
64,192,177175,128,0,177275:0:0:0:0:
192,192,177275,128,0,177375:0:0:0:0:
320,192,177375,128,0,177475:0:0:0:0:
448,192,177475,128,0,177575:0:0:0:0:
192,192,177575,128,0,177675:0:0:0:0:
64,192,177675,128,0,177775:0:0:0:0:
320,192,177775,128,0,177875:0:0:0:0:
448,192,177875,128,0,177975:0:0:0:0:
320,192,177975,128,0,178075:0:0:0:0:
192,192,177975,128,0,178075:0:0:0:0:
64,192,178175,128,0,178275:0:0:0:0:
192,192,178275,128,0,178375:0:0:0:0:
320,192,178375,128,0,178475:0:0:0:0:
448,192,178475,128,0,178575:0:0:0:0:
320,192,178575,128,0,178675:0:0:0:0:
64,192,178675,128,0,178775:0:0:0:0:
192,192,178775,128,0,178875:0:0:0:0:
64,192,178975,128,0,179075:0:0:0:0:
192,192,179075,128,0,179175:0:0:0:0:
320,192,179175,128,0,179275:0:0:0:0:
448,192,179275,128,0,179375:0:0:0:0:
320,192,179375,128,0,179475:0:0:0:0:
192,192,179475,128,0,179575:0:0:0:0:
64,192,179575,128,0,179675:0:0:0:0:
192,192,179775,128,0,179875:0:0:0:0:
64,192,179875,128,0,179975:0:0:0:0:
192,192,179975,128,0,180075:0:0:0:0:
320,192,180075,128,0,180175:0:0:0:0:
192,192,180175,128,0,180275:0:0:0:0:
320,192,180275,128,0,180375:0:0:0:0:
448,192,180375,128,0,180475:0:0:0:0:
320,192,180475,128,0,180575:0:0:0:0:
192,192,180575,128,0,180675:0:0:0:0:
64,192,180675,128,0,180775:0:0:0:0:
320,192,180775,128,0,180875:0:0:0:0:
192,192,180875,128,0,180975:0:0:0:0:
64,192,180975,128,0,181075:0:0:0:0:
448,192,181075,128,0,181175:0:0:0:0:
192,192,181175,128,0,181275:0:0:0:0:
320,192,181175,128,0,181275:0:0:0:0:
64,192,181175,1,0,0:0:0:0:
64,192,181375,128,0,181475:0:0:0:0:
192,192,181475,128,0,181575:0:0:0:0:
320,192,181575,128,0,181675:0:0:0:0:
64,192,181575,1,0,0:0:0:0:
448,192,181675,128,0,181775:0:0:0:0:
320,192,181775,128,0,181875:0:0:0:0:
64,192,181875,128,0,181975:0:0:0:0:
192,192,181975,128,0,182075:0:0:0:0:
448,192,181975,1,0,0:0:0:0:
448,192,182175,128,0,182275:0:0:0:0:
320,192,182275,128,0,182375:0:0:0:0:
192,192,182375,128,0,182475:0:0:0:0:
448,192,182375,1,0,0:0:0:0:
64,192,182475,128,0,182575:0:0:0:0:
192,192,182575,128,0,182675:0:0:0:0:
448,192,182675,128,0,182775:0:0:0:0:
320,192,182775,128,0,182875:0:0:0:0:
64,192,182775,1,0,0:0:0:0:
64,192,182975,128,0,183075:0:0:0:0:
192,192,183075,128,0,183175:0:0:0:0:
320,192,183175,128,0,183275:0:0:0:0:
64,192,183175,1,0,0:0:0:0:
448,192,183275,128,0,183375:0:0:0:0:
320,192,183375,128,0,183475:0:0:0:0:
192,192,183475,128,0,183575:0:0:0:0:
64,192,183575,128,0,183675:0:0:0:0:
448,192,183575,1,0,0:0:0:0:
192,192,183675,128,0,183775:0:0:0:0:
320,192,183775,128,0,183875:0:0:0:0:
448,192,183875,128,0,183975:0:0:0:0:
192,192,183975,128,0,184075:0:0:0:0:
320,192,183975,1,0,0:0:0:0:
64,192,184075,128,0,184175:0:0:0:0:
320,192,184175,128,0,184275:0:0:0:0:
448,192,184275,128,0,184375:0:0:0:0:
320,192,184375,128,0,184475:0:0:0:0:
192,192,184375,128,0,184475:0:0:0:0:
64,192,184375,1,0,0:0:0:0:
64,192,184575,128,0,184675:0:0:0:0:
192,192,184675,128,0,184775:0:0:0:0:
320,192,184775,128,0,184875:0:0:0:0:
64,192,184775,1,0,0:0:0:0:
448,192,184875,128,0,184975:0:0:0:0:
320,192,184975,128,0,185075:0:0:0:0:
64,192,185075,128,0,185175:0:0:0:0:
192,192,185175,128,0,185275:0:0:0:0:
448,192,185175,1,0,0:0:0:0:
64,192,185375,128,0,185475:0:0:0:0:
192,192,185475,128,0,185575:0:0:0:0:
320,192,185575,128,0,185675:0:0:0:0:
64,192,185575,1,0,0:0:0:0:
448,192,185675,128,0,185775:0:0:0:0:
320,192,185775,128,0,185875:0:0:0:0:
192,192,185875,128,0,185975:0:0:0:0:
64,192,185975,128,0,186075:0:0:0:0:
448,192,185975,1,0,0:0:0:0:
192,192,186175,128,0,186275:0:0:0:0:
64,192,186275,128,0,186375:0:0:0:0:
192,192,186375,128,0,186475:0:0:0:0:
448,192,186375,1,0,0:0:0:0:
320,192,186475,128,0,186575:0:0:0:0:
192,192,186575,128,0,186675:0:0:0:0:
320,192,186675,128,0,186775:0:0:0:0:
448,192,186775,128,0,186875:0:0:0:0:
64,192,186775,1,0,0:0:0:0:
320,192,186875,128,0,186975:0:0:0:0:
192,192,186975,128,0,187075:0:0:0:0:
448,192,186975,1,0,0:0:0:0:
64,192,187075,128,0,187175:0:0:0:0:
448,192,187075,1,0,0:0:0:0:
320,192,187175,128,0,187275:0:0:0:0:
192,192,187275,128,0,187375:0:0:0:0:
448,192,187275,1,0,0:0:0:0:
64,192,187375,128,0,187475:0:0:0:0:
448,192,187475,128,0,187575:0:0:0:0:
192,192,187475,1,0,0:0:0:0:
64,192,187575,1,0,0:0:0:0:
320,192,187575,128,0,187675:0:0:0:0:
192,192,187575,1,0,0:0:0:0:
64,192,187775,128,0,187875:0:0:0:0:
448,192,187775,1,0,0:0:0:0:
192,192,187875,128,0,187975:0:0:0:0:
448,192,187875,1,0,0:0:0:0:
320,192,187975,128,0,188075:0:0:0:0:
448,192,188075,128,0,188175:0:0:0:0:
64,192,188075,1,0,0:0:0:0:
320,192,188175,128,0,188275:0:0:0:0:
64,192,188275,128,0,188375:0:0:0:0:
448,192,188275,1,0,0:0:0:0:
192,192,188375,128,0,188475:0:0:0:0:
448,192,188375,1,0,0:0:0:0:
448,192,188575,128,0,188675:0:0:0:0:
64,192,188575,1,0,0:0:0:0:
320,192,188675,128,0,188775:0:0:0:0:
64,192,188675,1,0,0:0:0:0:
192,192,188775,128,0,188875:0:0:0:0:
64,192,188875,128,0,188975:0:0:0:0:
448,192,188875,1,0,0:0:0:0:
192,192,188975,128,0,189075:0:0:0:0:
448,192,189075,128,0,189175:0:0:0:0:
64,192,189075,1,0,0:0:0:0:
320,192,189175,128,0,189275:0:0:0:0:
64,192,189175,1,0,0:0:0:0:
64,192,189375,128,0,189475:0:0:0:0:
448,192,189375,1,0,0:0:0:0:
192,192,189475,128,0,189575:0:0:0:0:
448,192,189475,1,0,0:0:0:0:
320,192,189575,128,0,189675:0:0:0:0:
448,192,189675,128,0,189775:0:0:0:0:
64,192,189675,1,0,0:0:0:0:
320,192,189775,128,0,189875:0:0:0:0:
64,192,189875,128,0,189975:0:0:0:0:
448,192,189875,1,0,0:0:0:0:
192,192,189975,128,0,190075:0:0:0:0:
448,192,189975,1,0,0:0:0:0:
448,192,190175,128,0,190275:0:0:0:0:
64,192,190175,1,0,0:0:0:0:
320,192,190275,128,0,190375:0:0:0:0:
64,192,190275,1,0,0:0:0:0:
192,192,190375,128,0,190475:0:0:0:0:
64,192,190475,128,0,190575:0:0:0:0:
448,192,190475,1,0,0:0:0:0:
192,192,190575,128,0,190675:0:0:0:0:
448,192,190675,128,0,190775:0:0:0:0:
64,192,190675,1,0,0:0:0:0:
320,192,190775,128,0,190875:0:0:0:0:
64,192,190775,1,0,0:0:0:0:
64,192,190975,128,0,191075:0:0:0:0:
448,192,190975,1,0,0:0:0:0:
192,192,191075,128,0,191175:0:0:0:0:
448,192,191075,1,0,0:0:0:0:
320,192,191175,128,0,191275:0:0:0:0:
448,192,191275,128,0,191375:0:0:0:0:
64,192,191275,1,0,0:0:0:0:
320,192,191375,128,0,191475:0:0:0:0:
64,192,191475,128,0,191575:0:0:0:0:
448,192,191475,1,0,0:0:0:0:
192,192,191575,128,0,191675:0:0:0:0:
448,192,191575,1,0,0:0:0:0:
448,192,191775,128,0,191875:0:0:0:0:
64,192,191775,1,0,0:0:0:0:
320,192,191875,128,0,191975:0:0:0:0:
64,192,191875,1,0,0:0:0:0:
192,192,191975,128,0,192075:0:0:0:0:
64,192,192075,128,0,192175:0:0:0:0:
448,192,192075,1,0,0:0:0:0:
192,192,192175,128,0,192275:0:0:0:0:
448,192,192275,128,0,192375:0:0:0:0:
64,192,192275,1,0,0:0:0:0:
320,192,192375,128,0,192475:0:0:0:0:
64,192,192375,1,0,0:0:0:0:
64,192,192575,128,0,192675:0:0:0:0:
448,192,192575,1,0,0:0:0:0:
192,192,192675,128,0,192775:0:0:0:0:
448,192,192675,1,0,0:0:0:0:
320,192,192775,128,0,192875:0:0:0:0:
448,192,192875,128,0,192975:0:0:0:0:
64,192,192875,1,0,0:0:0:0:
320,192,192975,128,0,193075:0:0:0:0:
64,192,193075,128,0,193175:0:0:0:0:
448,192,193075,1,0,0:0:0:0:
192,192,193175,128,0,193275:0:0:0:0:
448,192,193175,1,0,0:0:0:0:
448,192,193375,128,0,193475:0:0:0:0:
64,192,193375,1,0,0:0:0:0:
320,192,193475,128,0,193575:0:0:0:0:
64,192,193475,1,0,0:0:0:0:
192,192,193575,128,0,193675:0:0:0:0:
64,192,193675,128,0,193775:0:0:0:0:
448,192,193675,1,0,0:0:0:0:
192,192,193775,128,0,193875:0:0:0:0:
448,192,193875,128,0,193975:0:0:0:0:
64,192,193875,1,0,0:0:0:0:
64,192,193975,1,0,0:0:0:0:
64,192,197175,5,0,0:0:0:0:
192,192,197175,1,0,0:0:0:0:
320,192,197225,1,0,0:0:0:0:
448,192,197225,1,0,0:0:0:0:
192,192,197275,1,0,0:0:0:0:
64,192,197275,1,0,0:0:0:0:
320,192,197325,1,0,0:0:0:0:
448,192,197325,1,0,0:0:0:0:
64,192,197375,1,0,0:0:0:0:
192,192,197375,1,0,0:0:0:0:
320,192,197425,1,0,0:0:0:0:
448,192,197425,1,0,0:0:0:0:
64,192,197475,1,0,0:0:0:0:
192,192,197475,1,0,0:0:0:0:
320,192,197525,1,0,0:0:0:0:
448,192,197525,1,0,0:0:0:0:
192,192,197575,1,0,0:0:0:0:
64,192,197575,1,0,0:0:0:0:
320,192,197625,1,0,0:0:0:0:
448,192,197625,1,0,0:0:0:0:
192,192,197675,1,0,0:0:0:0:
64,192,197675,1,0,0:0:0:0:
320,192,197725,1,0,0:0:0:0:
448,192,197725,1,0,0:0:0:0:
64,192,197775,1,0,0:0:0:0:
192,192,197775,1,0,0:0:0:0:
320,192,197825,1,0,0:0:0:0:
448,192,197825,1,0,0:0:0:0:
64,192,197875,1,0,0:0:0:0:
192,192,197875,1,0,0:0:0:0:
320,192,197925,1,0,0:0:0:0:
448,192,197925,1,0,0:0:0:0:
64,192,197975,1,0,0:0:0:0:
192,192,198000,1,0,0:0:0:0:
320,192,198025,1,0,0:0:0:0:
448,192,198050,1,0,0:0:0:0:
64,192,198075,1,0,0:0:0:0:
192,192,198100,1,0,0:0:0:0:
320,192,198125,1,0,0:0:0:0:
448,192,198150,1,0,0:0:0:0:
64,192,198175,1,0,0:0:0:0:
192,192,198200,1,0,0:0:0:0:
320,192,198225,1,0,0:0:0:0:
448,192,198250,1,0,0:0:0:0:
64,192,198275,1,0,0:0:0:0:
192,192,198300,1,0,0:0:0:0:
320,192,198325,1,0,0:0:0:0:
448,192,198350,1,0,0:0:0:0:
192,192,198375,1,0,0:0:0:0:
64,192,198408,1,0,0:0:0:0:
448,192,198441,1,0,0:0:0:0:
320,192,198475,1,0,0:0:0:0:
192,192,198508,1,0,0:0:0:0:
64,192,198541,1,0,0:0:0:0:
448,192,198575,1,0,0:0:0:0:
320,192,198608,1,0,0:0:0:0:
192,192,198641,1,0,0:0:0:0:
64,192,198675,1,0,0:0:0:0:
448,192,198708,1,0,0:0:0:0:
320,192,198741,1,0,0:0:0:0:
64,192,199775,128,0,199875:0:0:0:0:
192,192,199875,128,0,199975:0:0:0:0:
320,192,199975,128,0,200075:0:0:0:0:
448,192,200075,128,0,200175:0:0:0:0:
64,192,200175,128,0,200275:0:0:0:0:
192,192,200275,128,0,200375:0:0:0:0:
320,192,200375,128,0,200475:0:0:0:0:
448,192,200375,128,0,200475:0:0:0:0:
64,192,200575,128,0,200675:0:0:0:0:
192,192,200675,128,0,200775:0:0:0:0:
320,192,200775,128,0,200875:0:0:0:0:
448,192,200875,128,0,200975:0:0:0:0:
320,192,200975,128,0,201075:0:0:0:0:
64,192,201075,128,0,201175:0:0:0:0:
192,192,201175,128,0,201275:0:0:0:0:
64,192,201375,128,0,201475:0:0:0:0:
192,192,201475,128,0,201575:0:0:0:0:
320,192,201575,128,0,201675:0:0:0:0:
448,192,201675,128,0,201775:0:0:0:0:
320,192,201775,128,0,201875:0:0:0:0:
192,192,201875,128,0,201975:0:0:0:0:
64,192,201975,128,0,202075:0:0:0:0:
192,192,202175,128,0,202275:0:0:0:0:
64,192,202275,128,0,202375:0:0:0:0:
192,192,202375,128,0,202475:0:0:0:0:
320,192,202475,128,0,202575:0:0:0:0:
192,192,202575,128,0,202675:0:0:0:0:
320,192,202675,128,0,202775:0:0:0:0:
448,192,202775,128,0,202875:0:0:0:0:
320,192,202875,128,0,202975:0:0:0:0:
192,192,202975,128,0,203075:0:0:0:0:
320,192,203075,128,0,203175:0:0:0:0:
192,192,203175,128,0,203275:0:0:0:0:
64,192,203275,128,0,203375:0:0:0:0:
192,192,203375,128,0,203475:0:0:0:0:
320,192,203475,128,0,203575:0:0:0:0:
448,192,203575,128,0,203675:0:0:0:0:
64,192,203675,128,0,203775:0:0:0:0:
320,192,203775,128,0,203875:0:0:0:0:
192,192,203875,128,0,203975:0:0:0:0:
64,192,203975,128,0,204075:0:0:0:0:
192,192,204075,128,0,204175:0:0:0:0:
320,192,204175,128,0,204275:0:0:0:0:
448,192,204275,128,0,204375:0:0:0:0:
192,192,204375,128,0,204475:0:0:0:0:
64,192,204475,128,0,204575:0:0:0:0:
320,192,204575,128,0,204675:0:0:0:0:
448,192,204675,128,0,204775:0:0:0:0:
192,192,204775,128,0,204875:0:0:0:0:
64,192,204875,128,0,204975:0:0:0:0:
192,192,204975,128,0,205075:0:0:0:0:
320,192,205075,128,0,205175:0:0:0:0:
448,192,205175,128,0,205275:0:0:0:0:
320,192,205375,128,0,205475:0:0:0:0:
448,192,205475,128,0,205575:0:0:0:0:
320,192,205575,128,0,205675:0:0:0:0:
192,192,205675,128,0,205775:0:0:0:0:
448,192,205775,128,0,205875:0:0:0:0:
320,192,205875,128,0,205975:0:0:0:0:
192,192,205975,128,0,206075:0:0:0:0:
64,192,206075,128,0,206175:0:0:0:0:
448,192,206175,128,0,206275:0:0:0:0:
320,192,206275,128,0,206375:0:0:0:0:
192,192,206375,128,0,206475:0:0:0:0:
320,192,206475,128,0,206575:0:0:0:0:
192,192,206575,128,0,206675:0:0:0:0:
64,192,206675,128,0,206775:0:0:0:0:
320,192,206775,128,0,206875:0:0:0:0:
448,192,206775,128,0,206875:0:0:0:0:
64,192,206975,128,0,207075:0:0:0:0:
192,192,207075,128,0,207175:0:0:0:0:
320,192,207175,128,0,207275:0:0:0:0:
448,192,207275,128,0,207375:0:0:0:0:
320,192,207375,128,0,207475:0:0:0:0:
64,192,207475,128,0,207575:0:0:0:0:
192,192,207575,128,0,207675:0:0:0:0:
64,192,207775,128,0,207875:0:0:0:0:
192,192,207875,128,0,207975:0:0:0:0:
320,192,207975,128,0,208075:0:0:0:0:
448,192,208075,128,0,208175:0:0:0:0:
320,192,208175,128,0,208275:0:0:0:0:
192,192,208275,128,0,208375:0:0:0:0:
64,192,208375,128,0,208475:0:0:0:0:
192,192,208575,128,0,208675:0:0:0:0:
64,192,208675,128,0,208775:0:0:0:0:
192,192,208775,128,0,208875:0:0:0:0:
320,192,208875,128,0,208975:0:0:0:0:
192,192,208975,128,0,209075:0:0:0:0:
320,192,209075,128,0,209175:0:0:0:0:
448,192,209175,128,0,209275:0:0:0:0:
320,192,209275,128,0,209375:0:0:0:0:
192,192,209375,128,0,209475:0:0:0:0:
320,192,209475,128,0,209575:0:0:0:0:
192,192,209575,128,0,209675:0:0:0:0:
64,192,209675,128,0,209775:0:0:0:0:
192,192,209775,128,0,209875:0:0:0:0:
320,192,209875,128,0,209975:0:0:0:0:
448,192,209975,128,0,210075:0:0:0:0:
64,192,210075,128,0,210175:0:0:0:0:
320,192,210175,128,0,210275:0:0:0:0:
192,192,210275,128,0,210375:0:0:0:0:
64,192,210375,128,0,210475:0:0:0:0:
192,192,210475,128,0,210575:0:0:0:0:
320,192,210575,128,0,210675:0:0:0:0:
448,192,210675,128,0,210775:0:0:0:0:
192,192,210775,128,0,210875:0:0:0:0:
64,192,210875,128,0,210975:0:0:0:0:
320,192,210975,128,0,211075:0:0:0:0:
448,192,211075,128,0,211175:0:0:0:0:
192,192,211175,128,0,211275:0:0:0:0:
64,192,211275,128,0,211375:0:0:0:0:
192,192,211375,128,0,211475:0:0:0:0:
320,192,211475,128,0,211575:0:0:0:0:
448,192,211575,128,0,211675:0:0:0:0:
320,192,211775,128,0,211875:0:0:0:0:
448,192,211875,128,0,211975:0:0:0:0:
320,192,211975,128,0,212075:0:0:0:0:
192,192,212075,128,0,212175:0:0:0:0:
448,192,212175,128,0,212275:0:0:0:0:
320,192,212275,128,0,212375:0:0:0:0:
192,192,212375,128,0,212475:0:0:0:0:
64,192,212475,128,0,212575:0:0:0:0:
448,192,212575,128,0,212675:0:0:0:0:
320,192,212675,128,0,212775:0:0:0:0:
192,192,212775,128,0,212875:0:0:0:0:
320,192,212875,128,0,212975:0:0:0:0:
192,192,212975,128,0,213075:0:0:0:0:
64,192,213075,128,0,213175:0:0:0:0:
320,192,213175,128,0,213275:0:0:0:0:
448,192,213175,128,0,213275:0:0:0:0:
64,192,213375,128,0,213475:0:0:0:0:
192,192,213475,128,0,213575:0:0:0:0:
320,192,213575,128,0,213675:0:0:0:0:
448,192,213675,128,0,213775:0:0:0:0:
320,192,213775,128,0,213875:0:0:0:0:
64,192,213875,128,0,213975:0:0:0:0:
192,192,213975,128,0,214075:0:0:0:0:
64,192,214175,128,0,214275:0:0:0:0:
192,192,214275,128,0,214375:0:0:0:0:
320,192,214375,128,0,214475:0:0:0:0:
448,192,214475,128,0,214575:0:0:0:0:
320,192,214575,128,0,214675:0:0:0:0:
192,192,214675,128,0,214775:0:0:0:0:
64,192,214775,128,0,214875:0:0:0:0:
192,192,214975,128,0,215075:0:0:0:0:
64,192,215075,128,0,215175:0:0:0:0:
192,192,215175,128,0,215275:0:0:0:0:
320,192,215275,128,0,215375:0:0:0:0:
192,192,215375,128,0,215475:0:0:0:0:
320,192,215475,128,0,215575:0:0:0:0:
448,192,215575,128,0,215675:0:0:0:0:
320,192,215675,128,0,215775:0:0:0:0:
192,192,215775,128,0,215875:0:0:0:0:
320,192,215875,128,0,215975:0:0:0:0:
192,192,215975,128,0,216075:0:0:0:0:
64,192,216075,128,0,216175:0:0:0:0:
192,192,216175,128,0,216275:0:0:0:0:
320,192,216275,128,0,216375:0:0:0:0:
64,192,216375,128,0,216575:0:0:0:0:
192,192,216375,128,0,216575:0:0:0:0:
448,192,216375,128,0,216575:0:0:0:0:
64,192,216775,128,0,216875:0:0:0:0:
192,192,216875,128,0,216975:0:0:0:0:
320,192,216975,128,0,217075:0:0:0:0:
448,192,217075,128,0,217175:0:0:0:0:
192,192,217175,128,0,217275:0:0:0:0:
64,192,217275,128,0,217375:0:0:0:0:
320,192,217375,128,0,217475:0:0:0:0:
448,192,217475,128,0,217575:0:0:0:0:
192,192,217575,128,0,217675:0:0:0:0:
64,192,217675,128,0,217775:0:0:0:0:
192,192,217775,128,0,217875:0:0:0:0:
320,192,217875,128,0,217975:0:0:0:0:
448,192,217975,128,0,218075:0:0:0:0:
320,192,218175,128,0,218275:0:0:0:0:
448,192,218275,128,0,218375:0:0:0:0:
320,192,218375,128,0,218475:0:0:0:0:
192,192,218475,128,0,218575:0:0:0:0:
448,192,218575,128,0,218675:0:0:0:0:
320,192,218675,128,0,218775:0:0:0:0:
192,192,218775,128,0,218875:0:0:0:0:
64,192,218875,128,0,218975:0:0:0:0:
448,192,218975,128,0,219075:0:0:0:0:
320,192,219075,128,0,219175:0:0:0:0:
192,192,219175,128,0,219275:0:0:0:0:
320,192,219275,128,0,219375:0:0:0:0:
192,192,219375,128,0,219475:0:0:0:0:
64,192,219475,128,0,219575:0:0:0:0:
448,192,219575,128,0,219675:0:0:0:0:
320,192,219575,128,0,219675:0:0:0:0:
64,192,219775,128,0,219875:0:0:0:0:
192,192,219875,128,0,219975:0:0:0:0:
320,192,219975,128,0,220075:0:0:0:0:
448,192,220075,128,0,220175:0:0:0:0:
320,192,220175,128,0,220275:0:0:0:0:
64,192,220275,128,0,220375:0:0:0:0:
192,192,220375,128,0,220475:0:0:0:0:
64,192,220575,128,0,220675:0:0:0:0:
192,192,220675,128,0,220775:0:0:0:0:
320,192,220775,128,0,220875:0:0:0:0:
448,192,220875,128,0,220975:0:0:0:0:
320,192,220975,128,0,221075:0:0:0:0:
192,192,221075,128,0,221175:0:0:0:0:
64,192,221175,128,0,221275:0:0:0:0:
192,192,221375,128,0,221475:0:0:0:0:
64,192,221475,128,0,221575:0:0:0:0:
192,192,221575,128,0,221675:0:0:0:0:
320,192,221675,128,0,221775:0:0:0:0:
192,192,221775,128,0,221875:0:0:0:0:
320,192,221875,128,0,221975:0:0:0:0:
448,192,221975,128,0,222075:0:0:0:0:
320,192,222075,128,0,222175:0:0:0:0:
192,192,222175,128,0,222275:0:0:0:0:
320,192,222275,128,0,222375:0:0:0:0:
192,192,222375,128,0,222475:0:0:0:0:
64,192,222475,128,0,222575:0:0:0:0:
192,192,222575,128,0,222675:0:0:0:0:
320,192,222675,128,0,222775:0:0:0:0:
448,192,222775,128,0,222875:0:0:0:0:
64,192,222875,128,0,222975:0:0:0:0:
320,192,222975,128,0,223075:0:0:0:0:
192,192,223075,128,0,223175:0:0:0:0:
64,192,223175,128,0,223275:0:0:0:0:
192,192,223275,128,0,223375:0:0:0:0:
320,192,223375,128,0,223475:0:0:0:0:
448,192,223475,128,0,223575:0:0:0:0:
192,192,223575,128,0,223675:0:0:0:0:
64,192,223675,128,0,223775:0:0:0:0:
320,192,223775,128,0,223875:0:0:0:0:
448,192,223875,128,0,223975:0:0:0:0:
192,192,223975,128,0,224075:0:0:0:0:
64,192,224075,128,0,224175:0:0:0:0:
192,192,224175,128,0,224275:0:0:0:0:
320,192,224275,128,0,224375:0:0:0:0:
448,192,224375,128,0,224475:0:0:0:0:
320,192,224575,128,0,224675:0:0:0:0:
448,192,224675,128,0,224775:0:0:0:0:
320,192,224775,128,0,224875:0:0:0:0:
192,192,224875,128,0,224975:0:0:0:0:
448,192,224975,128,0,225075:0:0:0:0:
320,192,225075,128,0,225175:0:0:0:0:
192,192,225175,128,0,225275:0:0:0:0:
64,192,225275,128,0,225375:0:0:0:0:
448,192,225375,128,0,225475:0:0:0:0:
320,192,225475,128,0,225575:0:0:0:0:
192,192,225575,128,0,225675:0:0:0:0:
320,192,225775,1,0,0:0:0:0:
192,192,225875,1,0,0:0:0:0:
64,192,225975,1,0,0:0:0:0:
