osu file format v14

[General]
AudioFilename: audio.mp3
AudioLeadIn: 0
PreviewTime: 31053
Countdown: 0
SampleSet: None
StackLeniency: 0.2
Mode: 0
LetterboxInBreaks: 0
WidescreenStoryboard: 0

[Editor]
Bookmarks: 9013,31081,53150,64185,75219,86254,108323,130392,152461,174530,196599,218668,240737
DistanceSpacing: 0.2
BeatDivisor: 8
GridSize: 8
TimelineZoom: 6.200002

[Metadata]
Title:Crystallized
TitleUnicode:Crystallized
Artist:Camellia
ArtistUnicode:かめりあ
Creator:Starfy
Version:Extra
Source:
Tags:starforyou chaoslitz chaoz かめるかめりあ Kamel crystalli=ed c89 dubstep drumstep drum and bass dnb happy hardcore
BeatmapID:1370021
BeatmapSetID:637572

[Difficulty]
HPDrainRate:7
CircleSize:2
OverallDifficulty:9
ApproachRate:9
SliderMultiplier:2.2
SliderTickRate:1

[Events]
//Background and Video events
0,0,"BG.jpg",0,0
//Break Periods
//Storyboard Layer 0 (Background)
//Storyboard Layer 1 (Fail)
//Storyboard Layer 2 (Pass)
//Storyboard Layer 3 (Foreground)
//Storyboard Sound Samples

[TimingPoints]
737,344.827586206897,4,2,1,20,1,0
31081,-100,4,2,99,70,0,1
31254,-100,4,2,2,50,0,1
33495,-100,4,2,98,50,0,1
33840,-100,4,2,99,70,0,1
34012,-100,4,2,2,50,0,1
35737,-100,4,2,97,50,0,1
35823,-100,4,2,2,50,0,1
36254,-100,4,2,98,50,0,1
36599,-100,4,2,99,70,0,1
36771,-100,4,2,2,50,0,1
39012,-100,4,2,98,50,0,1
39271,-100,4,2,2,20,0,1
39357,-100,4,2,97,70,0,1
39530,-100,4,2,2,50,0,1
40392,-100,4,2,96,50,0,1
40737,-100,4,2,79,70,0,1
40909,-100,4,2,2,50,0,1
41426,-100,4,2,97,50,0,1
41512,-100,4,2,2,50,0,1
42116,-100,4,2,99,70,0,1
42288,-100,4,2,2,50,0,1
44530,-100,4,2,98,50,0,1
44874,-100,4,2,99,70,0,1
45047,-100,4,2,2,50,0,1
46771,-100,4,2,97,50,0,1
46857,-100,4,2,2,50,0,1
47288,-100,4,2,98,50,0,1
47633,-100,4,2,99,70,0,1
47805,-100,4,2,2,50,0,1
50047,-100,4,2,98,50,0,1
50392,-100,4,2,97,70,0,1
50478,-100,4,2,2,50,0,1
51426,-100,4,2,96,50,0,1
51512,-100,4,2,2,50,0,1
51771,-66.6666666666667,4,2,79,50,0,1
51814,-66.6666666666667,4,2,2,50,0,1
52461,-200,4,2,97,50,0,0
53064,-200,4,2,1,20,0,0
53150,-100,4,2,1,60,0,0
53754,-100,4,2,1,20,0,0
53840,-200,4,2,1,50,0,0
54443,-200,4,2,1,20,0,0
54530,-100,4,2,1,60,0,0
54702,-100,4,2,1,20,0,0
55047,-100,4,2,1,60,0,0
55219,-100,4,2,1,20,0,0
55564,-100,4,2,1,60,0,0
56081,-100,4,2,1,30,0,0
56254,-200,4,2,1,50,0,0
57288,-100,4,2,1,60,0,0
57461,-100,4,2,1,20,0,0
57805,-100,4,2,1,60,0,0
57978,-100,4,2,1,20,0,0
58323,-100,4,2,1,60,0,0
58840,-100,4,2,1,30,0,0
59012,-400,4,2,1,50,0,0
59357,-100,4,2,1,50,0,0
59530,-80,4,2,1,50,0,0
59702,-66.6666666666667,4,2,1,50,0,0
60047,-100,4,2,1,60,0,0
60219,-100,4,2,1,20,0,0
60564,-100,4,2,1,60,0,0
60737,-100,4,2,1,20,0,0
61081,-100,4,2,1,60,0,0
61599,-100,4,2,1,30,0,0
61771,-400,4,2,1,50,0,0
62461,-100,4,2,1,60,0,0
64185,-100,4,2,1,60,0,0
64788,-100,4,2,1,20,0,0
64874,-200,4,2,1,50,0,0
65564,-100,4,2,1,60,0,0
65737,-100,4,2,1,20,0,0
66081,-100,4,2,1,60,0,0
66254,-100,4,2,1,20,0,0
66599,-100,4,2,1,60,0,0
67116,-100,4,2,1,30,0,0
67288,-400,4,2,1,50,0,0
67978,-133.333333333333,4,2,1,50,0,0
68150,-200,4,2,1,50,0,0
68323,-100,4,2,1,60,0,0
68495,-100,4,2,1,20,0,0
68840,-100,4,2,1,60,0,0
69012,-100,4,2,1,20,0,0
69357,-100,4,2,1,60,0,0
69874,-100,4,2,1,30,0,0
70047,-133.333333333333,4,2,1,50,0,0
70392,-200,4,2,1,50,0,0
71081,-100,4,2,1,60,0,0
71254,-100,4,2,1,20,0,0
71599,-100,4,2,1,60,0,0
71771,-100,4,2,1,20,0,0
72116,-100,4,2,1,60,0,0
72805,-400,4,2,1,60,0,0
73495,-200,4,2,1,60,0,0
74185,-100,4,2,1,60,0,0
74874,-50,4,2,1,60,0,0
75219,-133.333333333333,4,2,2,65,0,0
81426,-100,4,2,2,65,0,0
82116,-80,4,2,2,65,0,0
82805,-66.6666666666667,4,2,2,65,0,0
84874,-133.333333333333,4,2,1,65,0,0
85737,-133.333333333333,4,2,2,65,0,0
86254,-100,4,2,1,75,0,0
89012,-133.333333333333,4,2,1,75,0,0
89357,-100,4,2,1,75,0,0
89702,-133.333333333333,4,2,1,75,0,0
90047,-100,4,2,1,75,0,0
90392,-200,4,2,1,75,0,0
91426,-80,4,2,1,75,0,0
91771,-100,4,2,1,75,0,0
94530,-133.333333333333,4,2,1,75,0,0
94874,-200,4,2,1,75,0,0
95219,-400,4,2,1,75,0,0
95564,-100,4,2,1,75,0,0
96599,-50,4,2,1,75,0,0
96943,-80,4,2,1,75,0,0
97288,-100,4,2,1,75,0,0
100047,-133.333333333333,4,2,1,75,0,0
100392,-100,4,2,1,75,0,0
100737,-133.333333333333,4,2,1,75,0,0
101081,-100,4,2,1,75,0,0
101426,-200,4,2,1,75,0,0
102461,-80,4,2,1,75,0,0
102805,-200,4,2,1,75,0,0
103064,-200,4,2,1,20,0,0
103150,-100,4,2,1,75,0,0
105219,-200,4,2,1,75,0,0
105478,-200,4,2,1,20,0,0
105564,-133.333333333333,4,2,1,75,0,0
105909,-200,4,2,1,75,0,0
106254,-400,4,2,1,75,0,0
106599,-100,4,2,1,75,0,0
108323,-66.6666666666667,4,2,1,75,0,0
109012,-80,4,2,1,75,0,0
110392,-133.333333333333,4,2,1,75,0,0
111081,-400,4,2,1,75,0,0
111771,-100,4,2,1,75,0,0
112116,-133.333333333333,4,2,1,75,0,0
112461,-100,4,2,1,75,0,0
113495,-80,4,2,1,75,0,0
113668,-133.333333333333,4,2,1,75,0,0
113840,-66.6666666666667,4,2,1,75,0,0
114530,-80,4,2,1,75,0,0
115909,-133.333333333333,4,2,1,75,0,0
119357,-200,4,2,1,75,0,0
120047,-80,4,2,1,75,0,0
122116,-400,4,2,1,75,0,0
122461,-133.333333333333,4,2,1,75,0,0
123495,-200,4,2,1,75,0,0
124874,-66.6666666666667,4,2,1,75,0,0
125564,-80,4,2,1,75,0,0
126943,-66.6666666666667,4,2,1,75,0,0
127288,-133.333333333333,4,2,1,75,0,0
130392,-400,4,2,1,75,0,0
130564,-400,4,2,1,20,0,0
132805,-933,4,2,1,25,0,0
133064,-933,4,2,1,10,0,0
133150,-400,4,2,1,30,0,0
135047,-933,4,2,1,30,0,0
135823,-933,4,2,1,10,0,0
135909,-400,4,2,1,30,0,0
138323,-933,4,2,1,35,0,0
138581,-933,4,2,1,10,0,0
138668,-400,4,2,1,40,0,0
141426,-400,4,2,99,60,0,1
141599,-400,4,2,1,50,0,1
143840,-400,4,2,98,50,0,1
144185,-400,4,2,99,60,0,1
144357,-400,4,2,1,50,0,1
146081,-400,4,2,97,50,0,1
146599,-400,4,2,98,50,0,1
146943,-400,4,2,99,60,0,1
147116,-400,4,2,1,50,0,1
149357,-400,4,2,98,50,0,1
149530,-400,4,2,1,50,0,1
149702,-200,4,2,97,60,0,1
149788,-200,4,2,1,50,0,1
150737,-200,4,2,96,50,0,1
150823,-200,4,2,1,50,0,1
151081,-100,4,2,79,50,0,1
151124,-200,4,2,1,50,0,1
151771,-200,4,2,1,50,0,0
152461,-200,4,2,1,60,0,0
153064,-200,4,2,1,20,0,0
153150,-800,4,2,1,50,0,0
153754,-800,4,2,1,20,0,0
153840,-200,4,2,1,60,0,0
155564,-400,4,2,1,50,0,0
156599,-200,4,2,1,60,0,0
158323,-400,4,2,1,50,0,0
158668,-100,4,2,1,50,0,0
158840,-80,4,2,1,50,0,0
159012,-66.6666666666667,4,2,1,50,0,0
159357,-200,4,2,1,60,0,0
161081,-400,4,2,1,50,0,0
161426,-200,4,2,1,50,0,0
161599,-133.333333333333,4,2,1,50,0,0
162116,-200,4,2,1,60,0,0
163495,-133.333333333333,4,2,2,65,0,0
169012,-100,4,2,2,70,0,0
169357,-90.9090909090909,4,2,2,70,0,0
169702,-83.3333333333333,4,2,2,70,0,0
170047,-76.9230769230769,4,2,2,70,0,0
170392,-71.4285714285714,4,2,2,70,0,0
170737,-76.9230769230769,4,2,2,70,0,0
171081,-83.3333333333333,4,2,2,70,0,0
171426,-90.9090909090909,4,2,2,70,0,0
171771,-100,4,2,2,70,0,0
173150,-100,4,2,1,70,0,0
174012,-100,4,2,2,70,0,0
174530,-80,4,2,1,75,0,0
185564,-80,4,2,1,80,0,0
193495,-133.333333333333,4,2,1,80,0,0
193840,-166.666666666667,4,2,1,80,0,0
194012,-125,4,2,1,80,0,0
194185,-100,4,2,1,80,0,0
194357,-83.3333333333333,4,2,1,80,0,0
194530,-71.4285714285714,4,2,1,80,0,0
194702,-62.5,4,2,1,80,0,0
194874,-55.5555555555556,4,2,1,80,0,0
195047,-50,4,2,1,80,0,0
196599,-100,4,2,1,75,0,0
199357,-133.333333333333,4,2,1,75,0,0
199702,-100,4,2,1,75,0,0
200047,-133.333333333333,4,2,1,75,0,0
200392,-100,4,2,1,75,0,0
200737,-200,4,2,1,75,0,0
201771,-80,4,2,1,75,0,0
202116,-100,4,2,1,75,0,0
204874,-133.333333333333,4,2,1,75,0,0
205219,-200,4,2,1,75,0,0
205564,-400,4,2,1,75,0,0
205909,-100,4,2,1,75,0,0
206943,-50,4,2,1,75,0,0
207202,-80,4,2,2,75,0,0
207633,-133.333333333333,4,2,2,65,0,0
208323,-100,4,2,1,75,0,0
210392,-133.333333333333,4,2,1,75,0,0
210737,-100,4,2,1,75,0,0
211081,-133.333333333333,4,2,1,75,0,0
211426,-100,4,2,1,75,0,0
211771,-200,4,2,1,75,0,0
212805,-80,4,2,1,75,0,0
213150,-100,4,2,1,75,0,0
218668,-200,4,2,2,70,0,0
224874,-250,4,2,2,60,0,0
225564,-300,4,2,2,50,0,0
226254,-350,4,2,2,40,0,0
226943,-400,4,2,2,30,0,0
235219,-400,4,2,2,30,0,0

[Colours]
Combo1 : 255,255,128
Combo2 : 128,255,255
Combo3 : 128,255,128
Combo4 : 255,128,192

[HitObjects]
0,352,31081,5,6,0:0:0:0:
63,288,31254,1,0,0:0:0:0:
192,320,31426,1,8,0:0:0:0:
0,352,31599,1,2,0:0:0:0:
15,336,31685,1,0,0:0:0:0:
31,320,31771,1,0,0:0:0:0:
47,304,31857,1,0,0:0:0:0:
63,288,31943,1,4,0:0:0:0:
192,320,32116,1,8,0:0:0:0:
0,352,32288,1,0,0:0:0:0:
31,320,32374,1,0,0:0:0:0:
63,288,32461,5,4,0:0:0:0:
128,352,32633,1,4,0:0:0:0:
128,352,32805,1,0,0:0:0:0:
63,288,32978,1,8,0:0:0:0:
79,304,33064,1,0,0:0:0:0:
95,320,33150,1,0,0:0:0:0:
112,337,33237,1,0,0:0:0:0:
128,352,33323,1,4,0:0:0:0:
256,320,33495,1,10,0:0:0:0:
63,288,33668,1,0,0:0:0:0:
95,320,33754,1,0,0:0:0:0:
128,352,33840,5,6,0:0:0:0:
191,288,34012,1,0,0:0:0:0:
320,320,34185,1,8,0:0:0:0:
128,352,34357,1,2,0:0:0:0:
143,336,34443,1,0,0:0:0:0:
159,320,34530,1,0,0:0:0:0:
175,304,34616,1,0,0:0:0:0:
191,288,34702,1,4,0:0:0:0:
320,320,34874,1,8,0:0:0:0:
128,352,35047,1,0,0:0:0:0:
159,320,35133,1,0,0:0:0:0:
191,288,35219,5,4,0:0:0:0:
256,352,35392,1,4,0:0:0:0:
384,320,35564,1,8,0:0:0:0:
191,288,35737,1,2,0:0:0:0:
207,304,35823,1,4,0:0:0:0:
223,320,35909,1,0,0:0:0:0:
240,337,35995,1,0,0:0:0:0:
256,352,36081,1,4,0:0:0:0:
384,320,36254,1,10,0:0:0:0:
191,288,36426,1,0,0:0:0:0:
223,320,36512,1,0,0:0:0:0:
256,352,36599,5,6,0:0:0:0:
319,288,36771,1,0,0:0:0:0:
192,256,36943,1,8,0:0:0:0:
256,352,37116,1,2,0:0:0:0:
271,336,37202,1,0,0:0:0:0:
287,320,37288,1,0,0:0:0:0:
303,304,37374,1,0,0:0:0:0:
319,288,37461,1,4,0:0:0:0:
192,256,37633,1,8,0:0:0:0:
256,352,37805,1,0,0:0:0:0:
287,320,37892,1,0,0:0:0:0:
319,288,37978,5,4,0:0:0:0:
256,224,38150,1,4,0:0:0:0:
256,224,38323,1,0,0:0:0:0:
319,288,38495,1,8,0:0:0:0:
304,272,38581,1,0,0:0:0:0:
288,256,38668,1,0,0:0:0:0:
272,240,38754,1,0,0:0:0:0:
256,224,38840,1,4,0:0:0:0:
384,192,39012,1,10,0:0:0:0:
319,288,39185,1,0,0:0:0:0:
288,256,39271,1,0,0:0:0:0:
256,224,39357,5,6,0:0:0:0:
320,160,39530,1,0,0:0:0:0:
192,128,39702,1,8,0:0:0:0:
256,224,39874,1,0,0:0:0:0:
271,208,39961,1,0,0:0:0:0:
287,192,40047,1,0,0:0:0:0:
303,176,40133,1,0,0:0:0:0:
320,160,40219,1,4,0:0:0:0:
192,128,40392,1,10,0:0:0:0:
256,224,40564,1,0,0:0:0:0:
287,192,40650,1,0,0:0:0:0:
320,160,40737,5,10,0:0:0:0:
256,96,40909,1,4,0:0:0:0:
192,32,41081,1,4,0:0:0:0:
320,160,41254,1,8,0:0:0:0:
305,144,41340,1,0,0:0:0:0:
289,128,41426,1,2,0:0:0:0:
273,112,41512,1,0,0:0:0:0:
256,96,41599,1,4,0:0:0:0:
384,64,41771,1,8,0:0:0:0:
320,160,41943,1,4,0:0:0:0:
289,128,42030,1,0,0:0:0:0:
256,96,42116,5,6,0:0:0:0:
192,160,42288,1,0,0:0:0:0:
64,128,42461,1,8,0:0:0:0:
256,96,42633,1,0,0:0:0:0:
239,112,42719,1,0,0:0:0:0:
223,128,42805,1,0,0:0:0:0:
207,144,42892,1,0,0:0:0:0:
192,160,42978,1,4,0:0:0:0:
64,128,43150,1,8,0:0:0:0:
256,96,43323,1,0,0:0:0:0:
223,128,43409,1,0,0:0:0:0:
192,160,43495,5,4,0:0:0:0:
256,224,43668,1,4,0:0:0:0:
256,224,43840,1,0,0:0:0:0:
192,160,44012,1,8,0:0:0:0:
207,176,44099,1,0,0:0:0:0:
223,192,44185,1,0,0:0:0:0:
239,208,44271,1,0,0:0:0:0:
256,224,44357,1,4,0:0:0:0:
384,192,44530,1,10,0:0:0:0:
192,160,44702,1,0,0:0:0:0:
223,192,44788,1,0,0:0:0:0:
256,224,44874,5,6,0:0:0:0:
192,288,45047,1,0,0:0:0:0:
64,256,45219,1,8,0:0:0:0:
256,224,45392,1,0,0:0:0:0:
239,240,45478,1,0,0:0:0:0:
223,256,45564,1,0,0:0:0:0:
207,272,45650,1,0,0:0:0:0:
192,288,45737,1,4,0:0:0:0:
64,256,45909,1,8,0:0:0:0:
256,224,46081,1,0,0:0:0:0:
223,256,46168,1,0,0:0:0:0:
192,288,46254,5,4,0:0:0:0:
256,352,46426,1,4,0:0:0:0:
384,320,46599,1,8,0:0:0:0:
192,288,46771,1,2,0:0:0:0:
207,304,46858,1,4,0:0:0:0:
223,320,46944,1,0,0:0:0:0:
239,336,47030,1,0,0:0:0:0:
256,352,47116,1,4,0:0:0:0:
384,320,47288,1,10,0:0:0:0:
192,288,47461,1,0,0:0:0:0:
223,320,47547,1,0,0:0:0:0:
256,352,47633,5,6,0:0:0:0:
320,288,47805,1,0,0:0:0:0:
448,320,47978,1,8,0:0:0:0:
256,352,48150,1,0,0:0:0:0:
271,336,48237,1,0,0:0:0:0:
287,320,48323,1,0,0:0:0:0:
303,304,48409,1,0,0:0:0:0:
320,288,48495,1,4,0:0:0:0:
448,320,48668,1,8,0:0:0:0:
256,352,48840,1,0,0:0:0:0:
287,320,48926,1,0,0:0:0:0:
320,288,49012,5,4,0:0:0:0:
384,352,49185,1,4,0:0:0:0:
384,352,49357,1,0,0:0:0:0:
320,288,49530,1,8,0:0:0:0:
335,304,49617,1,0,0:0:0:0:
351,320,49703,1,0,0:0:0:0:
367,336,49789,1,0,0:0:0:0:
384,352,49875,1,4,0:0:0:0:
512,320,50047,1,10,0:0:0:0:
320,288,50219,1,0,0:0:0:0:
351,320,50306,1,0,0:0:0:0:
384,352,50392,6,0,L|388:292,1,55,6|4,0:0|0:0,0:0:0:0:
480,224,50564,2,0,L|430:190,1,55,4|4,0:0|0:0,0:0:0:0:
417,76,50737,2,0,L|363:102,1,55,8|4,0:0|0:0,0:0:0:0:
258,56,50908,2,0,L|253:115,1,55,4|4,0:0|0:0,0:0:0:0:
161,185,51081,6,0,L|210:218,1,55,4|4,0:0|0:0,0:0:0:0:
480,224,51254,2,0,L|430:190,1,55,4|4,0:0|0:0,0:0:0:0:
258,56,51426,2,0,L|253:115,1,55,10|4,0:0|0:0,0:0:0:0:
384,352,51599,2,0,L|388:292,1,55,4|4,0:0|0:0,0:0:0:0:
417,76,51771,6,0,L|363:102,15,41.2500015735627,6|4|4|4|4|4|4|4|8|4|4|4|4|4|4|4,0:0|0:0|0:0|0:0|0:0|0:0|0:0|0:0|0:0|0:0|0:0|0:0|0:0|0:0|0:0|0:0,0:0:0:0:
368,100,52461,6,0,L|176:88,1,192.5,2|0,0:0|0:0,0:0:0:0:
176,184,53150,6,0,B|120:136|120:136|176:88|176:88|232:136|232:136|176:290,1,385,6|0,0:0|0:0,0:0:0:0:
171,380,53840,6,0,P|93:331|99:240,1,192.5,4|0,0:0|0:0,0:0:0:0:
232,136,54530,6,0,B|224:96|224:96|240:76|240:76|232:32,1,110,6|0,0:0|0:0,0:0:0:0:
244,148,55047,2,0,B|236:108|236:108|252:88|252:88|244:44,1,110,6|0,0:0|0:0,0:0:0:0:
257,57,55564,6,0,B|273:181|273:181|241:221|241:221|257:381,1,330,6|0,0:0|0:0,0:0:0:0:
160,148,56254,5,0,0:0:0:0:
352,256,56426,2,0,L|393:253,2,27.5,0|0|0,0:0|0:0|0:0,0:0:0:0:
348,260,56685,1,0,0:0:0:0:
344,264,56771,1,0,0:0:0:0:
340,268,56857,1,0,0:0:0:0:
336,272,56943,6,0,L|294:269,3,27.5,2|2|2|2,0:0|0:0|0:0|0:0,0:0:0:0:
160,148,57288,6,0,P|139:97|148:43,1,110,6|0,0:0|0:0,0:0:0:0:
148,160,57805,2,0,P|127:109|136:55,1,110,6|0,0:0|0:0,0:0:0:0:
123,68,58323,6,0,B|95:136|123:188|123:188|151:244|123:308|123:308|163:280|163:232,1,330,6|0,0:0|0:0,0:0:0:0:
40,244,59012,6,0,L|36:276,1,27.5,0|0,0:0|0:0,0:0:0:0:
272,124,59357,6,0,L|217:130,1,55,0|0,0:0|0:0,0:0:0:0:
372,152,59530,6,0,L|303:143,1,68.75,0|0,0:0|0:0,0:0:0:0:
472,124,59702,6,0,L|403:132,7,41.2500015735627,0|0|0|0|0|0|0|0,0:0|0:0|0:0|0:0|0:0|0:0|0:0|0:0,0:0:0:0:
272,124,60047,6,0,B|264:156|264:156|284:192|272:240,1,110,6|0,0:0|0:0,0:0:0:0:
284,112,60564,2,0,B|276:144|276:144|296:180|284:228,1,110,6|0,0:0|0:0,0:0:0:0:
298,206,61081,6,0,B|336:100|256:40|256:40|340:32|368:120,1,330,6|0,0:0|0:0,0:0:0:0:
216,140,61771,6,0,L|160:136,1,55,0|0,0:0|0:0,0:0:0:0:
134,134,62288,1,4,0:0:0:0:
298,122,62461,6,0,L|134:134,1,165,8|0,0:0|0:0,0:0:0:0:
107,136,62805,5,6,0:0:0:0:
380,140,63150,1,8,0:0:0:0:
380,140,63495,1,0,0:0:0:0:
107,136,63668,5,4,0:0:0:0:
380,140,63840,1,8,0:0:0:0:
107,136,64185,6,0,B|55:104|15:148|15:148|87:136|159:180|159:180|224:140|299:168,1,385,6|0,0:0|0:0,0:0:0:0:
379,139,64874,6,0,P|406:170|404:210,1,82.5,0|0,0:0|0:0,0:0:0:0:
378,304,65219,6,0,P|362:317|342:316,1,27.5,0|0,0:0|0:0,0:0:0:0:
271,367,65392,2,0,P|250:365|237:350,1,27.5,0|0,0:0|0:0,0:0:0:0:
150,335,65564,6,0,B|102:311|102:311|42:319,1,110,6|0,0:0|0:0,0:0:0:0:
164,324,66081,2,0,B|116:300|116:300|56:308,1,110,6|0,0:0|0:0,0:0:0:0:
74,296,66599,6,0,B|164:324|164:324|256:232|408:268,1,330,6|0,0:0|0:0,0:0:0:0:
480,352,67288,6,0,L|478:365,3,13.75,0|0|0|0,0:0|0:0|0:0|0:0,0:0:0:0:
384,320,67633,2,0,L|382:333,3,13.75,0|0|0|0,0:0|0:0|0:0|0:0,0:0:0:0:
288,288,67978,6,0,L|283:329,1,41.2500015735627,0|0,0:0|0:0,0:0:0:0:
192,256,68150,6,0,L|187:297,1,27.5,0|0,0:0|0:0,0:0:0:0:
96,224,68323,6,0,B|100:196|88:172|88:172|107:118,1,110,6|0,0:0|0:0,0:0:0:0:
84,236,68840,2,0,B|88:208|76:184|76:184|95:130,1,110,6|0,0:0|0:0,0:0:0:0:
83,143,69357,6,0,B|211:131|211:131|256:168|256:168|398:155,1,330,6|0,0:0|0:0,0:0:0:0:
180,224,70047,6,0,L|168:88,1,123.750004720688,0|0,0:0|0:0,0:0:0:0:
285,77,70392,6,0,L|286:49,7,27.5,0|0|0|0|0|0|0|0,0:0|0:0|0:0|0:0|0:0|0:0|0:0|0:0,0:0:0:0:
303,200,71081,6,0,P|345:165|399:155,1,110,6|0,0:0|0:0,0:0:0:0:
292,188,71599,2,0,P|334:153|387:142,1,110,6|0,0:0|0:0,0:0:0:0:
280,174,72116,6,0,P|425:140|466:283,1,330,6|4,0:0|0:0,0:0:0:0:
290,352,72805,6,0,L|221:349,1,68.75,8|0,0:0|0:0,0:0:0:0:
208,348,73323,1,4,0:0:0:0:
325,256,73495,6,0,L|187:251,1,137.5,8|0,0:0|0:0,0:0:0:0:
160,250,74012,1,4,0:0:0:0:
392,160,74185,6,0,L|117:151,1,275,8|0,0:0|0:0,0:0:0:0:
62,149,74702,1,4,0:0:0:0:
364,64,74874,6,0,L|144:56,1,220,8|4,0:0|0:0,0:0:0:0:
34,53,75133,1,4,0:0:0:0:
144,57,75219,6,0,L|226:54,1,82.5000031471254,6|2,0:0|0:0,0:0:0:0:
364,64,75564,2,0,L|446:61,1,82.5000031471254,10|2,0:0|0:0,0:0:0:0:
136,68,75909,6,0,L|218:65,1,82.5000031471254,6|2,0:0|0:0,0:0:0:0:
372,75,76254,2,0,L|454:72,1,82.5000031471254,10|2,0:0|0:0,0:0:0:0:
128,79,76599,5,6,0:0:0:0:
380,86,76771,1,2,0:0:0:0:
499,307,76943,1,10,0:0:0:0:
120,90,77116,5,2,0:0:0:0:
388,97,77288,1,6,0:0:0:0:
491,318,77460,1,2,0:0:0:0:
112,101,77633,5,10,0:0:0:0:
483,329,77805,1,2,0:0:0:0:
104,112,77978,6,0,L|186:109,1,82.5000031471254,6|2,0:0|0:0,0:0:0:0:
380,86,78323,2,0,L|462:83,1,82.5000031471254,10|2,0:0|0:0,0:0:0:0:
96,123,78668,6,0,L|178:120,1,82.5000031471254,6|2,0:0|0:0,0:0:0:0:
372,75,79012,2,0,L|454:72,1,82.5000031471254,10|2,0:0|0:0,0:0:0:0:
88,134,79357,5,6,0:0:0:0:
364,64,79530,1,2,0:0:0:0:
434,340,79702,1,10,0:0:0:0:
80,145,79874,5,2,0:0:0:0:
356,53,80047,1,6,0:0:0:0:
448,329,80219,1,2,0:0:0:0:
72,156,80392,5,10,0:0:0:0:
462,318,80564,1,2,0:0:0:0:
64,167,80737,6,0,L|68:263,1,82.5000031471254,10|6,0:0|0:0,0:0:0:0:
448,167,81081,2,0,L|444:263,1,82.5000031471254,10|6,0:0|0:0,0:0:0:0:
48,152,81426,6,0,L|52:261,1,110,10|6,0:0|0:0,0:0:0:0:
464,152,81771,2,0,L|459:261,1,110,10|6,0:0|0:0,0:0:0:0:
32,137,82116,6,0,L|37:279,1,137.5,10|6,0:0|0:0,0:0:0:0:
480,137,82461,2,0,L|474:279,1,137.5,10|6,0:0|0:0,0:0:0:0:
13,94,82805,6,0,L|21:259,1,165.000006294251,10|6,0:0|0:0,0:0:0:0:
497,94,83150,2,0,L|491:259,1,165.000006294251,10|6,0:0|0:0,0:0:0:0:
256,32,83495,5,8,0:0:0:0:
256,32,83581,1,8,0:0:0:0:
256,32,83668,1,8,0:0:0:0:
256,32,83754,1,8,0:0:0:0:
256,32,83840,1,8,0:0:0:0:
256,32,83926,1,8,0:0:0:0:
256,32,84012,1,8,0:0:0:0:
256,32,84099,1,8,0:0:0:0:
224,64,84185,6,0,L|192:96,7,41.2500015735627,8|8|8|8|8|8|8|8,0:0|0:0|0:0|0:0|0:0|0:0|0:0|0:0,0:0:0:0:
288,64,84530,6,0,L|317:94,7,41.2500015735627,8|8|8|8|8|8|8|8,0:0|0:0|0:0|0:0|0:0|0:0|0:0|0:0,0:0:0:0:
256,0,84874,5,10,0:0:0:0:
256,384,85737,1,8,0:0:0:0:
232,297,85823,1,8,0:0:0:0:
296,232,85909,5,4,0:0:0:0:
339,219,85995,1,4,0:0:0:0:
384,229,86081,1,4,0:0:0:0:
417,259,86168,1,4,0:0:0:0:
430,302,86254,5,6,0:0:0:0:
