osu file format v14

[General]
AudioFilename: audio.mp3
AudioLeadIn: 0
PreviewTime: -1
Countdown: 1
SampleSet: Soft
StackLeniency: 0.7
Mode: 1
LetterboxInBreaks: 0
WidescreenStoryboard: 0

[Editor]
Bookmarks: 9007,20041,31075,53144,75213,86248,108317,130386,152455,163489,174524,196593,218662,229696,240731,261420
DistanceSpacing: 1
BeatDivisor: 4
GridSize: 32
TimelineZoom: 1.8

[Metadata]
Title:Crystallized
TitleUnicode:Crystallized
Artist:Camellia
ArtistUnicode:Camellia
Creator:Kbludoh
Version:Reflections
Source:
Tags:C89 Comiket 89 CTCD-012 KamelCamellia cametek -kevincela- Azer wa_ Side Anxient handsome Bonzi Kanari
BeatmapID:1690534
BeatmapSetID:805317

[Difficulty]
HPDrainRate:6
CircleSize:5
OverallDifficulty:6
ApproachRate:5
SliderMultiplier:1.4
SliderTickRate:1

[Events]
//Background and Video events
0,0,"a (4).jpg",0,0
//Break Periods
//Storyboard Layer 0 (Background)
//Storyboard Layer 1 (Fail)
//Storyboard Layer 2 (Pass)
//Storyboard Layer 3 (Foreground)
//Storyboard Sound Samples

[TimingPoints]
9007,344.827586206897,4,2,7,100,1,0
86248,-100,4,2,7,100,0,1
102800,-100,4,2,7,100,0,0
103144,-100,4,2,7,100,0,1
107627,-100,4,2,7,100,0,0
108317,-100,4,2,7,100,0,1
130386,-100,4,2,7,100,0,0
174524,-100,4,2,7,100,0,1
195903,-100,4,2,7,100,0,0
196593,-100,4,2,7,100,0,1
207627,-100,4,2,7,100,0,0
208317,-100,4,2,7,100,0,1
218231,-100,4,2,7,100,0,0

[HitObjects]
256,192,9007,5,0,0:0:0:0:
256,192,9050,1,0,0:0:0:0:
256,192,11765,1,0,0:0:0:0:
256,192,11808,1,0,0:0:0:0:
256,192,13144,1,2,0:0:0:0:
256,192,13188,1,2,0:0:0:0:
259,199,13834,1,0,0:0:0:0:
256,192,13877,1,0,0:0:0:0:
256,192,14524,1,0,0:0:0:0:
256,192,14567,1,0,0:0:0:0:
256,192,17282,1,0,0:0:0:0:
256,192,17325,1,0,0:0:0:0:
256,192,18662,1,2,0:0:0:0:
256,192,18705,1,2,0:0:0:0:
256,192,20041,1,2,0:0:0:0:
256,192,20213,1,2,0:0:0:0:
256,192,20300,1,2,0:0:0:0:
256,192,20386,1,2,0:0:0:0:
256,192,20558,1,2,0:0:0:0:
256,192,20731,1,2,0:0:0:0:
256,192,20903,1,2,0:0:0:0:
256,192,20989,1,2,0:0:0:0:
256,192,21075,1,2,0:0:0:0:
256,192,21248,1,2,0:0:0:0:
256,192,21420,1,2,0:0:0:0:
256,160,21593,1,2,0:0:0:0:
256,160,21765,1,2,0:0:0:0:
256,160,21938,1,2,0:0:0:0:
256,160,22110,1,2,0:0:0:0:
256,128,22196,1,2,0:0:0:0:
256,160,22282,1,2,0:0:0:0:
256,160,22455,1,2,0:0:0:0:
256,160,22800,1,2,0:0:0:0:
256,160,22972,1,2,0:0:0:0:
256,160,23058,1,2,0:0:0:0:
256,160,23144,1,2,0:0:0:0:
256,192,23317,1,2,0:0:0:0:
256,192,23489,1,2,0:0:0:0:
256,160,23662,1,2,0:0:0:0:
256,160,23748,1,2,0:0:0:0:
256,160,23834,1,2,0:0:0:0:
256,160,24007,1,2,0:0:0:0:
256,160,24179,1,0,0:0:0:0:
256,160,24351,1,0,0:0:0:0:
256,160,24524,1,2,0:0:0:0:
256,160,24696,1,2,0:0:0:0:
256,160,24782,1,2,0:0:0:0:
256,160,24869,1,0,0:0:0:0:
256,160,25041,1,0,0:0:0:0:
256,160,25213,1,2,0:0:0:0:
256,192,25558,1,0,0:0:0:0:
256,192,25731,1,0,0:0:0:0:
256,192,25817,1,0,0:0:0:0:
256,192,25903,1,2,0:0:0:0:
256,192,26075,1,2,0:0:0:0:
256,192,26248,1,2,0:0:0:0:
256,160,26420,1,0,0:0:0:0:
256,192,26507,1,0,0:0:0:0:
256,192,26593,1,2,0:0:0:0:
256,192,26765,1,2,0:0:0:0:
256,192,26938,1,0,0:0:0:0:
256,192,27024,1,0,0:0:0:0:
256,192,27110,1,0,0:0:0:0:
256,192,27282,1,0,0:0:0:0:
256,192,27455,1,2,0:0:0:0:
256,192,27627,1,2,0:0:0:0:
256,192,27713,1,2,0:0:0:0:
256,192,27800,1,0,0:0:0:0:
256,192,27972,1,2,0:0:0:0:
224,160,28317,1,0,0:0:0:0:
224,160,28489,1,0,0:0:0:0:
224,160,28662,1,2,0:0:0:0:
224,160,28834,1,2,0:0:0:0:
224,160,28920,1,2,0:0:0:0:
224,160,29007,1,2,0:0:0:0:
224,160,29179,1,0,0:0:0:0:
224,160,29351,1,2,0:0:0:0:
256,192,29524,1,0,0:0:0:0:
224,192,29696,1,2,0:0:0:0:
224,192,29869,1,2,0:0:0:0:
224,192,29955,1,2,0:0:0:0:
224,192,30041,1,0,0:0:0:0:
224,192,30213,1,2,0:0:0:0:
224,192,30386,1,2,0:0:0:0:
224,192,30472,1,0,0:0:0:0:
192,192,30558,1,2,0:0:0:0:
224,192,30731,1,2,0:0:0:0:
224,192,30903,1,2,0:0:0:0:
224,192,30989,1,0,0:0:0:0:
224,192,31075,1,0,0:0:0:0:
224,192,31248,1,0,0:0:0:0:
224,192,31420,1,2,0:0:0:0:
224,192,31593,1,2,0:0:0:0:
224,192,31679,1,2,0:0:0:0:
224,192,31765,1,2,0:0:0:0:
224,192,31851,1,2,0:0:0:0:
224,192,31938,1,0,0:0:0:0:
224,192,32110,1,2,0:0:0:0:
224,192,32455,1,0,0:0:0:0:
224,192,32627,1,0,0:0:0:0:
224,192,32800,1,2,0:0:0:0:
224,192,32886,1,0,0:0:0:0:
224,192,32972,1,2,0:0:0:0:
224,192,33144,1,2,0:0:0:0:
224,192,33231,1,2,0:0:0:0:
224,192,33317,1,0,0:0:0:0:
224,192,33403,1,0,0:0:0:0:
224,192,33489,1,2,0:0:0:0:
224,192,33662,1,0,0:0:0:0:
224,192,33748,1,2,0:0:0:0:
224,192,33834,1,0,0:0:0:0:
224,192,34007,1,0,0:0:0:0:
224,192,34179,1,2,0:0:0:0:
224,192,34351,1,2,0:0:0:0:
224,192,34438,1,2,0:0:0:0:
224,192,34524,1,2,0:0:0:0:
224,192,34610,1,2,0:0:0:0:
224,192,34696,1,0,0:0:0:0:
224,192,34869,1,2,0:0:0:0:
224,192,35213,1,0,0:0:0:0:
224,192,35386,1,0,0:0:0:0:
224,192,35558,1,2,0:0:0:0:
224,192,35731,1,2,0:0:0:0:
224,192,35817,1,0,0:0:0:0:
224,160,35989,1,2,0:0:0:0:
224,192,36075,1,0,0:0:0:0:
224,192,36162,1,0,0:0:0:0:
224,192,36248,1,2,0:0:0:0:
224,192,36420,1,0,0:0:0:0:
224,192,36593,1,0,0:0:0:0:
224,192,36765,1,0,0:0:0:0:
224,192,36851,1,0,0:0:0:0:
224,192,36938,1,2,0:0:0:0:
224,192,37110,1,2,0:0:0:0:
224,192,37196,1,2,0:0:0:0:
224,192,37282,1,2,0:0:0:0:
224,192,37369,1,2,0:0:0:0:
192,160,37455,1,0,0:0:0:0:
192,160,37627,1,2,0:0:0:0:
224,192,37972,1,0,0:0:0:0:
224,192,38144,1,0,0:0:0:0:
224,192,38317,1,0,0:0:0:0:
224,192,38403,1,0,0:0:0:0:
224,192,38489,1,2,0:0:0:0:
224,192,38662,1,2,0:0:0:0:
224,192,38748,1,2,0:0:0:0:
224,192,38834,1,0,0:0:0:0:
192,160,38920,1,0,0:0:0:0:
224,192,39007,1,2,0:0:0:0:
224,192,39179,1,2,0:0:0:0:
224,192,39265,1,0,0:0:0:0:
224,192,39351,1,0,0:0:0:0:
224,192,39524,1,0,0:0:0:0:
224,192,39696,1,2,0:0:0:0:
224,192,39869,1,2,0:0:0:0:
224,192,39955,1,2,0:0:0:0:
224,192,40041,1,2,0:0:0:0:
224,192,40127,1,2,0:0:0:0:
224,192,40213,1,0,0:0:0:0:
224,192,40386,1,2,0:0:0:0:
224,160,40731,1,2,0:0:0:0:
224,160,40903,1,0,0:0:0:0:
224,160,40989,1,0,0:0:0:0:
224,160,41075,1,0,0:0:0:0:
224,160,41248,1,2,0:0:0:0:
224,192,41420,1,0,0:0:0:0:
224,192,41507,1,2,0:0:0:0:
224,192,41593,1,0,0:0:0:0:
256,192,41765,1,2,0:0:0:0:
256,192,41938,1,0,0:0:0:0:
256,160,42024,1,2,0:0:0:0:
256,160,42110,1,0,0:0:0:0:
256,192,42282,1,0,0:0:0:0:
256,192,42455,1,2,0:0:0:0:
256,192,42627,1,2,0:0:0:0:
256,192,42713,1,2,0:0:0:0:
256,192,42800,1,2,0:0:0:0:
256,192,42886,1,2,0:0:0:0:
256,192,42972,1,0,0:0:0:0:
224,160,43144,1,2,0:0:0:0:
224,192,43489,1,0,0:0:0:0:
256,192,43662,1,0,0:0:0:0:
256,192,43834,1,0,0:0:0:0:
256,192,43920,1,2,0:0:0:0:
256,192,44007,1,2,0:0:0:0:
256,192,44179,1,2,0:0:0:0:
256,192,44265,1,2,0:0:0:0:
256,192,44351,1,0,0:0:0:0:
256,192,44438,1,0,0:0:0:0:
256,192,44524,1,2,0:0:0:0:
256,192,44696,1,0,0:0:0:0:
256,160,44869,1,0,0:0:0:0:
256,192,45041,1,0,0:0:0:0:
256,192,45127,1,0,0:0:0:0:
224,160,45213,1,2,0:0:0:0:
224,160,45386,1,2,0:0:0:0:
224,160,45472,1,2,0:0:0:0:
224,160,45558,1,2,0:0:0:0:
224,160,45644,1,2,0:0:0:0:
224,160,45731,1,0,0:0:0:0:
256,192,45903,1,2,0:0:0:0:
256,192,46248,1,0,0:0:0:0:
256,192,46420,1,0,0:0:0:0:
224,160,46507,1,0,0:0:0:0:
224,192,46593,1,2,0:0:0:0:
256,160,46765,1,2,0:0:0:0:
256,160,46851,1,0,0:0:0:0:
256,160,47024,1,2,0:0:0:0:
256,160,47110,1,0,0:0:0:0:
256,160,47196,1,0,0:0:0:0:
256,160,47282,1,2,0:0:0:0:
256,192,47455,1,0,0:0:0:0:
256,192,47627,1,0,0:0:0:0:
256,192,47800,1,0,0:0:0:0:
256,192,47886,1,0,0:0:0:0:
256,192,47972,1,2,0:0:0:0:
256,192,48144,1,2,0:0:0:0:
256,192,48231,1,2,0:0:0:0:
256,192,48317,1,2,0:0:0:0:
256,192,48403,1,2,0:0:0:0:
256,192,48489,1,0,0:0:0:0:
256,192,48662,1,2,0:0:0:0:
256,192,49007,1,0,0:0:0:0:
256,192,49179,1,0,0:0:0:0:
256,192,49351,1,2,0:0:0:0:
256,160,49524,1,2,0:0:0:0:
256,160,49610,1,2,0:0:0:0:
256,160,49696,1,0,0:0:0:0:
256,160,49782,1,2,0:0:0:0:
256,160,49869,1,0,0:0:0:0:
224,160,50041,1,2,0:0:0:0:
256,192,50213,1,0,0:0:0:0:
256,192,50386,1,2,0:0:0:0:
256,192,50472,1,0,0:0:0:0:
256,192,50558,1,0,0:0:0:0:
256,192,50644,1,0,0:0:0:0:
256,192,50731,1,2,0:0:0:0:
256,192,50817,1,0,0:0:0:0:
256,192,50903,1,0,0:0:0:0:
256,192,50989,1,0,0:0:0:0:
256,192,51075,1,2,0:0:0:0:
256,192,51162,1,2,0:0:0:0:
256,192,51248,1,2,0:0:0:0:
256,192,51334,1,2,0:0:0:0:
256,192,51420,1,0,0:0:0:0:
256,192,51507,1,0,0:0:0:0:
256,192,51593,1,0,0:0:0:0:
256,192,51679,1,0,0:0:0:0:
256,192,51765,1,2,0:0:0:0:
256,192,51823,1,2,0:0:0:0:
256,192,51880,1,2,0:0:0:0:
256,192,51938,1,2,0:0:0:0:
256,192,51995,1,2,0:0:0:0:
256,192,52052,1,2,0:0:0:0:
256,192,52110,1,2,0:0:0:0:
256,192,52168,1,2,0:0:0:0:
256,192,52225,1,2,0:0:0:0:
256,192,52283,1,2,0:0:0:0:
256,192,52340,1,2,0:0:0:0:
256,192,52397,1,2,0:0:0:0:
256,192,52455,12,0,52972,0:0:0:0:
256,192,53144,5,6,0:0:0:0:
256,192,53834,12,0,54351,0:0:0:0:
256,192,54524,5,4,0:0:0:0:
224,192,55041,1,6,0:0:0:0:
224,192,55558,1,4,0:0:0:0:
256,192,56248,1,2,0:0:0:0:
256,192,56334,1,0,0:0:0:0:
256,192,56420,1,2,0:0:0:0:
256,192,56507,1,0,0:0:0:0:
256,192,56593,1,2,0:0:0:0:
256,192,56679,1,0,0:0:0:0:
256,192,56765,1,2,0:0:0:0:
256,192,56851,1,0,0:0:0:0:
256,192,56938,1,0,0:0:0:0:
256,192,57282,1,4,0:0:0:0:
256,192,57800,1,6,0:0:0:0:
256,192,58317,1,4,0:0:0:0:
256,192,59007,1,2,0:0:0:0:
256,192,59179,1,0,0:0:0:0:
256,192,59351,1,2,0:0:0:0:
256,192,59524,1,2,0:0:0:0:
256,192,59696,1,0,0:0:0:0:
256,192,60041,1,4,0:0:0:0:
256,192,60558,1,6,0:0:0:0:
256,192,61075,1,4,0:0:0:0:
256,192,61765,1,0,0:0:0:0:
256,192,62110,1,2,0:0:0:0:
256,192,62282,1,0,0:0:0:0:
256,192,62455,1,2,0:0:0:0:
256,192,62800,1,4,0:0:0:0:
256,192,63144,1,2,0:0:0:0:
256,192,63489,1,2,0:0:0:0:
256,192,63575,1,2,0:0:0:0:
256,192,63662,1,0,0:0:0:0:
256,192,63834,1,2,0:0:0:0:
224,192,64179,1,4,0:0:0:0:
256,192,64869,1,0,0:0:0:0:
256,192,64955,1,2,0:0:0:0:
256,192,65213,1,2,0:0:0:0:
256,192,65300,1,0,0:0:0:0:
256,192,65386,1,2,0:0:0:0:
256,192,65558,1,4,0:0:0:0:
256,192,66075,1,6,0:0:0:0:
256,192,66593,1,4,0:0:0:0:
256,192,67282,12,4,67800,0:0:0:0:
256,192,67972,5,2,0:0:0:0:
256,192,68144,1,2,0:0:0:0:
256,192,68317,1,4,0:0:0:0:
256,192,68834,1,6,0:0:0:0:
256,192,69351,1,4,0:0:0:0:
256,192,70041,1,0,0:0:0:0:
256,192,70386,1,2,0:0:0:0:
256,192,70558,1,2,0:0:0:0:
256,160,70903,1,2,0:0:0:0:
256,192,71075,1,4,0:0:0:0:
256,192,71593,1,6,0:0:0:0:
256,192,72110,1,6,0:0:0:0:
256,192,72628,1,0,0:0:0:0:
256,192,72800,1,2,0:0:0:0:
256,192,73144,1,2,0:0:0:0:
256,192,73317,1,0,0:0:0:0:
256,192,73489,1,2,0:0:0:0:
256,192,73834,1,2,0:0:0:0:
256,192,74007,1,0,0:0:0:0:
256,192,74179,1,2,0:0:0:0:
224,192,74351,1,2,0:0:0:0:
224,192,74438,1,2,0:0:0:0:
224,192,74524,1,2,0:0:0:0:
224,192,74696,1,0,0:0:0:0:
224,192,74869,1,2,0:0:0:0:
224,192,75041,1,0,0:0:0:0:
224,192,75127,1,0,0:0:0:0:
256,192,75213,1,2,0:0:0:0:
256,192,75386,1,0,0:0:0:0:
256,192,75558,1,2,0:0:0:0:
256,192,75731,1,2,0:0:0:0:
256,192,75903,1,0,0:0:0:0:
256,192,76075,1,2,0:0:0:0:
256,192,76162,1,0,0:0:0:0:
256,192,76248,1,2,0:0:0:0:
256,192,76420,1,0,0:0:0:0:
256,192,76507,1,0,0:0:0:0:
256,192,76593,1,2,0:0:0:0:
256,192,76765,1,2,0:0:0:0:
256,192,76938,1,0,0:0:0:0:
256,192,77024,1,0,0:0:0:0:
256,192,77110,1,2,0:0:0:0:
256,192,77282,1,0,0:0:0:0:
256,160,77455,1,0,0:0:0:0:
256,160,77541,1,0,0:0:0:0:
256,160,77627,1,2,0:0:0:0:
256,160,77800,1,2,0:0:0:0:
256,192,77972,1,0,0:0:0:0:
256,192,78144,1,2,0:0:0:0:
256,192,78231,1,0,0:0:0:0:
256,192,78317,1,2,0:0:0:0:
256,160,78489,1,2,0:0:0:0:
256,160,78662,1,0,0:0:0:0:
256,160,78748,1,0,0:0:0:0:
256,160,78834,1,2,0:0:0:0:
224,160,79007,1,2,0:0:0:0:
224,192,79179,1,0,0:0:0:0:
224,192,79265,1,0,0:0:0:0:
224,160,79351,1,2,0:0:0:0:
224,160,79524,1,2,0:0:0:0:
224,192,79696,1,0,0:0:0:0:
224,192,79782,1,0,0:0:0:0:
224,192,79869,1,2,0:0:0:0:
224,192,80041,1,0,0:0:0:0:
224,160,80213,1,2,0:0:0:0:
224,160,80300,1,0,0:0:0:0:
224,160,80386,1,2,0:0:0:0:
256,192,80558,1,2,0:0:0:0:
256,192,80731,1,2,0:0:0:0:
256,192,80903,1,0,0:0:0:0:
256,192,81075,1,2,0:0:0:0:
256,192,81248,1,0,0:0:0:0:
256,192,81420,1,2,0:0:0:0:
256,160,81593,1,0,0:0:0:0:
256,160,81765,1,2,0:0:0:0:
256,160,81938,1,0,0:0:0:0:
256,192,82110,1,2,0:0:0:0:
256,192,82196,1,0,0:0:0:0:
256,192,82282,1,0,0:0:0:0:
256,192,82455,1,2,0:0:0:0:
256,192,82627,1,0,0:0:0:0:
288,192,82800,1,2,0:0:0:0:
256,192,82886,1,2,0:0:0:0:
256,192,82972,1,0,0:0:0:0:
256,192,83144,1,2,0:0:0:0:
256,160,83317,1,0,0:0:0:0:
256,160,83489,1,2,0:0:0:0:
256,160,83575,1,2,0:0:0:0:
256,160,83662,1,0,0:0:0:0:
256,160,83748,1,0,0:0:0:0:
256,160,83834,1,2,0:0:0:0:
256,160,83920,1,2,0:0:0:0:
256,160,84007,1,0,0:0:0:0:
256,160,84093,1,0,0:0:0:0:
256,192,84179,1,2,0:0:0:0:
256,192,84236,1,2,0:0:0:0:
256,192,84294,1,2,0:0:0:0:
256,192,84351,1,0,0:0:0:0:
256,192,84409,1,0,0:0:0:0:
256,192,84466,1,0,0:0:0:0:
256,192,84524,1,2,0:0:0:0:
256,192,84581,1,2,0:0:0:0:
256,192,84639,1,2,0:0:0:0:
256,192,84696,1,0,0:0:0:0:
256,192,84754,1,0,0:0:0:0:
256,192,84811,1,0,0:0:0:0:
256,192,84869,1,2,0:0:0:0:
256,192,85731,1,2,0:0:0:0:
256,192,85817,1,2,0:0:0:0:
256,192,85903,1,0,0:0:0:0:
256,192,85989,1,0,0:0:0:0:
256,192,86075,1,2,0:0:0:0:
256,192,86162,1,0,0:0:0:0:
256,192,86248,1,2,0:0:0:0:
256,192,86420,1,0,0:0:0:0:
256,192,86507,1,0,0:0:0:0:
256,192,86593,1,2,0:0:0:0:
256,192,86765,1,2,0:0:0:0:
256,192,86938,1,0,0:0:0:0:
256,192,87024,1,2,0:0:0:0:
256,192,87110,1,2,0:0:0:0:
256,192,87282,1,2,0:0:0:0:
256,192,87455,1,2,0:0:0:0:
256,192,87541,1,0,0:0:0:0:
256,192,87627,1,2,0:0:0:0:
256,192,87800,1,2,0:0:0:0:
256,192,87972,1,0,0:0:0:0:
256,192,88058,1,0,0:0:0:0:
256,192,88144,1,2,0:0:0:0:
256,192,88317,1,2,0:0:0:0:
256,192,88489,1,0,0:0:0:0:
256,192,88575,1,0,0:0:0:0:
256,192,88662,1,2,0:0:0:0:
256,192,88748,1,2,0:0:0:0:
256,192,88834,1,0,0:0:0:0:
256,192,89007,1,0,0:0:0:0:
256,192,89179,1,0,0:0:0:0:
256,192,89265,1,0,0:0:0:0:
256,192,89351,1,2,0:0:0:0:
256,192,89524,1,2,0:0:0:0:
256,192,89696,1,0,0:0:0:0:
256,192,89782,1,2,0:0:0:0:
256,192,89869,1,0,0:0:0:0:
256,192,89955,1,0,0:0:0:0:
256,192,90041,1,2,0:0:0:0:
256,192,90213,1,2,0:0:0:0:
256,192,90386,1,0,0:0:0:0:
256,192,90558,1,2,0:0:0:0:
256,192,90644,1,0,0:0:0:0:
256,192,90731,1,2,0:0:0:0:
256,192,90817,1,2,0:0:0:0:
256,192,90903,1,0,0:0:0:0:
256,192,90989,1,0,0:0:0:0:
256,192,91075,1,2,0:0:0:0:
256,192,91162,1,2,0:0:0:0:
256,192,91248,1,0,0:0:0:0:
256,192,91334,1,2,0:0:0:0:
256,192,91420,1,0,0:0:0:0:
256,192,91478,1,0,0:0:0:0:
256,192,91535,1,0,0:0:0:0:
256,192,91593,1,0,0:0:0:0:
256,192,91765,1,0,0:0:0:0:
256,192,91938,1,2,0:0:0:0:
256,192,92024,1,2,0:0:0:0:
256,192,92110,1,0,0:0:0:0:
256,160,92282,1,0,0:0:0:0:
256,192,92455,1,0,0:0:0:0:
256,192,92541,1,2,0:0:0:0:
256,192,92627,1,0,0:0:0:0:
256,192,92800,1,0,0:0:0:0:
256,192,92972,1,2,0:0:0:0:
256,192,93058,1,2,0:0:0:0:
256,192,93144,1,0,0:0:0:0:
256,192,93317,1,0,0:0:0:0:
256,192,93489,1,0,0:0:0:0:
256,192,93575,1,0,0:0:0:0:
256,192,93662,1,0,0:0:0:0:
256,192,93834,1,2,0:0:0:0:
256,192,94007,1,0,0:0:0:0:
256,192,94093,1,2,0:0:0:0:
256,192,94179,1,2,0:0:0:0:
256,192,94351,1,2,0:0:0:0:
256,192,94524,1,0,0:0:0:0:
256,192,94696,1,0,0:0:0:0:
256,192,94869,1,2,0:0:0:0:
256,192,94926,1,2,0:0:0:0:
256,192,94984,1,2,0:0:0:0:
256,192,95041,1,0,0:0:0:0:
256,192,95213,1,0,0:0:0:0:
256,192,95257,1,0,0:0:0:0:
256,192,95386,1,0,0:0:0:0:
256,192,95429,1,0,0:0:0:0:
256,192,95558,1,2,0:0:0:0:
256,192,95731,1,2,0:0:0:0:
256,192,95903,1,0,0:0:0:0:
256,192,96075,1,0,0:0:0:0:
256,192,96162,1,0,0:0:0:0:
256,192,96248,1,2,0:0:0:0:
256,192,96420,1,0,0:0:0:0:
256,192,96593,1,2,0:0:0:0:
256,192,96765,1,0,0:0:0:0:
256,192,96851,1,0,0:0:0:0:
256,192,96938,1,2,0:0:0:0:
256,192,97024,1,2,0:0:0:0:
256,192,97110,1,0,0:0:0:0:
256,192,97196,1,2,0:0:0:0:
256,192,97282,1,0,0:0:0:0:
256,192,97455,1,0,0:0:0:0:
256,192,97541,1,0,0:0:0:0:
256,192,97627,1,2,0:0:0:0:
256,192,97800,1,2,0:0:0:0:
256,192,97972,1,2,0:0:0:0:
256,192,98058,1,0,0:0:0:0:
256,192,98144,1,2,0:0:0:0:
256,192,98317,1,2,0:0:0:0:
256,192,98489,1,2,0:0:0:0:
256,192,98575,1,2,0:0:0:0:
256,192,98662,1,2,0:0:0:0:
256,192,98834,1,2,0:0:0:0:
256,192,99007,1,0,0:0:0:0:
256,192,99093,1,2,0:0:0:0:
256,192,99179,1,2,0:0:0:0:
256,192,99351,1,2,0:0:0:0:
256,192,99524,1,0,0:0:0:0:
256,192,99610,1,0,0:0:0:0:
256,192,99696,1,2,0:0:0:0:
256,192,99782,1,0,0:0:0:0:
256,192,99869,1,2,0:0:0:0:
256,192,100041,1,0,0:0:0:0:
256,192,100213,1,0,0:0:0:0:
256,192,100300,1,2,0:0:0:0:
256,192,100386,1,2,0:0:0:0:
256,192,100558,1,2,0:0:0:0:
256,192,100731,1,2,0:0:0:0:
256,192,100817,1,2,0:0:0:0:
256,192,100903,1,0,0:0:0:0:
256,192,100989,1,0,0:0:0:0:
256,192,101075,1,2,0:0:0:0:
256,192,101248,1,2,0:0:0:0:
256,192,101420,1,0,0:0:0:0:
256,192,101593,1,0,0:0:0:0:
256,192,101679,1,0,0:0:0:0:
256,192,101765,1,2,0:0:0:0:
256,192,101851,1,2,0:0:0:0:
256,192,101938,1,0,0:0:0:0:
256,192,102024,1,0,0:0:0:0:
256,192,102110,1,2,0:0:0:0:
256,192,102196,1,0,0:0:0:0:
256,192,102282,1,2,0:0:0:0:
256,192,102369,1,2,0:0:0:0:
256,192,102455,1,0,0:0:0:0:
256,192,102512,1,0,0:0:0:0:
256,192,102570,1,0,0:0:0:0:
256,192,102627,1,0,0:0:0:0:
256,192,102800,1,0,0:0:0:0:
256,192,103144,1,2,0:0:0:0:
256,192,103231,1,0,0:0:0:0:
256,192,103317,1,2,0:0:0:0:
256,192,103489,1,0,0:0:0:0:
256,192,103662,1,2,0:0:0:0:
256,192,103748,1,2,0:0:0:0:
256,192,103834,1,2,0:0:0:0:
256,192,104007,1,0,0:0:0:0:
256,192,104179,1,0,0:0:0:0:
256,192,104265,1,2,0:0:0:0:
256,192,104351,1,2,0:0:0:0:
256,192,104524,1,0,0:0:0:0:
256,192,104696,1,2,0:0:0:0:
256,192,104782,1,0,0:0:0:0:
256,192,104869,1,2,0:0:0:0:
256,192,105041,1,2,0:0:0:0:
256,192,105213,1,0,0:0:0:0:
256,192,105386,1,0,0:0:0:0:
256,192,105472,1,0,0:0:0:0:
256,192,105558,1,2,0:0:0:0:
256,192,105731,1,0,0:0:0:0:
256,192,105903,1,2,0:0:0:0:
256,192,105961,1,2,0:0:0:0:
256,192,106018,1,2,0:0:0:0:
256,192,106075,1,0,0:0:0:0:
256,192,106248,1,2,0:0:0:0:
256,192,106291,1,2,0:0:0:0:
256,192,106420,1,2,0:0:0:0:
256,192,106463,1,2,0:0:0:0:
256,192,106593,1,2,0:0:0:0:
256,192,106765,1,2,0:0:0:0:
256,192,106938,1,0,0:0:0:0:
256,192,107110,1,0,0:0:0:0:
256,192,107196,1,0,0:0:0:0:
256,192,107282,1,2,0:0:0:0:
256,192,107455,1,0,0:0:0:0:
256,192,107627,1,2,0:0:0:0:
256,192,108317,1,2,0:0:0:0:
256,192,108489,1,2,0:0:0:0:
256,192,108575,1,2,0:0:0:0:
256,192,108662,1,0,0:0:0:0:
256,192,108834,1,0,0:0:0:0:
256,192,109007,1,2,0:0:0:0:
256,192,109093,1,2,0:0:0:0:
256,192,109179,1,0,0:0:0:0:
256,192,109265,1,2,0:0:0:0:
256,192,109351,1,0,0:0:0:0:
256,192,109438,1,0,0:0:0:0:
256,192,109524,1,2,0:0:0:0:
256,192,109610,1,2,0:0:0:0:
256,192,109696,1,0,0:0:0:0:
256,192,109782,1,2,0:0:0:0:
256,192,109868,1,0,0:0:0:0:
256,192,109955,1,0,0:0:0:0:
256,192,110041,1,2,0:0:0:0:
256,192,110127,1,2,0:0:0:0:
256,192,110213,1,0,0:0:0:0:
256,192,110299,1,0,0:0:0:0:
256,192,110385,1,2,0:0:0:0:
256,192,110558,1,0,0:0:0:0:
256,192,110644,1,0,0:0:0:0:
256,192,110731,1,2,0:0:0:0:
256,192,110903,1,2,0:0:0:0:
256,192,111075,1,0,0:0:0:0:
256,192,111133,1,0,0:0:0:0:
256,192,111190,1,0,0:0:0:0:
256,192,111248,1,0,0:0:0:0:
224,192,111420,1,2,0:0:0:0:
256,192,111765,1,2,0:0:0:0:
256,192,111938,1,0,0:0:0:0:
256,192,112024,1,2,0:0:0:0:
256,192,112110,1,2,0:0:0:0:
256,192,112282,1,2,0:0:0:0:
256,192,112455,1,0,0:0:0:0:
256,192,112627,1,2,0:0:0:0:
256,192,112713,1,2,0:0:0:0:
256,192,112800,1,0,0:0:0:0:
256,192,112972,1,0,0:0:0:0:
256,192,113058,1,0,0:0:0:0:
256,192,113144,1,2,0:0:0:0:
256,160,113317,1,0,0:0:0:0:
256,160,113489,1,2,0:0:0:0:
256,160,113662,1,2,0:0:0:0:
256,192,113834,1,2,0:0:0:0:
256,192,114007,1,2,0:0:0:0:
256,192,114093,1,0,0:0:0:0:
256,192,114179,1,0,0:0:0:0:
256,192,114351,1,0,0:0:0:0:
256,192,114524,1,2,0:0:0:0:
256,192,114610,1,0,0:0:0:0:
256,192,114696,1,2,0:0:0:0:
256,192,114782,1,2,0:0:0:0:
256,192,114869,1,0,0:0:0:0:
256,192,114955,1,0,0:0:0:0:
256,192,115041,1,2,0:0:0:0:
256,192,115127,1,0,0:0:0:0:
256,192,115213,1,2,0:0:0:0:
256,192,115299,1,2,0:0:0:0:
256,192,115386,1,0,0:0:0:0:
256,192,115472,1,0,0:0:0:0:
256,192,115558,1,2,0:0:0:0:
256,192,115644,1,0,0:0:0:0:
256,192,115730,1,0,0:0:0:0:
256,192,115816,1,0,0:0:0:0:
256,192,115903,1,2,0:0:0:0:
256,192,116075,1,0,0:0:0:0:
256,192,116162,1,0,0:0:0:0:
256,192,116248,1,2,0:0:0:0:
256,192,116420,1,0,0:0:0:0:
256,192,116593,1,0,0:0:0:0:
256,192,116679,1,0,0:0:0:0:
256,192,116765,1,0,0:0:0:0:
256,192,116938,1,0,0:0:0:0:
256,192,117282,1,2,0:0:0:0:
256,192,117455,1,2,0:0:0:0:
256,192,117627,1,0,0:0:0:0:
256,192,117800,1,0,0:0:0:0:
256,192,117972,1,2,0:0:0:0:
256,192,118144,1,0,0:0:0:0:
256,192,118231,1,0,0:0:0:0:
256,192,118317,1,0,0:0:0:0:
256,192,118489,1,2,0:0:0:0:
256,192,118662,1,0,0:0:0:0:
256,192,118748,1,0,0:0:0:0:
256,192,118834,1,0,0:0:0:0:
256,192,119007,1,2,0:0:0:0:
256,192,119093,1,0,0:0:0:0:
256,192,119179,1,0,0:0:0:0:
256,192,119265,1,0,0:0:0:0:
256,192,119351,1,0,0:0:0:0:
256,192,119524,12,0,119869,0:0:0:0:
256,192,120041,5,2,0:0:0:0:
256,192,120127,1,0,0:0:0:0:
256,192,120213,1,0,0:0:0:0:
256,192,120300,1,2,0:0:0:0:
256,192,120386,1,2,0:0:0:0:
256,192,120472,1,0,0:0:0:0:
256,192,120558,1,2,0:0:0:0:
256,192,120644,1,0,0:0:0:0:
256,192,120730,1,0,0:0:0:0:
256,192,120817,1,2,0:0:0:0:
256,192,120903,1,2,0:0:0:0:
256,192,120989,1,0,0:0:0:0:
256,192,121075,1,2,0:0:0:0:
256,192,121161,1,0,0:0:0:0:
256,192,121247,1,0,0:0:0:0:
256,192,121334,1,2,0:0:0:0:
256,192,121420,1,2,0:0:0:0:
256,192,121593,1,0,0:0:0:0:
256,192,121851,1,0,0:0:0:0:
256,192,122110,1,0,0:0:0:0:
256,192,122455,1,2,0:0:0:0:
256,192,122627,1,0,0:0:0:0:
256,192,122713,1,0,0:0:0:0:
256,192,122800,1,2,0:0:0:0:
256,192,122886,1,0,0:0:0:0:
256,160,122972,1,2,0:0:0:0:
256,160,123058,1,0,0:0:0:0:
256,160,123144,1,2,0:0:0:0:
256,160,123231,1,0,0:0:0:0:
256,160,123317,1,2,0:0:0:0:
256,192,123489,1,0,0:0:0:0:
256,192,123662,1,2,0:0:0:0:
256,192,123748,1,2,0:0:0:0:
256,192,123834,1,0,0:0:0:0:
256,192,124007,1,0,0:0:0:0:
256,192,124093,1,0,0:0:0:0:
256,192,124179,1,2,0:0:0:0:
256,192,124524,1,2,0:0:0:0:
256,192,124696,1,0,0:0:0:0:
256,192,124869,1,2,0:0:0:0:
256,192,125041,1,2,0:0:0:0:
256,192,125127,1,0,0:0:0:0:
256,192,125213,1,0,0:0:0:0:
256,192,125386,1,0,0:0:0:0:
256,192,125558,1,2,0:0:0:0:
256,192,125644,1,0,0:0:0:0:
256,192,125731,1,2,0:0:0:0:
256,192,125817,1,2,0:0:0:0:
256,192,125903,1,0,0:0:0:0:
256,192,125989,1,0,0:0:0:0:
256,192,126075,1,2,0:0:0:0:
256,192,126161,1,0,0:0:0:0:
256,192,126248,1,2,0:0:0:0:
256,192,126334,1,2,0:0:0:0:
256,192,126420,1,0,0:0:0:0:
256,192,126506,1,0,0:0:0:0:
256,192,126593,1,2,0:0:0:0:
256,192,126679,1,0,0:0:0:0:
256,192,126766,1,0,0:0:0:0:
256,192,126852,1,0,0:0:0:0:
256,192,126938,1,2,0:0:0:0:
256,192,127282,1,0,0:0:0:0:
256,192,127627,1,2,0:0:0:0:
256,192,127800,1,0,0:0:0:0:
256,192,127972,1,0,0:0:0:0:
256,192,128144,1,0,0:0:0:0:
256,192,128317,1,2,0:0:0:0:
256,192,128489,1,0,0:0:0:0:
256,192,128662,1,2,0:0:0:0:
256,192,128834,1,2,0:0:0:0:
256,192,129007,1,0,0:0:0:0:
256,192,129093,1,2,0:0:0:0:
256,192,129179,1,0,0:0:0:0:
256,192,129265,1,0,0:0:0:0:
256,192,129351,1,2,0:0:0:0:
256,192,129438,1,0,0:0:0:0:
256,192,129524,1,0,0:0:0:0:
288,192,129610,1,2,0:0:0:0:
288,192,129696,1,2,0:0:0:0:
256,192,129782,1,0,0:0:0:0:
256,192,129869,1,0,0:0:0:0:
256,192,129955,1,2,0:0:0:0:
256,192,130041,1,0,0:0:0:0:
256,192,130127,1,2,0:0:0:0:
256,192,130213,1,2,0:0:0:0:
256,192,130300,1,0,0:0:0:0:
288,160,130386,1,2,0:0:0:0:
256,192,132800,1,0,0:0:0:0:
256,192,133144,1,2,0:0:0:0:
256,192,135041,1,2,0:0:0:0:
256,192,135558,1,0,0:0:0:0:
256,192,135903,1,2,0:0:0:0:
256,160,138317,1,0,0:0:0:0:
256,160,138662,1,0,0:0:0:0:
256,160,139696,1,2,0:0:0:0:
256,160,140041,1,2,0:0:0:0:
256,160,140731,1,0,0:0:0:0:
256,160,141420,1,2,0:0:0:0:
256,160,143834,1,0,0:0:0:0:
256,160,144179,1,2,0:0:0:0:
256,128,146075,1,2,0:0:0:0:
256,192,146593,1,0,0:0:0:0:
224,192,146938,1,2,0:0:0:0:
224,160,147455,1,0,0:0:0:0:
224,160,147627,1,0,0:0:0:0:
224,160,147800,1,0,0:0:0:0:
224,160,147972,1,0,0:0:0:0:
224,192,148144,1,0,0:0:0:0:
224,192,148317,1,0,0:0:0:0:
224,192,148489,1,0,0:0:0:0:
224,192,148662,1,0,0:0:0:0:
224,192,148834,1,0,0:0:0:0:
224,192,149007,1,0,0:0:0:0:
224,192,149179,1,2,0:0:0:0:
256,192,149351,1,2,0:0:0:0:
256,192,149524,1,2,0:0:0:0:
256,192,149696,1,2,0:0:0:0:
256,192,149782,1,0,0:0:0:0:
256,192,149869,1,0,0:0:0:0:
256,192,149955,1,0,0:0:0:0:
256,192,150041,1,2,0:0:0:0:
256,192,150127,1,0,0:0:0:0:
256,192,150213,1,0,0:0:0:0:
256,192,150300,1,0,0:0:0:0:
256,192,150386,1,2,0:0:0:0:
256,192,150472,1,2,0:0:0:0:
256,192,150558,1,2,0:0:0:0:
256,192,150644,1,2,0:0:0:0:
256,192,150731,1,0,0:0:0:0:
256,192,150817,1,0,0:0:0:0:
256,192,150903,1,0,0:0:0:0:
256,192,150989,1,0,0:0:0:0:
256,192,151075,1,2,0:0:0:0:
256,192,151133,1,2,0:0:0:0:
256,192,151190,1,2,0:0:0:0:
256,192,151248,1,2,0:0:0:0:
256,192,151305,1,2,0:0:0:0:
256,192,151363,1,2,0:0:0:0:
256,192,151420,1,2,0:0:0:0:
256,192,151478,1,2,0:0:0:0:
256,192,151535,1,2,0:0:0:0:
256,192,151593,1,2,0:0:0:0:
256,192,151650,1,2,0:0:0:0:
256,192,151708,1,2,0:0:0:0:
256,192,151765,12,0,152282,0:0:0:0:
256,192,152455,5,6,0:0:0:0:
256,192,153144,12,0,153662,0:0:0:0:
256,192,153834,5,4,0:0:0:0:
256,192,154351,1,6,0:0:0:0:
256,192,154869,1,4,0:0:0:0:
256,192,155558,1,2,0:0:0:0:
256,192,155644,1,0,0:0:0:0:
256,192,155731,1,2,0:0:0:0:
256,192,155817,1,0,0:0:0:0:
256,192,155903,1,2,0:0:0:0:
256,192,155989,1,0,0:0:0:0:
256,192,156075,1,2,0:0:0:0:
256,192,156162,1,0,0:0:0:0:
256,192,156248,1,0,0:0:0:0:
256,192,156593,1,4,0:0:0:0:
256,192,157110,1,6,0:0:0:0:
256,192,157627,1,4,0:0:0:0:
256,192,158317,1,2,0:0:0:0:
256,192,158489,1,0,0:0:0:0:
256,192,158662,1,2,0:0:0:0:
256,192,158834,1,2,0:0:0:0:
256,192,159007,1,0,0:0:0:0:
256,192,159351,1,4,0:0:0:0:
288,160,159869,1,6,0:0:0:0:
256,192,160386,1,4,0:0:0:0:
256,192,161075,1,0,0:0:0:0:
256,192,161248,1,0,0:0:0:0:
256,192,161334,1,2,0:0:0:0:
256,192,161420,1,2,0:0:0:0:
256,192,161507,1,2,0:0:0:0:
256,192,161593,1,0,0:0:0:0:
256,192,161679,1,0,0:0:0:0:
256,192,161765,1,2,0:0:0:0:
256,192,161851,1,2,0:0:0:0:
256,192,161938,1,0,0:0:0:0:
256,192,162024,1,0,0:0:0:0:
256,192,162110,1,2,0:0:0:0:
256,192,162455,1,2,0:0:0:0:
256,160,162800,1,0,0:0:0:0:
256,192,162972,1,0,0:0:0:0:
256,192,163144,1,2,0:0:0:0:
256,192,163489,1,0,0:0:0:0:
256,192,163834,1,2,0:0:0:0:
256,192,164007,1,0,0:0:0:0:
256,192,164179,1,0,0:0:0:0:
256,192,164265,1,0,0:0:0:0:
256,192,164351,1,0,0:0:0:0:
256,192,164524,1,2,0:0:0:0:
224,160,164869,1,0,0:0:0:0:
256,192,165041,1,0,0:0:0:0:
256,192,165213,1,2,0:0:0:0:
256,160,165386,1,2,0:0:0:0:
256,160,165558,1,0,0:0:0:0:
256,160,165644,1,0,0:0:0:0:
256,160,165731,1,0,0:0:0:0:
256,160,165903,1,2,0:0:0:0:
256,192,166248,1,0,0:0:0:0:
256,192,166420,1,0,0:0:0:0:
256,192,166507,1,0,0:0:0:0:
256,192,166593,1,2,0:0:0:0:
224,192,166765,1,0,0:0:0:0:
224,160,166938,1,0,0:0:0:0:
224,160,167024,1,0,0:0:0:0:
224,160,167110,1,0,0:0:0:0:
224,160,167282,1,2,0:0:0:0:
256,192,167627,1,2,0:0:0:0:
256,160,167800,1,0,0:0:0:0:
256,192,167886,1,0,0:0:0:0:
256,192,167972,1,2,0:0:0:0:
224,160,168144,1,2,0:0:0:0:
256,192,168317,1,0,0:0:0:0:
256,160,168403,1,2,0:0:0:0:
256,160,168489,1,0,0:0:0:0:
256,160,168662,1,2,0:0:0:0:
224,192,169007,1,2,0:0:0:0:
224,192,169179,1,0,0:0:0:0:
224,192,169351,1,2,0:0:0:0:
224,192,169524,1,0,0:0:0:0:
224,192,169696,1,2,0:0:0:0:
224,192,169868,1,0,0:0:0:0:
224,192,170040,1,2,0:0:0:0:
224,192,170213,1,0,0:0:0:0:
224,192,170386,1,2,0:0:0:0:
224,192,170472,1,0,0:0:0:0:
224,192,170558,1,0,0:0:0:0:
224,192,170730,1,2,0:0:0:0:
224,192,170903,1,0,0:0:0:0:
224,192,171075,1,2,0:0:0:0:
224,192,171162,1,2,0:0:0:0:
224,192,171247,1,0,0:0:0:0:
224,192,171419,1,2,0:0:0:0:
224,192,171592,1,0,0:0:0:0:
224,192,171765,1,2,0:0:0:0:
224,192,171851,1,2,0:0:0:0:
224,192,171938,1,0,0:0:0:0:
224,192,172024,1,0,0:0:0:0:
224,192,172110,1,2,0:0:0:0:
224,192,172196,1,2,0:0:0:0:
224,192,172282,1,0,0:0:0:0:
256,192,172369,1,0,0:0:0:0:
256,192,172455,1,2,0:0:0:0:
256,192,172512,1,2,0:0:0:0:
256,192,172570,1,2,0:0:0:0:
256,192,172627,1,0,0:0:0:0:
256,192,172685,1,0,0:0:0:0:
256,192,172742,1,0,0:0:0:0:
256,192,172800,1,2,0:0:0:0:
256,192,172857,1,2,0:0:0:0:
256,192,172915,1,2,0:0:0:0:
256,192,172972,1,0,0:0:0:0:
256,192,173029,1,0,0:0:0:0:
256,192,173087,1,0,0:0:0:0:
256,192,173144,1,2,0:0:0:0:
256,192,174007,1,2,0:0:0:0:
256,192,174093,1,0,0:0:0:0:
256,192,174179,1,2,0:0:0:0:
256,192,174265,1,2,0:0:0:0:
256,192,174351,1,0,0:0:0:0:
256,192,174438,1,0,0:0:0:0:
256,192,174524,1,2,0:0:0:0:
256,192,174610,1,2,0:0:0:0:
256,192,174782,1,2,0:0:0:0:
256,192,174869,1,2,0:0:0:0:
256,192,174955,1,0,0:0:0:0:
256,192,175041,1,0,0:0:0:0:
256,192,175127,1,2,0:0:0:0:
256,192,175300,1,2,0:0:0:0:
256,192,175386,1,2,0:0:0:0:
256,192,175472,1,0,0:0:0:0:
256,192,175558,1,0,0:0:0:0:
256,192,175644,1,2,0:0:0:0:
256,192,175731,1,0,0:0:0:0:
256,192,175817,1,2,0:0:0:0:
256,192,175989,1,2,0:0:0:0:
256,192,176075,1,0,0:0:0:0:
256,192,176162,1,0,0:0:0:0:
256,192,176248,1,0,0:0:0:0:
256,192,176334,1,2,0:0:0:0:
256,192,176420,1,0,0:0:0:0:
256,192,176507,1,2,0:0:0:0:
256,192,176679,1,2,0:0:0:0:
256,192,176765,1,0,0:0:0:0:
256,192,176851,1,0,0:0:0:0:
256,192,176938,1,2,0:0:0:0:
256,192,177024,1,0,0:0:0:0:
256,192,177110,1,2,0:0:0:0:
256,160,177196,1,0,0:0:0:0:
256,160,177369,1,2,0:0:0:0:
256,160,177455,1,0,0:0:0:0:
256,160,177541,1,0,0:0:0:0:
256,160,177627,1,0,0:0:0:0:
256,160,177713,1,2,0:0:0:0:
256,160,177800,1,0,0:0:0:0:
256,160,177886,1,0,0:0:0:0:
256,160,178058,1,0,0:0:0:0:
256,160,178144,1,2,0:0:0:0:
256,160,178231,1,0,0:0:0:0:
256,160,178317,1,0,0:0:0:0:
256,160,178403,1,0,0:0:0:0:
256,160,178489,1,2,0:0:0:0:
256,160,178575,1,2,0:0:0:0:
256,160,178748,1,2,0:0:0:0:
256,160,178834,1,2,0:0:0:0:
256,160,178920,1,0,0:0:0:0:
256,160,179007,1,0,0:0:0:0:
256,160,179093,1,2,0:0:0:0:
256,160,179179,1,2,0:0:0:0:
256,160,179265,1,0,0:0:0:0:
224,160,179351,1,0,0:0:0:0:
256,160,179438,1,0,0:0:0:0:
256,160,179524,1,2,0:0:0:0:
256,160,179696,1,0,0:0:0:0:
256,160,179782,1,2,0:0:0:0:
256,160,179840,1,2,0:0:0:0:
256,160,179897,1,2,0:0:0:0:
256,192,179955,1,2,0:0:0:0:
256,192,180127,1,0,0:0:0:0:
256,192,180213,1,2,0:0:0:0:
256,192,180300,1,0,0:0:0:0:
256,192,180386,1,0,0:0:0:0:
256,192,180472,1,2,0:0:0:0:
256,192,180558,1,0,0:0:0:0:
256,192,180644,1,2,0:0:0:0:
256,192,180817,1,2,0:0:0:0:
256,192,180903,1,2,0:0:0:0:
256,192,180989,1,0,0:0:0:0:
256,192,181075,1,2,0:0:0:0:
256,192,181162,1,0,0:0:0:0:
256,192,181248,1,2,0:0:0:0:
256,192,181334,1,2,0:0:0:0:
256,192,181507,1,2,0:0:0:0:
256,192,181593,1,2,0:0:0:0:
256,192,181679,1,0,0:0:0:0:
256,192,181765,1,0,0:0:0:0:
256,192,181851,1,2,0:0:0:0:
256,192,181938,1,0,0:0:0:0:
256,192,182024,1,2,0:0:0:0:
256,192,182196,1,2,0:0:0:0:
256,192,182282,1,0,0:0:0:0:
256,192,182369,1,0,0:0:0:0:
256,192,182455,1,0,0:0:0:0:
256,192,182541,1,2,0:0:0:0:
256,192,182627,1,2,0:0:0:0:
256,192,182713,1,0,0:0:0:0:
256,192,182886,1,2,0:0:0:0:
256,192,182972,1,0,0:0:0:0:
256,192,183058,1,0,0:0:0:0:
256,192,183144,1,2,0:0:0:0:
256,192,183202,1,2,0:0:0:0:
256,192,183259,1,2,0:0:0:0:
256,192,183317,1,2,0:0:0:0:
256,192,183489,1,0,0:0:0:0:
256,192,183575,1,2,0:0:0:0:
256,192,183662,1,0,0:0:0:0:
256,192,183748,1,2,0:0:0:0:
256,192,183834,1,2,0:0:0:0:
256,192,183920,1,0,0:0:0:0:
256,192,184007,1,0,0:0:0:0:
256,192,184093,1,2,0:0:0:0:
256,192,184265,1,0,0:0:0:0:
256,192,184351,1,2,0:0:0:0:
256,192,184524,1,2,0:0:0:0:
256,192,184567,1,2,0:0:0:0:
256,192,184696,1,2,0:0:0:0:
256,192,184782,1,2,0:0:0:0:
256,192,184869,1,0,0:0:0:0:
256,192,185041,1,2,0:0:0:0:
256,192,185084,1,2,0:0:0:0:
256,192,185213,1,0,0:0:0:0:
256,192,185271,1,0,0:0:0:0:
256,192,185328,1,0,0:0:0:0:
256,192,185386,1,0,0:0:0:0:
256,192,185558,1,0,0:0:0:0:
256,192,185644,1,2,0:0:0:0:
256,192,185731,1,0,0:0:0:0:
256,192,185817,1,0,0:0:0:0:
256,192,185903,1,2,0:0:0:0:
256,192,186075,1,2,0:0:0:0:
256,192,186162,1,2,0:0:0:0:
256,192,186248,1,0,0:0:0:0:
256,192,186334,1,2,0:0:0:0:
256,192,186420,1,0,0:0:0:0:
224,192,186507,1,0,0:0:0:0:
256,192,186593,1,2,0:0:0:0:
256,192,186765,1,2,0:0:0:0:
256,192,186851,1,0,0:0:0:0:
256,192,186938,1,0,0:0:0:0:
256,192,187024,1,2,0:0:0:0:
256,224,187110,1,2,0:0:0:0:
224,160,187196,1,0,0:0:0:0:
224,192,187282,1,2,0:0:0:0:
224,160,187455,1,2,0:0:0:0:
224,160,187541,1,0,0:0:0:0:
224,160,187627,1,0,0:0:0:0:
224,160,187713,1,2,0:0:0:0:
224,160,187800,1,0,0:0:0:0:
224,160,187886,1,2,0:0:0:0:
224,160,187972,1,2,0:0:0:0:
224,160,188058,1,0,0:0:0:0:
224,160,188144,1,2,0:0:0:0:
224,160,188317,1,0,0:0:0:0:
224,160,188403,1,2,0:0:0:0:
224,160,188489,1,2,0:0:0:0:
224,160,188575,1,0,0:0:0:0:
224,192,188662,1,2,0:0:0:0:
224,160,188834,1,0,0:0:0:0:
224,160,188920,1,2,0:0:0:0:
224,160,189007,1,0,0:0:0:0:
224,160,189093,1,2,0:0:0:0:
224,160,189179,1,0,0:0:0:0:
224,160,189265,1,0,0:0:0:0:
224,160,189351,1,2,0:0:0:0:
224,160,189524,1,2,0:0:0:0:
224,160,189610,1,2,0:0:0:0:
224,160,189696,1,0,0:0:0:0:
224,192,189782,1,2,0:0:0:0:
224,192,189869,1,0,0:0:0:0:
224,192,189955,1,0,0:0:0:0:
224,160,190041,1,2,0:0:0:0:
224,160,190213,1,0,0:0:0:0:
224,160,190300,1,2,0:0:0:0:
224,160,190386,1,0,0:0:0:0:
224,160,190558,1,0,0:0:0:0:
224,160,190731,1,2,0:0:0:0:
256,160,190788,1,2,0:0:0:0:
256,160,190846,1,2,0:0:0:0:
256,160,190903,1,2,0:0:0:0:
224,160,191075,1,2,0:0:0:0:
512,192,191162,1,0,0:0:0:0:
256,160,191248,1,0,0:0:0:0:
256,160,191334,1,0,0:0:0:0:
256,160,191420,1,2,0:0:0:0:
256,160,191593,1,0,0:0:0:0:
256,160,191679,1,0,0:0:0:0:
256,160,191765,1,2,0:0:0:0:
256,160,191851,1,0,0:0:0:0:
256,160,191938,1,0,0:0:0:0:
256,160,192024,1,0,0:0:0:0:
256,160,192110,1,2,0:0:0:0:
256,160,192282,1,0,0:0:0:0:
256,160,192369,1,0,0:0:0:0:
256,160,192455,1,2,0:0:0:0:
256,160,192541,1,2,0:0:0:0:
256,160,192627,1,0,0:0:0:0:
256,160,192713,1,0,0:0:0:0:
256,160,192800,1,2,0:0:0:0:
224,160,192972,1,0,0:0:0:0:
224,160,193058,1,0,0:0:0:0:
224,160,193144,1,2,0:0:0:0:
224,160,193231,1,0,0:0:0:0:
224,160,193317,1,0,0:0:0:0:
224,160,193403,1,2,0:0:0:0:
224,160,193489,1,2,0:0:0:0:
256,160,193662,1,0,0:0:0:0:
256,192,193834,1,2,0:0:0:0:
256,192,193920,1,0,0:0:0:0:
256,192,194007,1,2,0:0:0:0:
256,192,194093,1,0,0:0:0:0:
256,192,194179,1,2,0:0:0:0:
256,192,194265,1,0,0:0:0:0:
256,192,194351,1,2,0:0:0:0:
224,128,194438,1,0,0:0:0:0:
224,128,194524,1,2,0:0:0:0:
256,192,194610,1,0,0:0:0:0:
256,192,194697,1,2,0:0:0:0:
256,192,194783,1,0,0:0:0:0:
256,192,194869,1,2,0:0:0:0:
256,192,194955,1,0,0:0:0:0:
256,192,195041,1,2,0:0:0:0:
224,128,195128,1,0,0:0:0:0:
224,128,195214,1,2,0:0:0:0:
224,192,195300,1,2,0:0:0:0:
224,192,195386,1,0,0:0:0:0:
224,192,195472,1,0,0:0:0:0:
224,192,195558,1,2,0:0:0:0:
256,192,195644,1,2,0:0:0:0:
256,192,195731,1,0,0:0:0:0:
256,192,195817,1,2,0:0:0:0:
256,192,195903,1,0,0:0:0:0:
256,192,196248,1,2,0:0:0:0:
256,192,196420,1,0,0:0:0:0:
256,192,196593,5,2,0:0:0:0:
288,192,196765,1,0,0:0:0:0:
256,192,196851,1,2,0:0:0:0:
256,192,196938,1,2,0:0:0:0:
256,192,197110,1,2,0:0:0:0:
256,192,197282,1,2,0:0:0:0:
256,192,197369,1,0,0:0:0:0:
256,192,197455,1,2,0:0:0:0:
256,192,197627,1,2,0:0:0:0:
256,192,197800,1,2,0:0:0:0:
256,192,197886,1,2,0:0:0:0:
256,192,197972,1,2,0:0:0:0:
256,192,198144,1,2,0:0:0:0:
256,192,198317,1,0,0:0:0:0:
256,192,198403,1,2,0:0:0:0:
256,192,198489,1,2,0:0:0:0:
256,192,198662,1,2,0:0:0:0:
256,192,198834,1,0,0:0:0:0:
256,192,198920,1,0,0:0:0:0:
256,192,199007,1,2,0:0:0:0:
256,192,199179,1,2,0:0:0:0:
256,192,199351,1,0,0:0:0:0:
256,192,199524,1,0,0:0:0:0:
256,192,199610,1,0,0:0:0:0:
256,192,199696,1,2,0:0:0:0:
256,192,199869,1,0,0:0:0:0:
256,192,200041,1,2,0:0:0:0:
256,192,200127,1,2,0:0:0:0:
256,192,200213,1,0,0:0:0:0:
256,192,200300,1,0,0:0:0:0:
256,192,200386,1,2,0:0:0:0:
256,160,200558,1,2,0:0:0:0:
224,160,200731,1,0,0:0:0:0:
224,160,200903,1,0,0:0:0:0:
224,160,200989,1,0,0:0:0:0:
224,160,201075,1,2,0:0:0:0:
224,160,201162,1,2,0:0:0:0:
224,160,201248,1,0,0:0:0:0:
224,160,201334,1,0,0:0:0:0:
224,160,201420,1,2,0:0:0:0:
224,160,201507,1,0,0:0:0:0:
224,160,201593,1,2,0:0:0:0:
224,160,201679,1,2,0:0:0:0:
224,160,201765,1,0,0:0:0:0:
256,160,201823,1,0,0:0:0:0:
256,160,201880,1,0,0:0:0:0:
224,192,201938,1,0,0:0:0:0:
256,192,202110,1,0,0:0:0:0:
256,192,202282,1,2,0:0:0:0:
256,192,202369,1,2,0:0:0:0:
256,192,202455,1,0,0:0:0:0:
256,192,202627,1,0,0:0:0:0:
256,192,202800,1,2,0:0:0:0:
256,192,202886,1,0,0:0:0:0:
256,192,202972,1,0,0:0:0:0:
256,192,203144,1,0,0:0:0:0:
256,192,203317,1,0,0:0:0:0:
256,192,203403,1,2,0:0:0:0:
256,192,203489,1,0,0:0:0:0:
256,192,203662,1,0,0:0:0:0:
256,192,203834,1,2,0:0:0:0:
256,192,203920,1,0,0:0:0:0:
256,192,204007,1,0,0:0:0:0:
256,192,204179,1,0,0:0:0:0:
256,192,204351,1,0,0:0:0:0:
256,160,204438,1,0,0:0:0:0:
256,160,204524,1,2,0:0:0:0:
256,160,204696,1,2,0:0:0:0:
256,160,204869,1,0,0:0:0:0:
256,160,205041,1,0,0:0:0:0:
256,160,205127,1,0,0:0:0:0:
256,160,205213,1,2,0:0:0:0:
224,160,205271,1,2,0:0:0:0:
224,160,205328,1,2,0:0:0:0:
224,160,205386,1,0,0:0:0:0:
224,160,205558,1,0,0:0:0:0:
224,160,205601,1,0,0:0:0:0:
224,160,205731,1,0,0:0:0:0:
224,160,205774,1,0,0:0:0:0:
224,192,205903,1,2,0:0:0:0:
224,160,206075,1,2,0:0:0:0:
224,160,206248,1,0,0:0:0:0:
256,160,206334,1,0,0:0:0:0:
256,160,206420,1,0,0:0:0:0:
224,160,206593,1,2,0:0:0:0:
224,192,206636,1,2,0:0:0:0:
256,192,206765,1,0,0:0:0:0:
256,192,206938,1,2,0:0:0:0:
256,160,207110,1,2,0:0:0:0:
256,160,207282,1,0,0:0:0:0:
256,160,207340,1,2,0:0:0:0:
256,160,207397,1,2,0:0:0:0:
256,160,207455,1,0,0:0:0:0:
256,160,207627,1,0,0:0:0:0:
224,160,207800,1,2,0:0:0:0:
224,160,207886,1,2,0:0:0:0:
224,160,207972,1,0,0:0:0:0:
224,160,208058,1,0,0:0:0:0:
224,160,208144,1,2,0:0:0:0:
224,160,208231,1,0,0:0:0:0:
256,160,208317,1,2,0:0:0:0:
256,160,208489,1,2,0:0:0:0:
256,160,208575,1,0,0:0:0:0:
256,160,208662,1,2,0:0:0:0:
256,160,208834,1,2,0:0:0:0:
256,160,209007,1,0,0:0:0:0:
256,160,209093,1,2,0:0:0:0:
256,160,209179,1,2,0:0:0:0:
256,160,209351,1,2,0:0:0:0:
256,128,209524,1,2,0:0:0:0:
256,128,209610,1,0,0:0:0:0:
256,128,209696,1,2,0:0:0:0:
224,128,209869,1,2,0:0:0:0:
224,128,210041,1,2,0:0:0:0:
224,128,210127,1,2,0:0:0:0:
224,128,210213,1,2,0:0:0:0:
256,160,210386,1,2,0:0:0:0:
256,160,210558,1,0,0:0:0:0:
256,160,210644,1,0,0:0:0:0:
256,160,210731,1,2,0:0:0:0:
256,160,210903,1,2,0:0:0:0:
256,128,211075,1,0,0:0:0:0:
256,128,211248,1,0,0:0:0:0:
192,96,211334,1,2,0:0:0:0:
224,128,211420,1,2,0:0:0:0:
224,128,211593,1,2,0:0:0:0:
224,128,211765,1,0,0:0:0:0:
192,96,211938,1,0,0:0:0:0:
256,128,212110,1,2,0:0:0:0:
256,128,212196,1,2,0:0:0:0:
256,128,212282,1,0,0:0:0:0:
256,128,212369,1,0,0:0:0:0:
256,128,212455,1,2,0:0:0:0:
256,128,212541,1,0,0:0:0:0:
256,128,212627,1,2,0:0:0:0:
256,128,212713,1,2,0:0:0:0:
256,128,212800,1,0,0:0:0:0:
256,160,212857,1,0,0:0:0:0:
256,160,212915,1,0,0:0:0:0:
256,160,212972,1,0,0:0:0:0:
256,160,213144,1,2,0:0:0:0:
256,160,213317,1,0,0:0:0:0:
256,160,213403,1,0,0:0:0:0:
256,160,213489,1,0,0:0:0:0:
256,160,213662,1,2,0:0:0:0:
256,128,213834,1,0,0:0:0:0:
256,128,213920,1,0,0:0:0:0:
256,128,214007,1,0,0:0:0:0:
224,128,214179,1,2,0:0:0:0:
224,128,214351,1,0,0:0:0:0:
224,128,214438,1,0,0:0:0:0:
224,128,214524,1,2,0:0:0:0:
224,128,214696,1,0,0:0:0:0:
224,128,214782,1,0,0:0:0:0:
224,128,214869,1,0,0:0:0:0:
224,128,215041,1,2,0:0:0:0:
224,96,215213,1,0,0:0:0:0:
224,96,215300,1,0,0:0:0:0:
224,96,215386,1,0,0:0:0:0:
224,96,215558,1,2,0:0:0:0:
224,128,215644,1,2,0:0:0:0:
224,128,215731,1,0,0:0:0:0:
224,128,215817,1,0,0:0:0:0:
224,128,215903,1,2,0:0:0:0:
256,192,216075,1,0,0:0:0:0:
256,192,216162,1,0,0:0:0:0:
256,192,216248,1,2,0:0:0:0:
256,160,216420,1,0,0:0:0:0:
256,160,216507,1,0,0:0:0:0:
256,160,216593,1,2,0:0:0:0:
256,160,216765,1,0,0:0:0:0:
256,160,216851,1,0,0:0:0:0:
256,160,216938,1,2,0:0:0:0:
256,160,217110,1,2,0:0:0:0:
256,160,217196,1,0,0:0:0:0:
256,160,217282,1,2,0:0:0:0:
256,160,217369,1,2,0:0:0:0:
256,160,217455,1,0,0:0:0:0:
256,160,217541,1,0,0:0:0:0:
256,160,217627,1,2,0:0:0:0:
224,160,217713,1,0,0:0:0:0:
224,160,217800,1,0,0:0:0:0:
224,160,217886,1,0,0:0:0:0:
224,160,217972,1,2,0:0:0:0:
224,160,218058,1,2,0:0:0:0:
224,160,218144,1,0,0:0:0:0:
224,160,218231,1,0,0:0:0:0:
256,192,218662,1,0,0:0:0:0:
256,224,218834,1,0,0:0:0:0:
256,224,219007,1,2,0:0:0:0:
256,224,219179,1,0,0:0:0:0:
256,224,219351,1,0,0:0:0:0:
256,192,219524,1,0,0:0:0:0:
256,192,219610,1,0,0:0:0:0:
256,192,219696,1,2,0:0:0:0:
256,192,219869,1,0,0:0:0:0:
256,192,220041,1,0,0:0:0:0:
256,192,220213,1,0,0:0:0:0:
256,192,220300,1,0,0:0:0:0:
256,192,220386,1,2,0:0:0:0:
256,192,220558,1,0,0:0:0:0:
256,192,220731,1,0,0:0:0:0:
256,192,220817,1,0,0:0:0:0:
256,192,220903,1,0,0:0:0:0:
256,192,220989,1,0,0:0:0:0:
256,192,221075,1,2,0:0:0:0:
256,192,221420,1,0,0:0:0:0:
256,224,221592,1,0,0:0:0:0:
256,224,221678,1,0,0:0:0:0:
256,224,221765,1,2,0:0:0:0:
256,224,221937,1,0,0:0:0:0:
256,224,222109,1,0,0:0:0:0:
256,192,222282,1,0,0:0:0:0:
256,192,222368,1,0,0:0:0:0:
256,192,222454,1,2,0:0:0:0:
256,192,222627,1,0,0:0:0:0:
256,192,222799,1,0,0:0:0:0:
256,192,222971,1,2,0:0:0:0:
256,192,223058,1,0,0:0:0:0:
256,192,223144,1,2,0:0:0:0:
256,192,223316,1,2,0:0:0:0:
256,192,223489,1,0,0:0:0:0:
256,192,223575,1,2,0:0:0:0:
256,192,223661,1,0,0:0:0:0:
256,192,223747,1,0,0:0:0:0:
256,192,223833,1,2,0:0:0:0:
256,192,224006,1,0,0:0:0:0:
256,192,224179,1,0,0:0:0:0:
256,224,224524,1,2,0:0:0:0:
256,224,224696,1,0,0:0:0:0:
256,224,224868,1,0,0:0:0:0:
256,192,225041,1,0,0:0:0:0:
256,192,225127,1,0,0:0:0:0:
256,192,225213,1,2,0:0:0:0:
256,192,225386,1,0,0:0:0:0:
256,192,225558,1,0,0:0:0:0:
256,192,225730,1,0,0:0:0:0:
256,192,225817,1,0,0:0:0:0:
256,192,225903,1,2,0:0:0:0:
256,192,226075,1,0,0:0:0:0:
256,192,226248,1,0,0:0:0:0:
256,192,226334,1,0,0:0:0:0:
256,192,226420,1,2,0:0:0:0:
256,192,226506,1,0,0:0:0:0:
256,192,226592,1,2,0:0:0:0:
256,192,226938,1,0,0:0:0:0:
256,224,227110,1,0,0:0:0:0:
256,224,227283,1,2,0:0:0:0:
256,224,227455,1,0,0:0:0:0:
256,224,227627,1,0,0:0:0:0:
256,192,227800,1,0,0:0:0:0:
256,192,227886,1,0,0:0:0:0:
256,192,227972,1,2,0:0:0:0:
256,192,228145,1,0,0:0:0:0:
256,192,228317,1,0,0:0:0:0:
256,192,228489,1,0,0:0:0:0:
256,192,228576,1,0,0:0:0:0:
256,192,228662,1,2,0:0:0:0:
256,192,228834,1,2,0:0:0:0:
256,192,229007,1,0,0:0:0:0:
256,192,229093,1,2,0:0:0:0:
256,192,229179,1,0,0:0:0:0:
256,192,229265,1,0,0:0:0:0:
256,192,229351,1,2,0:0:0:0:
256,192,229524,1,0,0:0:0:0:
256,192,229696,1,0,0:0:0:0:
256,224,229868,1,0,0:0:0:0:
256,224,230041,1,2,0:0:0:0:
256,192,230213,1,2,0:0:0:0:
256,192,230300,1,2,0:0:0:0:
256,192,230386,1,2,0:0:0:0:
256,192,230558,1,0,0:0:0:0:
256,192,230730,1,2,0:0:0:0:
256,192,231075,1,0,0:0:0:0:
256,192,231247,1,0,0:0:0:0:
256,192,231420,1,2,0:0:0:0:
256,192,231592,1,2,0:0:0:0:
256,192,231679,1,2,0:0:0:0:
256,192,231765,1,2,0:0:0:0:
256,192,231937,1,0,0:0:0:0:
256,192,232109,1,2,0:0:0:0:
256,192,232282,1,2,0:0:0:0:
256,192,232455,1,0,0:0:0:0:
256,224,232627,1,0,0:0:0:0:
256,224,232800,1,2,0:0:0:0:
256,224,232972,5,2,0:0:0:0:
256,224,233058,1,0,0:0:0:0:
256,224,233144,1,2,0:0:0:0:
256,192,233317,1,0,0:0:0:0:
256,192,233489,1,2,0:0:0:0:
256,192,233834,1,0,0:0:0:0:
256,192,234006,1,0,0:0:0:0:
256,192,234093,1,0,0:0:0:0:
256,192,234179,1,2,0:0:0:0:
256,192,234351,1,2,0:0:0:0:
256,192,234438,1,0,0:0:0:0:
256,192,234610,1,2,0:0:0:0:
256,192,234696,1,0,0:0:0:0:
256,192,234782,1,0,0:0:0:0:
256,192,234868,1,2,0:0:0:0:
256,192,235041,1,0,0:0:0:0:
256,192,235213,1,0,0:0:0:0:
256,224,235385,1,2,0:0:0:0:
256,192,235472,1,0,0:0:0:0:
256,224,235558,1,2,0:0:0:0:
256,192,235731,1,2,0:0:0:0:
256,224,235902,1,2,0:0:0:0:
256,192,236075,1,0,0:0:0:0:
256,192,236247,1,2,0:0:0:0:
256,192,236592,1,0,0:0:0:0:
256,192,236764,1,0,0:0:0:0:
256,192,236937,1,2,0:0:0:0:
256,192,237109,1,2,0:0:0:0:
256,192,237282,1,0,0:0:0:0:
256,192,237454,1,2,0:0:0:0:
256,192,237626,1,2,0:0:0:0:
256,192,237799,1,0,0:0:0:0:
256,192,237972,1,0,0:0:0:0:
256,224,238144,1,0,0:0:0:0:
256,224,238317,1,2,0:0:0:0:
256,192,238834,1,0,0:0:0:0:
256,192,239006,1,2,0:0:0:0:
256,192,239351,1,0,0:0:0:0:
256,192,239523,1,0,0:0:0:0:
256,192,239696,1,2,0:0:0:0:
256,192,239868,1,2,0:0:0:0:
256,192,240041,1,0,0:0:0:0:
256,192,240213,1,2,0:0:0:0:
256,192,240300,1,0,0:0:0:0:
256,192,240385,1,2,0:0:0:0:
256,192,240558,1,0,0:0:0:0:
256,192,240731,1,0,0:0:0:0:
256,192,243144,1,0,0:0:0:0:
256,192,243489,1,2,0:0:0:0:
256,192,245386,1,2,0:0:0:0:
256,192,245903,1,0,0:0:0:0:
256,192,246248,1,2,0:0:0:0:
256,192,248662,1,0,0:0:0:0:
256,192,249007,1,0,0:0:0:0:
256,192,250041,1,2,0:0:0:0:
256,192,250386,1,2,0:0:0:0:
256,192,251075,1,0,0:0:0:0:
256,192,251765,1,2,0:0:0:0:
256,192,254524,1,0,0:0:0:0:
256,192,254567,1,0,0:0:0:0:
256,192,255903,1,2,0:0:0:0:
256,192,255946,1,2,0:0:0:0:
256,192,256593,1,0,0:0:0:0:
256,192,256636,1,0,0:0:0:0:
256,192,257282,1,0,0:0:0:0:
256,192,257325,1,0,0:0:0:0:
256,192,260041,1,2,0:0:0:0:
256,192,260084,1,2,0:0:0:0:
256,192,261420,1,2,0:0:0:0:
256,192,261463,1,2,0:0:0:0:
