osu file format v14

[General]
AudioFilename: audio.mp3
AudioLeadIn: 0
PreviewTime: 60467
Countdown: 0
SampleSet: Soft
StackLeniency: 0.7
Mode: 0
LetterboxInBreaks: 0
WidescreenStoryboard: 1

[Editor]
Bookmarks: 15373,27009,40100,50281,59009,73554,85191,89554,95373,108463,120099,125917,131735,143371,156371,169554,181188,191373,192827,214553,237918,243733,255188,261551
DistanceSpacing: 0.75
BeatDivisor: 4
GridSize: 32
TimelineZoom: 2.2

[Metadata]
Title:Compute It With Some Devilish Alcoholic Steampunk Engines
TitleUnicode:Compute It With Some Devilish Alcoholic Steampunk Engines
Artist:Camellia
ArtistUnicode:かめりあ
Creator:OneShotFox
Version:banter's Insane
Source:
Tags:F4UZ4N jaybone banter Tera i/o Hardcore Swing ElectroSwing 100k twitter followers featured artist electronic instrumental fa techno
BeatmapID:2648002
BeatmapSetID:1268030

[Difficulty]
HPDrainRate:4.4
CircleSize:3.8
OverallDifficulty:8
ApproachRate:9
SliderMultiplier:1.7
SliderTickRate:1

[Events]
//Background and Video events
0,0,"110455.jpg",0,0
//Break Periods
2,89804,94822
2,131986,142822
//Storyboard Layer 0 (Background)
//Storyboard Layer 1 (Fail)
//Storyboard Layer 2 (Pass)
//Storyboard Layer 3 (Foreground)
//Storyboard Layer 4 (Overlay)
//Storyboard Sound Samples

[TimingPoints]
3423,363.636363636364,4,2,2,45,1,0
3423,-133.333333333333,4,2,2,45,0,0
3786,363.636363636364,4,2,2,45,1,0
3967,-133.333333333333,4,2,2,45,0,0
13967,-133.333333333333,4,2,3,45,0,0
14149,-111.111111111111,4,2,3,45,0,0
14786,-111.111111111111,4,2,3,60,0,0
15422,-111.111111111111,4,2,2,50,0,0
16240,-100,4,2,2,50,0,0
21240,-100,4,2,2,60,0,0
25513,-83.3333333333333,4,2,1,60,0,0
27058,-83.3333333333333,4,2,1,65,0,0
27422,-95.2380952380952,4,2,1,65,0,0
28513,-95.2380952380952,4,2,3,65,0,0
37240,-95.2380952380952,4,2,1,60,0,0
37604,-166.666666666667,4,2,1,60,0,0
38513,-166.666666666667,4,2,1,65,0,0
39058,-90.9090909090909,4,2,1,65,0,0
48876,-90.9090909090909,4,2,2,65,0,0
50331,-90.9090909090909,4,2,1,65,0,0
55331,-90.9090909090909,4,2,2,65,0,0
55786,-117.647058823529,4,2,3,65,0,0
56513,-90.9090909090909,4,2,3,65,0,0
59058,-80,4,2,1,65,0,0
60513,-95.2380952380952,4,2,1,65,0,0
61240,-95.2380952380951,4,2,1,65,0,0
61513,-95.2380952380952,4,2,1,65,0,0
61967,-86.9565217391304,4,2,1,75,0,1
72058,-80,4,2,1,80,0,0
72604,-117.647058823529,4,2,1,60,0,0
73604,-90.9090909090909,4,2,1,70,0,0
75149,-90.9090909090909,4,2,1,65,0,0
77967,-83.3333333333333,4,2,1,65,0,0
78331,-90.9090909090909,4,2,1,65,0,0
78695,-100,4,2,1,65,0,0
79058,-111.111111111111,4,2,1,65,0,0
79422,-90.9090909090909,4,2,1,65,0,0
83695,-83.3333333333333,4,2,1,75,0,0
84240,-83.3333333333333,4,2,1,55,0,0
84422,-100,4,2,1,55,0,0
85058,-100,4,2,1,80,0,0
96513,-83.3333333333333,4,2,1,60,0,0
96876,-95.2380952380952,4,2,1,65,0,0
101967,-90.9090909090909,4,2,1,65,0,0
103422,-100,4,2,1,65,0,0
106695,-86.9565217391304,4,2,1,65,0,0
107058,-95.2380952380952,4,2,1,60,0,0
107967,-95.2380952380952,4,2,1,60,0,0
108058,-95.2380952380952,4,2,3,60,0,0
108513,-80,4,2,3,70,0,0
113967,-80,4,2,1,70,0,0
118876,-80,4,2,1,30,0,0
119513,-80,4,2,1,70,0,0
119786,-100,4,2,1,70,0,0
120149,-76.9230769230769,4,2,1,70,0,0
126149,-76.9230769230769,4,2,1,60,0,0
144876,-76.9230769230769,4,2,1,80,0,0
146058,-100,4,2,1,80,0,0
146331,-100,4,2,1,50,0,0
146695,-100,4,2,2,50,0,0
147149,-95.2380952380952,4,2,2,50,0,0
156422,-83.3333333333333,4,2,1,60,0,0
158331,-95.2380952380952,4,2,1,60,0,0
159422,-95.2380952380952,4,2,3,60,0,0
163786,-86.9565217391304,4,2,1,60,0,0
166695,-71.4285714285714,4,2,1,70,0,0
168513,-166.666666666667,4,2,1,70,0,0
169422,-166.666666666667,4,2,1,60,0,0
169604,-83.3333333333333,4,2,1,70,0,0
175058,-83.3333333333333,4,2,2,70,0,0
175786,-83.3333333333333,4,2,1,70,0,0
186240,-100,4,2,1,70,0,0
186513,-80,4,2,1,70,0,0
189967,-76.9230769230769,4,2,1,70,0,0
191422,-95.2380952380952,4,2,1,70,0,0
192876,-80,4,2,1,70,0,1
203786,-74.0740740740741,4,2,1,70,0,1
205786,-76.9230769230769,4,2,1,70,0,1
209058,-74.0740740740741,4,2,1,70,0,1
209422,-80,4,2,1,70,0,1
209786,-86.9565217391304,4,2,1,70,0,1
210149,-95.2380952380952,4,2,1,70,0,1
210331,-95.2380952380952,4,2,1,60,0,0
210695,-95.2380952380952,4,2,1,70,0,1
211786,-76.9230769230769,4,2,1,70,0,1
214604,-83.3333333333333,4,2,1,60,0,0
216149,-76.9230769230769,4,2,1,60,0,1
218967,-100,4,2,2,60,0,0
221967,-76.9230769230769,4,2,1,60,0,1
224786,-100,4,2,2,60,0,0
226331,-100,4,2,1,60,0,1
226876,-83.3333333333333,4,2,1,60,0,1
228786,-100,4,2,2,60,0,0
229240,-100,4,2,1,60,0,1
229786,-83.3333333333333,4,2,1,60,0,1
231695,-83.3333333333333,4,2,3,60,0,0
231786,-83.3333333333333,4,2,3,60,0,0
232149,-83.3333333333333,4,2,1,60,0,1
234604,-100,4,2,2,60,0,0
235058,-100,4,2,1,60,0,1
235604,-76.9230769230769,4,2,1,60,0,1
236513,-71.4285714285714,4,2,1,60,0,1
237240,-95.2380952380951,4,2,3,60,0,1
237604,-95.2380952380951,4,2,1,60,0,1
237967,-100,4,2,1,60,0,0
243786,-83.3333333333333,4,2,1,60,0,0
248149,-68.9655172413793,4,2,1,70,0,0
248876,-74.0740740740741,4,2,1,70,0,0
253604,-66.6666666666667,4,2,1,85,0,0
258238,-66.6666666666667,4,2,1,50,0,0
258965,-66.6666666666667,4,2,1,40,0,0
260056,-66.6666666666667,4,2,1,30,0,0
260601,-66.6666666666667,4,2,1,15,0,0
261513,-66.6666666666667,4,2,1,60,0,0

[Colours]
Combo1 : 137,231,209
Combo2 : 116,183,94
Combo3 : 137,156,158

[HitObjects]
71,96,3423,6,0,L|66:64,3,31.8750000000001,2|2|2|2,3:2|3:2|3:2|3:2,0:0:0:0:
61,39,3786,1,6,3:2:0:0:
155,70,3967,2,0,L|243:79,1,63.7500000000002,0|0,0:0|2:0,0:0:0:0:
179,153,4331,2,0,L|267:162,1,63.7500000000002,0|0,2:0|2:0,0:0:0:0:
203,236,4695,2,0,L|291:245,1,63.7500000000002,0|0,2:0|2:0,0:0:0:0:
227,319,5058,6,0,L|315:328,1,63.7500000000002,0|0,2:0|2:0,0:0:0:0:
315,307,5331,1,2,2:0:0:0:
315,307,5422,2,0,L|403:298,1,63.7500000000002,2|2,2:0|2:0,2:0:0:0:
405,297,5695,2,0,L|397:352,2,31.8750000000001,2|0|2,2:0|2:0|2:0,2:0:0:0:
472,243,5967,2,0,L|464:188,2,31.8750000000001,2|0|2,2:0|2:0|2:0,2:0:0:0:
380,212,6240,2,0,P|364:175|369:127,1,63.7500000000002,2|0,2:0|0:0,0:0:0:0:
381,133,6513,2,0,P|388:112|388:90,1,31.8750000000001,0|2,2:0|2:0,0:0:0:0:
381,75,6695,2,0,P|344:59|296:64,1,63.7500000000002,2|0,2:0|2:0,2:0:0:0:
227,127,7058,6,0,L|233:165,2,31.8750012159348,0|0|0,2:0|2:0|2:0,0:0:0:0:
149,43,7422,1,0,2:0:0:0:
149,43,7513,1,0,2:0:0:0:
149,43,7604,2,0,L|140:88,1,31.8750012159348,0|0,2:0|0:0,0:0:0:0:
135,155,7786,2,0,L|97:161,2,31.8750012159348,0|0|0,2:0|2:0|2:0,0:0:0:0:
49,94,8149,6,0,P|17:119|16:177,1,95.6250000000002,2|0,2:0|2:0,2:0:0:0:
30,190,8513,2,0,P|47:237|46:292,1,95.6250036478044,2|0,2:0|2:0,2:0:0:0:
35,306,8876,2,0,P|90:298|134:301,1,95.6250000000002,2|0,2:0|2:0,2:0:0:0:
172,298,9240,2,0,P|180:333|152:311,1,95.6250000000002,2|0,2:0|2:0,2:0:0:0:
149,277,9604,6,0,L|143:233,2,31.8750000000001,0|0|0,2:0|2:0|2:0,2:0:0:0:
233,194,9967,2,0,L|228:225,2,31.8750000000001,0|0|2,2:0|2:0|2:0,0:0:0:0:
295,297,10331,1,2,2:0:0:0:
311,302,10422,1,2,2:0:0:0:
328,302,10513,1,2,2:0:0:0:
345,298,10604,1,2,2:0:0:0:
360,289,10695,6,0,L|363:237,1,31.8750000000001,2|2,2:0|2:0,0:0:0:0:
443,252,10876,2,0,L|440:200,1,31.8750000000001,2|2,2:0|2:0,0:0:0:0:
367,140,11058,1,2,2:0:0:0:
367,140,11149,1,2,2:0:0:0:
367,140,11240,2,0,L|363:193,1,31.8750000000001,2|2,2:0|2:0,0:0:0:0:
283,215,11422,1,2,2:0:0:0:
283,215,11513,2,0,P|240:216|200:202,1,63.7500000000002,2|2,2:0|2:0,2:0:0:0:
119,233,11786,2,0,P|119:215|129:179,3,31.8750012159348,2|2|2|2,2:0|2:0|2:0|2:0,0:0:0:0:
148,170,12149,2,0,L|198:167,1,31.8750000000001,2|2,2:0|2:0,0:0:0:0:
236,98,12331,5,2,2:0:0:0:
208,92,12422,1,2,2:0:0:0:
181,87,12513,1,6,2:0:0:0:
274,21,12695,1,0,0:0:0:0:
318,139,12876,2,0,L|321:107,2,31.8750000000001,0|0|0,2:0|2:0|2:0,2:0:0:0:
389,25,13240,1,2,2:0:0:0:
389,25,13331,1,2,2:0:0:0:
389,25,13422,2,0,L|395:74,1,31.8750000000001,2|2,2:0|2:0,0:0:0:0:
419,144,13604,1,2,2:0:0:0:
441,152,13695,1,2,2:0:0:0:
464,153,13786,1,2,2:0:0:0:
327,220,13967,5,8,2:0:0:0:
251,111,14149,2,0,L|204:105,1,38.25,8|8,2:0|2:0,2:0:0:0:
130,94,14331,2,0,L|125:56,2,38.25,8|8|8,2:0|2:0|2:0,2:0:0:0:
69,157,14604,1,2,0:0:0:0:
69,157,14695,1,2,0:0:0:0:
69,157,14786,2,0,L|63:204,1,38.25,10|2,2:0|3:2,0:0:0:0:
35,278,14967,2,0,L|129:266,1,76.5000000000001,0|0,3:2|3:2,0:0:0:0:
136,242,15240,1,0,3:2:0:0:
163,245,15331,1,0,3:2:0:0:
191,249,15422,5,6,2:0:0:0:
288,345,15604,1,2,2:0:0:0:
266,211,15786,1,2,2:0:0:0:
206,333,15967,1,2,2:0:0:0:
327,270,16149,1,2,2:0:0:0:
327,270,16240,2,0,L|387:265,1,42.5,2|2,2:0|2:0,0:0:0:0:
454,291,16422,2,0,L|457:248,1,42.5,2|0,2:0|2:0,2:0:0:0:
365,224,16604,2,0,L|368:266,1,42.5,2|0,2:0|2:0,2:0:0:0:
428,168,16786,6,0,P|384:141|308:164,1,127.5,2|2,2:0|2:0,2:0:0:0:
265,225,17149,1,2,2:0:0:0:
265,225,17240,2,0,P|217:245|161:227,1,85,2|2,2:0|2:0,0:0:0:0:
112,288,17513,1,2,2:0:0:0:
112,288,17604,2,0,L|100:195,1,85,2|2,2:0|2:0,0:0:0:0:
175,157,17876,1,2,2:0:0:0:
175,157,17967,2,0,L|180:199,1,42.5,2|2,2:0|2:0,0:0:0:0:
196,285,18149,2,0,L|201:327,1,42.5,2|2,2:0|2:0,0:0:0:0:
273,384,18331,5,2,2:0:0:0:
390,306,18513,1,2,2:0:0:0:
264,244,18695,1,2,2:0:0:0:
309,312,18876,1,2,2:0:0:0:
425,232,19058,1,2,2:0:0:0:
425,232,19149,2,0,P|433:204|429:172,1,42.5,2|0,2:0|2:0,2:0:0:0:
503,142,19331,2,0,P|482:121|453:108,1,42.5,2|0,2:0|2:0,2:0:0:0:
383,122,19513,2,0,P|364:131|343:135,1,42.5,2|2,2:0|2:0,2:0:0:0:
282,194,19695,6,0,P|261:148|269:92,1,85,2|2,2:0|2:0,2:0:0:0:
284,35,19967,2,0,P|261:70|225:92,1,85,2|2,2:0|2:0,2:0:0:0:
106,101,20331,1,0,2:0:0:0:
182,180,20513,2,0,B|197:221|197:221|187:267,1,85,2|0,2:0|2:0,2:0:0:0:
263,294,20786,2,0,B|222:279|222:279|176:289,1,85,2|0,2:0|0:0,0:0:0:0:
99,311,21058,1,2,2:0:0:0:
216,367,21240,5,4,2:0:0:0:
274,211,21422,1,2,2:0:0:0:
380,339,21604,1,2,2:0:0:0:
245,289,21786,1,2,2:0:0:0:
357,198,21967,1,2,2:0:0:0:
357,198,22058,2,0,L|367:255,1,42.5,2|0,2:0|2:0,2:0:0:0:
442,276,22240,2,0,L|449:234,1,42.5,2|0,2:0|2:0,2:0:0:0:
512,182,22422,2,0,L|504:140,1,42.5,2|0,2:0|2:0,2:0:0:0:
512,60,22604,6,0,B|447:47|460:95|391:85,1,127.5,2|2,2:0|2:0,2:0:0:0:
310,119,22967,1,2,2:0:0:0:
310,119,23058,2,0,L|303:66,3,42.5,2|2|2|2,2:0|2:0|2:0|2:0,0:0:0:0:
240,26,23422,1,2,2:0:0:0:
211,11,23513,1,2,2:0:0:0:
180,5,23604,1,2,2:0:0:0:
149,8,23695,1,2,2:0:0:0:
120,21,23786,2,0,P|92:31|68:31,3,42.5,2|2|2|2,2:0|2:0|2:0|2:0,0:0:0:0:
45,24,24149,5,2,2:0:0:0:
177,102,24331,1,2,2:0:0:0:
43,177,24513,1,2,2:0:0:0:
89,101,24695,1,2,2:0:0:0:
175,256,24876,1,2,2:0:0:0:
175,256,24967,2,0,L|182:318,1,42.5,2|0,2:0|2:0,2:0:0:0:
229,193,25149,2,0,L|291:186,1,42.5,2|0,2:0|2:0,2:0:0:0:
106,207,25331,2,0,L|44:215,1,42.5,2|0,2:0|2:0,2:0:0:0:
140,368,25513,6,0,B|189:381|189:381|247:355,1,102,6|0,3:2|2:0,2:0:0:0:
228,277,25786,2,0,B|181:297|181:297|132:284,1,102,6|0,3:2|2:0,2:0:0:0:
256,192,26058,12,0,26967,2:0:0:0:
333,112,27058,5,0,3:2:0:0:
336,132,27149,1,0,2:0:0:0:
339,153,27240,1,0,2:0:0:0:
343,174,27331,1,0,2:0:0:0:
346,195,27422,2,0,L|341:248,3,44.625,0|0|0|0,3:2|2:0|2:0|2:0,2:0:0:0:
337,266,27786,2,0,B|317:285|317:285|249:280,1,89.25,0|0,3:2|2:0,2:0:0:0:
236,263,28058,1,0,2:0:0:0:
236,263,28149,2,0,B|216:244|216:244|148:249,1,89.25,0|0,3:2|2:0,2:0:0:0:
78,103,28513,5,8,3:2:0:0:
62,118,28604,1,8,2:0:0:0:
51,138,28695,1,8,2:0:0:0:
48,160,28786,1,8,2:0:0:0:
53,181,28876,2,0,L|124:172,1,44.625,8|0,3:2|2:0,2:0:0:0:
155,109,29058,2,0,L|226:118,1,44.625,8|0,2:0|2:0,2:0:0:0:
273,60,29240,1,8,3:2:0:0:
296,58,29331,1,8,2:0:0:0:
318,62,29422,1,8,2:0:0:0:
339,74,29513,1,8,2:0:0:0:
355,90,29604,2,0,L|347:150,1,44.625,8|0,3:2|2:0,2:0:0:0:
331,234,29786,1,8,2:0:0:0:
440,146,29967,5,0,3:2:0:0:
266,170,30149,1,0,2:0:0:0:
371,328,30331,1,0,3:2:0:0:
371,328,30422,1,0,2:0:0:0:
371,328,30513,1,0,2:0:0:0:
235,256,30695,1,0,3:2:0:0:
355,144,30876,1,0,2:0:0:0:
355,144,30967,1,0,2:0:0:0:
355,144,31058,2,0,L|345:208,1,44.625,0|0,3:2|2:0,0:0:0:0:
285,320,31240,1,0,2:0:0:0:
178,183,31422,5,2,3:2:0:0:
158,170,31513,1,2,2:0:0:0:
135,163,31604,1,2,2:0:0:0:
112,163,31695,1,2,2:0:0:0:
90,169,31786,2,0,L|85:226,1,44.625,2|2,3:2|2:0,0:0:0:0:
77,300,31967,1,2,2:0:0:0:
74,321,32058,1,2,2:0:0:0:
70,342,32149,2,0,L|168:337,1,89.25,2|2,3:2|2:0,0:0:0:0:
289,346,32513,1,0,3:2:0:0:
287,333,32604,1,0,2:0:0:0:
285,320,32695,1,0,2:0:0:0:
264,180,32876,5,0,3:2:0:0:
224,258,33058,1,0,3:2:0:0:
363,280,33240,1,0,3:2:0:0:
349,194,33422,1,0,3:2:0:0:
285,320,33604,1,0,3:2:0:0:
430,224,33786,1,0,3:2:0:0:
264,180,33967,1,0,3:2:0:0:
363,280,34149,1,0,3:2:0:0:
318,113,34331,5,0,3:2:0:0:
224,258,34513,1,0,3:2:0:0:
349,194,34695,1,0,3:2:0:0:
176,184,34876,1,0,3:2:0:0:
285,320,35058,1,0,3:2:0:0:
264,180,35240,1,0,3:2:0:0:
200,341,35422,1,0,3:2:0:0:
363,280,35604,1,0,3:2:0:0:
137,284,35786,6,0,P|120:308|121:357,3,44.625,2|2|2|2,2:0|2:0|2:0|2:0,0:0:0:0:
129,193,36149,2,0,P|99:201|66:233,3,44.625,2|2|2|2,2:0|2:0|2:0|2:0,0:0:0:0:
190,100,36513,2,0,P|166:85|117:83,3,44.625,2|2|2|2,2:0|2:0|2:0|2:0,0:0:0:0:
251,178,36876,1,2,2:0:0:0:
294,193,36967,1,2,2:0:0:0:
341,192,37058,1,2,2:0:0:0:
384,173,37149,1,2,2:0:0:0:
417,141,37240,5,4,3:1:0:0:
417,141,37604,2,0,B|383:104|383:104|400:253,1,178.5,0|0,0:0|3:2,0:0:0:0:
402,266,38331,1,0,3:2:0:0:
406,292,38422,1,0,3:2:0:0:
410,319,38513,1,0,3:2:0:0:
99,369,38695,5,6,3:2:0:0:
105,329,38786,1,2,2:0:0:0:
111,289,38876,1,2,2:0:0:0:
217,203,39058,2,0,L|226:321,1,93.5,2|0,3:2|2:0,2:0:0:0:
133,151,39422,2,0,L|129:197,1,46.75,2|0,3:2|2:0,2:0:0:0:
222,125,39604,1,2,2:0:0:0:
222,125,39695,2,0,L|225:171,1,46.75,2|0,2:0|3:2,2:0:0:0:
150,70,39876,1,2,2:0:0:0:
150,70,39967,2,0,L|103:66,1,46.75,2|0,2:0|2:0,2:0:0:0:
230,42,40149,5,2,3:2:0:0:
270,36,40240,1,2,2:0:0:0:
310,30,40331,1,2,2:0:0:0:
405,127,40513,2,0,L|287:118,1,93.5,2|0,3:2|2:0,2:0:0:0:
470,63,40876,2,0,P|493:110|479:179,1,93.5,6|0,3:2|2:0,2:0:0:0:
431,208,41149,2,0,P|408:255|422:324,1,93.5,6|0,3:2|2:0,2:0:0:0:
479,341,41422,2,0,P|489:361|492:388,1,46.75,6|0,3:2|2:0,2:0:0:0:
342,341,41604,5,6,3:2:0:0:
302,335,41695,1,2,2:0:0:0:
262,329,41786,1,2,2:0:0:0:
308,153,41967,2,0,L|317:271,1,93.5,2|0,3:2|2:0,2:0:0:0:
217,66,42331,2,0,L|220:112,1,46.75,2|0,3:2|2:0,2:0:0:0:
231,242,42513,1,2,2:0:0:0:
231,242,42604,2,0,L|227:195,1,46.75,2|0,2:0|3:2,2:0:0:0:
149,213,42786,1,2,2:0:0:0:
149,213,42876,2,0,L|144:154,1,46.75,2|0,2:0|2:0,2:0:0:0:
137,81,43058,6,0,B|69:69|69:69|9:109,1,140.25,2|2,3:2|2:0,2:0:0:0:
62,186,43422,1,2,3:2:0:0:
62,186,43513,2,0,L|76:286,1,93.5,2|0,2:0|0:0,0:0:0:0:
94,358,43786,1,2,3:2:0:0:
231,242,43967,1,2,3:2:0:0:
17,335,44149,1,2,3:2:0:0:
211,322,44331,1,2,3:2:0:0:
137,133,44513,5,6,3:2:0:0:
143,173,44604,1,2,2:0:0:0:
149,213,44695,1,2,2:0:0:0:
302,300,44876,2,0,L|309:206,1,93.5,2|0,3:2|2:0,2:0:0:0:
446,305,45240,2,0,L|399:301,1,46.75,2|0,3:2|2:0,2:0:0:0:
430,224,45422,1,2,2:0:0:0:
430,224,45513,2,0,L|476:227,1,46.75,2|0,2:0|3:2,2:0:0:0:
506,149,45695,1,2,2:0:0:0:
506,149,45786,2,0,L|460:146,1,46.75,2|0,2:0|2:0,2:0:0:0:
366,73,45967,5,2,3:2:0:0:
372,113,46058,1,2,2:0:0:0:
378,153,46149,1,2,2:0:0:0:
247,242,46331,2,0,L|254:148,1,93.5,2|0,3:2|2:0,2:0:0:0:
231,16,46695,2,0,P|180:21|133:51,1,93.5,6|0,3:2|2:0,2:0:0:0:
77,0,46967,2,0,P|55:46|58:102,1,93.5,6|0,3:2|2:0,2:0:0:0:
1,150,47240,2,0,P|14:169|36:185,1,46.75,6|0,3:2|2:0,2:0:0:0:
133,235,47422,5,6,3:2:0:0:
127,195,47513,1,2,2:0:0:0:
121,155,47604,1,2,2:0:0:0:
79,319,47786,2,0,L|172:326,1,93.5,2|0,3:2|2:0,2:0:0:0:
280,244,48149,2,0,L|233:247,1,46.75,2|0,3:2|2:0,2:0:0:0:
363,284,48331,1,2,2:0:0:0:
363,284,48422,2,0,L|332:319,1,46.75,2|0,2:0|3:2,2:0:0:0:
450,254,48604,1,2,2:0:0:0:
450,254,48695,2,0,L|453:300,1,46.75,2|0,2:0|2:0,2:0:0:0:
376,194,48876,5,10,3:2:0:0:
256,192,48967,12,0,50240,2:0:0:0:
183,130,50331,5,6,3:2:0:0:
189,171,50422,1,2,0:0:0:0:
195,213,50513,1,2,2:0:0:0:
368,193,50695,2,0,P|329:170|267:180,1,93.5,10|2,3:2|2:0,2:0:0:0:
438,241,51058,2,0,P|450:218|447:173,1,46.75,2|0,3:2|2:0,2:0:0:0:
411,122,51240,1,2,2:0:0:0:
411,122,51331,2,0,P|399:101|396:78,1,46.75,2|8,2:0|3:2,2:0:0:0:
510,43,51513,1,2,2:0:0:0:
510,43,51604,2,0,P|497:62|479:77,1,46.75,2|0,2:0|2:0,2:0:0:0:
338,25,51786,5,2,3:2:0:0:
373,3,51876,1,2,2:0:0:0:
414,1,51967,1,2,2:0:0:0:
314,106,52149,2,0,P|267:108|228:85,1,93.5,10|2,3:2|2:0,2:0:0:0:
68,10,52513,2,0,P|93:48|93:94,1,93.5,6|0,3:2|2:0,2:0:0:0:
163,156,52786,2,0,P|153:201|121:233,1,93.5,6|0,3:2|2:0,2:0:0:0:
136,321,53058,2,0,P|115:333|90:335,1,46.75,6|0,3:2|2:0,2:0:0:0:
0,365,53240,5,6,3:2:0:0:
6,323,53331,1,2,2:0:0:0:
12,282,53422,1,2,2:0:0:0:
220,268,53604,2,0,L|233:361,1,93.5,10|2,3:2|2:0,2:0:0:0:
120,233,53967,2,0,L|126:186,1,46.75,2|0,3:2|2:0,2:0:0:0:
88,103,54149,1,2,2:0:0:0:
88,103,54240,2,0,L|134:96,1,46.75,2|8,2:0|3:2,2:0:0:0:
186,22,54422,1,2,2:0:0:0:
186,22,54513,2,0,L|232:28,1,46.75,2|0,2:0|2:0,2:0:0:0:
275,113,54695,6,0,P|341:129|409:84,1,140.25,2|2,3:2|3:2,2:0:0:0:
505,84,55058,1,2,3:2:0:0:
505,84,55149,2,0,P|488:111|491:154,1,46.75,0|2,2:0|2:0,0:0:0:0:
452,258,55331,6,0,B|424:193|424:193|368:244,1,140.25,2|10,3:2|3:2,2:0:0:0:
315,307,55695,1,0,2:0:0:0:
315,307,55786,2,0,L|258:315,3,36.1250000000001,8|8|8|8,2:0|2:0|2:0|2:0,2:0:0:0:
221,372,56149,5,6,3:2:0:0:
199,337,56240,1,2,2:0:0:0:
197,296,56331,1,2,2:0:0:0:
246,131,56513,2,0,P|269:170|266:216,1,93.5,2|2,3:2|2:0,2:0:0:0:
106,273,56876,2,0,L|41:267,1,46.75,2|0,3:2|2:0,2:0:0:0:
178,210,57058,1,2,2:0:0:0:
178,210,57149,2,0,L|243:204,1,46.75,2|0,2:0|3:2,0:0:0:0:
106,147,57331,1,2,2:0:0:0:
106,147,57422,2,0,L|41:141,1,46.75,2|0,2:0|2:0,2:0:0:0:
171,81,57604,5,2,3:2:0:0:
212,75,57695,1,2,2:0:0:0:
254,69,57786,1,2,2:0:0:0:
407,24,57967,2,0,L|392:116,1,93.5,2|0,3:2|2:0,2:0:0:0:
451,271,58331,2,0,P|409:242|341:247,1,93.5,2|0,3:2|2:0,0:0:0:0:
289,205,58604,2,0,P|283:251|302:294,1,93.5,2|2,2:0|2:0,0:0:0:0:
357,359,58876,2,0,P|372:342|382:321,1,46.75,2|0,2:0|2:0,2:0:0:0:
301,293,59058,6,0,B|255:298|255:298|250:304|250:304|196:310,1,106.25,6|0,3:2|2:0,2:0:0:0:
143,368,59331,2,0,P|118:318|129:269,1,106.25,6|0,3:2|2:0,2:0:0:0:
197,227,59604,1,6,3:2:0:0:
197,227,59695,1,0,2:0:0:0:
197,227,59786,2,0,P|222:177|211:128,1,106.25,6|0,3:2|2:0,2:0:0:0:
232,49,60058,2,0,P|180:50|141:84,1,106.25,6|0,3:2|2:0,2:0:0:0:
143,170,60331,1,6,3:2:0:0:
143,170,60422,1,0,2:0:0:0:
143,170,60513,6,0,L|218:158,3,44.625,2|2|2|2,2:0|2:0|2:0|2:0,0:0:0:0:
245,100,60876,1,2,2:0:0:0:
261,122,60967,1,2,2:0:0:0:
268,148,61058,1,2,2:0:0:0:
268,175,61149,1,2,2:0:0:0:
260,200,61240,2,0,P|240:223|208:241,1,44.6250000000001,2|2,2:0|2:0,2:0:0:0:
188,312,61422,1,2,2:0:0:0:
188,312,61513,2,0,P|153:284|109:283,1,89.25,2|0,2:0|2:0,2:0:0:0:
25,269,61786,2,0,L|33:224,1,44.625,2|0,2:0|2:0,2:0:0:0:
10,103,61967,6,0,L|116:113,1,97.75,6|2,3:2|2:0,2:0:0:0:
260,110,62331,2,0,L|268:61,1,48.875,10|0,3:2|2:0,2:0:0:0:
185,72,62513,2,0,L|193:23,1,48.875,2|0,2:0|2:0,2:0:0:0:
107,112,62695,1,2,3:2:0:0:
107,112,62786,2,0,L|115:160,1,48.875,2|0,2:0|2:0,2:0:0:0:
190,260,62967,2,0,L|198:308,1,48.875,2|8,2:0|3:2,2:0:0:0:
101,257,63149,2,0,L|119:357,1,97.75,2|2,2:0|2:0,2:0:0:0:
209,336,63422,6,0,P|258:317|333:332,1,97.75,0|2,3:2|2:0,0:0:0:0:
373,273,63695,1,2,2:0:0:0:
373,273,63786,2,0,P|385:300|387:333,3,48.875,10|2|2|2,3:2|2:0|2:0|2:0,0:0:0:0:
403,344,64149,1,2,3:2:0:0:
424,355,64240,1,2,2:0:0:0:
447,362,64331,1,2,2:0:0:0:
472,364,64422,1,2,2:0:0:0:
496,360,64513,2,0,P|515:311|500:236,1,97.75,10|2,3:2|2:0,0:0:0:0:
427,116,64876,5,2,3:2:0:0:
343,143,65058,1,2,2:0:0:0:
427,259,65240,1,10,3:2:0:0:
478,187,65422,1,2,2:0:0:0:
343,231,65604,1,2,3:2:0:0:
343,231,65695,2,0,L|275:220,1,48.875,2|0,2:0|2:0,2:0:0:0:
354,321,65876,2,0,L|306:311,1,48.875,2|8,2:0|3:2,2:0:0:0:
216,244,66058,2,0,L|120:224,1,97.75,2|2,2:0|2:0,2:0:0:0:
42,258,66331,6,0,L|34:197,1,48.875,2|0,3:2|2:0,2:0:0:0:
109,141,66513,2,0,L|115:189,1,48.875,2|2,2:0|2:0,0:0:0:0:
111,314,66695,2,0,P|72:341|24:345,1,97.75,10|2,3:2|2:0,2:0:0:0:
259,323,67058,2,0,P|302:343|330:383,1,97.75,2|2,3:2|2:0,2:0:0:0:
193,192,67422,2,0,P|189:143|209:100,1,97.75,10|2,3:2|3:2,2:0:0:0:
422,189,67786,6,0,L|314:171,1,97.75,2|2,3:2|2:0,2:0:0:0:
252,26,68149,2,0,L|260:96,1,48.875,10|0,3:2|2:0,2:0:0:0:
170,65,68331,2,0,L|178:135,1,48.875,2|0,2:0|2:0,2:0:0:0:
95,25,68513,1,2,3:2:0:0:
95,25,68604,2,0,L|46:19,1,48.875,2|0,2:0|2:0,2:0:0:0:
34,116,68786,2,0,L|82:110,1,48.875,2|8,2:0|3:2,2:0:0:0:
97,207,68967,2,0,L|0:195,1,97.75,2|2,2:0|2:0,2:0:0:0:
18,279,69240,6,0,P|49:318|49:367,1,97.75,0|2,3:2|2:0,0:0:0:0:
133,340,69513,1,2,2:0:0:0:
133,340,69604,2,0,P|159:330|201:330,3,48.875,10|2|2|2,3:2|2:0|2:0|2:0,0:0:0:0:
208,346,69967,1,2,3:2:0:0:
229,358,70058,1,2,2:0:0:0:
252,365,70149,1,2,2:0:0:0:
276,367,70240,1,2,2:0:0:0:
300,363,70331,2,0,L|311:256,1,97.75,10|2,3:2|2:0,0:0:0:0:
344,80,70695,5,2,3:2:0:0:
255,111,70876,1,2,2:0:0:0:
398,233,71058,1,10,3:2:0:0:
415,140,71240,1,2,2:0:0:0:
238,203,71422,1,2,3:2:0:0:
237,203,71513,2,0,L|231:265,1,48.875,2|0,2:0|2:0,2:0:0:0:
145,276,71695,2,0,L|139:227,1,48.875,2|8,2:0|3:2,2:0:0:0:
30,172,71876,2,0,L|78:166,1,48.875,2|0,2:0|2:0,2:0:0:0:
149,52,72058,6,0,B|175:99|175:99|159:164,1,106.25,6|0,3:2|2:0,2:0:0:0:
78,165,72331,2,0,B|52:118|52:118|68:53,1,106.25,6|0,3:2|2:0,2:0:0:0:
149,52,72604,2,0,L|210:62,3,36.1250000000001,2|2|2|2,2:0|2:0|2:0|2:0,2:0:0:0:
252,117,72967,2,0,L|313:107,1,36.1250000000001,2|2,2:0|2:0,0:0:0:0:
373,94,73149,1,2,2:0:0:0:
371,115,73240,1,2,2:0:0:0:
368,137,73331,1,2,2:0:0:0:
366,158,73422,1,2,2:0:0:0:
364,179,73513,1,2,2:0:0:0:
362,200,73604,6,0,L|295:187,1,46.75,6|2,3:2|2:0,0:0:0:0:
222,162,73786,2,0,L|239:253,1,93.5,2|0,2:0|3:2,2:0:0:0:
266,354,74149,1,0,2:0:0:0:
154,284,74331,1,2,3:2:0:0:
154,284,74422,1,2,2:0:0:0:
154,284,74513,2,0,P|104:310|53:302,1,93.5,2|0,2:0|3:2,2:0:0:0:
2,230,74876,1,0,2:0:0:0:
99,132,75058,5,2,3:2:0:0:
99,132,75149,2,0,L|89:228,1,93.5,2|0,2:0|2:0,2:0:0:0:
68,307,75422,1,2,3:2:0:0:
173,207,75604,1,2,2:0:0:0:
199,205,75695,1,2,2:0:0:0:
226,214,75786,1,2,3:2:0:0:
247,233,75876,1,2,2:0:0:0:
268,250,75967,1,2,2:0:0:0:
294,259,76058,1,2,2:0:0:0:
322,259,76149,2,0,L|333:156,1,93.5,2|0,3:2|2:0,2:0:0:0:
238,20,76513,6,0,L|250:79,1,46.75,2|0,3:2|2:0,2:0:0:0:
162,65,76695,2,0,L|174:124,1,46.75,2|2,2:0|2:0,2:0:0:0:
86,128,76876,1,2,3:2:0:0:
67,149,76967,1,2,2:0:0:0:
58,175,77058,1,2,2:0:0:0:
58,203,77149,1,2,2:0:0:0:
68,229,77240,1,2,3:2:0:0:
87,250,77331,1,2,2:0:0:0:
96,276,77422,1,2,2:0:0:0:
96,304,77513,1,2,2:0:0:0:
86,330,77604,2,0,L|19:342,1,46.75,2|2,3:2|2:0,0:0:0:0:
0,246,77786,2,0,L|46:254,1,46.75,2|0,2:0|2:0,2:0:0:0:
161,201,77967,6,0,P|199:255|165:341,1,153,4|0,3:2|2:0,2:0:0:0:
159,357,78331,2,0,P|217:335|304:349,1,140.25,4|0,3:2|2:0,2:0:0:0:
316,357,78695,2,0,P|391:373|458:365,1,127.5,4|0,3:2|2:0,2:0:0:0:
474,340,79058,2,0,P|443:308|454:356,1,114.75,4|0,3:2|2:0,2:0:0:0:
509,245,79422,6,0,P|464:227|414:231,1,93.5,6|0,3:2|0:0,2:0:0:0:
284,147,79786,1,0,3:2:0:0:
349,284,79967,1,0,2:0:0:0:
394,127,80149,2,0,L|404:63,1,46.75,2|0,3:2|2:0,2:0:0:0:
320,25,80331,1,2,2:0:0:0:
310,38,80422,1,2,2:0:0:0:
300,51,80513,2,0,L|236:41,1,46.75,2|2,3:2|2:0,2:0:0:0:
207,112,80695,2,0,L|143:102,1,46.75,2|2,2:0|2:0,2:0:0:0:
115,28,80876,5,2,3:2:0:0:
93,45,80967,1,2,2:0:0:0:
78,69,81058,1,2,2:0:0:0:
70,96,81149,1,2,2:0:0:0:
71,123,81240,1,2,3:2:0:0:
81,150,81331,2,0,L|139:143,1,46.75,2|0,2:0|2:0,2:0:0:0:
189,237,81513,2,0,L|131:230,1,46.75,2|0,2:0|3:2,2:0:0:0:
96,337,81695,2,0,L|188:325,1,93.5,2|0,2:0|2:0,2:0:0:0:
216,347,81967,1,2,3:2:0:0:
239,350,82058,1,2,2:0:0:0:
262,353,82149,1,2,2:0:0:0:
315,224,82331,5,2,3:2:0:0:
242,269,82513,1,2,2:0:0:0:
348,360,82695,2,0,P|401:378|465:362,1,93.5,2|0,3:2|2:0,2:0:0:0:
495,313,82967,2,0,P|473:299|436:292,1,46.75,2|0,2:0|3:2,2:0:0:0:
438,214,83149,2,0,P|412:219|381:240,1,46.75,2|0,2:0|2:0,2:0:0:0:
303,295,83331,2,0,P|278:286|250:262,1,46.75,2|0,2:0|3:2,2:0:0:0:
178,316,83513,2,0,P|167:293|164:256,1,46.75,2|0,2:0|2:0,2:0:0:0:
165,176,83695,6,0,B|211:196|211:196|260:183,1,102,6|0,3:2|2:0,3:2:0:0:
268,99,83967,2,0,B|219:112|219:112|172:92,1,102,6|0,3:2|2:0,2:0:0:0:
86,73,84240,1,2,2:0:0:0:
86,73,84331,1,2,2:0:0:0:
86,73,84422,2,0,L|95:128,1,42.5,2|2,2:0|2:0,0:0:0:0:
43,179,84604,2,0,L|52:234,1,42.5,2|2,2:0|2:0,0:0:0:0:
23,320,84786,1,2,2:0:0:0:
40,308,84876,1,2,2:0:0:0:
60,301,84967,1,2,2:0:0:0:
81,299,85058,2,0,P|112:303|133:313,1,42.5,0|0,3:2|2:0,2:0:0:0:
79,384,85240,5,6,2:0:0:0:
256,192,85331,12,0,89604,2:0:0:0:
256,192,95422,12,0,96422,2:0:0:0:
175,124,96513,6,0,L|170:194,1,51,0|0,2:0|2:0,2:0:0:0:
233,247,96695,2,0,L|228:317,1,51,0|0,2:0|2:0,2:0:0:0:
315,354,96876,6,0,P|361:377|416:370,1,89.25,0|0,3:2|2:0,0:0:0:0:
492,299,97240,2,0,P|505:277|513:245,2,44.6249986381531,0|0|0,3:2|2:0|2:0,0:0:0:0:
396,289,97604,1,0,3:2:0:0:
396,289,97695,1,0,2:0:0:0:
396,289,97786,2,0,P|383:258|383:226,1,44.625,0|0,2:0|2:0,2:0:0:0:
414,167,97967,1,0,3:2:0:0:
414,167,98058,1,0,2:0:0:0:
414,167,98149,2,0,L|480:161,1,44.625,0|0,2:0|2:0,2:0:0:0:
512,86,98331,6,0,L|423:77,1,89.25,0|0,3:2|2:0,0:0:0:0:
331,47,98695,2,0,L|265:41,2,44.625,0|0|0,3:2|2:0|2:0,0:0:0:0:
294,135,99058,1,0,3:2:0:0:
294,135,99149,1,0,2:0:0:0:
294,135,99240,2,0,L|228:129,1,44.625,0|0,2:0|2:0,2:0:0:0:
165,127,99422,1,0,3:2:0:0:
165,127,99513,1,0,2:0:0:0:
165,127,99604,1,0,2:0:0:0:
276,314,99786,6,0,P|237:335|193:336,1,89.25,0|0,3:2|2:0,0:0:0:0:
122,255,100149,2,0,P|100:247|78:246,2,44.625,0|0|0,3:2|2:0|2:0,0:0:0:0:
200,208,100513,1,0,3:2:0:0:
200,208,100604,1,0,2:0:0:0:
200,208,100695,2,0,P|213:239|213:271,1,44.625,0|0,2:0|2:0,2:0:0:0:
192,335,100876,1,0,3:2:0:0:
192,335,100967,1,0,2:0:0:0:
192,335,101058,2,0,L|126:329,1,44.625,0|0,2:0|2:0,2:0:0:0:
283,304,101240,6,0,L|371:295,1,89.25,0|0,3:2|2:0,0:0:0:0:
473,264,101604,1,2,3:2:0:0:
473,264,101695,1,2,2:0:0:0:
473,264,101786,2,0,L|481:208,1,44.625,2|2,2:0|2:0,0:0:0:0:
496,141,101967,6,0,P|463:140|424:164,1,46.75,2|2,2:0|2:0,0:0:0:0:
398,211,102149,2,0,P|365:212|326:188,1,46.75,2|2,2:0|2:0,0:0:0:0:
284,259,102331,1,2,2:0:0:0:
273,236,102422,1,2,2:0:0:0:
269,211,102513,1,2,2:0:0:0:
272,186,102604,1,2,2:0:0:0:
283,162,102695,5,0,3:2:0:0:
362,297,102876,1,0,3:2:0:0:
213,293,103058,1,0,3:2:0:0:
213,293,103149,1,0,2:0:0:0:
213,293,103240,1,0,3:2:0:0:
353,208,103422,2,0,L|446:197,1,85,0|0,3:0|3:0,2:0:0:0:
282,346,103786,2,0,L|189:335,1,85,0|0,3:0|3:0,2:0:0:0:
106,225,104149,5,0,3:0:0:0:
44,375,104331,1,0,3:0:0:0:
197,336,104513,1,0,3:0:0:0:
197,336,104604,1,0,2:0:0:0:
197,336,104695,1,0,3:0:0:0:
40,169,104876,2,0,P|21:206|24:248,1,85,0|0,3:0|3:0,2:0:0:0:
170,158,105240,2,0,P|173:116|154:78,1,85,0|0,3:0|3:0,2:0:0:0:
224,243,105604,5,0,3:2:0:0:
244,246,105695,1,0,2:0:0:0:
265,249,105786,1,0,3:2:0:0:
286,252,105876,1,0,2:0:0:0:
306,256,105967,2,0,P|316:236|318:215,1,42.5,0|0,3:2|2:0,2:0:0:0:
398,212,106149,2,0,P|396:190|387:171,1,42.5,0|0,3:2|2:0,2:0:0:0:
408,90,106331,5,0,3:2:0:0:
383,87,106422,1,0,2:0:0:0:
359,92,106513,1,0,3:2:0:0:
338,103,106604,1,0,2:0:0:0:
320,120,106695,2,0,L|308:179,1,48.875,0|0,3:2|3:2,0:0:0:0:
289,266,106876,2,0,L|277:325,1,48.875,0|0,3:2|3:2,0:0:0:0:
223,197,107058,6,0,L|213:149,1,44.625,0|0,2:0|2:0,2:0:0:0:
185,53,107240,1,0,2:0:0:0:
185,53,107331,2,0,P|130:24|40:47,1,133.875,0|0,2:0|2:0,2:0:0:0:
109,131,107786,1,0,2:0:0:0:
286,26,107967,1,0,3:2:0:0:
283,53,108058,1,8,2:0:0:0:
280,81,108149,1,8,2:0:0:0:
277,109,108240,1,8,2:0:0:0:
274,137,108331,1,0,3:2:0:0:
150,272,108513,6,0,L|144:210,1,53.125,2|0,3:2|2:0,2:0:0:0:
136,129,108695,1,2,2:0:0:0:
56,248,108876,1,0,3:2:0:0:
211,328,109058,2,0,P|237:328|261:318,1,53.125,2|0,2:0|2:0,2:0:0:0:
352,371,109240,1,2,3:2:0:0:
352,371,109331,2,0,P|365:348|369:322,1,53.125,2|0,2:0|2:0,2:0:0:0:
305,197,109513,2,0,L|317:275,1,53.125,2|0,2:0|3:2,2:0:0:0:
446,358,109695,2,0,L|454:305,1,53.125,2|0,2:0|2:0,2:0:0:0:
476,192,109876,1,2,2:0:0:0:
476,192,109967,6,0,P|444:202|409:200,1,53.125,2|0,3:2|2:0,2:0:0:0:
337,121,110149,1,2,2:0:0:0:
453,48,110331,1,0,3:2:0:0:
337,213,110513,2,0,L|251:219,1,53.125,2|0,2:0|2:0,2:0:0:0:
199,249,110695,1,2,3:2:0:0:
199,249,110786,2,0,L|195:196,1,53.125,2|0,2:0|2:0,2:0:0:0:
114,123,110967,1,2,2:0:0:0:
114,123,111058,2,0,L|106:228,1,106.25,0|2,3:2|2:0,0:0:0:0:
260,91,111422,6,0,P|257:64|247:40,1,53.125,2|0,3:2|2:0,2:0:0:0:
151,0,111604,1,2,2:0:0:0:
210,162,111786,1,0,3:2:0:0:
332,53,111967,2,0,L|403:43,1,53.125,2|0,2:0|2:0,2:0:0:0:
473,135,112149,1,2,3:2:0:0:
473,135,112240,2,0,L|402:125,1,53.125,2|0,2:0|2:0,2:0:0:0:
320,189,112422,2,0,L|310:118,1,53.125,2|0,2:0|3:2,2:0:0:0:
324,0,112604,2,0,L|331:52,1,53.125,2|0,2:0|2:0,2:0:0:0:
209,124,112786,1,2,2:0:0:0:
209,124,112876,6,0,L|138:134,1,53.125,2|0,3:2|2:0,2:0:0:0:
54,145,113058,1,2,2:0:0:0:
155,42,113240,1,0,3:2:0:0:
164,221,113422,2,0,P|131:219|93:199,1,53.125,2|0,2:0|2:0,2:0:0:0:
17,233,113604,1,2,3:2:0:0:
17,233,113695,2,0,P|31:262|33:305,1,53.125,2|0,2:0|2:0,2:0:0:0:
68,384,113876,1,2,2:0:0:0:
68,384,113967,2,0,P|95:338|135:303,1,106.25,6|0,3:2|0:0,2:0:0:0:
371,146,114331,6,0,L|363:223,1,53.125,2|0,3:2|2:0,2:0:0:0:
365,291,114513,1,2,2:0:0:0:
452,203,114695,1,2,3:2:0:0:
283,186,114876,2,0,P|284:214|297:247,1,53.125,2|0,2:0|2:0,2:0:0:0:
232,311,115058,1,2,3:2:0:0:
232,311,115149,2,0,P|256:324|291:329,1,53.125,2|0,2:0|2:0,2:0:0:0:
201,226,115331,2,0,P|175:231|151:244,1,53.125,2|0,2:0|3:2,2:0:0:0:
8,250,115513,2,0,P|31:262|57:267,1,53.125,2|0,2:0|2:0,2:0:0:0:
68,133,115695,1,2,2:0:0:0:
68,133,115786,6,0,L|58:198,1,53.125,2|0,3:2|2:0,2:0:0:0:
74,299,115967,1,2,2:0:0:0:
150,151,116149,1,0,3:2:0:0:
232,311,116331,2,0,P|259:310|292:297,1,53.125,2|0,3:2|2:0,2:0:0:0:
338,223,116513,1,2,3:2:0:0:
338,223,116604,2,0,L|348:158,1,53.125,2|0,3:2|2:0,2:0:0:0:
259,126,116786,1,2,2:0:0:0:
259,126,116876,2,0,L|243:231,1,106.25,2|2,3:2|2:0,2:0:0:0:
449,81,117240,6,0,P|466:109|469:144,1,53.125,2|0,3:2|2:0,2:0:0:0:
436,227,117422,1,2,2:0:0:0:
347,92,117604,1,0,3:2:0:0:
305,233,117786,2,0,L|223:219,1,53.125,2|0,2:0|2:0,2:0:0:0:
157,189,117967,1,2,3:2:0:0:
157,189,118058,2,0,L|165:241,1,53.125,2|0,2:0|2:0,2:0:0:0:
95,364,118240,2,0,L|103:311,1,53.125,2|0,3:2|2:0,2:0:0:0:
69,179,118422,2,0,L|77:231,1,53.125,2|0,3:2|2:0,2:0:0:0:
183,321,118604,1,2,3:2:0:0:
183,321,118695,5,2,3:2:0:0:
302,359,118876,1,2,3:2:0:0:
400,337,119058,1,0,0:0:0:0:
456,262,119240,1,2,2:0:0:0:
458,234,119422,1,2,2:0:0:0:
451,217,119604,1,2,2:0:0:0:
359,143,119786,2,0,P|340:177|342:230,1,85,2|2,2:0|2:0,0:0:0:0:
414,75,120149,6,0,P|391:63|352:60,1,55.25,6|0,3:2|2:0,2:0:0:0:
269,101,120331,1,2,2:1:0:0:
444,165,120513,1,8,3:2:0:0:
356,4,120695,2,0,L|364:73,1,55.25,2|0,2:1|2:0,2:0:0:0:
292,137,120876,1,2,3:2:0:0:
292,137,120967,2,0,L|237:130,1,55.25,2|2,2:0|2:1,2:0:0:0:
175,262,121149,2,0,L|168:207,1,55.25,2|8,2:0|3:2,2:0:0:0:
147,38,121331,2,0,L|153:92,1,55.25,2|2,2:0|2:1,2:0:0:0:
77,209,121513,1,2,2:0:0:0:
77,209,121604,6,0,P|36:201|2:172,1,55.25,2|0,3:2|2:0,2:0:0:0:
0,96,121786,1,2,2:1:0:0:
168,207,121967,1,8,3:2:0:0:
39,246,122149,2,0,P|27:221|24:193,1,55.25,2|0,2:1|2:0,2:0:0:0:
89,99,122331,1,2,3:2:0:0:
89,99,122422,2,0,L|151:110,1,55.25,2|2,2:0|2:1,2:0:0:0:
215,190,122604,1,2,2:0:0:0:
215,190,122695,2,0,L|323:170,1,110.5,14|0,3:2|0:0,2:0:0:0:
397,369,123058,6,0,L|408:290,1,55.25,2|0,3:2|2:0,2:0:0:0:
423,197,123240,1,2,2:1:0:0:
309,323,123422,1,8,3:2:0:0:
485,321,123604,2,0,P|481:286|456:251,1,55.25,2|0,2:1|2:0,2:0:0:0:
357,247,123786,1,2,3:2:0:0:
357,247,123876,2,0,P|330:245|305:234,1,55.25,2|2,2:0|2:1,2:0:0:0:
200,137,124058,2,0,P|211:161|214:188,1,55.25,2|8,2:0|3:2,3:2:0:0:
209,355,124240,2,0,P|211:327|223:302,1,55.25,2|2,2:0|2:1,2:0:0:0:
143,259,124422,1,2,2:0:0:0:
143,259,124513,6,0,P|117:270|90:272,1,55.25,2|0,3:2|2:0,2:0:0:0:
29,196,124695,1,2,2:1:0:0:
121,80,124876,1,10,3:2:0:0:
214,189,125058,2,0,L|278:200,1,55.25,2|0,2:1|2:0,2:0:0:0:
319,130,125240,1,2,3:2:0:0:
319,130,125331,2,0,P|342:153|350:188,1,55.25,2|2,2:0|2:1,2:0:0:0:
430,139,125513,2,0,P|432:206|356:267,1,165.75,6|0,3:2|0:0,2:0:0:0:
119,337,125967,6,0,L|125:282,1,55.25,6|0,3:2|2:0,0:0:0:0:
137,191,126149,1,2,2:0:0:0:
27,267,126331,1,0,3:2:0:0:
210,249,126513,1,2,2:0:0:0:
99,117,126695,2,0,L|107:186,1,55.25,6|0,3:2|2:0,0:0:0:0:
122,269,126876,1,2,2:0:0:0:
214,160,127058,1,0,3:2:0:0:
30,184,127240,1,2,2:0:0:0:
210,249,127422,6,0,P|243:252|281:235,1,55.25,6|0,3:2|2:0,0:0:0:0:
312,171,127604,1,2,2:0:0:0:
172,92,127786,1,0,3:2:0:0:
263,245,127967,1,2,2:0:0:0:
336,87,128149,2,0,P|303:84|265:101,1,55.25,6|0,3:2|2:0,0:0:0:0:
226,167,128331,1,2,2:0:0:0:
393,152,128513,1,2,3:2:0:0:
334,10,128695,1,2,3:2:0:0:
312,171,128876,5,6,3:2:0:0:
312,171,128967,2,0,L|326:256,1,55.25,2|0,3:2|2:0,2:0:0:0:
410,240,129149,1,6,3:2:0:0:
410,240,129240,2,0,L|396:325,1,55.25,2|0,3:2|2:0,2:0:0:0:
426,376,129422,1,6,3:2:0:0:
426,376,129513,2,0,P|394:377|350:353,1,55.25,2|0,3:2|2:0,2:0:0:0:
320,304,129695,1,6,3:2:0:0:
320,304,129786,2,0,P|288:303|244:327,1,55.25,2|0,3:2|2:0,2:0:0:0:
187,264,129967,1,2,3:2:0:0:
187,264,130058,2,0,L|173:349,1,55.25,2|2,3:2|3:2,0:0:0:0:
229,384,130240,5,2,3:2:0:0:
256,192,130331,12,4,131786,2:0:0:0:
256,192,143422,12,0,144786,2:0:0:0:
339,182,144876,5,8,3:2:0:0:
336,203,144967,1,8,3:2:0:0:
334,224,145058,1,8,3:2:0:0:
324,323,145240,5,8,3:2:0:0:
324,323,145331,1,8,3:2:0:0:
244,261,145513,5,8,3:2:0:0:
244,261,145604,1,8,3:2:0:0:
171,327,145786,5,8,3:2:0:0:
171,327,145876,1,8,3:2:0:0:
95,254,146058,6,0,L|85:159,1,85,8|0,3:2|2:0,2:0:0:0:
11,42,146331,5,6,3:2:0:0:
146,101,146513,1,0,2:0:0:0:
1,132,146695,1,8,2:0:0:0:
100,23,146876,1,0,2:0:0:0:
86,169,147058,1,0,3:2:0:0:
86,169,147149,2,0,P|113:187|142:191,1,44.625,0|0,2:0|2:0,2:0:0:0:
244,139,147331,2,0,P|223:146|205:160,1,44.625,0|8,2:0|2:0,2:0:0:0:
188,241,147513,2,0,P|183:262|187:284,1,44.625,0|0,2:0|2:0,2:0:0:0:
284,347,147695,6,0,B|341:341|341:341|362:351|362:351|424:346,1,133.875,0|0,2:0|2:0,2:0:0:0:
469,281,148058,1,0,2:0:0:0:
469,281,148149,2,0,L|475:225,3,44.625,8|0|0|0,2:0|2:0|2:0|2:0,0:0:0:0:
508,155,148513,1,0,3:2:0:0:
475,148,148604,1,0,2:0:0:0:
442,154,148695,1,0,2:0:0:0:
413,171,148786,1,0,2:0:0:0:
392,196,148876,2,0,P|346:211|325:207,3,44.6249986381531,8|0|0|0,2:0|2:0|2:0|2:0,2:0:0:0:
308,215,149240,5,0,3:2:0:0:
195,104,149422,1,0,2:0:0:0:
349,61,149604,1,8,2:0:0:0:
284,126,149786,1,0,2:0:0:0:
170,16,149967,1,0,3:2:0:0:
170,16,150058,2,0,L|101:8,1,44.625,0|0,2:0|2:0,2:0:0:0:
52,65,150240,2,0,L|44:134,1,44.625,0|8,2:0|2:0,2:0:0:0:
94,184,150422,2,0,L|163:176,1,44.625,0|0,2:0|0:0,0:0:0:0:
83,272,150604,6,0,L|171:261,1,89.25,0|0,2:0|2:0,2:0:0:0:
195,288,150876,2,0,L|283:298,1,89.25,0|8,2:0|2:0,2:0:0:0:
420,298,151240,1,0,2:0:0:0:
358,133,151422,2,0,P|338:172|338:216,1,89.25,0|0,3:2|0:0,3:2:0:0:
268,259,151695,2,0,P|307:239|351:239,1,89.25,8|0,3:2|0:0,0:0:0:0:
420,298,151967,1,8,3:2:0:0:
436,203,152149,5,0,3:2:0:0:
338,326,152331,1,0,2:0:0:0:
504,271,152513,1,8,2:0:0:0:
351,239,152695,1,0,2:0:0:0:
494,353,152876,1,0,3:2:0:0:
494,353,152967,2,0,L|504:288,1,44.625,0|0,2:0|2:0,2:0:0:0:
417,317,153149,2,0,L|424:272,1,44.625,0|8,2:0|2:0,2:0:0:0:
337,361,153331,2,0,L|329:316,1,44.625,0|0,2:0|2:0,2:0:0:0:
252,350,153513,6,0,B|243:295|243:295|251:276|251:276|239:207,1,133.875,0|0,2:0|2:0,2:0:0:0:
165,173,153876,1,0,2:0:0:0:
165,173,153967,2,0,L|158:218,3,44.625,8|0|0|0,2:0|2:0|2:0|2:0,0:0:0:0:
123,293,154331,1,0,3:2:0:0:
96,273,154422,1,0,2:0:0:0:
79,244,154513,1,0,2:0:0:0:
74,211,154604,1,0,2:0:0:0:
82,179,154695,2,0,P|92:148|89:118,3,44.6249986381531,8|0|0|0,2:0|2:0|2:0|2:0,2:0:0:0:
84,97,155058,5,0,3:2:0:0:
225,156,155240,1,0,2:0:0:0:
206,4,155422,1,8,2:0:0:0:
172,86,155604,1,0,2:0:0:0:
313,146,155786,1,0,3:2:0:0:
313,146,155876,2,0,L|374:137,1,44.625,0|0,2:0|2:0,2:0:0:0:
442,126,156058,2,0,L|433:187,1,44.625,0|8,2:0|2:0,2:0:0:0:
366,222,156240,2,0,L|375:283,1,44.625,0|0,2:0|2:0,2:0:0:0:
468,258,156422,6,0,B|419:245|419:245|361:271,1,102,6|0,3:2|2:0,2:0:0:0:
380,349,156695,2,0,B|427:329|427:329|476:342,1,102,6|0,3:2|2:0,2:0:0:0:
256,192,156967,12,0,157876,2:0:0:0:
195,262,157967,5,0,3:2:0:0:
192,242,158058,1,0,2:0:0:0:
189,221,158149,1,0,3:2:0:0:
185,200,158240,1,0,2:0:0:0:
182,179,158331,2,0,L|187:126,3,44.625,0|0|0|0,3:2|2:0|3:2|2:0,2:0:0:0:
269,93,158695,2,0,L|273:137,1,44.625,0|0,3:2|3:2,2:0:0:0:
289,219,158876,1,0,3:2:0:0:
312,233,158967,1,0,3:2:0:0:
338,239,159058,1,0,3:2:0:0:
365,238,159149,1,0,3:2:0:0:
390,230,159240,2,0,L|396:168,1,44.625,0|0,3:2|3:2,0:0:0:0:
447,120,159422,6,0,P|427:108|392:103,1,44.625,8|8,2:0|2:0,2:0:0:0:
386,28,159604,2,0,P|363:33|335:54,1,44.625,8|8,2:0|2:0,0:0:0:0:
277,7,159786,2,0,P|264:27|260:62,3,44.625,8|0|8|0,2:0|2:0|2:0|2:0,2:0:0:0:
304,129,160149,2,0,P|284:141|249:146,1,44.625,8|8,2:0|2:0,2:0:0:0:
243,221,160331,2,0,P|220:215|192:194,1,44.625,8|8,2:0|2:0,0:0:0:0:
134,242,160513,2,0,P|121:222|117:187,1,44.625,4|0,3:0|0:0,2:0:0:0:
42,154,160695,2,0,L|33:208,1,44.625,4|0,3:0|0:0,0:0:0:0:
13,305,160876,5,0,3:2:0:0:
124,172,161058,1,0,3:2:0:0:
173,349,161240,1,0,3:2:0:0:
173,349,161331,1,0,2:0:0:0:
173,349,161422,1,0,3:2:0:0:
56,233,161604,1,0,3:2:0:0:
221,216,161786,1,0,3:2:0:0:
221,216,161876,1,0,3:2:0:0:
221,216,161967,2,0,L|285:206,1,44.625,0|0,3:2|3:2,0:0:0:0:
360,191,162149,1,0,3:2:0:0:
356,213,162240,1,0,3:2:0:0:
353,235,162331,5,0,3:2:0:0:
269,91,162513,1,0,3:2:0:0:
436,107,162695,2,0,L|487:96,2,44.6249986381531,0|0|0,3:2|2:0|3:2,2:0:0:0:
279,180,163058,1,0,3:2:0:0:
256,180,163149,1,0,3:2:0:0:
235,176,163240,2,0,P|207:162|188:142,1,44.625,0|0,3:2|3:2,3:2:0:0:
145,28,163422,1,0,3:2:0:0:
51,159,163604,1,0,3:2:0:0:
72,154,163695,1,0,2:0:0:0:
95,155,163786,6,0,L|104:219,1,48.875,4|0,3:2|3:2,0:0:0:0:
119,294,163967,2,0,L|128:358,1,48.875,0|0,3:2|3:2,0:0:0:0:
185,183,164149,2,0,L|194:247,1,48.875,0|0,3:2|3:2,0:0:0:0:
209,322,164331,2,0,L|218:386,1,48.875,0|0,3:2|3:2,0:0:0:0:
273,265,164513,5,0,3:2:0:0:
298,250,164604,1,0,3:2:0:0:
325,241,164695,1,0,3:2:0:0:
354,236,164786,1,0,3:2:0:0:
383,236,164876,1,0,3:2:0:0:
413,241,164967,1,0,3:2:0:0:
440,250,165058,1,0,3:2:0:0:
466,265,165149,1,0,3:2:0:0:
488,282,165240,6,0,L|485:227,1,48.875,0|0,3:2|3:2,0:0:0:0:
478,142,165422,2,0,L|475:87,1,48.875,0|0,3:2|3:2,0:0:0:0:
398,249,165604,2,0,L|395:194,1,48.875,0|0,3:2|3:2,0:0:0:0:
388,109,165786,2,0,L|385:54,1,48.875,0|0,3:2|3:2,0:0:0:0:
307,171,165967,5,0,3:2:0:0:
279,193,166058,1,0,3:2:0:0:
245,206,166149,1,0,3:2:0:0:
208,206,166240,1,0,3:2:0:0:
173,195,166331,1,0,3:2:0:0:
145,172,166422,1,0,3:2:0:0:
111,160,166513,1,0,3:2:0:0:
74,159,166604,1,0,3:2:0:0:
39,170,166695,6,0,L|44:218,4,29.75,0|0|0|0|8,3:2|3:2|3:2|0:0|2:0,3:2:0:0:
179,71,167058,2,0,L|174:119,4,29.75,0|0|0|0|8,3:2|3:2|3:2|0:0|2:0,3:2:0:0:
280,235,167422,2,0,L|285:283,4,29.75,0|0|0|0|8,3:2|3:2|3:2|0:0|2:0,3:2:0:0:
420,136,167786,2,0,L|416:176,4,29.75,0|0|0|0|8,3:2|3:2|3:2|0:0|2:0,3:2:0:0:
164,235,168149,5,2,0:0:0:0:
164,235,168513,2,0,B|133:273|133:273|266:258,1,178.5,6|0,1:0|3:2,0:0:0:0:
298,254,169240,1,0,3:2:0:0:
324,250,169331,1,0,3:2:0:0:
351,246,169422,1,0,3:2:0:0:
468,130,169604,6,0,L|462:189,1,51,6|2,3:2|2:0,0:0:0:0:
388,90,169786,2,0,L|382:149,1,51,2|2,2:0|2:0,0:0:0:0:
289,174,169967,2,0,P|262:185|219:185,1,51,2|0,3:2|2:0,2:0:0:0:
152,174,170149,1,2,2:0:0:0:
152,174,170240,2,0,P|128:156|107:118,1,51,2|0,2:0|3:2,2:0:0:0:
83,55,170422,1,2,2:0:0:0:
83,55,170513,2,0,P|86:26|108:-11,1,51,2|0,2:0|2:0,2:0:0:0:
213,51,170695,2,0,L|201:115,2,50.9999984436036,2|2|2,3:2|2:0|2:0,0:0:0:0:
34,133,171058,6,0,B|21:158|21:158|21:195,1,51,2|2,3:2|2:0,0:0:0:0:
23,265,171240,2,0,B|51:263|51:263|83:245,1,51,2|2,2:0|2:0,0:0:0:0:
155,292,171422,2,0,L|162:223,1,51,2|0,3:2|2:0,2:0:0:0:
253,248,171604,1,2,2:0:0:0:
253,248,171695,2,0,L|246:179,1,51,2|0,2:0|3:2,2:0:0:0:
336,157,171876,1,2,2:0:0:0:
336,157,171967,2,0,L|329:226,1,51,2|0,2:0|2:0,2:0:0:0:
396,293,172149,2,0,P|426:302|453:300,2,50.9999984436036,2|2|2,3:2|2:0|2:0,0:0:0:0:
498,166,172513,6,0,P|464:173|428:201,1,51,2|2,3:2|2:0,0:0:0:0:
368,141,172695,2,0,P|357:173|363:219,1,51,0|2,2:0|2:0,0:0:0:0:
356,279,172876,2,0,P|322:272|286:244,1,51,2|0,3:2|2:0,2:0:0:0:
226,304,173058,1,2,2:0:0:0:
226,304,173149,2,0,P|215:271|221:225,1,51,2|0,2:0|3:2,2:0:0:0:
141,181,173331,1,2,2:0:0:0:
140,180,173422,2,0,P|137:205|128:228,1,51,2|0,2:0|2:0,2:0:0:0:
4,173,173604,2,0,L|73:182,1,51,2|2,3:2|3:2,0:0:0:0:
122,97,173786,2,0,L|191:106,1,51,2|2,3:2|3:2,0:0:0:0:
262,32,173967,6,0,B|302:57|302:57|289:186,1,153,0|2,3:2|2:0,2:0:0:0:
218,212,174331,1,2,3:2:0:0:
218,212,174422,2,0,L|227:324,1,102,2|6,3:2|3:2,2:0:0:0:
282,376,174695,1,0,0:0:0:0:
360,254,174876,1,2,3:2:0:0:
226,313,175058,1,12,3:0:0:0:
375,341,175240,1,0,0:0:0:0:
365,169,175422,6,0,P|326:174|297:200,1,51,12|0,3:0|2:0,2:0:0:0:
242,229,175604,2,0,P|203:224|174:198,1,51,2|2,2:0|2:0,0:0:0:0:
106,256,175786,2,0,L|96:183,1,51,2|0,3:2|2:0,2:0:0:0:
85,115,175967,1,2,2:0:0:0:
85,115,176058,2,0,L|75:42,1,51,2|0,2:0|3:2,2:0:0:0:
166,131,176240,1,2,2:0:0:0:
166,131,176331,2,0,L|156:58,1,51,2|0,2:0|2:0,2:0:0:0:
247,147,176513,2,0,L|237:74,2,51,2|2|2,3:2|2:0|2:0,0:0:0:0:
383,107,176876,6,0,P|367:134|366:167,1,51,2|2,3:2|2:0,0:0:0:0:
391,250,177058,2,0,P|406:277|434:294,1,51,2|2,2:0|2:0,0:0:0:0:
300,228,177240,2,0,P|268:227|239:243,1,51,2|0,3:2|2:0,2:0:0:0:
195,320,177422,1,2,2:0:0:0:
195,320,177513,2,0,L|189:384,1,51,2|0,2:0|3:2,2:0:0:0:
161,237,177695,1,2,2:0:0:0:
161,237,177786,2,0,L|155:173,1,51,2|0,2:0|2:0,2:0:0:0:
107,306,177967,2,0,L|57:311,2,51,2|2|2,3:2|2:0|2:0,0:0:0:0:
262,216,178331,6,0,L|266:165,1,51,2|2,3:2|2:0,0:0:0:0:
356,164,178513,2,0,L|351:113,1,51,2|2,2:0|2:0,0:0:0:0:
178,146,178695,2,0,L|192:97,1,51,2|0,3:2|2:0,2:0:0:0:
142,26,178876,1,2,2:0:0:0:
142,26,178967,2,0,P|169:14|213:16,1,51,2|0,2:0|3:2,2:0:0:0:
96,98,179149,1,2,2:0:0:0:
96,98,179240,2,0,P|70:94|47:84,1,51,2|2,2:0|2:0,0:0:0:0:
186,108,179422,1,2,3:2:0:0:
186,108,179513,2,0,L|197:232,1,102,2|2,2:0|2:0,2:0:0:0:
204,297,179786,5,0,3:2:0:0:
256,192,179876,12,0,181149,2:0:0:0:
219,238,181240,6,0,L|168:231,1,51,2|0,3:2|2:0,2:0:0:0:
168,315,181422,2,0,L|96:306,1,51,2|2,2:0|2:0,0:0:0:0:
49,253,181604,2,0,P|41:227|41:201,1,51,10|0,3:2|2:0,2:0:0:0:
75,118,181786,1,2,2:0:0:0:
75,118,181876,2,0,P|100:110|126:110,1,51,2|0,2:0|3:2,2:0:0:0:
214,157,182058,1,2,2:0:0:0:
214,157,182149,2,0,P|239:164|265:164,1,51,2|0,2:0|2:0,2:0:0:0:
250,59,182331,2,0,L|197:66,2,50.9999984436036,10|2|2,3:2|2:0|2:0,0:0:0:0:
389,36,182695,6,0,L|399:105,1,51,2|2,3:2|2:0,0:0:0:0:
483,98,182876,2,0,L|473:167,1,51,2|2,2:0|2:0,0:0:0:0:
398,226,183058,2,0,P|387:195|390:161,1,51,10|0,3:2|2:0,2:0:0:0:
445,299,183240,1,2,2:0:0:0:
445,299,183331,2,0,P|414:310|380:307,1,51,2|0,2:0|3:2,2:0:0:0:
317,268,183513,1,2,2:0:0:0:
317,268,183604,2,0,P|286:257|252:260,1,51,2|0,2:0|2:0,2:0:0:0:
186,218,183786,2,0,L|176:286,2,51,10|2|2,3:2|2:0|2:0,0:0:0:0:
39,260,184149,6,0,L|49:328,1,51,2|0,3:2|2:0,2:0:0:0:
137,351,184331,2,0,L|144:300,1,51,2|0,2:0|2:0,2:0:0:0:
50,177,184513,2,0,P|19:179|-16:201,1,51,10|0,3:2|2:0,2:0:0:0:
117,123,184695,1,2,2:0:0:0:
117,123,184786,2,0,P|93:102|53:93,1,51,2|0,2:0|3:2,2:0:0:0:
202,132,184967,1,2,2:0:0:0:
202,132,185058,2,0,P|200:101|178:66,1,51,2|0,2:0|2:0,2:0:0:0:
287,7,185240,1,10,3:2:0:0:
287,7,185331,2,0,P|277:30|277:56,1,51,2|2,3:2|3:2,0:0:0:0:
329,136,185513,1,2,3:2:0:0:
329,136,185604,6,0,B|379:147|379:147|449:120,1,102,6|2,3:2|2:0,2:0:0:0:
512,100,185876,1,2,3:2:0:0:
512,100,185967,2,0,L|504:186,1,51,10|2,3:2|2:0,0:0:0:0:
493,243,186149,1,0,2:0:0:0:
493,243,186240,2,0,P|441:222|404:227,1,85,2|0,2:0|2:0,2:0:0:0:
348,290,186513,6,0,L|342:353,1,53.125,2|0,2:0|2:0,2:0:0:0:
272,202,186695,2,0,L|277:149,1,53.125,12|0,2:0|2:0,2:0:0:0:
268,300,186876,2,0,L|262:363,1,53.125,8|0,3:2|2:0,2:0:0:0:
192,212,187058,6,0,L|197:159,1,53.125,12|0,3:2|2:0,2:0:0:0:
134,280,187240,2,0,P|104:294|64:293,1,53.125,2|2,2:0|2:0,0:0:0:0:
39,219,187422,2,0,P|11:200|-7:164,1,53.125,10|0,3:2|2:0,2:0:0:0:
65,60,187604,1,2,2:0:0:0:
65,60,187695,2,0,P|55:84|54:111,1,53.125,2|8,2:0|3:2,0:0:0:0:
143,126,187876,1,0,0:0:0:0:
143,126,187967,2,0,P|152:101|153:74,1,53.125,0|8,2:0|3:2,0:0:0:0:
239,32,188149,1,2,0:0:0:0:
241,58,188240,1,2,2:0:0:0:
243,84,188331,2,0,L|249:152,1,53.125,8|0,3:2|2:0,2:0:0:0:
385,128,188513,6,0,B|359:117|359:117|330:120,1,53.125,10|2,3:2|2:0,0:0:0:0:
308,204,188695,2,0,B|285:221|285:221|273:247,1,53.125,2|0,2:0|2:0,2:0:0:0:
345,297,188876,2,0,B|368:280|368:280|380:254,1,53.125,10|2,3:2|2:0,2:0:0:0:
268,330,189058,1,2,2:0:0:0:
268,330,189149,2,0,L|272:392,1,53.125,2|8,2:0|3:2,0:0:0:0:
194,277,189331,1,0,0:0:0:0:
194,277,189422,2,0,L|197:223,1,53.125,0|8,2:0|3:2,0:0:0:0:
127,340,189604,1,2,0:0:0:0:
102,348,189695,1,2,2:0:0:0:
75,348,189786,1,8,3:2:0:0:
107,173,189967,6,0,P|154:142|228:152,1,110.5,8|0,3:2|2:0,2:0:0:0:
267,77,190240,2,0,B|299:122|299:122|289:189,1,110.5,8|0,3:2|2:0,2:0:0:0:
221,232,190513,1,8,3:2:0:0:
221,232,190604,1,0,2:0:0:0:
221,232,190695,2,0,P|268:263|342:253,1,110.5,8|0,3:2|2:0,2:0:0:0:
400,321,190967,2,0,L|414:179,1,110.5,8|0,3:2|2:0,2:0:0:0:
417,124,191240,1,0,3:2:0:0:
417,124,191331,1,0,2:0:0:0:
417,124,191422,6,0,L|358:138,3,44.625,2|2|2|2,2:0|2:0|2:0|2:0,0:0:0:0:
299,173,191786,1,2,2:0:0:0:
272,169,191876,1,2,2:0:0:0:
246,165,191967,1,2,2:0:0:0:
219,161,192058,1,2,2:0:0:0:
193,157,192149,2,0,L|202:214,1,44.625,2|0,2:0|2:0,2:0:0:0:
272,263,192331,1,2,2:0:0:0:
272,263,192422,2,0,L|258:351,1,89.25,2|0,2:0|2:0,2:0:0:0:
180,384,192695,2,0,L|173:339,1,44.625,2|0,2:0|2:0,2:0:0:0:
96,297,192876,6,0,P|145:255|202:261,1,106.25,6|2,3:2|2:0,2:0:0:0:
316,200,193240,2,0,L|309:264,1,53.125,10|0,3:2|2:0,2:0:0:0:
398,240,193422,2,0,L|391:304,1,53.125,2|0,2:0|2:0,2:0:0:0:
472,191,193604,1,2,3:2:0:0:
472,191,193695,2,0,L|466:138,1,53.125,2|0,2:0|2:0,2:0:0:0:
497,42,193876,2,0,L|444:47,1,53.125,2|8,2:0|3:2,2:0:0:0:
348,17,194058,2,0,L|359:122,1,106.25,2|2,2:0|2:0,2:0:0:0:
316,200,194331,6,0,P|256:226|177:202,1,106.25,0|2,3:2|2:0,0:0:0:0:
151,277,194604,1,2,2:0:0:0:
151,277,194695,2,0,P|136:244|136:210,3,53.125,10|2|2|2,3:2|2:0|2:0|2:0,0:0:0:0:
145,194,195058,1,2,3:2:0:0:
155,169,195149,1,2,2:0:0:0:
159,143,195240,1,2,2:0:0:0:
156,117,195331,1,2,2:0:0:0:
145,93,195422,2,0,L|29:107,1,106.25,10|2,3:2|2:0,0:0:0:0:
196,15,195786,5,2,3:2:0:0:
291,132,195967,1,2,2:0:0:0:
204,166,196149,1,10,3:2:0:0:
287,40,196331,1,2,2:0:0:0:
380,157,196513,1,2,3:2:0:0:
380,157,196604,2,0,L|391:227,1,53.125,2|0,2:0|2:0,2:0:0:0:
477,211,196786,2,0,L|466:281,1,53.125,2|8,2:0|3:2,2:0:0:0:
325,274,196967,2,0,L|219:257,1,106.25,2|2,2:0|2:0,2:0:0:0:
149,304,197240,6,0,P|136:271|137:243,1,53.125,2|0,3:2|2:0,2:0:0:0:
234,208,197422,2,0,P|231:234|220:258,1,53.125,2|2,2:0|2:0,0:0:0:0:
64,205,197604,2,0,B|107:172|107:172|164:172,1,106.25,8|2,3:2|2:0,2:0:0:0:
246,26,197967,2,0,B|253:79|253:79|224:129,1,106.25,2|2,3:2|2:0,2:0:0:0:
311,274,198331,2,0,B|260:253|260:253|232:203,1,106.25,10|2,3:2|2:0,2:0:0:0:
402,144,198695,6,0,L|518:132,1,106.25,2|2,3:2|2:0,2:0:0:0:
323,103,199058,2,0,L|314:177,1,53.125,10|0,3:2|2:0,2:0:0:0:
236,107,199240,2,0,L|227:181,1,53.125,2|0,2:0|2:0,2:0:0:0:
311,274,199422,1,2,3:2:0:0:
311,274,199513,2,0,L|385:265,1,53.125,2|0,2:0|2:0,2:0:0:0:
441,323,199695,2,0,L|515:314,1,53.125,2|10,2:0|3:2,2:0:0:0:
258,367,199876,2,0,L|363:354,1,106.25,2|2,2:0|2:0,2:0:0:0:
441,323,200149,6,0,P|461:254|439:198,1,106.25,0|2,3:2|2:0,0:0:0:0:
499,154,200422,1,2,2:0:0:0:
499,154,200513,2,0,P|466:139|432:139,3,53.125,10|2|2|2,3:2|2:0|2:0|2:0,0:0:0:0:
416,148,200876,1,2,3:2:0:0:
391,158,200967,1,2,2:0:0:0:
365,162,201058,1,2,2:0:0:0:
339,159,201149,1,2,2:0:0:0:
315,148,201240,2,0,L|304:32,1,106.25,10|2,3:2|2:0,0:0:0:0:
246,204,201604,5,2,3:2:0:0:
354,249,201786,1,2,2:0:0:0:
227,117,201967,1,10,3:2:0:0:
179,287,202149,1,2,2:0:0:0:
313,146,202331,1,2,3:2:0:0:
313,146,202422,2,0,L|372:141,1,53.125,2|0,2:0|2:0,2:0:0:0:
448,79,202604,2,0,L|309:48,1,106.25,6|0,3:2|2:0,2:0:0:0:
260,75,202876,5,2,2:0:0:0:
234,77,202967,1,2,2:0:0:0:
207,80,203058,1,2,3:2:0:0:
181,83,203149,1,2,2:0:0:0:
155,85,203240,2,0,L|150:142,1,53.125,2|2,2:0|2:0,0:0:0:0:
76,179,203422,2,0,L|81:236,1,53.125,10|0,3:2|2:0,2:0:0:0:
57,321,203604,1,2,3:2:0:0:
94,316,203695,1,2,3:2:0:0:
130,313,203786,6,0,L|266:332,1,114.75,12|0,3:2|2:0,2:0:0:0:
303,378,204058,2,0,B|276:328|276:328|291:271,1,114.75,12|0,3:2|2:0,2:0:0:0:
319,196,204331,2,0,B|236:172|250:243|155:222,1,172.125,10|0,3:2|2:0,2:0:0:0:
116,204,204695,1,0,3:2:0:0:
102,172,204786,1,0,3:2:0:0:
100,138,204876,1,14,3:2:0:0:
192,31,205058,1,2,0:0:0:0:
55,59,205240,1,2,3:2:0:0:
184,123,205422,1,2,0:0:0:0:
280,20,205604,1,10,3:2:0:0:
280,20,205695,1,2,0:0:0:0:
280,20,205786,2,0,L|338:14,1,55.25,2|0,0:0|0:0,0:0:0:0:
421,111,205967,6,0,L|311:99,1,110.5,2|2,3:2|0:0,0:0:0:0:
460,26,206331,1,10,3:2:0:0:
481,176,206513,1,2,0:0:0:0:
298,125,206695,2,0,P|276:74|279:19,1,110.5,2|2,3:2|0:0,0:0:0:0:
421,111,207058,1,14,3:2:0:0:
388,260,207240,1,0,0:0:0:0:
248,181,207422,6,0,B|299:161|299:161|353:173,1,110.5,2|2,3:2|0:0,0:0:0:0:
474,284,207786,2,0,L|479:347,1,55.25,10|0,3:2|0:0,0:0:0:0:
388,260,207967,2,0,L|393:323,1,55.25,2|0,0:0|0:0,0:0:0:0:
323,371,208149,1,2,3:2:0:0:
323,371,208240,2,0,P|289:384|261:381,1,55.25,2|0,0:0|0:0,0:0:0:0:
223,292,208422,1,2,0:2:0:0:
223,292,208513,2,0,L|301:303,1,55.25,10|0,3:2|0:0,0:0:0:0:
186,367,208695,2,0,L|131:374,1,55.25,2|0,3:2|2:0,2:0:0:0:
48,384,208876,5,2,3:2:0:0:
97,184,209058,2,0,L|85:298,1,114.75,10|2,2:0|3:2,2:0:0:0:
203,161,209422,2,0,L|191:271,1,106.25,10|2,2:0|3:2,2:0:0:0:
308,137,209786,2,0,L|296:247,1,97.75,10|2,2:0|3:2,2:0:0:0:
413,113,210149,2,0,L|401:223,1,89.25,10|0,3:2|0:0,2:0:0:0:
405,232,210422,1,2,3:2:0:0:
405,232,210513,1,2,3:2:0:0:
306,141,210695,5,6,3:2:0:0:
482,203,210876,1,2,2:0:0:0:
349,313,211058,1,2,3:2:0:0:
323,322,211149,1,2,2:0:0:0:
295,323,211240,1,2,2:0:0:0:
268,316,211331,1,2,2:0:0:0:
245,301,211422,1,10,3:2:0:0:
211,282,211513,1,2,2:0:0:0:
173,273,211604,1,2,2:0:0:0:
135,275,211695,1,2,2:0:0:0:
99,288,211786,6,2,P|129:232|119:180,1,110.5,0|2,3:2|2:0,2:0:0:0:
11,93,212149,2,0,B|65:109|65:109|126:76,1,110.5,10|0,3:2|2:0,2:0:0:0:
208,20,212513,1,2,3:2:0:0:
51,14,212695,1,0,2:0:0:0:
250,91,212876,1,10,3:2:0:0:
131,3,213058,1,0,2:0:0:0:
224,173,213240,6,0,L|344:159,1,110.5,0|2,3:2|2:0,2:0:0:0:
355,19,213604,2,0,L|347:85,1,55.25,10|0,3:2|2:0,2:0:0:0:
441,4,213786,2,0,L|433:70,1,55.25,2|0,2:0|2:0,2:0:0:0:
506,116,213967,1,2,3:2:0:0:
506,116,214058,2,0,L|514:182,1,55.25,2|0,2:0|2:0,2:0:0:0:
417,203,214240,2,0,L|423:148,1,55.25,2|10,2:0|3:2,0:0:0:0:
487,255,214422,2,0,L|493:309,1,55.25,0|2,2:0|2:0,0:0:0:0:
419,366,214604,6,0,B|372:386|372:386|323:373,1,102,6|0,3:2|2:0,2:0:0:0:
316,289,214876,2,0,B|365:302|365:302|412:282,1,102,6|0,3:2|2:0,2:0:0:0:
256,192,215149,12,0,216058,2:0:0:0:
160,175,216149,6,0,L|174:295,1,110.5,6|0,3:2|2:0,2:0:0:0:
85,128,216513,1,2,3:2:0:0:
85,128,216604,2,0,P|130:94|209:98,1,110.5,0|2,2:0|2:0,0:0:0:0:
245,154,216876,2,0,P|290:188|369:184,1,110.5,2|2,3:2|2:0,2:0:0:0:
427,215,217149,2,0,L|439:49,1,165.75,0|0,2:0|2:0,0:0:0:0:
358,0,217513,1,2,2:0:0:0:
358,0,217604,6,0,L|348:122,1,110.5,0|2,3:2|2:0,2:0:0:0:
332,304,217967,1,2,3:2:0:0:
332,304,218058,2,0,B|279:327|279:327|214:313,1,110.5,2|0,2:0|2:0,2:0:0:0:
159,377,218331,2,0,B|136:324|136:324|150:259,1,110.5,2|2,3:2|2:0,2:0:0:0:
223,232,218604,1,0,2:0:0:0:
223,231,218695,2,0,P|161:237|121:205,1,110.5,0|0,3:2|2:0,2:0:0:0:
68,137,218967,6,0,L|185:123,1,85,0|0,3:2|2:0,2:0:0:0:
183,123,219240,1,8,2:0:0:0:
307,88,219422,1,0,3:2:0:0:
307,88,219513,2,0,L|302:130,1,42.5,0|8,2:0|2:0,0:0:0:0:
378,164,219695,2,0,L|388:80,1,85,0|0,3:2|2:0,2:0:0:0:
392,51,219967,1,8,2:0:0:0:
475,150,220149,1,0,3:2:0:0:
475,150,220240,2,0,P|473:180|463:205,1,42.5,0|8,2:0|2:0,0:0:0:0:
500,271,220422,6,0,P|470:273|445:283,1,42.5,0|0,3:2|0:0,2:0:0:0:
388,334,220604,1,8,2:0:0:0:
388,333,220695,2,0,P|346:340|305:330,1,85,0|0,3:2|2:0,2:0:0:0:
226,357,220967,2,0,L|222:290,1,42.5,8|0,2:0|2:0,2:0:0:0:
172,246,221149,1,0,3:2:0:0:
172,246,221240,2,0,P|225:230|245:235,1,42.5,8|0,2:0|0:0,2:0:0:0:
297,249,221422,1,4,2:0:0:0:
297,249,221513,1,0,2:0:0:0:
297,249,221604,2,0,L|301:187,3,42.5,0|0|0|0,2:0|2:0|2:0|2:0,0:0:0:0:
361,149,221967,6,0,P|296:124|232:157,1,110.5,6|0,3:2|2:0,2:0:0:0:
163,30,222331,1,2,3:2:0:0:
163,30,222422,2,0,L|155:148,1,110.5,2|2,2:0|2:0,2:0:0:0:
91,199,222695,2,0,L|99:317,1,110.5,0|2,3:2|2:0,0:0:0:0:
41,372,222967,2,0,P|114:337|194:355,1,165.75,2|0,2:0|2:0,0:0:0:0:
254,283,223331,1,0,2:0:0:0:
254,283,223422,6,0,P|317:308|372:294,1,110.5,2|2,3:2|2:0,2:0:0:0:
336,115,223786,1,2,3:2:0:0:
336,115,223876,2,0,P|311:178|325:233,1,110.5,2|2,2:0|2:0,2:0:0:0:
405,233,224149,2,0,P|430:170|416:115,1,110.5,0|2,3:2|2:0,2:0:0:0:
388,50,224422,1,0,2:0:0:0:
388,50,224513,2,0,B|335:74|335:74|284:59,1,110.5,0|0,3:2|2:0,2:0:0:0:
199,26,224786,6,0,L|213:143,1,85,0|0,3:2|2:0,2:0:0:0:
213,141,225058,1,8,2:0:0:0:
163,241,225240,1,0,3:2:0:0:
163,241,225331,2,0,L|158:283,1,42.5,8|0,2:0|2:0,2:0:0:0:
74,297,225513,2,0,L|84:213,1,85,0|0,3:2|2:0,2:0:0:0:
86,190,225786,1,8,2:0:0:0:
89,169,225876,1,0,3:2:0:0:
92,148,225967,1,0,3:2:0:0:
163,241,226149,1,8,2:0:0:0:
0,183,226331,5,0,3:2:0:0:
179,146,226513,1,2,2:0:0:0:
18,98,226695,1,0,3:2:0:0:
6,72,226786,1,2,2:0:0:0:
5,43,226876,2,0,L|70:54,1,51,2|2,2:0|2:0,0:0:0:0:
134,0,227058,2,0,P|154:46|149:107,1,102,2|2,3:2|2:0,2:0:0:0:
84,153,227331,1,2,2:0:0:0:
84,153,227422,2,0,P|64:199|69:260,1,102,0|0,3:2|2:0,2:0:0:0:
121,310,227695,1,2,2:0:0:0:
121,310,227786,5,0,3:2:0:0:
220,205,227967,1,2,2:0:0:0:
216,240,228058,1,2,2:0:0:0:
212,275,228149,1,2,3:2:0:0:
305,234,228331,1,2,2:0:0:0:
302,254,228422,1,2,2:0:0:0:
300,275,228513,1,2,3:2:0:0:
390,263,228695,1,0,2:0:0:0:
390,263,228786,6,0,L|381:359,1,85,10|0,2:0|2:0,2:0:0:0:
418,342,229058,2,0,L|413:390,1,42.5,10|0,2:0|2:0,2:0:0:0:
297,300,229240,5,6,3:2:0:0:
470,277,229422,1,0,2:0:0:0:
304,199,229604,1,2,3:2:0:0:
330,187,229695,1,2,2:0:0:0:
359,186,229786,2,0,L|368:253,1,51,2|2,2:0|2:0,0:0:0:0:
430,137,229967,2,0,P|385:107|335:104,1,102,2|2,3:2|2:0,2:0:0:0:
266,56,230240,1,2,2:0:0:0:
266,56,230331,2,0,P|221:85|171:88,1,102,2|0,3:2|2:0,2:0:0:0:
99,49,230604,1,2,2:0:0:0:
99,49,230695,5,0,3:2:0:0:
114,205,230876,1,2,2:0:0:0:
89,175,230967,1,2,2:0:0:0:
85,137,231058,1,2,3:2:0:0:
263,182,231240,1,2,2:0:0:0:
224,188,231331,1,2,2:0:0:0:
189,173,231422,1,2,3:2:0:0:
180,41,231604,1,2,2:0:0:0:
333,136,231786,1,10,2:0:0:0:
171,253,231967,1,8,2:0:0:0:
168,268,232058,1,8,2:0:0:0:
165,284,232149,5,4,3:2:0:0:
89,181,232331,1,0,2:0:0:0:
254,268,232513,1,2,3:2:0:0:
260,296,232604,1,2,2:0:0:0:
267,324,232695,2,0,P|301:333|333:330,1,51,2|2,2:0|2:0,0:0:0:0:
400,372,232876,2,0,L|408:257,1,102,2|2,3:2|2:0,2:0:0:0:
486,229,233149,1,2,2:0:0:0:
486,229,233240,2,0,L|478:114,1,102,2|2,3:2|2:0,2:0:0:0:
467,43,233513,1,2,2:0:0:0:
467,43,233604,5,0,3:2:0:0:
383,179,233786,1,2,2:0:0:0:
386,143,233876,1,2,2:0:0:0:
389,108,233967,1,2,3:2:0:0:
296,160,234149,1,2,2:0:0:0:
299,139,234240,1,2,2:0:0:0:
302,119,234331,1,2,3:2:0:0:
210,142,234513,1,0,2:0:0:0:
210,142,234604,6,0,P|172:159|125:160,1,85,8|0,2:0|2:0,2:0:0:0:
126,191,234876,2,0,P|94:184|72:165,1,42.5,8|0,2:0|2:0,2:0:0:0:
152,77,235058,5,6,3:2:0:0:
193,246,235240,1,0,2:0:0:0:
252,46,235422,1,0,3:2:0:0:
245,74,235513,1,2,2:0:0:0:
239,102,235604,2,0,L|227:165,1,55.25,2|2,2:0|2:0,0:0:0:0:
282,233,235786,2,0,B|337:253|337:253|396:238,1,110.5,2|2,3:2|2:0,2:0:0:0:
407,157,236058,1,2,2:0:0:0:
407,157,236149,2,2,B|462:137|462:137|512:149,1,110.5,2|0,3:2|2:0,2:0:0:0:
470,229,236422,1,2,2:0:0:0:
470,229,236513,6,0,L|463:337,1,59.5,6|0,3:2|2:0,2:0:0:0:
493,374,236695,1,2,2:0:0:0:
493,374,236786,2,0,L|385:367,1,59.5,6|0,3:2|2:0,2:0:0:0:
380,294,236967,1,2,2:0:0:0:
380,294,237058,2,0,L|272:301,1,59.5,6|0,3:2|2:0,2:0:0:0:
252,242,237240,6,0,P|238:331|251:353,1,89.2500000000001,8|8,2:0|2:0,2:0:0:0:
306,381,237513,1,8,2:0:0:0:
306,381,237604,1,6,3:2:0:0:
380,294,237786,1,0,0:0:0:0:
236,325,237967,6,0,L|166:335,3,42.5,0|0|0|0,2:0|2:0|2:0|2:0,2:0:0:0:
117,365,238331,2,0,L|111:306,1,42.5,2|0,2:0|2:0,2:0:0:0:
37,301,238513,2,0,L|43:242,1,42.5,2|2,2:0|2:0,0:0:0:0:
96,203,238695,1,0,0:0:0:0:
202,239,238876,2,0,L|259:243,1,42.5,2|2,2:0|2:0,0:0:0:0:
329,235,239058,5,2,2:0:0:0:
339,216,239149,1,2,2:0:0:0:
345,196,239240,1,2,2:0:0:0:
344,174,239331,1,2,2:0:0:0:
338,154,239422,2,0,L|269:165,1,42.5,2|0,2:0|2:0,2:0:0:0:
156,131,239695,1,2,2:0:0:0:
156,131,239786,2,0,L|167:70,1,42.5,2|0,2:0|2:0,2:0:0:0:
235,40,239967,1,2,2:0:0:0:
235,40,240058,2,0,L|246:99,1,42.5,2|0,2:0|0:0,2:0:0:0:
327,81,240240,1,2,2:0:0:0:
327,81,240331,2,0,L|316:140,1,42.5,2|2,2:0|2:0,2:0:0:0:
397,174,240513,5,2,2:0:0:0:
416,184,240604,1,2,2:0:0:0:
436,190,240695,1,2,2:0:0:0:
458,189,240786,1,2,2:0:0:0:
478,183,240876,2,0,L|483:120,1,42.5,2|2,2:0|2:0,0:0:0:0:
489,52,241058,2,0,L|494:-11,1,42.5,2|2,2:0|2:0,0:0:0:0:
408,82,241240,2,0,L|401:40,2,42.5,2|2|2,2:0|2:0|2:0,0:0:0:0:
335,146,241513,2,0,P|276:161|229:145,1,85,0|0,2:0|2:0,0:0:0:0:
196,99,241786,5,2,2:0:0:0:
196,99,241876,1,2,2:0:0:0:
196,99,241967,2,0,P|165:89|140:90,1,42.5,2|2,2:0|2:0,0:0:0:0:
97,30,242149,2,0,P|68:44|51:63,1,42.5,2|2,2:0|2:0,0:0:0:0:
31,152,242331,2,0,L|39:217,1,42.5,2|2,2:0|2:0,0:0:0:0:
118,187,242513,2,0,L|126:252,1,42.5,2|2,2:0|2:0,0:0:0:0:
53,279,242695,2,0,L|45:344,2,42.5,2|0|2,2:0|2:0|2:0,2:0:0:0:
123,229,242967,2,0,P|182:214|229:230,1,85,2|0,2:0|2:0,2:0:0:0:
267,274,243240,5,2,3:2:0:0:
349,202,243422,1,0,3:2:0:0:
349,202,243513,2,0,L|358:257,1,42.5,0|0,3:2|3:2,0:0:0:0:
378,327,243695,1,0,3:2:0:0:
378,327,243786,6,0,P|430:349|483:343,1,102,4|0,2:0|2:0,2:0:0:0:
484,176,244149,2,0,P|453:178|419:195,1,51,0|0,3:2|2:0,2:0:0:0:
355,243,244331,1,0,2:0:0:0:
312,84,244513,1,0,3:2:0:0:
337,79,244604,1,0,2:0:0:0:
362,80,244695,1,0,2:0:0:0:
387,86,244786,1,0,2:0:0:0:
409,97,244876,2,0,L|424:208,1,102,0|0,3:2|2:0,2:0:0:0:
243,141,245240,6,0,B|220:95|220:95|235:33,1,102,0|0,3:2|2:0,2:0:0:0:
261,228,245604,2,0,L|199:219,1,51,0|0,3:2|2:0,2:0:0:0:
119,205,245786,1,0,2:0:0:0:
142,333,245967,1,0,3:2:0:0:
167,329,246058,1,0,2:0:0:0:
192,325,246149,1,0,3:2:0:0:
217,321,246240,1,0,3:2:0:0:
242,317,246331,2,0,L|238:377,2,51,0|0|0,3:2|3:2|3:2,0:0:0:0:
351,212,246695,5,0,3:2:0:0:
351,212,246786,2,0,L|354:262,1,51,0|0,3:2|2:0,2:0:0:0:
438,308,246967,1,0,3:2:0:0:
438,308,247058,2,0,L|441:257,1,51,0|0,3:2|2:0,2:0:0:0:
487,191,247240,2,0,P|458:178|418:180,1,51,0|0,3:2|2:0,2:0:0:0:
424,97,247422,2,0,P|394:108|367:138,1,51,0|0,3:2|2:0,2:0:0:0:
293,126,247604,1,0,3:2:0:0:
293,126,247695,1,0,3:2:0:0:
293,126,247786,2,0,L|300:192,1,51,0|0,3:2|2:0,2:0:0:0:
193,235,247967,2,0,L|198:184,1,51,0|0,3:2|2:0,2:0:0:0:
50,81,248149,6,0,B|89:68|89:68|130:89,1,82.1666666666667,8|0,3:2|2:0,2:0:0:0:
110,227,248392,2,0,B|79:197|79:197|76:157,1,82.1666666666667,8|0,3:2|2:0,2:0:0:0:
208,100,248634,2,0,B|197:139|197:139|163:162,1,82.1666666666667,8|0,3:2|2:0,2:0:0:0:
125,86,248876,6,0,L|116:11,1,76.5,8|0,3:2|2:0,2:0:0:0:
224,0,249119,2,0,L|215:75,1,76.5,8|0,3:2|2:0,2:0:0:0:
316,95,249361,2,0,L|307:20,1,76.5,8|0,3:2|2:0,2:0:0:0:
392,8,249604,5,14,3:2:0:0:
256,192,249695,12,0,253513,2:0:0:0:
135,198,253604,6,0,B|269:168|234:278|372:251,1,255,14|0,3:2|0:0,2:0:0:0:
417,165,254149,2,0,P|405:266|490:209,1,255,14|0,3:2|0:0,2:0:0:0:
502,77,254695,2,0,B|464:131|464:131|263:110,1,255,14|0,3:2|0:0,2:0:0:0:
181,102,255240,5,14,3:2:0:0:
256,192,255331,12,2,261513,1:2:0:0:
