osu file format v14

[General]
AudioFilename: audio.mp3
AudioLeadIn: 0
PreviewTime: 60467
Countdown: 0
SampleSet: Soft
StackLeniency: 0.7
Mode: 0
LetterboxInBreaks: 0
WidescreenStoryboard: 1

[Editor]
Bookmarks: 15373,27009,40100,50281,59009,73554,85191,89554,95373,108463,120099,125917,131735,143371,156371,169554,181188,191373,192827,214553,237918,243733,255188,261460
DistanceSpacing: 0.8
BeatDivisor: 4
GridSize: 16
TimelineZoom: 2.2

[Metadata]
Title:Compute It With Some Devilish Alcoholic Steampunk Engines
TitleUnicode:Compute It With Some Devilish Alcoholic Steampunk Engines
Artist:Camellia
ArtistUnicode:かめりあ
Creator:OneShotFox
Version:F4UZ4N's Hard
Source:
Tags:F4UZ4N jaybone banter Tera i/o Hardcore Swing ElectroSwing 100k twitter followers featured artist electronic instrumental fa techno
BeatmapID:2671858
BeatmapSetID:1268030

[Difficulty]
HPDrainRate:4
CircleSize:3.7
OverallDifficulty:7
ApproachRate:8
SliderMultiplier:1.5
SliderTickRate:1

[Events]
//Background and Video events
0,0,"110455.jpg",0,0
//Break Periods
2,3986,12118
2,89804,94662
2,131986,141571
2,238167,242490
//Storyboard Layer 0 (Background)
//Storyboard Layer 1 (Fail)
//Storyboard Layer 2 (Pass)
//Storyboard Layer 3 (Foreground)
//Storyboard Layer 4 (Overlay)
//Storyboard Sound Samples

[TimingPoints]
3423,363.636363636364,4,2,2,45,1,0
3786,363.636363636364,4,2,2,45,1,0
13967,-83.3333333333333,4,2,3,45,0,0
14786,-83.3333333333333,4,2,3,60,0,0
15422,-83.3333333333333,4,2,2,50,0,0
15604,-111.111111111111,4,2,2,50,0,0
21240,-111.111111111111,4,2,2,60,0,0
25513,-100,4,2,1,60,0,0
27058,-100,4,2,1,65,0,0
28513,-100,4,2,3,65,0,0
28876,-100,4,2,3,65,0,0
32876,-90.9090909090909,4,2,3,65,0,0
36513,-83.3333333333333,4,2,3,65,0,0
37240,-83.3333333333333,4,2,1,60,0,0
38513,-83.3333333333333,4,2,1,65,0,0
48876,-83.3333333333333,4,2,2,65,0,0
50331,-83.3333333333333,4,2,1,65,0,0
55331,-83.3333333333333,4,2,2,65,0,0
55786,-83.3333333333333,4,2,3,65,0,0
59058,-76.9230769230769,4,2,1,65,0,0
60513,-90.9090909090909,4,2,1,65,0,0
61967,-76.9230769230769,4,2,1,75,0,1
72058,-71.4285714285714,4,2,1,80,0,0
72513,-83.3333333333333,4,2,1,80,0,0
72604,-83.3333333333333,4,2,1,60,0,0
73604,-76.9230769230769,4,2,1,70,0,0
75149,-76.9230769230769,4,2,1,65,0,0
83695,-71.4285714285714,4,2,1,75,0,0
84149,-90.9090909090909,4,2,1,75,0,0
84240,-90.9090909090909,4,2,1,55,0,0
85058,-90.9090909090909,4,2,1,80,0,0
96513,-90.9090909090909,4,2,1,60,0,0
96876,-83.3333333333333,4,2,1,65,0,0
102876,-76.9230769230769,4,2,1,65,0,0
106695,-71.4285714285714,4,2,1,65,0,0
107058,-90.9090909090909,4,2,1,60,0,0
107967,-90.9090909090909,4,2,1,60,0,0
108058,-90.9090909090909,4,2,3,60,0,0
108513,-90.9090909090909,4,2,3,70,0,0
108695,-71.4285714285714,4,2,3,70,0,0
113967,-71.4285714285714,4,2,1,70,0,0
118876,-100,4,2,1,30,0,0
119513,-100,4,2,1,70,0,0
120331,-71.4285714285714,4,2,1,70,0,0
126149,-71.4285714285714,4,2,1,60,0,0
143422,-100,4,2,1,60,0,0
144876,-100,4,2,1,80,0,0
145058,-83.3333333333333,4,2,1,80,0,0
146331,-83.3333333333333,4,2,1,50,0,0
146513,-90.9090909090909,4,2,1,50,0,0
146694,-90.9090909090909,4,2,2,50,0,0
156422,-90.9090909090909,4,2,1,60,0,0
157967,-86.9565217391304,4,2,1,60,0,0
159422,-100,4,2,3,60,0,0
160513,-68.9655172413793,4,2,3,60,0,0
160876,-83.3333333333333,4,2,3,60,0,0
163786,-76.9230769230769,4,2,1,60,0,0
165240,-74.0740740740741,4,2,1,60,0,0
166695,-74.0740740740741,4,2,1,70,0,0
168149,-83.3333333333333,4,2,1,70,0,0
169422,-83.3333333333333,4,2,1,60,0,0
169604,-76.9230769230769,4,2,1,70,0,0
170240,-71.4285714285714,4,2,1,70,0,0
171058,-76.9230769230769,4,2,1,70,0,0
171695,-71.4285714285714,4,2,1,70,0,0
172513,-76.9230769230769,4,2,1,70,0,0
173149,-71.4285714285714,4,2,1,70,0,0
173967,-80,4,2,1,70,0,0
175058,-80,4,2,2,70,0,0
175422,-76.9230769230769,4,2,2,70,0,0
175786,-76.9230769230769,4,2,1,70,0,0
176058,-71.4285714285714,4,2,1,70,0,0
176876,-76.9230769230769,4,2,1,70,0,0
177513,-71.4285714285714,4,2,1,70,0,0
178331,-76.9230769230769,4,2,1,70,0,0
178967,-71.4285714285714,4,2,1,70,0,0
181240,-76.9230769230769,4,2,1,70,0,0
181876,-71.4285714285714,4,2,1,70,0,0
182695,-76.9230769230769,4,2,1,70,0,0
183331,-71.4285714285714,4,2,1,70,0,0
184149,-76.9230769230769,4,2,1,70,0,0
185604,-80,4,2,1,70,0,0
187058,-71.4285714285714,4,2,1,70,0,0
191422,-90.9090909090909,4,2,1,70,0,0
192876,-76.9230769230769,4,2,1,70,0,1
203786,-66.6666666666667,4,2,1,70,0,1
204876,-76.9230769230769,4,2,1,70,0,1
210331,-76.9230769230769,4,2,1,60,0,0
210695,-76.9230769230769,4,2,1,70,0,0
214604,-83.3333333333333,4,2,1,60,0,0
216149,-80,4,2,1,60,0,0
218967,-80,4,2,2,60,0,0
221967,-80,4,2,1,60,0,0
224786,-80,4,2,2,60,0,0
226331,-80,4,2,1,60,0,0
228786,-80,4,2,2,60,0,0
228876,-100,4,2,2,60,0,0
229057,-100,4,2,2,60,0,0
229240,-83.3333333333333,4,2,1,60,0,0
231695,-83.3333333333333,4,2,3,60,0,0
231786,-83.3333333333333,4,2,3,60,0,0
232149,-76.9230769230769,4,2,1,60,0,0
234604,-76.9230769230769,4,2,2,60,0,0
234876,-76.9230769230769,4,2,2,60,0,0
235058,-76.9230769230769,4,2,1,60,0,0
236513,-71.4285714285714,4,2,1,60,0,0
237240,-71.4285714285714,4,2,3,60,0,0
237422,-71.4285714285714,4,2,3,60,0,0
237604,-71.4285714285714,4,2,1,60,0,0
243513,-90.9090909090909,4,2,1,60,0,0
243786,-81.3008130081301,4,2,1,60,0,0
246695,-76.9230769230769,4,2,1,60,0,0
248149,-64.5161290322581,4,2,1,70,0,0
249604,-74.0740740740741,4,2,1,70,0,0
253604,-74.0740740740741,4,2,1,85,0,0
258238,-74.0740740740741,4,2,1,50,0,0
258965,-74.0740740740741,4,2,1,40,0,0
260056,-74.0740740740741,4,2,1,30,0,0
260601,-74.0740740740741,4,2,1,15,0,0
261513,-74.0740740740741,4,2,1,60,0,0

[Colours]
Combo1 : 137,231,209
Combo2 : 116,183,94
Combo3 : 137,156,158

[HitObjects]
59,176,3423,5,2,3:2:0:0:
59,176,3513,1,2,3:2:0:0:
59,176,3604,2,0,L|53:217,1,37.5,2|2,3:2|3:2,0:0:0:0:
46,248,3786,5,6,3:2:0:0:
488,371,13967,6,0,P|447:353|390:350,1,90,8|8,2:0|2:0,2:0:0:0:
371,339,14240,1,8,2:0:0:0:
371,339,14331,1,8,2:0:0:0:
371,339,14422,2,0,L|309:351,1,45,8|8,2:0|2:0,0:0:0:0:
117,351,14786,2,0,L|55:339,1,45,8|2,2:0|3:2,0:0:0:0:
41,335,14967,2,0,P|91:297|114:213,1,135,0|0,3:2|3:2,0:0:0:0:
103,200,15331,1,0,3:2:0:0:
103,200,15422,5,6,2:0:0:0:
44,124,15604,2,0,B|41:90|41:90|61:55,2,67.5000000000001,2|2|2,2:0|2:0|2:0,0:0:0:0:
138,97,16149,2,0,B|179:65|179:65|251:85,1,101.25,2|2,2:0|2:0,2:0:0:0:
313,101,16604,1,2,2:0:0:0:
406,108,16786,6,0,B|457:113|457:113|482:155,1,101.25,2|2,2:0|2:0,2:0:0:0:
493,188,17149,1,2,2:0:0:0:
493,188,17240,1,2,2:0:0:0:
413,222,17422,1,2,2:0:0:0:
325,257,17604,2,0,L|340:174,1,67.5000000000001,2|2,2:0|2:0,0:0:0:0:
238,239,17967,2,0,L|253:156,2,67.5000000000001,2|2|2,2:0|2:0|2:0,0:0:0:0:
148,263,18513,6,0,B|119:279|119:279|85:276,2,67.5000000000001,2|2|2,2:0|2:0|2:0,0:0:0:0:
137,169,19058,2,0,B|149:120|149:120|117:79,1,101.25,2|2,2:0|2:0,0:0:0:0:
54,12,19513,1,2,2:0:0:0:
31,102,19695,6,0,B|18:150|18:150|50:191,1,101.25,2|2,2:0|2:0,2:0:0:0:
137,169,20149,1,2,2:0:0:0:
137,169,20331,1,0,2:0:0:0:
112,256,20513,2,0,L|132:372,1,101.25,2|2,2:0|2:0,2:0:0:0:
162,364,20876,2,0,L|254:380,1,67.5000000000001,2|2,2:0|2:0,2:0:0:0:
308,318,21240,5,4,2:0:0:0:
390,368,21422,2,0,B|406:339|406:339|403:305,2,67.5000000000001,2|2|2,2:0|2:0|2:0,0:0:0:0:
499,335,21967,2,0,B|511:286|511:286|479:245,1,101.25,2|2,2:0|2:0,0:0:0:0:
415,178,22422,1,2,2:0:0:0:
349,111,22604,6,0,B|317:70|317:70|329:21,1,101.25,2|2,2:0|2:0,2:0:0:0:
363,17,22967,1,2,2:0:0:0:
363,17,23058,1,2,2:0:0:0:
437,58,23240,1,2,2:0:0:0:
512,102,23422,2,0,L|460:145,1,67.5000000000001,2|2,2:0|2:0,0:0:0:0:
381,215,23786,2,0,L|329:258,2,67.5000000000001,2|2|2,2:0|2:0|2:0,0:0:0:0:
326,132,24331,6,0,B|297:115|297:115|263:118,2,67.5000000000001,2|2|2,2:0|2:0|2:0,2:0:0:0:
238,30,24876,2,0,B|190:45|190:45|172:102,1,101.25,2|2,2:0|2:0,0:0:0:0:
195,180,25331,1,2,2:0:0:0:
84,213,25513,6,0,B|95:260|95:260|76:287|76:287|86:337,1,112.5,6|6,3:2|3:2,2:0:0:0:
397,305,27058,6,0,P|453:335|468:267,1,150,0|0,3:2|3:2,2:0:0:0:
447,241,27513,1,0,2:0:0:0:
447,241,27604,1,0,2:0:0:0:
465,147,27786,2,0,P|418:147|379:170,1,75,0|0,3:2|2:0,2:0:0:0:
302,202,28149,2,0,L|294:121,1,75,0|0,3:2|2:0,2:0:0:0:
318,27,28513,6,0,B|281:25|281:25|247:39,1,75,8|8,3:2|2:0,2:0:0:0:
154,61,28876,2,0,L|148:14,2,37.5,8|0|8,3:2|2:0|2:0,2:0:0:0:
136,155,29240,2,0,B|173:152|173:152|207:166,1,75,8|8,3:2|2:0,2:0:0:0:
302,202,29604,2,0,L|306:164,2,37.5,8|0|8,3:2|2:0|2:0,2:0:0:0:
401,249,29967,6,0,P|385:285|276:298,1,150,0|0,3:2|3:2,0:0:0:0:
204,348,30513,1,0,2:0:0:0:
204,253,30695,2,0,L|123:261,1,75,0|0,3:2|2:0,0:0:0:0:
79,342,31058,2,0,L|4:334,1,75,0|0,3:2|2:0,0:0:0:0:
37,238,31422,6,0,L|47:188,3,37.5,2|2|2|2,3:2|2:0|2:0|2:0,0:0:0:0:
27,167,31786,2,0,L|37:117,3,37.5,2|2|2|2,3:2|2:0|2:0|2:0,0:0:0:0:
22,94,32149,2,0,P|64:97|165:37,1,150,2|0,3:2|3:2,0:0:0:0:
178,16,32604,1,0,2:0:0:0:
178,16,32695,1,0,2:0:0:0:
251,71,32876,6,0,B|288:54|288:54|341:61,1,82.5,0|0,3:2|3:2,2:0:0:0:
306,154,33240,2,0,B|323:191|323:191|316:244,1,82.5,0|0,3:2|3:2,2:0:0:0:
223,209,33604,2,0,B|186:226|186:226|133:219,1,82.5,0|0,3:2|3:2,2:0:0:0:
168,126,33967,2,0,B|151:89|151:89|158:36,1,82.5,0|0,3:2|3:2,2:0:0:0:
251,71,34331,5,0,3:2:0:0:
251,71,34513,1,0,3:2:0:0:
306,154,34695,1,0,3:2:0:0:
306,154,34876,1,0,3:2:0:0:
223,209,35058,5,0,3:2:0:0:
157,127,35240,1,0,3:2:0:0:
91,206,35422,1,0,3:2:0:0:
11,120,35604,1,0,3:2:0:0:
9,221,35786,6,0,L|18:263,3,41.25,2|2|2|2,2:0|2:0|2:0|2:0,0:0:0:0:
53,282,36149,2,0,L|62:324,3,41.25,2|2|2|2,2:0|2:0|2:0|2:0,0:0:0:0:
78,364,36513,2,0,L|129:352,3,45,2|2|2|2,2:0|2:0|2:0|2:0,0:0:0:0:
153,310,36876,2,0,L|204:298,3,45,2|2|2|2,2:0|2:0|2:0|2:0,0:0:0:0:
223,263,37240,6,0,B|364:374|364:374|375:324|375:324|429:255|429:255|425:205|425:205|447:70,1,495,4|0,3:1|3:2,2:0:0:0:
439,49,38331,1,0,3:2:0:0:
429,48,38422,1,0,3:2:0:0:
419,47,38513,1,0,3:2:0:0:
331,111,38695,6,0,L|338:179,2,45,6|2|2,3:2|2:0|2:0,0:0:0:0:
256,34,39058,2,0,L|144:45,1,90,2|0,3:2|2:0,2:0:0:0:
51,38,39422,2,0,P|74:70|82:140,1,90,2|2,3:2|2:0,2:0:0:0:
83,155,39695,2,0,P|60:187|52:257,1,90,2|2,2:0|2:0,2:0:0:0:
56,271,39967,1,2,2:0:0:0:
44,380,40149,6,0,L|-24:387,2,45,2|2|2,3:2|2:0|2:0,0:0:0:0:
139,338,40513,2,0,L|251:327,1,90,2|0,3:2|2:0,2:0:0:0:
321,374,40876,2,0,B|336:283|336:283|292:245,2,135,6|6|6,3:2|3:2|3:2,2:0:0:0:
427,360,41604,5,6,3:2:0:0:
427,360,41786,1,2,2:0:0:0:
506,293,41967,2,0,L|495:181,1,90,2|0,3:2|2:0,2:0:0:0:
506,88,42331,2,0,P|474:111|404:119,1,90,2|2,3:2|2:0,2:0:0:0:
389,115,42604,2,0,P|353:98|311:42,1,90,2|2,2:0|2:0,2:0:0:0:
310,26,42876,1,2,2:0:0:0:
218,57,43058,6,0,P|226:100|251:137,1,90,2|0,3:2|2:0,2:0:0:0:
326,208,43422,2,0,B|298:240|298:240|207:225,2,135,2|0|2,3:2|0:0|3:2,2:0:0:0:
387,133,44149,1,2,3:2:0:0:
461,185,44331,1,2,3:2:0:0:
406,282,44513,6,0,L|413:350,2,45,6|2|2,3:2|2:0|2:0,0:0:0:0:
319,322,44876,2,0,L|207:333,1,90,2|0,3:2|2:0,2:0:0:0:
144,304,45240,2,0,P|121:272|113:202,1,90,2|2,3:2|2:0,2:0:0:0:
112,187,45513,2,0,P|135:155|143:85,1,90,2|2,2:0|2:0,2:0:0:0:
139,71,45786,1,2,2:0:0:0:
46,117,45967,6,0,L|41:72,2,45,2|2|2,3:2|2:0|2:0,0:0:0:0:
21,231,46331,2,0,L|133:220,1,90,2|0,3:2|2:0,2:0:0:0:
201,160,46695,2,0,B|216:251|216:251|172:289,2,135,6|6|6,3:2|3:2|3:2,2:0:0:0:
177,60,47422,5,6,3:2:0:0:
177,60,47604,1,2,2:0:0:0:
271,91,47786,2,0,L|360:99,1,90,2|0,3:2|2:0,2:0:0:0:
455,61,48149,2,0,P|478:93|486:163,1,90,2|2,3:2|2:0,2:0:0:0:
482,178,48422,2,0,P|465:213|409:255,1,90,2|2,2:0|2:0,2:0:0:0:
393,257,48695,1,2,2:0:0:0:
308,190,48876,5,10,3:2:0:0:
256,192,48967,12,0,49967,0:0:0:0:
93,152,50331,6,0,L|62:112,2,45,6|0|2,3:2|0:0|2:0,2:0:0:0:
108,27,50695,2,0,L|197:35,1,90,10|2,3:2|2:0,2:0:0:0:
320,0,51058,2,0,P|287:43|290:88,1,90,2|2,3:2|2:0,2:0:0:0:
266,106,51331,2,0,P|296:150|340:161,1,90,2|2,2:0|2:0,2:0:0:0:
350,190,51604,1,2,2:0:0:0:
404,102,51786,6,0,L|399:57,2,45,2|2|2,3:2|2:0|2:0,0:0:0:0:
511,55,52149,2,0,L|503:144,1,90,10|2,3:2|2:0,2:0:0:0:
449,236,52513,2,0,B|482:321|482:321|435:342,2,135,6|6|6,3:2|3:2|3:2,2:0:0:0:
353,280,53240,5,6,3:2:0:0:
362,363,53422,1,2,2:0:0:0:
261,354,53604,2,0,L|172:346,1,90,10|2,3:2|2:0,2:0:0:0:
241,259,53967,2,0,P|274:216|271:171,1,90,2|2,3:2|2:0,2:0:0:0:
295,153,54240,2,0,P|264:108|220:97,1,90,2|2,2:0|2:0,2:0:0:0:
211,69,54513,1,2,2:0:0:0:
108,56,54695,6,0,P|124:103|126:150,1,90,2|0,3:2|2:0,2:0:0:0:
33,194,55058,2,0,P|17:241|15:288,1,90,2|2,3:2|2:0,2:0:0:0:
18,316,55331,2,0,P|57:276|92:345,1,135,2|10,3:2|3:2,2:0:0:0:
203,303,55786,1,8,2:0:0:0:
203,303,55876,1,8,2:0:0:0:
203,303,55967,2,0,P|188:255|176:233,1,45,8|8,2:0|2:0,0:0:0:0:
170,229,56149,6,0,L|175:184,2,45,6|0|2,3:2|2:0|2:0,2:0:0:0:
98,105,56513,2,0,L|187:97,1,90,2|2,3:2|2:0,2:0:0:0:
270,30,56876,2,0,P|313:63|358:60,1,90,2|2,3:2|2:0,2:0:0:0:
376,84,57149,2,0,P|421:53|432:9,1,90,2|2,2:0|2:0,0:0:0:0:
460,0,57422,1,2,2:0:0:0:
512,103,57604,6,0,L|507:148,2,45,2|2|2,3:2|2:0|2:0,0:0:0:0:
417,167,57967,2,0,L|425:256,1,90,2|2,3:2|2:0,2:0:0:0:
398,378,58331,2,0,B|469:340|469:340|512:373,2,135,0|2|2,2:0|2:0|2:0,0:0:0:0:
321,312,59058,6,0,P|305:266|351:212,1,97.5,6|0,3:2|2:0,2:0:0:0:
311,192,59331,2,0,P|328:146|398:134,1,97.5,6|0,3:2|2:0,2:0:0:0:
406,129,59604,1,6,3:2:0:0:
406,129,59695,1,0,2:0:0:0:
406,129,59786,6,0,L|392:17,1,97.5,6|0,3:2|2:0,2:0:0:0:
363,12,60058,2,0,L|251:26,1,97.5,6|0,3:2|2:0,2:0:0:0:
231,30,60331,1,6,3:2:0:0:
231,30,60422,1,0,2:0:0:0:
231,30,60513,6,0,B|232:88|232:88|220:124|220:124|220:168|220:168|204:208|204:208|204:248|204:248|180:284|180:284|180:348,1,330,2|2,2:0|2:0,0:0:0:0:
181,377,61331,1,2,2:0:0:0:
84,336,61513,2,0,B|84:288|84:288|72:268|72:268|72:216,1,123.75,2|2,2:0|2:0,2:0:0:0:
39,82,61967,6,0,P|115:83|155:121,1,97.5,6|2,3:2|2:0,2:0:0:0:
221,147,62331,1,10,3:2:0:0:
202,246,62513,1,2,2:0:0:0:
297,293,62695,1,2,3:2:0:0:
297,293,62786,2,0,P|343:281|378:247,2,97.5,2|2|2,2:0|2:0|2:0,2:0:0:0:
202,246,63331,6,0,B|157:285|157:285|212:395,1,146.25,2|2,2:0|2:0,2:0:0:0:
229,374,63695,1,2,2:0:0:0:
229,374,63786,1,10,3:2:0:0:
297,293,63967,1,2,2:0:0:0:
391,346,64149,2,0,L|443:338,3,48.75,2|2|2|2,3:2|2:0|2:0|2:0,0:0:0:0:
472,353,64513,2,0,B|445:280|507:299|481:207,1,146.25,10|2,3:2|2:0,0:0:0:0:
473,177,64876,5,2,3:2:0:0:
384,215,65058,1,2,2:0:0:0:
326,135,65240,2,0,P|338:89|372:54,1,97.5,10|2,3:2|2:0,2:0:0:0:
255,40,65604,1,2,3:2:0:0:
255,40,65695,2,0,P|209:52|161:40,2,97.5,2|2|2,2:0|2:0|2:0,2:0:0:0:
241,144,66240,6,0,B|286:183|286:183|231:293,1,146.25,2|2,2:0|2:0,0:0:0:0:
158,326,66695,2,0,L|147:226,1,97.5,10|2,3:2|2:0,2:0:0:0:
134,134,67058,2,0,L|34:145,1,97.5,2|2,3:2|2:0,2:0:0:0:
52,242,67422,2,0,L|63:342,1,97.5,10|2,3:2|3:2,2:0:0:0:
197,384,67786,6,0,L|297:373,1,97.5,6|2,3:2|2:0,2:0:0:0:
295,283,68149,1,10,3:2:0:0:
384,250,68331,1,2,2:0:0:0:
294,194,68513,1,2,3:2:0:0:
294,194,68604,2,0,P|248:206|213:240,2,97.5,2|2|2,2:0|2:0|2:0,2:0:0:0:
384,250,69149,6,0,B|426:208|426:208|386:121,1,146.25,2|2,2:0|2:0,2:0:0:0:
373,96,69513,1,2,2:0:0:0:
373,96,69604,1,10,3:2:0:0:
450,28,69786,1,2,2:0:0:0:
349,0,69967,2,0,L|297:8,3,48.75,2|2|2|2,3:2|2:0|2:0|2:0,0:0:0:0:
265,1,70331,2,0,P|272:82|192:67,1,146.25,10|2,3:2|2:0,0:0:0:0:
189,80,70695,5,2,3:2:0:0:
102,21,70876,1,2,2:0:0:0:
86,127,71058,2,0,L|75:227,1,97.5,10|2,3:2|2:0,2:0:0:0:
137,307,71422,5,2,3:2:0:0:
137,307,71513,2,0,P|184:314|229:295,2,97.5,2|2|2,2:0|2:0|2:0,2:0:0:0:
179,212,72058,6,0,B|230:182|230:182|197:66,1,157.5,6|6,3:2|3:2,2:0:0:0:
313,123,72513,2,0,L|326:74,3,45,0|2|2|2,2:0|2:0|2:0|2:0,0:0:0:0:
355,47,72876,2,0,L|395:17,3,45,2|2|2|2,2:0|2:0|2:0|2:0,0:0:0:0:
436,19,73240,2,0,B|509:110,1,90,2|2,2:0|2:0,0:0:0:0:
501,139,73513,1,2,2:0:0:0:
501,139,73604,6,0,L|427:224,1,97.5,6|2,3:2|2:0,0:0:0:0:
374,309,73967,2,0,L|337:202,1,97.5,0|0,3:2|2:0,0:0:0:0:
271,296,74331,1,2,3:2:0:0:
271,296,74422,1,2,2:0:0:0:
271,296,74513,1,2,2:0:0:0:
193,372,74695,2,0,L|156:265,1,97.5,0|0,3:2|2:0,0:0:0:0:
147,161,75058,6,0,P|210:170|240:202,1,97.5,2|0,3:2|0:0,0:0:0:0:
310,117,75422,2,0,P|303:69|270:34,1,97.5,2|0,3:2|2:0,2:0:0:0:
234,31,75695,1,2,2:0:0:0:
234,31,75786,2,0,L|174:41,3,48.75,2|2|2|2,3:2|2:0|2:0|2:0,0:0:0:0:
150,47,76149,2,0,B|89:20|89:20|2:58,1,146.25,2|0,3:2|2:0,2:0:0:0:
18,81,76513,6,0,L|26:151,3,48.75,2|0|2|2,3:2|2:0|2:0|2:0,2:0:0:0:
16,158,76876,2,0,L|8:228,3,48.75,2|2|2|2,3:2|2:0|2:0|2:0,0:0:0:0:
38,228,77240,2,0,L|46:298,3,48.75,2|2|2|2,3:2|2:0|2:0|2:0,0:0:0:0:
22,314,77604,2,0,L|14:384,2,48.75,2|2|2,3:2|2:0|2:0,0:0:0:0:
119,372,77967,6,0,B|167:349|172:295|172:295|191:343|242:357,1,195,4|4,3:2|3:2,2:0:0:0:
272,258,78513,1,0,0:0:0:0:
341,342,78695,2,0,P|379:370|427:372,1,97.5,4|0,3:2|0:0,2:0:0:0:
470,274,79058,2,0,P|431:245|383:243,1,97.5,4|0,3:2|0:0,2:0:0:0:
468,131,79422,6,0,L|478:34,1,97.5,6|0,3:2|0:0,2:0:0:0:
374,16,79786,2,0,L|363:112,1,97.5,0|0,3:2|2:0,2:0:0:0:
270,51,80149,1,2,3:2:0:0:
184,20,80331,1,2,2:0:0:0:
184,20,80422,1,2,2:0:0:0:
184,20,80513,2,0,L|178:68,3,48.75,2|2|2|2,3:2|2:0|2:0|2:0,2:0:0:0:
143,75,80876,6,0,P|171:113|173:161,1,97.5,2|2,3:2|2:0,0:0:0:0:
108,261,81240,2,0,P|155:255|198:277,1,97.5,2|0,3:2|2:0,0:0:0:0:
251,384,81604,2,0,P|270:339|310:314,1,97.5,0|0,3:2|0:0,0:0:0:0:
276,216,81967,2,0,L|281:167,2,48.75,2|2|2,3:2|2:0|2:0,0:0:0:0:
198,277,82331,5,2,3:2:0:0:
198,277,82513,1,2,2:0:0:0:
152,177,82695,2,0,L|141:81,1,97.5,2|0,3:2|2:0,2:0:0:0:
136,44,82967,2,0,L|40:55,2,97.5,2|2|2,2:0|2:0|2:0,2:0:0:0:
242,68,83513,1,2,2:0:0:0:
353,23,83695,6,0,B|332:82|332:82|439:129,1,157.5,6|6,3:2|3:2,3:2:0:0:
506,155,84149,2,0,L|499:212,3,41.25,0|2|2|2,2:0|2:0|2:0|2:0,0:0:0:0:
476,213,84513,2,0,L|469:270,3,41.25,2|2|2|2,2:0|2:0|2:0|2:0,0:0:0:0:
469,284,84876,1,2,2:0:0:0:
469,284,84967,1,2,2:0:0:0:
469,284,85058,1,0,3:2:0:0:
379,351,85240,5,6,2:0:0:0:
256,192,85331,12,0,89604,2:0:0:0:
51,239,96513,6,0,L|44:296,1,41.25,0|0,3:0|2:0,2:0:0:0:
72,295,96695,2,0,L|65:352,1,41.25,0|0,3:0|2:0,2:0:0:0:
85,362,96876,6,0,P|121:335|172:338,1,90,0|0,3:2|2:0,0:0:0:0:
255,368,97240,1,0,3:2:0:0:
255,368,97331,1,0,2:0:0:0:
255,368,97422,1,0,2:0:0:0:
234,271,97604,2,0,L|223:169,1,90,0|0,3:2|2:0,0:0:0:0:
240,152,97876,2,0,L|312:98,2,90,0|0|0,3:0|3:0|3:0,3:0:0:0:
206,153,98331,6,0,L|123:116,1,90,0|0,3:2|2:0,0:0:0:0:
216,57,98695,1,0,3:2:0:0:
216,57,98786,1,0,2:0:0:0:
216,57,98876,1,0,2:0:0:0:
311,97,99058,2,0,P|378:93|429:50,1,135,0|0,3:2|2:0,0:0:0:0:
456,68,99422,2,0,P|426:127|438:193,1,135,0|0,3:2|2:0,2:0:0:0:
462,216,99786,6,0,P|417:216|383:244,1,90,0|0,3:2|2:0,0:0:0:0:
454,315,100149,1,0,3:2:0:0:
454,315,100240,1,0,2:0:0:0:
454,315,100331,1,0,2:0:0:0:
356,331,100513,2,0,L|257:302,1,90,0|0,3:2|2:0,0:0:0:0:
237,316,100786,2,0,L|172:378,2,90,0|0|0,3:0|3:0|3:0,3:0:0:0:
244,282,101240,6,0,L|222:194,1,90,0|0,3:2|2:0,0:0:0:0:
137,173,101604,1,2,3:2:0:0:
137,173,101695,1,2,2:0:0:0:
137,173,101786,1,2,2:0:0:0:
145,263,101967,2,0,L|91:271,3,45,2|2|2|2,2:0|2:0|2:0|2:0,0:0:0:0:
67,270,102331,2,0,L|26:233,3,45,2|2|2|2,2:0|2:0|2:0|2:0,0:0:0:0:
35,207,102695,5,0,3:2:0:0:
10,97,102876,2,0,P|48:63|121:67,1,97.5,0|0,3:2|3:2,2:0:0:0:
184,10,103240,1,0,3:2:0:0:
248,90,103422,5,0,3:0:0:0:
342,24,103604,2,0,P|362:70|336:138,1,97.5,0|0,3:0|3:0,2:0:0:0:
268,187,103967,1,0,3:0:0:0:
340,260,104149,5,0,3:0:0:0:
270,348,104331,2,0,P|220:352|163:307,1,97.5,0|0,3:0|3:0,2:0:0:0:
139,234,104695,1,0,3:0:0:0:
62,310,104876,5,0,3:0:0:0:
18,213,105058,2,0,P|28:164|89:124,1,97.5,0|0,3:0|3:0,2:0:0:0:
86,34,105422,1,0,3:0:0:0:
86,34,105604,6,0,P|112:44|157:50,3,48.75,0|0|0|0,3:2|2:0|3:2|2:0,2:0:0:0:
158,73,105967,2,0,P|184:63|229:56,3,48.75,0|0|0|0,3:2|2:0|3:2|2:0,2:0:0:0:
234,39,106331,2,0,P|260:49|305:55,3,48.75,0|0|0|0,3:2|2:0|3:2|2:0,2:0:0:0:
318,60,106695,2,0,L|386:62,3,52.5,0|0|0|0,3:2|3:2|3:2|3:2,0:0:0:0:
384,88,107058,6,0,B|464:53|464:53|454:93,2,123.75,0|0|0,2:0|2:0|2:0,2:0:0:0:
412,178,107786,2,0,L|430:281,1,82.5,0|0,2:0|3:2,0:0:0:0:
418,288,108058,1,8,2:0:0:0:
417,298,108149,1,8,2:0:0:0:
416,308,108240,1,8,2:0:0:0:
415,318,108331,1,0,3:2:0:0:
324,362,108513,5,2,3:2:0:0:
244,301,108695,2,0,P|264:258|261:195,1,105,2|0,2:0|3:2,2:0:0:0:
163,245,109058,1,2,2:0:0:0:
101,323,109240,1,2,3:2:0:0:
101,323,109331,2,0,P|73:284|65:221,1,105,2|2,2:0|2:0,2:0:0:0:
19,141,109695,2,0,P|38:97|89:58,1,105,2|2,2:0|2:0,2:0:0:0:
115,56,109967,5,2,3:2:0:0:
208,107,110149,2,0,L|325:93,1,105,2|0,2:0|3:2,2:0:0:0:
268,195,110513,1,2,2:0:0:0:
230,293,110695,1,2,3:2:0:0:
230,293,110786,2,0,L|347:279,1,105,2|2,2:0|2:0,2:0:0:0:
362,298,111058,2,0,B|413:313|413:313|460:281,1,105,0|2,3:2|2:0,0:0:0:0:
393,197,111422,5,2,3:2:0:0:
466,109,111604,2,0,P|423:89|360:92,1,105,2|0,2:0|3:2,2:0:0:0:
309,4,111967,1,2,2:0:0:0:
272,102,112149,1,2,3:2:0:0:
272,102,112240,2,0,P|229:122|166:119,1,105,2|2,2:0|2:0,2:0:0:0:
71,62,112604,2,0,L|85:179,1,105,2|2,2:0|2:0,2:0:0:0:
89,199,112876,5,2,3:2:0:0:
150,289,113058,2,0,P|107:309|44:306,1,105,2|0,2:0|3:2,2:0:0:0:
188,379,113422,1,2,2:0:0:0:
250,291,113604,1,2,3:2:0:0:
250,291,113695,2,0,P|277:246|283:195,1,105,2|2,2:0|2:0,2:0:0:0:
268,164,113967,2,0,B|217:149|217:149|170:181,1,105,6|0,3:2|0:0,2:0:0:0:
208,49,114331,5,2,3:2:0:0:
313,74,114513,2,0,L|430:60,1,105,2|2,2:0|3:2,2:0:0:0:
496,142,114876,1,2,2:0:0:0:
395,163,115058,1,2,3:2:0:0:
395,163,115149,2,0,L|409:280,1,105,2|2,2:0|2:0,2:0:0:0:
448,377,115513,2,0,P|400:356|348:358,1,105,2|2,2:0|2:0,2:0:0:0:
318,374,115786,5,2,3:2:0:0:
267,280,115967,2,0,L|281:163,1,105,2|0,2:0|3:2,2:0:0:0:
176,230,116331,1,2,3:2:0:0:
197,339,116513,1,2,3:2:0:0:
197,339,116604,2,0,L|80:325,1,105,2|2,3:2|2:0,2:0:0:0:
59,322,116876,2,0,B|88:279|88:279|73:228,1,105,2|2,3:2|2:0,2:0:0:0:
44,121,117240,5,2,3:2:0:0:
121,44,117422,2,0,P|168:23|220:25,1,105,2|0,2:0|3:2,2:0:0:0:
325,55,117786,1,2,2:0:0:0:
238,119,117967,1,2,3:2:0:0:
238,119,118058,2,0,P|190:139|138:137,1,105,2|2,2:0|3:2,2:0:0:0:
189,244,118422,2,0,L|306:258,1,105,2|2,3:2|3:2,2:0:0:0:
326,262,118695,5,2,3:2:0:0:
303,357,118876,2,0,L|384:347,1,75,2|0,3:2|0:0,0:0:0:0:
473,367,119240,1,2,2:0:0:0:
441,271,119422,1,2,2:0:0:0:
441,271,119513,1,2,2:0:0:0:
441,271,119604,2,0,B|441:269|434:234|423:202,1,37.5,2|2,2:0|2:0,0:0:0:0:
447,199,119786,2,0,L|454:162,3,37.5,2|2|2|2,2:0|2:0|2:0|2:0,0:0:0:0:
448,125,120149,5,6,3:2:0:0:
363,56,120331,2,0,B|330:97|330:97|344:152,1,105,2|8,2:1|3:2,2:0:0:0:
243,82,120695,1,2,2:1:0:0:
138,59,120876,1,2,3:2:0:0:
138,59,120967,2,0,L|151:171,1,105,2|2,2:0|2:0,2:0:0:0:
126,192,121240,1,8,3:2:0:0:
126,192,121331,2,0,L|139:304,1,105,2|2,2:0|2:0,2:0:0:0:
145,332,121604,5,2,3:2:0:0:
35,365,121786,2,0,B|22:314|22:314|55:273,1,105,2|8,2:1|3:2,2:0:0:0:
126,192,122149,1,2,2:1:0:0:
15,175,122331,1,2,3:2:0:0:
15,175,122422,2,0,B|2:124|2:124|35:83,1,105,2|2,2:0|2:0,2:0:0:0:
61,57,122695,2,0,B|114:80|155:55|155:55|163:43|163:43|188:31|211:39,1,157.5,14|0,3:2|2:0,2:0:0:0:
240,50,123058,5,2,3:2:0:0:
349,36,123240,2,0,L|461:23,1,105,2|8,2:1|3:2,2:0:0:0:
414,127,123604,1,2,2:1:0:0:
483,205,123786,1,2,3:2:0:0:
483,205,123876,2,0,B|442:238|442:238|387:224,1,105,2|2,2:0|2:0,2:0:0:0:
355,215,124149,1,8,3:2:0:0:
355,215,124240,2,0,B|304:202|304:202|263:235,1,105,2|2,2:0|2:0,2:0:0:0:
244,266,124513,5,2,3:2:0:0:
227,153,124695,2,0,L|240:41,1,105,2|10,2:1|3:2,2:0:0:0:
136,94,125058,1,2,2:1:0:0:
43,41,125240,5,2,3:2:0:0:
43,41,125331,1,2,2:0:0:0:
40,147,125513,2,0,B|67:208|67:208|30:284|30:284|61:342,1,210,6|0,3:2|2:0,2:0:0:0:
78,366,125967,5,6,3:2:0:0:
186,372,126149,2,0,L|131:270,1,105,2|0,2:0|3:2,2:0:0:0:
252,309,126513,1,2,2:0:0:0:
250,193,126695,5,6,3:2:0:0:
348,235,126876,2,0,L|331:120,1,105,2|0,2:0|3:2,2:0:0:0:
435,169,127240,1,2,2:0:0:0:
469,43,127422,5,6,3:2:0:0:
373,0,127604,2,0,L|357:103,1,105,2|0,2:0|3:2,2:0:0:0:
272,15,127967,1,2,2:0:0:0:
208,104,128149,5,6,3:2:0:0:
114,35,128331,2,0,L|121:98,1,52.5,2|0,2:0|2:0,2:0:0:0:
92,112,128513,2,0,L|107:215,1,105,2|2,3:2|3:2,0:0:0:0:
209,285,128876,5,6,3:2:0:0:
209,285,128967,2,0,P|201:212|245:195,1,105,2|6,3:2|3:2,2:0:0:0:
203,165,129240,2,0,P|269:134|299:171,1,105,2|6,3:2|3:2,2:0:0:0:
316,122,129513,2,0,P|365:176|339:215,1,105,2|6,3:2|3:2,2:0:0:0:
391,215,129786,2,0,P|354:278|308:266,1,105,2|2,3:2|3:2,2:0:0:0:
325,316,130058,2,0,L|253:301,2,52.5,2|2|2,3:2|3:2|3:2,0:0:0:0:
350,355,130331,5,0,0:0:0:0:
256,192,130422,12,4,131786,2:0:0:0:
0,103,143422,6,0,B|76:112|76:112|110:78|110:78|165:83|165:83|185:129|185:129|237:136|237:136|283:93|283:93|336:99|336:99|359:150|359:150|428:152|428:152|474:190,1,562.5,0|0,0:0|2:0,0:0:0:0:
466,210,144876,5,8,3:2:0:0:
466,210,144967,1,8,3:2:0:0:
466,210,145058,2,0,P|434:266|439:307,1,90,8|8,3:2|3:2,0:0:0:0:
448,324,145331,2,0,P|384:310|347:328,1,90,8|8,3:2|3:2,0:0:0:0:
334,342,145604,2,0,P|326:277|298:247,1,90,8|8,3:2|3:2,0:0:0:0:
284,234,145876,1,8,3:2:0:0:
363,157,146058,2,0,P|406:204|446:212,1,90,8|0,3:2|2:0,2:0:0:0:
466,210,146331,5,6,3:2:0:0:
452,115,146513,2,0,L|467:27,2,82.5,0|8|0,2:0|2:0|2:0,0:0:0:0:
363,157,147058,2,0,B|329:105|329:105|256:126,1,123.75,0|0,3:2|2:0,0:0:0:0:
210,59,147513,1,0,2:0:0:0:
118,109,147695,6,0,B|58:91|58:91|16:154,1,123.75,0|0,2:0|2:0,2:0:0:0:
24,176,148058,1,0,2:0:0:0:
24,176,148149,1,8,2:0:0:0:
120,223,148331,1,0,2:0:0:0:
120,223,148422,1,0,2:0:0:0:
120,223,148513,2,0,L|110:281,3,41.25,0|0|0|0,3:2|2:0|2:0|2:0,2:0:0:0:
132,292,148876,2,0,L|190:302,3,41.25,8|0|0|0,2:0|2:0|2:0|2:0,2:0:0:0:
206,305,149240,5,0,3:2:0:0:
285,358,149422,2,0,B|303:320|303:320|295:273,2,82.5,0|8|0,2:0|2:0|2:0,2:0:0:0:
395,366,149967,2,0,L|375:243,1,123.75,0|0,3:2|2:0,0:0:0:0:
458,203,150422,1,0,2:0:0:0:
378,130,150604,6,0,L|358:7,1,123.75,0|0,2:0|2:0,2:0:0:0:
324,13,150967,1,0,0:0:0:0:
324,13,151058,2,0,L|243:26,1,82.5,8|0,2:0|2:0,0:0:0:0:
153,3,151422,2,0,B|134:40|134:40|142:87,1,82.5,0|0,3:2|0:0,3:2:0:0:
155,112,151695,1,8,3:2:0:0:
155,112,151786,2,0,B|161:152|161:152|143:189,1,82.5,0|8,0:0|3:2,0:0:0:0:
62,141,152149,5,0,3:2:0:0:
45,231,152331,2,0,L|30:319,2,82.5,0|8|0,2:0|2:0|2:0,2:0:0:0:
128,284,152876,2,0,B|162:336|162:336|235:315,1,123.75,0|0,3:2|2:0,0:0:0:0:
266,243,153331,1,0,2:0:0:0:
355,186,153513,6,0,B|321:134|321:134|248:155,1,123.75,0|0,2:0|2:0,2:0:0:0:
227,144,153876,1,0,2:0:0:0:
227,144,153967,1,8,2:0:0:0:
261,50,154149,1,0,2:0:0:0:
261,50,154240,1,0,2:0:0:0:
261,50,154331,2,0,L|319:40,3,41.25,0|0|0|0,3:2|2:0|2:0|2:0,2:0:0:0:
332,29,154695,2,0,L|390:39,3,41.25,8|0|0|0,2:0|2:0|2:0|2:0,2:0:0:0:
404,44,155058,5,0,3:2:0:0:
488,108,155240,2,0,B|494:148|494:148|476:185,2,82.5,0|8|0,2:0|2:0|2:0,2:0:0:0:
390,139,155786,2,0,L|267:158,1,123.75,0|0,3:2|2:0,0:0:0:0:
185,203,156240,1,0,2:0:0:0:
230,300,156422,6,0,B|272:317|272:317|288:346|288:346|350:372,1,123.75000377655,6|6,3:2|3:2,2:0:0:0:
488,374,157967,6,0,P|508:336|512:293,1,86.25,0|0,3:2|3:2,2:0:0:0:
411,303,158331,1,0,3:2:0:0:
411,303,158422,1,0,2:0:0:0:
411,303,158513,1,0,3:2:0:0:
334,232,158695,2,0,P|313:269|309:312,1,86.25,0|0,3:2|3:2,2:0:0:0:
321,344,158967,1,0,3:2:0:0:
321,344,159058,2,0,L|265:355,3,43.125,0|0|0|0,3:2|3:2|3:2|3:2,0:0:0:0:
244,360,159422,6,0,B|207:343|207:343|143:357,1,75,8|8,2:0|2:0,2:0:0:0:
70,298,159786,1,8,2:0:0:0:
70,298,159876,1,0,2:0:0:0:
70,298,159967,1,8,2:0:0:0:
168,205,160149,2,0,B|132:187|132:187|67:202,1,75,8|8,2:0|2:0,2:0:0:0:
32,84,160513,6,0,B|61:39|61:39|139:55,1,108.75,4|4,3:0|3:0,2:0:0:0:
157,61,160786,1,0,0:0:0:0:
157,61,160876,6,0,L|281:89,1,90,0|0,3:2|3:2,2:0:0:0:
352,38,161240,1,0,3:2:0:0:
352,38,161331,1,0,2:0:0:0:
352,38,161422,1,0,3:2:0:0:
423,123,161604,2,0,L|547:151,1,90,0|0,3:2|3:2,2:0:0:0:
508,179,161876,1,0,3:2:0:0:
508,179,161967,2,0,L|494:241,3,45,0|0|0|0,3:2|3:2|3:2|3:2,0:0:0:0:
492,258,162331,5,0,3:2:0:0:
410,312,162513,1,0,3:2:0:0:
347,235,162695,1,0,3:2:0:0:
262,292,162876,1,0,3:2:0:0:
190,211,163058,2,0,P|145:214|106:235,1,90,0|0,3:2|3:2,3:2:0:0:
95,271,163331,1,0,3:2:0:0:
95,271,163422,2,0,L|109:333,2,45,0|0|0,3:2|2:0|3:2,2:0:0:0:
220,362,163786,6,0,L|234:300,3,48.75,4|0|0|0,3:2|3:2|3:2|3:2,0:0:0:0:
262,292,164149,2,0,L|276:230,3,48.75,0|0|0|0,3:2|3:2|3:2|3:2,0:0:0:0:
311,251,164513,2,0,L|373:265,3,48.75,0|0|0|0,3:2|3:2|3:2|3:2,0:0:0:0:
396,272,164876,1,0,3:2:0:0:
488,212,165058,1,0,3:2:0:0:
394,157,165240,6,0,L|380:95,3,50.625,0|0|0|0,3:2|3:2|3:2|3:2,0:0:0:0:
352,87,165604,2,0,L|338:25,3,50.625,0|0|0|0,3:2|3:2|3:2|3:2,0:0:0:0:
303,46,165967,2,0,L|241:60,3,50.625,0|0|0|0,3:2|3:2|3:2|3:2,0:0:0:0:
218,67,166331,1,0,3:2:0:0:
126,7,166513,1,0,3:2:0:0:
256,192,166604,12,0,167786,3:2:0:0:
289,263,168149,6,0,B|148:374|148:374|137:324|137:324|83:255|83:255|87:205|87:205|65:70,1,495,4|0,1:0|3:2,2:0:0:0:
73,49,169240,1,0,3:2:0:0:
83,48,169331,1,0,3:2:0:0:
93,47,169422,1,0,3:2:0:0:
186,94,169604,6,0,L|243:84,3,48.75,6|2|2|2,3:2|2:0|2:0|2:0,0:0:0:0:
259,62,169967,2,0,P|266:137|314:172,1,97.5,2|2,3:2|2:0,2:0:0:0:
312,139,170240,2,0,P|369:187|428:177,1,105,2|2,2:0|2:0,2:0:0:0:
433,181,170513,1,2,2:0:0:0:
489,281,170695,1,2,3:2:0:0:
489,281,170786,1,2,2:0:0:0:
489,281,170876,1,2,2:0:0:0:
419,352,171058,6,0,L|362:362,3,48.75,2|2|2|2,3:2|2:0|2:0|2:0,0:0:0:0:
346,384,171422,2,0,P|339:309|291:274,1,97.5,2|2,3:2|2:0,2:0:0:0:
289,294,171695,2,0,P|241:237|251:178,1,105,2|2,2:0|2:0,2:0:0:0:
212,177,171967,1,2,2:0:0:0:
151,255,172149,1,2,3:2:0:0:
151,255,172240,1,2,2:0:0:0:
151,255,172331,1,2,2:0:0:0:
51,264,172513,6,0,L|41:207,3,48.75,2|2|0|2,3:2|2:0|2:0|2:0,0:0:0:0:
56,184,172876,2,0,L|75:73,1,97.5,2|2,3:2|2:0,2:0:0:0:
81,52,173149,2,0,L|195:32,1,105,2|2,2:0|2:0,2:0:0:0:
221,31,173422,1,2,2:0:0:0:
274,125,173604,2,0,L|263:183,1,52.5,2|2,3:2|3:2,0:0:0:0:
278,211,173786,2,0,L|267:269,1,52.5,2|2,3:2|3:2,0:0:0:0:
260,298,173967,6,0,P|291:342|414:341,1,187.5,2|2,3:2|3:2,2:0:0:0:
430,308,174422,1,2,3:2:0:0:
414,208,174604,2,0,B|375:227|375:227|408:104,1,140.625,6|2,3:2|3:2,2:0:0:0:
510,42,175058,2,4,B|468:55|468:55|407:35,1,93.75,12|0,3:0|0:0,2:0:0:0:
306,64,175422,6,0,L|249:54,3,48.75,12|0|2|2,3:0|2:0|2:0|2:0,2:0:0:0:
233,32,175786,2,0,P|226:107|178:142,1,97.5,2|2,3:2|2:0,2:0:0:0:
185,145,176058,2,0,P|110:138|76:89,1,105,2|2,2:0|2:0,2:0:0:0:
78,85,176331,1,2,2:0:0:0:
19,177,176513,1,2,3:2:0:0:
19,177,176604,1,2,2:0:0:0:
19,177,176695,1,2,2:0:0:0:
42,271,176876,6,0,L|99:281,3,48.75,2|2|2|2,3:2|2:0|2:0|2:0,0:0:0:0:
106,309,177240,2,0,P|153:313|195:289,1,97.5,2|2,3:2|2:0,2:0:0:0:
214,257,177513,2,0,P|281:225|335:250,1,105,2|2,2:0|2:0,2:0:0:0:
343,242,177786,1,2,2:0:0:0:
309,350,177967,1,2,3:2:0:0:
309,350,178058,1,2,2:0:0:0:
309,350,178149,1,2,2:0:0:0:
416,351,178331,6,0,L|426:294,3,48.75,2|2|2|2,3:2|2:0|2:0|2:0,0:0:0:0:
455,287,178695,2,0,L|436:176,1,97.5,2|2,3:2|2:0,2:0:0:0:
461,162,178967,2,0,L|443:58,1,105,2|2,2:0|2:0,2:0:0:0:
406,51,179240,2,0,L|397:-2,2,52.5,2|2|2,2:0|2:0|3:2,0:0:0:0:
381,78,179513,2,0,B|336:102|336:102|264:85,1,105,2|2,2:0|2:0,2:0:0:0:
256,192,179786,12,0,180876,0:0:0:0:
416,33,181240,6,0,L|426:90,3,48.75,6|0|2|2,3:2|2:0|2:0|2:0,2:0:0:0:
454,98,181604,2,0,P|471:138|443:189,1,97.5,10|2,3:2|2:0,2:0:0:0:
415,198,181876,2,0,P|387:240|404:288,1,105,2|2,2:0|2:0,2:0:0:0:
432,312,182149,1,2,2:0:0:0:
337,362,182331,1,10,3:2:0:0:
337,362,182422,1,2,2:0:0:0:
337,362,182513,1,2,2:0:0:0:
270,279,182695,6,0,L|213:289,3,48.75,2|2|2|2,3:2|2:0|2:0|2:0,0:0:0:0:
205,317,183058,2,0,P|165:334|114:306,1,97.5,10|2,3:2|2:0,2:0:0:0:
85,330,183331,2,0,P|46:296|48:246,1,105,2|2,2:0|2:0,2:0:0:0:
71,216,183604,1,2,2:0:0:0:
19,128,183786,1,10,3:2:0:0:
19,128,183876,1,2,2:0:0:0:
19,128,183967,1,2,2:0:0:0:
65,40,184149,6,0,L|122:50,3,48.75,2|0|2|2,3:2|2:0|2:0|2:0,2:0:0:0:
131,77,184513,2,0,P|184:59|245:48,1,97.5,10|2,3:2|2:0,2:0:0:0:
242,83,184786,2,0,P|292:107|343:143,1,97.5,2|2,2:0|2:0,2:0:0:0:
339,170,185058,1,2,2:0:0:0:
428,114,185240,1,10,3:2:0:0:
428,114,185331,1,2,3:2:0:0:
428,114,185422,2,0,L|454:162,1,48.75,2|2,3:2|3:2,0:0:0:0:
468,193,185604,6,0,P|439:229|446:287,1,93.75,6|2,3:2|2:0,2:0:0:0:
456,309,185876,2,0,L|448:361,2,46.875,2|10|2,3:2|3:2|2:0,2:0:0:0:
350,313,186240,2,0,B|301:306|297:328|276:351|205:335,1,140.625,2|2,2:0|2:0,2:0:0:0:
242,221,186695,1,12,2:0:0:0:
132,260,186876,1,8,3:2:0:0:
170,147,187058,6,0,B|215:121|215:121|183:65,1,105,12|2,3:2|2:0,2:0:0:0:
173,41,187331,2,0,B|147:-4|147:-4|14:58,1,157.5,2|2,2:0|2:0,0:0:0:0:
11,155,187786,2,0,L|25:262,1,105,8|0,3:2|2:0,2:0:0:0:
61,256,188058,2,0,B|73:348|73:348|141:386,1,157.5,8|8,3:2|3:2,2:0:0:0:
185,280,188513,6,0,L|268:198,1,105,10|2,3:2|2:0,0:0:0:0:
287,181,188786,2,0,B|336:243|336:243|411:209,1,157.5,0|2,2:0|2:0,0:0:0:0:
512,145,189240,2,0,B|472:105|472:105|487:40,1,105,8|0,3:2|2:0,2:0:0:0:
508,30,189513,2,0,L|348:9,1,157.5,8|8,3:2|3:2,2:0:0:0:
249,52,189967,6,0,B|203:78|203:78|235:133,1,105,8|0,3:2|2:0,2:0:0:0:
248,156,190240,2,0,B|274:201|274:201|140:268,1,157.5,8|8,3:2|3:2,2:0:0:0:
147,265,190604,1,0,2:0:0:0:
147,265,190695,2,0,L|166:373,1,105,8|0,3:2|2:0,2:0:0:0:
202,364,190967,2,0,B|245:332|245:332|385:354,1,157.5,8|0,3:2|3:2,2:0:0:0:
383,354,191331,1,0,2:0:0:0:
383,354,191422,6,0,B|382:296|382:296|394:260|394:260|394:216|394:216|410:176|410:176|410:136|410:136|434:100|434:100|434:36,1,330,2|2,2:0|2:0,0:0:0:0:
410,19,192240,1,2,2:0:0:0:
308,38,192422,2,0,B|308:86|308:86|320:106|320:106|320:158,1,123.75,2|2,2:0|2:0,2:0:0:0:
232,122,192876,6,0,P|156:123|116:161,1,97.5,6|2,3:2|2:0,2:0:0:0:
196,213,193240,1,10,3:2:0:0:
112,253,193422,1,2,2:0:0:0:
196,311,193604,1,2,3:2:0:0:
196,311,193695,2,0,P|242:299|277:265,2,97.5,2|2|2,2:0|2:0|2:0,2:0:0:0:
118,369,194240,6,0,B|73:330|73:330|128:220,1,146.25,2|2,2:0|2:0,2:0:0:0:
107,222,194604,1,2,2:0:0:0:
107,222,194695,1,10,3:2:0:0:
10,177,194876,1,2,2:0:0:0:
97,129,195058,2,0,L|149:121,3,48.75,2|2|2|2,3:2|2:0|2:0|2:0,0:0:0:0:
160,89,195422,2,0,B|233:62|214:124|306:98,1,146.25,10|2,3:2|2:0,0:0:0:0:
334,87,195786,5,2,3:2:0:0:
405,17,195967,1,2,2:0:0:0:
428,116,196149,2,0,P|416:162|382:197,1,97.5,10|2,3:2|2:0,2:0:0:0:
426,286,196513,1,2,3:2:0:0:
426,286,196604,2,0,P|380:298|332:286,2,97.5,2|2|2,2:0|2:0|2:0,2:0:0:0:
381,197,197149,6,0,B|342:152|342:152|232:207,1,146.25,2|2,2:0|2:0,0:0:0:0:
180,247,197604,2,0,L|169:147,1,97.5,8|2,3:2|2:0,2:0:0:0:
214,52,197967,2,0,L|114:63,1,97.5,2|2,3:2|2:0,2:0:0:0:
18,30,198331,2,0,L|29:130,1,97.5,10|2,3:2|2:0,2:0:0:0:
0,266,198695,6,0,L|100:255,1,97.5,6|2,3:2|2:0,2:0:0:0:
182,310,199058,1,10,3:2:0:0:
224,220,199240,1,2,2:0:0:0:
286,302,199422,1,2,3:2:0:0:
286,302,199513,2,0,P|298:348|332:383,2,97.5,2|2|2,2:0|2:0|2:0,2:0:0:0:
387,300,200058,6,0,B|429:258|429:258|389:171,1,146.25,2|2,2:0|2:0,2:0:0:0:
380,150,200422,1,2,2:0:0:0:
380,150,200513,1,10,3:2:0:0:
313,220,200695,1,2,2:0:0:0:
277,123,200876,2,0,L|225:131,3,48.75,2|2|2|2,3:2|2:0|2:0|2:0,0:0:0:0:
195,143,201240,2,0,P|202:224|122:209,1,146.25,10|2,3:2|2:0,0:0:0:0:
119,223,201604,5,2,3:2:0:0:
72,135,201786,1,2,2:0:0:0:
135,58,201967,2,0,L|235:47,1,97.5,10|2,3:2|2:0,2:0:0:0:
330,23,202331,1,2,3:2:0:0:
330,23,202422,2,0,P|377:30|422:11,1,97.5,2|6,2:0|3:2,2:0:0:0:
457,16,202695,2,0,L|436:118,1,97.5,0|2,0:0|2:0,0:0:0:0:
448,145,202967,1,2,2:0:0:0:
448,145,203058,6,0,L|457:207,3,48.75,2|2|2|2,3:2|2:0|2:0|2:0,0:0:0:0:
431,220,203422,2,0,L|440:282,3,48.75,10|0|2|2,3:2|2:0|3:2|3:2,2:0:0:0:
413,294,203786,6,0,B|397:307|397:307|290:254|290:254|266:278,2,168.75,12|12|14,3:2|3:2|3:2,2:0:0:0:
238,51,204695,5,2,0:2:0:0:
238,51,204786,1,2,0:2:0:0:
238,51,204876,2,0,P|190:89|125:81,1,97.5,14|2,3:2|0:0,0:0:0:0:
70,152,205240,2,0,P|118:190|183:182,2,97.5,2|2|10,3:2|0:0|3:2,0:0:0:0:
60,117,205695,1,2,0:0:0:0:
17,227,205876,6,0,B|5:286|5:286|124:340,1,146.25,2|2,0:0|0:0,0:0:0:0:
114,338,206240,1,2,0:0:0:0:
114,338,206331,1,10,3:2:0:0:
192,277,206513,1,2,0:0:0:0:
234,364,206695,2,0,L|296:355,3,48.75,2|2|2|2,3:2|0:0|0:0|0:0,0:0:0:0:
312,376,207058,2,0,B|282:329|314:306|337:271|304:207,1,146.25,14|2,3:2|0:0,0:0:0:0:
282,219,207422,5,2,3:2:0:0:
356,144,207604,1,2,0:0:0:0:
287,59,207786,2,0,L|387:48,1,97.5,10|2,3:2|0:0,0:0:0:0:
474,98,208149,1,2,3:2:0:0:
474,98,208240,2,0,L|463:198,1,97.5,2|2,0:0|0:2,0:0:0:0:
463,230,208513,1,10,3:2:0:0:
512,305,208695,1,2,0:2:0:0:
463,380,208876,5,2,3:2:0:0:
377,358,209058,2,0,P|339:310|347:245,1,97.5,10|2,3:2|0:2,2:2:0:0:
224,300,209422,2,0,P|225:238|273:194,1,97.5,10|2,3:2|0:2,2:2:0:0:
144,157,209786,2,0,P|184:111|250:107,1,97.5,10|2,3:2|3:2,2:2:0:0:
253,109,210058,1,2,3:2:0:0:
253,109,210149,1,10,3:2:0:0:
241,8,210331,6,0,L|308:0,2,48.75,0|2|2,3:0|0:2|0:2,0:0:0:0:
146,41,210695,2,0,L|49:30,1,97.5,14|2,3:2|2:0,2:0:0:0:
0,121,211058,1,2,3:2:0:0:
0,121,211149,2,0,P|15:166|54:195,1,97.5,0|0,2:0|2:0,0:0:0:0:
18,291,211513,2,0,P|65:299|109:281,1,97.5,2|2,2:0|2:0,0:0:0:0:
138,259,211786,6,2,B|178:235|178:235|241:253,1,97.5,2|2,3:2|2:0,2:0:0:0:
329,283,212149,2,0,B|377:296|377:296|417:272,1,97.5,10|0,3:2|2:0,2:0:0:0:
403,170,212513,2,0,B|363:194|363:194|315:181,1,97.5,2|0,3:2|2:0,2:0:0:0:
212,146,212876,2,0,B|164:133|164:133|124:157,1,97.5,10|0,3:2|2:0,2:0:0:0:
31,116,213240,5,0,3:2:0:0:
96,19,213422,2,0,L|-1:8,2,97.5,2|10|2,2:0|3:2|2:0,2:0:0:0:
192,53,213967,1,2,3:2:0:0:
192,53,214058,2,0,P|248:29|312:36,1,97.5,2|2,2:0|2:0,2:0:0:0:
317,40,214331,1,10,3:2:0:0:
276,125,214513,1,0,0:0:0:0:
276,125,214604,6,0,B|241:161|241:161|279:244,1,135,6|6,3:2|3:2,2:0:0:0:
263,246,216149,6,0,P|254:322|256:348,1,93.75,6|0,3:2|2:0,2:0:0:0:
161,327,216513,1,2,3:2:0:0:
161,327,216604,1,0,2:0:0:0:
138,228,216786,2,0,P|72:235|43:155,1,140.625,2|2,2:0|2:0,0:0:0:0:
19,73,217240,2,0,L|121:80,1,93.75,0|0,3:2|2:0,2:0:0:0:
145,68,217513,1,2,2:0:0:0:
145,68,217604,6,0,P|191:76|237:75,1,93.75,0|2,3:2|2:0,2:0:0:0:
316,28,217967,1,2,3:2:0:0:
316,28,218058,1,2,2:0:0:0:
414,24,218240,2,0,P|407:79|458:149,1,140.625,2|2,2:0|2:0,0:0:0:0:
490,160,218604,1,2,2:0:0:0:
490,160,218695,2,0,L|483:262,1,93.75,0|0,3:2|2:0,2:0:0:0:
478,283,218967,6,0,P|410:296|385:366,1,140.625,0|8,3:2|2:0,2:0:0:0:
301,310,219422,2,0,L|244:300,1,46.875,0|0,3:2|2:0,2:0:0:0:
304,214,219695,2,0,P|291:146|349:103,1,140.625,0|8,3:2|2:0,2:0:0:0:
216,103,220149,2,0,L|156:94,1,46.875,0|0,3:2|2:0,2:0:0:0:
95,156,220422,6,0,L|82:5,2,140.625,0|0|8,3:2|3:2|2:0,2:0:0:0:
0,312,221240,1,8,2:0:0:0:
73,371,221422,2,0,B|134:379|134:379|191:349|191:349|299:357,1,234.375,0|0,2:0|2:0,0:0:0:0:
319,327,221967,6,0,P|328:251|326:225,1,93.75,6|0,3:2|2:0,2:0:0:0:
252,178,222331,1,2,3:2:0:0:
252,178,222422,1,2,2:0:0:0:
206,91,222604,2,0,B|293:111|251:49|361:62,1,140.625,2|2,2:0|2:0,2:0:0:0:
439,16,223058,2,0,L|427:135,1,93.75,0|0,3:2|2:0,2:0:0:0:
443,140,223331,1,0,2:0:0:0:
443,140,223422,6,0,P|434:216|436:242,1,93.75,2|2,3:2|2:0,2:0:0:0:
479,324,223786,1,2,3:2:0:0:
479,324,223876,1,2,2:0:0:0:
392,365,224058,2,0,P|348:302|285:306,1,140.625,2|2,2:0|2:0,0:0:0:0:
268,330,224422,1,0,2:0:0:0:
268,330,224513,2,0,L|154:342,1,93.75,0|0,3:2|2:0,2:0:0:0:
136,342,224786,6,0,B|98:283|98:283|120:215,1,140.625,0|8,3:2|2:0,2:0:0:0:
227,231,225240,2,0,L|221:167,1,46.875,0|8,3:2|2:0,0:0:0:0:
322,195,225513,2,0,B|344:127|344:127|306:68,1,140.625,0|8,3:2|2:0,2:0:0:0:
285,53,225876,1,0,3:2:0:0:
285,53,225967,2,0,L|188:66,1,93.75,0|8,3:2|2:0,0:0:0:0:
110,20,226331,6,0,P|97:80|121:128,1,93.75,6|2,3:2|2:0,2:0:0:0:
44,184,226695,2,0,L|32:245,3,46.875,0|2|2|2,3:2|2:0|2:0|2:0,2:0:0:0:
26,263,227058,2,0,P|71:304|125:307,1,93.75,2|2,3:2|2:0,2:0:0:0:
121,338,227331,1,2,2:0:0:0:
121,338,227422,2,0,P|179:319|209:274,1,93.75,2|2,3:2|2:0,2:0:0:0:
148,211,227786,6,0,L|239:192,1,93.75,0|0,3:2|2:0,2:0:0:0:
273,184,228058,1,2,2:0:0:0:
273,184,228149,2,0,L|211:114,1,93.75,2|0,3:2|2:0,2:0:0:0:
187,89,228422,1,2,2:0:0:0:
187,89,228513,2,0,L|157:177,1,93.75,2|0,3:2|2:0,2:0:0:0:
199,305,228876,2,0,L|203:342,3,37.5,0|0|10|0,0:0|2:0|2:0|2:0,0:0:0:0:
233,363,229240,6,0,P|293:376|341:352,1,90,6|0,3:2|2:0,2:0:0:0:
425,366,229604,2,0,L|417:319,3,45,2|2|2|2,3:2|2:0|2:0|2:0,2:0:0:0:
419,285,229967,2,0,P|432:225|408:177,1,90,2|2,3:2|2:0,2:0:0:0:
396,172,230240,1,2,2:0:0:0:
396,172,230331,2,0,P|385:126|399:82,1,90,2|2,3:2|2:0,2:0:0:0:
300,112,230695,6,0,L|209:131,1,90,2|0,3:2|2:0,2:0:0:0:
198,164,230967,1,2,2:0:0:0:
198,164,231058,2,0,L|179:255,1,90,0|0,3:2|2:0,2:0:0:0:
169,291,231331,1,2,2:0:0:0:
169,291,231422,2,0,L|78:310,1,90,0|0,3:2|2:0,2:0:0:0:
95,194,231786,2,0,L|102:149,3,45,10|8|8|8,2:0|2:0|2:0|2:0,2:0:0:0:
75,123,232149,6,0,P|60:77|71:30,1,97.5,4|0,3:2|2:0,2:0:0:0:
169,72,232513,2,0,L|218:79,3,48.75,0|2|2|2,3:2|2:0|2:0|2:0,2:0:0:0:
249,63,232876,2,0,P|294:48|341:59,1,97.5,2|2,3:2|2:0,2:0:0:0:
375,83,233149,1,2,2:0:0:0:
375,83,233240,2,0,P|389:128|378:175,1,97.5,2|2,3:2|2:0,2:0:0:0:
277,160,233604,6,0,L|182:179,1,97.5,2|2,3:2|2:0,2:0:0:0:
147,188,233876,1,2,2:0:0:0:
147,188,233967,2,0,L|211:260,1,97.5,2|2,3:2|2:0,2:0:0:0:
236,286,234240,1,2,2:0:0:0:
236,286,234331,2,0,L|266:194,1,97.5,2|0,3:2|2:0,2:0:0:0:
354,279,234695,2,0,L|403:271,3,48.75,0|0|8|0,0:0|2:0|2:0|2:0,0:0:0:0:
435,284,235058,6,0,P|449:238|438:191,1,97.5,4|0,3:2|2:0,2:0:0:0:
440,89,235422,2,0,L|390:96,3,48.75,0|2|2|2,3:2|2:0|2:0|2:0,2:0:0:0:
357,84,235786,2,0,P|324:48|278:34,1,97.5,2|2,3:2|2:0,2:0:0:0:
246,39,236058,1,2,2:0:0:0:
246,39,236149,1,2,3:2:0:0:
143,70,236331,1,0,2:0:0:0:
143,70,236422,1,2,2:0:0:0:
143,70,236513,6,0,B|112:114|112:114|128:181,1,105,6|2,3:2|2:0,2:0:0:0:
132,201,236786,2,0,B|101:245|101:245|117:312,1,105,6|2,3:2|2:0,2:0:0:0:
124,331,237058,2,0,L|137:389,2,52.5,6|0|8,3:2|2:0|2:0,2:0:0:0:
274,346,237422,1,8,2:0:0:0:
274,346,237513,1,8,2:0:0:0:
274,346,237604,2,0,L|294:219,1,105,6|0,3:2|0:0,2:0:0:0:
257,134,237967,5,0,2:0:0:0:
86,88,243240,5,2,3:2:0:0:
186,106,243422,1,0,3:2:0:0:
186,106,243513,2,0,L|167:219,1,82.5,0|0,3:2|3:2,0:0:0:0:
167,224,243786,6,0,P|123:209|78:213,1,92.25,4|0,2:0|2:0,2:0:0:0:
14,312,244149,2,0,P|57:326|102:322,1,92.25,0|0,3:2|2:0,2:0:0:0:
216,312,244513,2,0,L|280:317,3,46.125,0|0|0|0,3:2|2:0|2:0|2:0,2:0:0:0:
292,337,244876,2,0,L|280:175,1,138.375,0|0,3:2|2:0,2:0:0:0:
278,161,245240,6,0,P|321:175|366:171,1,92.25,0|0,3:2|2:0,2:0:0:0:
438,101,245604,1,0,3:2:0:0:
371,28,245786,1,0,2:0:0:0:
371,28,245876,1,0,2:0:0:0:
371,28,245967,2,0,L|306:22,3,46.125,0|0|0|0,3:2|2:0|3:2|3:2,2:0:0:0:
297,49,246331,2,0,L|232:43,3,46.125,0|0|0|0,3:2|3:2|3:2|3:2,0:0:0:0:
219,67,246695,6,0,B|179:38|179:38|106:58,1,97.5,0|0,3:2|2:0,0:0:0:0:
97,68,246967,1,0,3:2:0:0:
97,68,247058,2,0,L|84:164,1,97.5,0|0,3:2|3:2,2:0:0:0:
23,238,247422,2,0,L|70:275,3,48.75,0|0|0|0,3:2|2:0|3:2|3:2,2:0:0:0:
99,258,247786,2,0,L|145:243,3,48.75,0|0|0|0,3:2|2:0|3:2|2:0,2:0:0:0:
189,227,248149,6,0,B|173:126|173:126|212:53,2,155,8|8|8,3:2|3:2|3:2,2:0:0:0:
323,227,248876,2,0,B|339:126|339:126|300:53,2,155,8|8|8,3:2|3:2|3:2,2:0:0:0:
294,343,249604,6,0,P|251:371|215:326,1,101.250000386238,14|0,3:2|0:0,0:0:0:0:
256,192,249907,12,0,253058,0:0:0:0:
128,170,253604,6,0,B|77:113|77:113|202:125,1,202.5,14|0,3:2|0:0,2:0:0:0:
309,125,254149,2,0,B|435:113|435:113|384:170,1,202.5,14|0,3:2|0:0,2:0:0:0:
320,241,254695,2,0,B|255:320|255:320|192:242,1,202.5,14|0,3:2|0:0,2:0:0:0:
256,128,255240,5,14,3:2:0:0:
256,192,255331,12,2,261513,1:2:0:0:
