osu file format v14

[General]
AudioFilename: audio.mp3
AudioLeadIn: 0
PreviewTime: 87375
Countdown: 0
SampleSet: Drum
StackLeniency: 0.7
Mode: 3
LetterboxInBreaks: 0
SpecialStyle: 0
WidescreenStoryboard: 1

[Editor]
Bookmarks: 11946,22917,44860,66803,77775,88746,110689,132632,149089,160060,182003,203946,214917,236860,258803,269775,280403
DistanceSpacing: 0.8
BeatDivisor: 2
GridSize: 16
TimelineZoom: 1.3

[Metadata]
Title:Clouds in the Blue
TitleUnicode:Clouds in the Blue
Artist:Camellia
ArtistUnicode:かめりあ
Creator:Asherz007
Version:Hard
Source:osu!
Tags:featured artist fa mappers' guild cametek kamelcamellia TF40K EP (​Thanks Twitter Followers 40K) E​.​P. electronic edm かめるかめりあ UK Hardcore Techno instrumental
BeatmapID:2082540
BeatmapSetID:995539

[Difficulty]
HPDrainRate:8
CircleSize:4
OverallDifficulty:8
ApproachRate:5
SliderMultiplier:1.4
SliderTickRate:1

[Events]
//Background and Video events
0,0,"mountains-1985027_1920.jpg",0,0
//Break Periods
//Storyboard Layer 0 (Background)
//Storyboard Layer 1 (Fail)
//Storyboard Layer 2 (Pass)
//Storyboard Layer 3 (Foreground)
//Storyboard Layer 4 (Overlay)
//Storyboard Sound Samples

[TimingPoints]
975,342.857142857143,4,2,1,20,1,0
22917,-100,4,2,1,40,0,0
44860,-100,4,3,1,75,0,0
88746,-100,4,3,1,87,0,1
109317,-100,4,3,1,87,0,0
110689,-100,4,3,1,87,0,1
131260,-100,4,3,1,87,0,0
132632,-100,4,2,1,40,0,0
160060,-100,4,3,1,75,0,0
214917,-100,4,3,1,87,0,1
235489,-100,4,3,1,87,0,0
236860,-100,4,3,1,87,0,1
257432,-100,4,3,1,87,0,0
258803,-100,4,2,1,40,0,0

[HitObjects]
320,192,22917,5,0,0:0:0:0:
64,192,23089,1,0,0:0:0:0:
192,192,23260,128,0,23432:0:0:0:0:
448,192,23432,128,0,23603:0:0:0:0:
320,192,23603,1,0,0:0:0:0:
64,192,23775,1,0,0:0:0:0:
192,192,23946,1,0,0:0:0:0:
320,192,24117,1,0,0:0:0:0:
64,192,24289,1,0,0:0:0:0:
448,192,24460,1,0,0:0:0:0:
192,192,24632,128,0,24803:0:0:0:0:
448,192,24803,128,0,24975:0:0:0:0:
64,192,24975,1,0,0:0:0:0:
320,192,25146,1,0,0:0:0:0:
192,192,25317,1,0,0:0:0:0:
448,192,25489,1,0,0:0:0:0:
320,192,25660,1,0,0:0:0:0:
64,192,25832,1,0,0:0:0:0:
192,192,26003,128,0,26175:0:0:0:0:
448,192,26175,128,0,26346:0:0:0:0:
64,192,26346,1,0,0:0:0:0:
192,192,26517,1,0,0:0:0:0:
320,192,26689,1,0,0:0:0:0:
192,192,26860,1,0,0:0:0:0:
448,192,27032,1,0,0:0:0:0:
64,192,27203,1,0,0:0:0:0:
192,192,27375,128,0,27546:0:0:0:0:
448,192,27546,128,0,27717:0:0:0:0:
320,192,27717,1,0,0:0:0:0:
192,192,27889,1,0,0:0:0:0:
64,192,28060,128,0,28232:0:0:0:0:
320,192,28232,128,0,28403:0:0:0:0:
448,192,28403,1,0,0:0:0:0:
64,192,28575,1,0,0:0:0:0:
192,192,28746,128,0,28917:0:0:0:0:
448,192,28917,128,0,29089:0:0:0:0:
320,192,29089,1,0,0:0:0:0:
192,192,29260,1,0,0:0:0:0:
320,192,29432,128,0,29603:0:0:0:0:
448,192,29603,1,0,0:0:0:0:
320,192,29775,1,0,0:0:0:0:
64,192,29946,1,0,0:0:0:0:
192,192,30117,128,0,30289:0:0:0:0:
448,192,30289,128,0,30460:0:0:0:0:
320,192,30460,1,0,0:0:0:0:
64,192,30632,1,0,0:0:0:0:
320,192,30803,1,0,0:0:0:0:
64,192,30975,1,0,0:0:0:0:
320,192,31146,1,0,0:0:0:0:
64,192,31317,1,0,0:0:0:0:
320,192,31489,128,0,31660:0:0:0:0:
448,192,31660,128,0,31832:0:0:0:0:
192,192,31832,1,0,0:0:0:0:
64,192,32003,1,0,0:0:0:0:
192,192,32175,1,0,0:0:0:0:
448,192,32346,1,0,0:0:0:0:
64,192,32517,1,0,0:0:0:0:
320,192,32689,1,0,0:0:0:0:
192,192,32860,128,0,33032:0:0:0:0:
320,192,33032,128,0,33203:0:0:0:0:
448,192,33203,128,0,33375:0:0:0:0:
64,192,33375,1,0,0:0:0:0:
320,192,33546,128,0,33717:0:0:0:0:
192,192,33717,1,0,0:0:0:0:
448,192,33889,1,0,0:0:0:0:
64,192,34060,1,0,0:0:0:0:
192,192,34232,128,0,34403:0:0:0:0:
448,192,34403,128,0,34575:0:0:0:0:
320,192,34575,1,0,0:0:0:0:
64,192,34746,1,0,0:0:0:0:
192,192,34917,1,0,0:0:0:0:
320,192,35089,1,0,0:0:0:0:
64,192,35260,1,0,0:0:0:0:
448,192,35432,1,0,0:0:0:0:
192,192,35603,128,0,35775:0:0:0:0:
448,192,35775,128,0,35946:0:0:0:0:
64,192,35946,1,0,0:0:0:0:
320,192,36117,1,0,0:0:0:0:
192,192,36289,1,0,0:0:0:0:
448,192,36460,1,0,0:0:0:0:
320,192,36632,1,0,0:0:0:0:
64,192,36803,1,0,0:0:0:0:
192,192,36975,128,0,37146:0:0:0:0:
448,192,37146,128,0,37317:0:0:0:0:
64,192,37317,1,0,0:0:0:0:
192,192,37489,1,0,0:0:0:0:
320,192,37660,1,0,0:0:0:0:
192,192,37832,1,0,0:0:0:0:
448,192,38003,1,0,0:0:0:0:
64,192,38175,1,0,0:0:0:0:
192,192,38346,128,0,38517:0:0:0:0:
448,192,38517,128,0,38689:0:0:0:0:
320,192,38689,1,0,0:0:0:0:
192,192,38860,1,0,0:0:0:0:
64,192,39032,128,0,39203:0:0:0:0:
320,192,39203,128,0,39375:0:0:0:0:
448,192,39375,1,0,0:0:0:0:
64,192,39546,1,0,0:0:0:0:
320,192,39717,128,0,39889:0:0:0:0:
448,192,39889,128,0,40060:0:0:0:0:
192,192,40060,1,0,0:0:0:0:
64,192,40232,1,0,0:0:0:0:
320,192,40403,1,0,0:0:0:0:
448,192,40575,1,0,0:0:0:0:
192,192,40746,1,0,0:0:0:0:
64,192,40917,1,0,0:0:0:0:
320,192,41089,128,0,41260:0:0:0:0:
448,192,41260,128,0,41432:0:0:0:0:
192,192,41432,1,0,0:0:0:0:
64,192,41603,1,0,0:0:0:0:
320,192,41775,1,0,0:0:0:0:
192,192,41946,1,0,0:0:0:0:
448,192,42117,1,0,0:0:0:0:
64,192,42289,1,0,0:0:0:0:
320,192,42460,128,0,42632:0:0:0:0:
448,192,42632,128,0,42803:0:0:0:0:
192,192,42803,1,0,0:0:0:0:
64,192,42975,1,0,0:0:0:0:
192,192,43146,1,0,0:0:0:0:
448,192,43317,1,0,0:0:0:0:
64,192,43489,1,0,0:0:0:0:
320,192,43660,1,0,0:0:0:0:
192,192,43832,1,0,0:0:0:0:
320,192,44003,1,0,0:0:0:0:
448,192,44175,1,0,0:0:0:0:
64,192,44346,1,0,0:0:0:0:
320,192,44517,1,0,0:0:0:0:
192,192,44689,1,0,0:0:0:0:
320,192,44860,1,2,0:0:0:0:
448,192,44860,1,0,0:0:0:0:
64,192,45032,1,0,0:0:0:0:
192,192,45203,1,2,0:0:0:0:
448,192,45203,1,0,0:0:0:0:
320,192,45375,1,0,0:0:0:0:
64,192,45546,1,2,0:0:0:0:
448,192,45546,1,0,0:0:0:0:
192,192,45717,1,0,0:0:0:0:
320,192,45889,1,2,0:0:0:0:
448,192,45889,1,0,0:0:0:0:
448,192,46060,1,0,0:0:0:0:
64,192,46232,1,2,0:0:0:0:
192,192,46232,1,0,0:0:0:0:
448,192,46403,1,0,0:0:0:0:
64,192,46575,1,2,0:0:0:0:
320,192,46575,1,0,0:0:0:0:
192,192,46746,1,0,0:0:0:0:
64,192,46917,1,2,0:0:0:0:
448,192,46917,1,0,0:0:0:0:
320,192,47089,1,0,0:0:0:0:
64,192,47260,1,2,0:0:0:0:
192,192,47260,1,0,0:0:0:0:
64,192,47432,1,0,0:0:0:0:
320,192,47603,1,2,0:0:0:0:
448,192,47603,1,0,0:0:0:0:
192,192,47775,1,0,0:0:0:0:
64,192,47946,1,2,0:0:0:0:
448,192,47946,1,0,0:0:0:0:
192,192,48117,1,0,0:0:0:0:
320,192,48289,1,2,0:0:0:0:
448,192,48289,1,0,0:0:0:0:
192,192,48460,1,0,0:0:0:0:
64,192,48632,1,2,0:0:0:0:
320,192,48632,1,0,0:0:0:0:
320,192,48803,1,0,0:0:0:0:
64,192,48975,1,2,0:0:0:0:
448,192,48975,1,0,0:0:0:0:
192,192,49146,1,0,0:0:0:0:
320,192,49317,1,2,0:0:0:0:
448,192,49317,1,0,0:0:0:0:
192,192,49489,1,0,0:0:0:0:
64,192,49660,1,2,0:0:0:0:
320,192,49660,1,0,0:0:0:0:
448,192,49832,1,0,0:0:0:0:
192,192,50003,1,2,0:0:0:0:
320,192,50003,1,0,0:0:0:0:
192,192,50175,1,0,0:0:0:0:
64,192,50346,1,2,0:0:0:0:
448,192,50346,1,0,0:0:0:0:
320,192,50517,1,0,0:0:0:0:
64,192,50689,1,2,0:0:0:0:
192,192,50689,1,0,0:0:0:0:
448,192,50860,1,0,0:0:0:0:
64,192,51032,1,2,0:0:0:0:
320,192,51032,1,0,0:0:0:0:
192,192,51203,1,0,0:0:0:0:
320,192,51375,1,2,0:0:0:0:
448,192,51375,1,0,0:0:0:0:
448,192,51546,1,0,0:0:0:0:
192,192,51717,1,2,0:0:0:0:
320,192,51717,1,0,0:0:0:0:
64,192,51889,1,0,0:0:0:0:
192,192,52060,1,2,0:0:0:0:
448,192,52060,1,0,0:0:0:0:
320,192,52232,1,0,0:0:0:0:
64,192,52403,1,2,0:0:0:0:
448,192,52403,1,0,0:0:0:0:
192,192,52575,1,0,0:0:0:0:
64,192,52746,1,2,0:0:0:0:
320,192,52746,1,0,0:0:0:0:
64,192,52917,1,0,0:0:0:0:
320,192,53089,1,2,0:0:0:0:
448,192,53089,1,0,0:0:0:0:
192,192,53260,1,0,0:0:0:0:
64,192,53432,1,2,0:0:0:0:
448,192,53432,1,0,0:0:0:0:
320,192,53603,1,0,0:0:0:0:
64,192,53775,1,2,0:0:0:0:
192,192,53775,1,0,0:0:0:0:
448,192,53946,1,0,0:0:0:0:
192,192,54117,1,2,0:0:0:0:
320,192,54117,1,0,0:0:0:0:
320,192,54289,1,0,0:0:0:0:
64,192,54460,1,2,0:0:0:0:
192,192,54460,1,0,0:0:0:0:
448,192,54632,1,0,0:0:0:0:
64,192,54803,1,2,0:0:0:0:
320,192,54803,1,0,0:0:0:0:
192,192,54975,1,0,0:0:0:0:
64,192,55146,1,2,0:0:0:0:
448,192,55146,1,0,0:0:0:0:
320,192,55317,1,0,0:0:0:0:
64,192,55489,1,2,0:0:0:0:
192,192,55489,1,0,0:0:0:0:
192,192,55660,1,0,0:0:0:0:
320,192,55832,1,2,0:0:0:0:
448,192,55832,1,0,0:0:0:0:
448,192,56003,1,0,0:0:0:0:
64,192,56175,1,2,0:0:0:0:
320,192,56175,1,0,0:0:0:0:
192,192,56346,1,0,0:0:0:0:
64,192,56517,1,2,0:0:0:0:
448,192,56517,1,0,0:0:0:0:
64,192,56689,1,0,0:0:0:0:
192,192,56860,1,2,0:0:0:0:
320,192,56860,1,0,0:0:0:0:
448,192,57032,1,0,0:0:0:0:
64,192,57203,1,2,0:0:0:0:
192,192,57203,1,0,0:0:0:0:
192,192,57375,1,0,0:0:0:0:
64,192,57546,1,2,0:0:0:0:
320,192,57546,1,0,0:0:0:0:
448,192,57717,1,0,0:0:0:0:
192,192,57889,1,2,0:0:0:0:
320,192,57889,1,0,0:0:0:0:
320,192,58060,1,0,0:0:0:0:
64,192,58232,1,2,0:0:0:0:
448,192,58232,1,0,0:0:0:0:
192,192,58403,1,0,0:0:0:0:
320,192,58575,1,2,0:0:0:0:
448,192,58575,1,0,0:0:0:0:
320,192,58746,1,0,0:0:0:0:
64,192,58917,1,2,0:0:0:0:
192,192,58917,1,0,0:0:0:0:
448,192,59089,1,0,0:0:0:0:
64,192,59260,1,2,0:0:0:0:
320,192,59260,1,0,0:0:0:0:
320,192,59432,1,0,0:0:0:0:
64,192,59603,1,2,0:0:0:0:
192,192,59603,1,0,0:0:0:0:
448,192,59775,1,0,0:0:0:0:
192,192,59946,1,2,0:0:0:0:
320,192,59946,1,0,0:0:0:0:
192,192,60117,1,0,0:0:0:0:
64,192,60289,1,2,0:0:0:0:
448,192,60289,1,0,0:0:0:0:
320,192,60460,1,0,0:0:0:0:
64,192,60632,1,2,0:0:0:0:
192,192,60632,1,0,0:0:0:0:
192,192,60803,1,0,0:0:0:0:
64,192,60975,1,2,0:0:0:0:
448,192,60975,1,0,0:0:0:0:
320,192,61146,1,0,0:0:0:0:
64,192,61317,1,2,0:0:0:0:
192,192,61317,1,0,0:0:0:0:
64,192,61489,1,0,0:0:0:0:
320,192,61660,1,2,0:0:0:0:
448,192,61660,1,0,0:0:0:0:
192,192,61832,1,0,0:0:0:0:
64,192,62003,1,2,0:0:0:0:
448,192,62003,1,0,0:0:0:0:
448,192,62175,1,0,0:0:0:0:
192,192,62346,1,2,0:0:0:0:
320,192,62346,1,0,0:0:0:0:
64,192,62517,1,0,0:0:0:0:
320,192,62689,1,2,0:0:0:0:
448,192,62689,1,0,0:0:0:0:
320,192,62860,1,0,0:0:0:0:
64,192,63032,1,2,0:0:0:0:
192,192,63032,1,0,0:0:0:0:
448,192,63203,1,0,0:0:0:0:
192,192,63375,1,2,0:0:0:0:
320,192,63375,1,0,0:0:0:0:
192,192,63546,1,0,0:0:0:0:
64,192,63717,1,2,0:0:0:0:
448,192,63717,1,0,0:0:0:0:
320,192,63889,1,0,0:0:0:0:
64,192,64060,1,2,0:0:0:0:
192,192,64060,1,0,0:0:0:0:
192,192,64232,1,0,0:0:0:0:
64,192,64403,1,2,0:0:0:0:
320,192,64403,1,0,0:0:0:0:
320,192,64575,1,0,0:0:0:0:
64,192,64746,1,2,0:0:0:0:
448,192,64746,1,0,0:0:0:0:
64,192,64917,1,0,0:0:0:0:
320,192,65089,1,2,0:0:0:0:
448,192,65089,1,0,0:0:0:0:
448,192,65260,1,0,0:0:0:0:
64,192,65432,1,2,0:0:0:0:
192,192,65432,1,0,0:0:0:0:
448,192,65603,1,0,0:0:0:0:
64,192,65775,1,0,0:0:0:0:
320,192,65903,1,0,0:0:0:73:tom 1.wav
192,192,65946,1,0,0:0:0:73:tom 1.wav
448,192,66032,1,0,0:0:0:73:tom 1.wav
64,192,66117,1,8,0:0:0:0:
192,192,66117,1,0,0:0:0:0:
320,192,66289,1,0,0:0:0:73:tom 1.wav
448,192,66289,1,0,0:0:0:0:
192,192,66460,1,4,0:2:0:90:
320,192,66460,1,0,0:0:0:73:tom 2.wav
64,192,66632,1,0,0:0:0:73:tom 3.wav
64,192,66803,1,2,0:0:0:0:
192,192,66803,1,4,0:0:0:0:
320,192,66803,128,0,66975:0:0:0:0:
320,192,67146,128,0,67317:0:0:0:0:
192,192,67317,128,0,67489:0:0:0:0:
64,192,67489,128,0,67660:0:0:0:0:
448,192,67660,128,0,67832:0:0:0:0:
320,192,68003,128,0,68175:0:0:0:0:
320,192,68346,128,0,68517:0:0:0:0:
448,192,68517,128,0,68689:0:0:0:0:
448,192,68860,128,0,69032:0:0:0:0:
320,192,69032,128,0,69203:0:0:0:0:
192,192,69203,128,0,69375:0:0:0:0:
320,192,69375,128,0,69546:0:0:0:0:
192,192,69546,128,0,69717:0:0:0:0:
448,192,69889,128,0,70060:0:0:0:0:
320,192,70060,128,0,70232:0:0:0:0:
64,192,70232,128,0,70403:0:0:0:0:
192,192,70403,128,0,70575:0:0:0:0:
448,192,70746,128,0,70917:0:0:0:0:
192,192,71089,128,0,71260:0:0:0:0:
64,192,71260,128,0,71432:0:0:0:0:
320,192,71432,128,0,71603:0:0:0:0:
448,192,71775,128,0,71946:0:0:0:0:
64,192,72117,128,0,72203:0:0:0:0:
192,192,72203,128,0,72289:0:0:0:0:
320,192,72289,128,0,72460:0:0:0:0:
320,192,72632,128,0,72803:0:0:0:0:
192,192,72803,128,0,72975:0:0:0:0:
64,192,72975,128,0,73146:0:0:0:0:
448,192,73146,128,0,73317:0:0:0:0:
320,192,73489,128,0,73660:0:0:0:0:
320,192,73832,128,0,74003:0:0:0:0:
192,192,74003,128,0,74175:0:0:0:0:
192,192,74346,128,0,74517:0:0:0:0:
448,192,74517,128,0,74689:0:0:0:0:
320,192,74689,128,0,74860:0:0:0:0:
192,192,74860,128,0,75032:0:0:0:0:
64,192,75032,128,0,75203:0:0:0:0:
192,192,75203,128,0,75375:0:0:0:0:
320,192,75546,128,0,75717:0:0:0:0:
192,192,75889,128,0,76060:0:0:0:0:
448,192,76060,128,0,76232:0:0:0:0:
64,192,76403,128,0,76575:0:0:0:0:
192,192,76575,128,0,76746:0:0:0:0:
320,192,76917,128,0,77089:0:0:0:0:
64,192,77260,128,0,77432:0:0:0:0:
448,192,77432,128,0,77603:0:0:0:0:
192,192,77603,128,0,77775:0:0:0:0:
64,192,77775,1,2,0:0:0:0:
320,192,77775,1,4,0:0:0:0:
448,192,77775,1,0,0:0:0:0:
320,192,77946,1,8,0:0:0:0:
64,192,78117,1,8,0:0:0:0:
448,192,78117,1,0,0:0:0:0:
64,192,78289,1,8,0:0:0:0:
320,192,78460,1,8,0:0:0:0:
448,192,78460,1,0,0:0:0:0:
320,192,78632,1,8,0:0:0:0:
192,192,78803,1,8,0:0:0:0:
448,192,78803,1,0,0:0:0:0:
192,192,78975,1,8,0:0:0:0:
320,192,79146,1,8,0:0:0:0:
448,192,79146,1,0,0:0:0:0:
320,192,79317,1,8,0:0:0:0:
64,192,79489,1,8,0:0:0:0:
448,192,79489,1,0,0:0:0:0:
64,192,79660,1,8,0:0:0:0:
192,192,79832,1,8,0:0:0:0:
448,192,79832,1,0,0:0:0:0:
448,192,80003,1,8,0:0:0:0:
64,192,80175,1,8,0:0:0:0:
192,192,80175,1,0,0:0:0:0:
64,192,80346,1,8,0:0:0:0:
192,192,80517,1,8,0:0:0:0:
320,192,80517,1,0,0:0:0:0:
320,192,80689,1,8,0:0:0:0:
64,192,80860,1,8,0:0:0:0:
192,192,80860,1,0,0:0:0:0:
64,192,81032,1,8,0:0:0:0:
192,192,81203,1,8,0:0:0:0:
448,192,81203,1,0,0:0:0:0:
448,192,81375,1,8,0:0:0:0:
64,192,81546,1,8,0:0:0:0:
192,192,81546,1,0,0:0:0:0:
192,192,81717,1,8,0:0:0:0:
64,192,81889,1,8,0:0:0:0:
448,192,81889,1,0,0:0:0:0:
448,192,82060,1,8,0:0:0:0:
64,192,82232,1,8,0:0:0:0:
320,192,82232,1,0,0:0:0:0:
64,192,82403,1,8,0:0:0:0:
320,192,82575,1,8,0:0:0:0:
448,192,82575,1,0,0:0:0:0:
448,192,82746,1,8,0:0:0:0:
64,192,82917,1,8,0:0:0:0:
320,192,82917,1,0,0:0:0:0:
64,192,83089,1,8,0:0:0:0:
320,192,83175,1,0,0:0:0:0:
448,192,83260,1,10,0:0:0:0:
64,192,83346,1,8,0:0:0:60:
320,192,83432,1,10,0:0:0:60:
192,192,83517,1,8,0:0:0:60:
448,192,83603,1,10,0:0:0:0:
320,192,83689,1,8,0:0:0:60:
192,192,83775,1,10,0:0:0:60:
64,192,83860,1,8,0:0:0:60:
448,192,83946,1,10,0:0:0:60:
320,192,84032,1,8,0:0:0:60:
64,192,84117,1,10,0:0:0:60:
448,192,84203,1,8,0:0:0:60:
320,192,84289,1,10,0:0:0:60:
192,192,84375,1,8,0:0:0:60:
448,192,84460,1,10,0:0:0:60:
64,192,84546,1,8,0:0:0:60:
192,192,84632,1,10,0:0:0:60:
448,192,84717,1,8,0:0:0:60:
320,192,84803,1,10,0:0:0:60:
192,192,84889,1,8,0:0:0:60:
64,192,84975,1,10,0:0:0:0:
320,192,85060,1,8,0:0:0:60:
192,192,85146,1,10,0:0:0:60:
448,192,85232,1,8,0:0:0:60:
320,192,85317,1,10,0:0:0:60:
64,192,85403,1,8,0:0:0:60:
192,192,85489,1,10,0:0:0:0:
448,192,85575,1,8,0:0:0:60:
64,192,85660,1,10,0:0:0:0:
320,192,85746,1,8,0:0:0:60:
448,192,85832,1,10,0:0:0:60:
192,192,85917,1,8,0:0:0:60:
64,192,86003,1,8,0:0:0:60:
448,192,86003,1,2,0:0:0:60:
320,192,86089,1,10,0:0:0:60:
192,192,86175,1,10,0:0:0:60:
320,192,86260,1,10,0:0:0:60:
64,192,86346,1,8,0:0:0:60:
448,192,86346,1,2,0:0:0:60:
192,192,86432,1,10,0:0:0:60:
320,192,86517,1,10,0:0:0:60:
192,192,86603,1,10,0:0:0:60:
64,192,86689,1,8,0:0:0:60:
448,192,86689,1,2,0:0:0:60:
320,192,86775,1,10,0:0:0:60:
192,192,86860,1,10,0:0:0:60:
320,192,86946,1,10,0:0:0:60:
448,192,87032,1,10,0:0:0:60:
64,192,87117,1,8,0:0:0:60:
320,192,87203,1,10,0:0:0:60:
448,192,87289,1,8,0:0:0:60:
64,192,87375,1,8,0:0:0:60:
192,192,87375,1,2,0:0:0:0:
192,192,88060,1,0,0:0:0:0:
64,192,88403,1,4,2:0:0:0:
448,192,88403,1,0,0:0:0:0:
192,192,88575,1,2,0:0:0:0:
320,192,88575,1,0,0:0:0:0:
64,192,88746,1,2,0:0:0:0:
320,192,88746,1,4,0:0:0:0:
448,192,88746,1,0,0:0:0:0:
64,192,88917,1,0,0:0:0:0:
192,192,89089,1,2,0:0:0:0:
448,192,89089,1,8,0:0:0:0:
320,192,89260,1,0,0:0:0:0:
448,192,89260,1,0,0:0:0:0:
64,192,89432,1,2,0:0:0:0:
192,192,89432,1,0,0:0:0:0:
192,192,89603,1,0,0:0:0:0:
320,192,89603,1,0,0:0:0:0:
64,192,89775,1,8,0:0:0:0:
448,192,89775,1,2,0:0:0:0:
192,192,89946,1,0,0:0:0:0:
448,192,89946,1,0,0:0:0:0:
64,192,90117,1,2,0:0:0:0:
320,192,90117,1,0,0:0:0:0:
64,192,90289,1,0,0:0:0:0:
192,192,90289,1,0,0:0:0:0:
320,192,90460,1,2,0:0:0:0:
448,192,90460,1,8,0:0:0:0:
192,192,90632,1,0,0:0:0:0:
320,192,90803,1,2,0:0:0:0:
448,192,90803,1,0,0:0:0:0:
64,192,90975,1,0,0:0:0:0:
448,192,90975,1,0,0:0:0:0:
192,192,91146,1,8,0:0:0:0:
320,192,91146,1,2,0:0:0:0:
64,192,91317,1,0,0:0:0:0:
192,192,91317,1,0,0:0:0:0:
320,192,91489,1,2,0:0:0:0:
448,192,91489,1,0,0:0:0:0:
192,192,91660,1,0,0:0:0:0:
64,192,91832,1,8,0:0:0:0:
448,192,91832,1,2,0:0:0:0:
64,192,92003,1,0,0:0:0:0:
320,192,92003,1,0,0:0:0:0:
192,192,92175,1,2,0:0:0:0:
448,192,92175,1,0,0:0:0:0:
320,192,92346,1,0,0:0:0:0:
448,192,92346,1,0,0:0:0:0:
64,192,92517,1,8,0:0:0:0:
192,192,92517,1,2,0:0:0:0:
192,192,92689,1,0,0:0:0:0:
320,192,92689,1,0,0:0:0:0:
64,192,92860,1,2,0:0:0:0:
448,192,92860,1,0,0:0:0:0:
192,192,93032,1,0,0:0:0:0:
448,192,93032,1,0,0:0:0:0:
64,192,93203,1,8,0:0:0:0:
320,192,93203,1,2,0:0:0:0:
64,192,93375,1,0,0:0:0:0:
192,192,93375,1,0,0:0:0:0:
320,192,93546,1,2,0:0:0:0:
448,192,93546,1,0,0:0:0:0:
64,192,93717,1,0,0:0:0:0:
448,192,93717,1,0,0:0:0:0:
192,192,93889,1,2,0:0:0:0:
320,192,93889,1,8,0:0:0:0:
64,192,94060,1,0,0:0:0:0:
192,192,94060,1,0,0:0:0:0:
320,192,94146,1,0,0:0:0:0:
64,192,94232,1,2,0:0:0:0:
448,192,94232,1,0,0:0:0:0:
192,192,94403,1,0,0:0:0:0:
320,192,94575,1,2,0:0:0:0:
448,192,94575,1,8,0:0:0:0:
192,192,94746,1,0,0:0:0:0:
320,192,94746,1,0,0:0:0:0:
64,192,94917,1,2,0:0:0:0:
448,192,94917,1,0,0:0:0:0:
64,192,95089,1,0,0:0:0:0:
320,192,95089,1,0,0:0:0:0:
192,192,95260,1,2,0:0:0:0:
448,192,95260,1,8,0:0:0:0:
192,192,95432,1,0,0:0:0:0:
320,192,95432,1,0,0:0:0:0:
64,192,95603,1,2,0:0:0:0:
448,192,95603,1,0,0:0:0:0:
192,192,95775,1,0,0:0:0:0:
448,192,95775,1,0,0:0:0:0:
64,192,95946,1,2,0:0:0:0:
320,192,95946,1,8,0:0:0:0:
192,192,96117,1,0,0:0:0:0:
320,192,96289,1,2,0:0:0:0:
448,192,96289,1,0,0:0:0:0:
64,192,96460,1,0,0:0:0:0:
448,192,96460,1,0,0:0:0:0:
192,192,96632,1,8,0:0:0:0:
320,192,96632,1,2,0:0:0:0:
64,192,96803,1,0,0:0:0:0:
192,192,96803,1,0,0:0:0:0:
320,192,96975,1,2,0:0:0:0:
448,192,96975,1,0,0:0:0:0:
192,192,97146,1,0,0:0:0:0:
448,192,97146,1,0,0:0:0:0:
64,192,97317,1,8,0:0:0:0:
320,192,97317,1,2,0:0:0:0:
64,192,97489,1,0,0:0:0:0:
192,192,97489,1,0,0:0:0:0:
320,192,97660,1,2,0:0:0:0:
448,192,97660,1,0,0:0:0:0:
192,192,97832,1,0,0:0:0:0:
448,192,97832,1,0,0:0:0:0:
64,192,98003,1,2,0:0:0:0:
320,192,98003,1,8,0:0:0:0:
192,192,98175,1,0,0:0:0:0:
64,192,98346,1,2,0:0:0:0:
448,192,98346,1,0,0:0:0:0:
64,192,98517,1,0,0:0:0:0:
192,192,98517,1,0,0:0:0:0:
320,192,98689,1,2,0:0:0:0:
448,192,98689,1,8,0:0:0:0:
64,192,98860,1,0,0:0:0:0:
320,192,98860,1,0,0:0:0:0:
192,192,99032,1,2,0:0:0:0:
448,192,99032,1,0,0:0:0:0:
192,192,99203,1,0,0:0:0:0:
320,192,99203,1,0,0:0:0:0:
64,192,99375,1,8,0:0:0:0:
448,192,99375,1,2,0:0:0:0:
192,192,99546,1,0,0:0:0:0:
448,192,99546,1,0,0:0:0:0:
64,192,99717,1,2,0:0:0:0:
192,192,99717,1,4,0:0:0:0:
320,192,99717,1,0,0:0:0:0:
448,192,99889,1,0,0:0:0:0:
64,192,100060,1,8,0:0:0:0:
320,192,100060,1,2,0:0:0:0:
64,192,100232,1,0,0:0:0:0:
192,192,100232,1,0,0:0:0:0:
320,192,100403,1,2,0:0:0:0:
448,192,100403,1,0,0:0:0:0:
192,192,100575,1,0,0:0:0:0:
448,192,100575,1,0,0:0:0:0:
64,192,100746,1,8,0:0:0:0:
320,192,100746,1,2,0:0:0:0:
192,192,100917,1,0,0:0:0:0:
320,192,100917,1,0,0:0:0:0:
64,192,101089,1,2,0:0:0:0:
448,192,101089,1,0,0:0:0:0:
64,192,101260,1,0,0:0:0:0:
192,192,101260,1,0,0:0:0:0:
320,192,101432,1,8,0:0:0:0:
448,192,101432,1,2,0:0:0:0:
64,192,101603,1,0,0:0:0:0:
192,192,101775,1,2,0:0:0:0:
448,192,101775,1,0,0:0:0:0:
192,192,101946,1,0,0:0:0:0:
320,192,101946,1,0,0:0:0:0:
64,192,102117,1,8,0:0:0:0:
448,192,102117,1,2,0:0:0:0:
320,192,102289,1,0,0:0:0:0:
448,192,102289,1,0,0:0:0:0:
64,192,102460,1,2,0:0:0:0:
192,192,102460,1,0,0:0:0:0:
320,192,102632,1,0,0:0:0:0:
64,192,102803,1,8,0:0:0:0:
448,192,102803,1,2,0:0:0:0:
64,192,102975,1,0,0:0:0:0:
192,192,102975,1,0,0:0:0:0:
320,192,103146,1,2,0:0:0:0:
448,192,103146,1,0,0:0:0:0:
192,192,103317,1,0,0:0:0:0:
320,192,103317,1,0,0:0:0:0:
64,192,103489,1,2,0:0:0:0:
448,192,103489,1,8,0:0:0:0:
64,192,103660,1,0,0:0:0:0:
320,192,103660,1,0,0:0:0:0:
192,192,103832,1,2,0:0:0:0:
448,192,103832,1,0,0:0:0:0:
320,192,104003,1,0,0:0:0:0:
448,192,104003,1,0,0:0:0:0:
64,192,104175,1,2,0:0:0:0:
192,192,104175,1,8,0:0:0:0:
64,192,104346,1,0,0:0:0:0:
448,192,104346,1,0,0:0:0:0:
192,192,104517,1,2,0:0:0:0:
320,192,104517,1,0,0:0:0:0:
192,192,104689,1,0,0:0:0:0:
448,192,104689,1,0,0:0:0:0:
64,192,104860,1,2,0:0:0:0:
320,192,104860,1,8,0:0:0:0:
320,192,105032,1,0,0:0:0:0:
448,192,105032,1,0,0:0:0:0:
192,192,105117,1,0,0:0:0:0:
64,192,105203,1,2,0:0:0:0:
320,192,105203,1,4,0:0:0:0:
448,192,105203,1,0,0:0:0:0:
192,192,105375,1,0,0:0:0:0:
64,192,105546,1,8,0:0:0:0:
448,192,105546,1,2,0:0:0:0:
64,192,105717,1,0,0:0:0:0:
320,192,105717,1,0,0:0:0:0:
192,192,105889,1,2,0:0:0:0:
448,192,105889,1,0,0:0:0:0:
320,192,106060,1,0,0:0:0:0:
448,192,106060,1,0,0:0:0:0:
64,192,106232,1,8,0:0:0:0:
192,192,106232,1,2,0:0:0:0:
192,192,106403,1,8,0:0:0:0:
320,192,106403,1,0,0:0:0:0:
448,192,106489,1,8,0:0:0:0:
64,192,106575,1,2,0:0:0:0:
192,192,106575,1,0,0:0:0:0:
64,192,106746,1,0,0:0:0:0:
320,192,106746,1,0,0:0:0:0:
192,192,106917,1,8,0:0:0:0:
448,192,106917,1,2,0:0:0:0:
320,192,107089,1,0,0:0:0:0:
64,192,107260,1,2,0:0:0:0:
192,192,107260,1,0,0:0:0:0:
64,192,107432,1,0,0:0:0:0:
448,192,107432,1,0,0:0:0:0:
192,192,107603,1,2,0:0:0:0:
320,192,107603,1,8,0:0:0:0:
320,192,107775,1,8,0:0:0:0:
448,192,107775,1,0,0:0:0:0:
192,192,107860,1,8,0:0:0:0:
64,192,107946,1,2,0:0:0:0:
448,192,107946,1,8,0:0:0:0:
64,192,108117,1,8,0:0:0:0:
192,192,108117,1,0,0:0:0:0:
320,192,108289,1,2,0:0:0:0:
448,192,108289,1,8,0:0:0:0:
192,192,108460,1,8,0:0:0:0:
320,192,108460,1,0,0:0:0:0:
64,192,108632,1,8,0:0:0:0:
448,192,108632,1,0,0:0:0:0:
64,192,108803,1,8,0:0:0:0:
192,192,108803,1,0,0:0:0:0:
320,192,108975,1,2,0:0:0:0:
448,192,108975,1,8,0:0:0:0:
192,192,109060,1,8,0:0:0:0:
64,192,109146,1,8,0:0:0:0:
448,192,109146,1,0,0:0:0:0:
320,192,109232,1,8,0:0:0:0:
64,192,109317,1,2,0:0:0:0:
192,192,109317,1,0,0:0:0:0:
192,192,109832,1,0,0:0:0:87:tom 1.wav
320,192,109917,1,0,0:0:0:87:tom 1.wav
448,192,110003,1,8,0:0:0:60:
192,192,110175,1,0,0:0:0:87:tom 1.wav
64,192,110346,1,4,0:2:0:90:
448,192,110346,1,0,0:0:0:0:
320,192,110517,1,0,0:0:0:0:
64,192,110689,1,2,0:0:0:0:
192,192,110689,1,4,0:0:0:0:
448,192,110689,1,0,0:0:0:0:
192,192,110860,1,0,0:0:0:0:
64,192,111032,1,8,0:0:0:0:
320,192,111032,1,2,0:0:0:0:
448,192,111032,1,0,0:0:0:0:
192,192,111203,1,0,0:0:0:0:
320,192,111375,1,2,0:0:0:0:
448,192,111375,1,0,0:0:0:0:
320,192,111546,1,0,0:0:0:0:
64,192,111717,1,2,0:0:0:0:
192,192,111717,1,8,0:0:0:0:
448,192,111717,1,0,0:0:0:0:
320,192,111889,1,0,0:0:0:0:
64,192,112060,1,2,0:0:0:0:
448,192,112060,1,0,0:0:0:0:
64,192,112232,1,0,0:0:0:0:
192,192,112403,1,2,0:0:0:0:
320,192,112403,1,8,0:0:0:0:
448,192,112403,1,0,0:0:0:0:
64,192,112575,1,0,0:0:0:0:
192,192,112746,1,2,0:0:0:0:
448,192,112746,1,0,0:0:0:0:
448,192,112917,1,0,0:0:0:0:
64,192,113089,1,2,0:0:0:0:
192,192,113089,1,8,0:0:0:0:
320,192,113089,1,0,0:0:0:0:
448,192,113260,1,0,0:0:0:0:
64,192,113432,1,2,0:0:0:0:
192,192,113432,1,0,0:0:0:0:
192,192,113603,1,0,0:0:0:0:
64,192,113775,1,2,0:0:0:0:
320,192,113775,1,8,0:0:0:0:
448,192,113775,1,0,0:0:0:0:
192,192,113946,1,0,0:0:0:0:
64,192,114117,1,2,0:0:0:0:
448,192,114117,1,0,0:0:0:0:
64,192,114289,1,0,0:0:0:0:
192,192,114460,1,2,0:0:0:0:
320,192,114460,1,8,0:0:0:0:
448,192,114460,1,0,0:0:0:0:
64,192,114632,1,0,0:0:0:0:
320,192,114803,1,2,0:0:0:0:
448,192,114803,1,0,0:0:0:0:
448,192,114975,1,0,0:0:0:0:
64,192,115146,1,2,0:0:0:0:
192,192,115146,1,8,0:0:0:0:
320,192,115146,1,0,0:0:0:0:
448,192,115317,1,0,0:0:0:0:
192,192,115489,1,2,0:0:0:0:
320,192,115489,1,0,0:0:0:0:
320,192,115660,1,0,0:0:0:0:
64,192,115832,1,8,0:0:0:0:
192,192,115832,1,2,0:0:0:0:
448,192,115832,1,0,0:0:0:0:
320,192,116003,1,0,0:0:0:0:
64,192,116175,1,2,0:0:0:0:
192,192,116175,1,0,0:0:0:0:
64,192,116346,1,0,0:0:0:0:
192,192,116517,1,8,0:0:0:0:
320,192,116517,1,2,0:0:0:0:
448,192,116517,1,0,0:0:0:0:
64,192,116689,1,0,0:0:0:0:
192,192,116860,1,2,0:0:0:0:
320,192,116860,1,0,0:0:0:0:
192,192,117032,1,0,0:0:0:0:
64,192,117203,1,2,0:0:0:0:
320,192,117203,1,8,0:0:0:0:
448,192,117203,1,0,0:0:0:0:
192,192,117375,1,0,0:0:0:0:
64,192,117546,1,2,0:0:0:0:
320,192,117546,1,0,0:0:0:0:
320,192,117717,1,0,0:0:0:0:
64,192,117889,1,8,0:0:0:0:
192,192,117889,1,2,0:0:0:0:
448,192,117889,1,0,0:0:0:0:
320,192,118060,1,0,0:0:0:0:
192,192,118232,1,2,0:0:0:0:
448,192,118232,1,0,0:0:0:0:
448,192,118403,1,0,0:0:0:0:
64,192,118575,1,8,0:0:0:0:
192,192,118575,1,2,0:0:0:0:
320,192,118575,1,0,0:0:0:0:
448,192,118746,1,0,0:0:0:0:
64,192,118917,1,2,0:0:0:0:
192,192,118917,1,0,0:0:0:0:
192,192,119089,1,0,0:0:0:0:
64,192,119260,1,2,0:0:0:0:
320,192,119260,1,8,0:0:0:0:
448,192,119260,1,0,0:0:0:0:
192,192,119432,1,0,0:0:0:0:
320,192,119603,1,2,0:0:0:0:
448,192,119603,1,0,0:0:0:0:
320,192,119775,1,0,0:0:0:0:
64,192,119946,1,8,0:0:0:0:
192,192,119946,1,2,0:0:0:0:
448,192,119946,1,0,0:0:0:0:
320,192,120117,1,0,0:0:0:0:
64,192,120289,1,2,0:0:0:0:
192,192,120289,1,0,0:0:0:0:
64,192,120460,1,0,0:0:0:0:
192,192,120632,1,2,0:0:0:0:
320,192,120632,1,8,0:0:0:0:
448,192,120632,1,0,0:0:0:0:
64,192,120803,1,0,0:0:0:0:
320,192,120975,1,2,0:0:0:0:
448,192,120975,1,0,0:0:0:0:
448,192,121146,1,0,0:0:0:0:
64,192,121317,1,2,0:0:0:0:
192,192,121317,1,8,0:0:0:0:
320,192,121317,1,0,0:0:0:0:
448,192,121489,1,0,0:0:0:0:
64,192,121660,1,8,0:0:0:0:
192,192,121660,1,2,0:0:0:0:
320,192,121660,1,4,0:0:0:0:
192,192,121832,1,8,0:0:0:0:
320,192,122003,1,8,0:0:0:0:
448,192,122003,1,2,0:0:0:0:
320,192,122175,1,8,0:0:0:0:
64,192,122346,1,8,0:0:0:0:
448,192,122346,1,2,0:0:0:0:
64,192,122517,1,8,0:0:0:0:
192,192,122689,1,2,0:0:0:0:
320,192,122689,1,8,0:0:0:0:
320,192,122860,1,8,0:0:0:0:
64,192,123032,1,2,0:0:0:0:
448,192,123032,1,8,0:0:0:0:
448,192,123203,1,8,0:0:0:0:
192,192,123375,1,8,0:0:0:0:
320,192,123375,1,2,0:0:0:0:
192,192,123546,1,8,0:0:0:0:
64,192,123717,1,2,0:0:0:0:
448,192,123717,1,8,0:0:0:0:
448,192,123889,1,8,0:0:0:0:
64,192,124060,1,8,0:0:0:0:
320,192,124060,1,2,0:0:0:0:
64,192,124232,1,8,0:0:0:0:
192,192,124403,1,2,0:0:0:0:
320,192,124403,1,8,0:0:0:0:
320,192,124575,1,8,0:0:0:0:
64,192,124746,1,8,0:0:0:0:
448,192,124746,1,2,0:0:0:0:
64,192,124917,1,8,0:0:0:0:
192,192,125089,1,2,0:0:0:0:
320,192,125089,1,8,0:0:0:0:
192,192,125260,1,8,0:0:0:0:
64,192,125432,1,2,0:0:0:0:
320,192,125432,1,8,0:0:0:0:
320,192,125603,1,8,0:0:0:0:
192,192,125775,1,2,0:0:0:0:
448,192,125775,1,8,0:0:0:0:
448,192,125946,1,8,0:0:0:0:
192,192,126117,1,8,0:0:0:0:
320,192,126117,1,2,0:0:0:0:
192,192,126289,1,8,0:0:0:0:
64,192,126460,1,2,0:0:0:0:
320,192,126460,1,8,0:0:0:0:
320,192,126632,1,8,0:0:0:0:
64,192,126803,1,2,0:0:0:0:
192,192,126803,1,8,0:0:0:0:
64,192,126975,1,8,0:0:0:0:
320,192,127146,1,6,0:0:0:0:
448,192,127146,1,8,0:0:0:0:
192,192,127232,1,8,0:0:0:60:
64,192,127317,1,10,0:0:0:60:
320,192,127403,1,8,0:0:0:60:
192,192,127489,1,10,0:0:0:60:
448,192,127575,1,8,0:0:0:60:
320,192,127660,1,10,0:0:0:60:
64,192,127746,1,8,0:0:0:60:
192,192,127832,1,10,0:0:0:60:
320,192,127917,1,8,0:0:0:60:
64,192,128003,1,10,0:0:0:60:
192,192,128089,1,8,0:0:0:60:
448,192,128175,1,10,0:0:0:0:
64,192,128260,1,8,0:0:0:60:
320,192,128346,1,10,0:0:0:60:
192,192,128432,1,8,0:0:0:60:
64,192,128517,1,10,0:0:0:60:
448,192,128603,1,8,0:0:0:60:
320,192,128689,1,10,0:0:0:60:
192,192,128775,1,8,0:0:0:60:
448,192,128860,1,10,0:0:0:0:
64,192,128946,1,8,0:0:0:60:
320,192,129032,1,10,0:0:0:60:
448,192,129117,1,8,0:0:0:60:
192,192,129203,1,10,0:0:0:60:
320,192,129289,1,8,0:0:0:60:
64,192,129375,1,10,0:0:0:0:
192,192,129460,1,8,0:0:0:60:
448,192,129546,1,10,0:0:0:0:
64,192,129632,1,8,0:0:0:60:
192,192,129717,1,10,0:0:0:60:
320,192,129803,1,8,0:0:0:60:
64,192,129889,1,8,0:0:0:35:
448,192,129889,1,2,0:0:0:35:
192,192,129975,1,10,0:0:0:35:
320,192,130060,1,10,0:0:0:35:
192,192,130146,1,10,0:0:0:35:
64,192,130232,1,8,0:0:0:35:
448,192,130232,1,2,0:0:0:35:
320,192,130317,1,10,0:0:0:35:
192,192,130403,1,10,0:0:0:35:
320,192,130489,1,10,0:0:0:35:
64,192,130575,1,8,0:0:0:35:
448,192,130575,1,2,0:0:0:35:
192,192,130660,1,10,0:0:0:35:
320,192,130746,1,10,0:0:0:35:
192,192,130832,1,10,0:0:0:35:
64,192,130917,1,8,0:0:0:60:
448,192,130917,1,2,0:0:0:0:
320,192,131003,1,8,0:0:0:60:
192,192,131089,1,10,0:0:0:60:
448,192,131175,1,8,0:0:0:60:
64,192,131260,1,8,0:0:0:60:
192,192,131260,1,2,0:0:0:0:
320,192,131946,1,0,0:0:0:0:
64,192,132289,1,4,0:2:0:90:
448,192,132289,1,0,0:0:0:0:
192,192,132460,1,2,0:0:0:0:
320,192,132460,1,0,0:0:0:0:
64,192,132632,1,2,0:3:0:87:
320,192,132632,128,4,132803:0:3:0:87:
448,192,132632,1,0,0:0:0:100:
192,192,132803,1,0,0:0:0:100:
320,192,132975,128,0,133146:0:0:0:90:
192,192,133146,1,0,0:0:0:90:
320,192,133317,128,0,133489:0:0:0:90:
192,192,133489,1,0,0:0:0:90:
320,192,133660,128,0,133832:0:0:0:80:
192,192,133832,1,0,0:0:0:80:
320,192,134003,128,0,134175:0:0:0:80:
192,192,134175,1,0,0:0:0:80:
320,192,134346,128,0,134517:0:0:0:70:
192,192,134517,1,0,0:0:0:70:
320,192,134689,128,0,134860:0:0:0:70:
192,192,134860,1,0,0:0:0:70:
320,192,135032,128,0,135203:0:0:0:60:
192,192,135203,1,0,0:0:0:60:
320,192,135375,1,0,0:0:0:60:
192,192,135546,1,0,0:0:0:60:
320,192,135717,1,0,0:0:0:50:
192,192,135889,1,0,0:0:0:50:
320,192,136060,1,0,0:0:0:50:
192,192,136232,1,0,0:0:0:50:
320,192,136403,1,0,0:0:0:0:
192,192,136575,1,0,0:0:0:0:
320,192,136746,1,0,0:0:0:0:
192,192,136917,1,0,0:0:0:0:
320,192,137089,1,0,0:0:0:0:
192,192,137260,1,0,0:0:0:0:
320,192,137432,1,0,0:0:0:0:
192,192,137603,1,0,0:0:0:0:
320,192,137775,1,0,0:0:0:0:
192,192,137946,1,0,0:0:0:0:
448,192,138117,1,0,0:0:0:0:
64,192,138289,1,0,0:0:0:0:
192,192,138460,128,0,138632:0:0:0:0:
448,192,138632,128,0,138803:0:0:0:0:
320,192,138803,1,0,0:0:0:0:
64,192,138975,1,0,0:0:0:0:
192,192,139146,1,0,0:0:0:0:
320,192,139317,1,0,0:0:0:0:
64,192,139489,1,0,0:0:0:0:
448,192,139660,1,0,0:0:0:0:
192,192,139832,128,0,140003:0:0:0:0:
448,192,140003,128,0,140175:0:0:0:0:
64,192,140175,1,0,0:0:0:0:
320,192,140346,1,0,0:0:0:0:
192,192,140517,1,0,0:0:0:0:
448,192,140689,1,0,0:0:0:0:
320,192,140860,1,0,0:0:0:0:
64,192,141032,1,0,0:0:0:0:
192,192,141203,128,0,141375:0:0:0:0:
448,192,141375,128,0,141546:0:0:0:0:
64,192,141546,1,0,0:0:0:0:
192,192,141717,1,0,0:0:0:0:
320,192,141889,1,0,0:0:0:0:
192,192,142060,1,0,0:0:0:0:
448,192,142232,1,0,0:0:0:0:
64,192,142403,1,0,0:0:0:0:
192,192,142575,128,0,142746:0:0:0:0:
448,192,142746,128,0,142917:0:0:0:0:
320,192,142917,1,0,0:0:0:0:
192,192,143089,1,0,0:0:0:0:
64,192,143260,128,0,143432:0:0:0:0:
320,192,143432,128,0,143603:0:0:0:0:
448,192,143603,1,0,0:0:0:0:
64,192,143775,1,0,0:0:0:0:
192,192,143946,128,0,144117:0:0:0:0:
448,192,144117,128,0,144289:0:0:0:0:
320,192,144289,1,0,0:0:0:0:
192,192,144460,1,0,0:0:0:0:
320,192,144632,128,0,144803:0:0:0:0:
448,192,144803,1,0,0:0:0:0:
320,192,144975,1,0,0:0:0:0:
64,192,145146,1,0,0:0:0:0:
192,192,145317,128,0,145489:0:0:0:0:
448,192,145489,128,0,145660:0:0:0:0:
320,192,145660,1,0,0:0:0:0:
64,192,145832,1,0,0:0:0:0:
320,192,146003,1,0,0:0:0:0:
448,192,146175,1,0,0:0:0:0:
64,192,146346,1,0,0:0:0:0:
320,192,146517,1,0,0:0:0:0:
192,192,146689,128,0,146860:0:0:0:0:
448,192,146860,128,0,147032:0:0:0:0:
320,192,147032,1,0,0:0:0:0:
64,192,147203,1,0,0:0:0:0:
192,192,147375,1,0,0:0:0:0:
448,192,147546,1,0,0:0:0:0:
64,192,147717,1,0,0:0:0:0:
320,192,147889,1,0,0:0:0:0:
192,192,148060,128,0,148232:0:0:0:0:
320,192,148232,128,0,148403:0:0:0:0:
448,192,148403,128,0,148575:0:0:0:0:
64,192,148575,1,0,0:0:0:0:
320,192,148746,128,0,148917:0:0:0:0:
448,192,148917,128,0,149089:0:0:0:0:
64,192,149089,1,0,0:0:0:0:
320,192,149260,1,0,0:0:0:0:
192,192,149432,128,0,149603:0:0:0:0:
448,192,149603,128,0,149775:0:0:0:0:
320,192,149775,1,0,0:0:0:0:
64,192,149946,1,0,0:0:0:0:
192,192,150117,1,0,0:0:0:0:
320,192,150289,1,0,0:0:0:0:
64,192,150460,1,0,0:0:0:0:
448,192,150632,1,0,0:0:0:0:
192,192,150803,128,0,150975:0:0:0:0:
448,192,150975,128,0,151146:0:0:0:0:
64,192,151146,1,0,0:0:0:0:
320,192,151317,1,0,0:0:0:0:
192,192,151489,1,0,0:0:0:0:
448,192,151660,1,0,0:0:0:0:
320,192,151832,1,0,0:0:0:0:
64,192,152003,1,0,0:0:0:0:
192,192,152175,128,0,152346:0:0:0:0:
448,192,152346,128,0,152517:0:0:0:0:
64,192,152517,1,0,0:0:0:0:
192,192,152689,1,0,0:0:0:0:
320,192,152860,1,0,0:0:0:0:
192,192,153032,1,0,0:0:0:0:
448,192,153203,1,0,0:0:0:0:
64,192,153375,1,0,0:0:0:0:
192,192,153546,128,0,153717:0:0:0:0:
448,192,153717,128,0,153889:0:0:0:0:
320,192,153889,1,0,0:0:0:0:
192,192,154060,1,0,0:0:0:0:
64,192,154232,128,0,154403:0:0:0:0:
320,192,154403,128,0,154575:0:0:0:0:
448,192,154575,1,0,0:0:0:0:
64,192,154746,1,0,0:0:0:0:
320,192,154917,128,0,155089:0:0:0:0:
448,192,155089,128,0,155260:0:0:0:0:
192,192,155260,1,0,0:0:0:0:
64,192,155432,1,0,0:0:0:0:
320,192,155603,1,0,0:0:0:0:
448,192,155775,1,0,0:0:0:0:
192,192,155946,1,0,0:0:0:0:
64,192,156117,1,0,0:0:0:0:
320,192,156289,128,0,156460:0:0:0:0:
448,192,156460,128,0,156632:0:0:0:0:
192,192,156632,1,0,0:0:0:0:
64,192,156803,1,0,0:0:0:0:
320,192,156975,1,0,0:0:0:0:
192,192,157146,1,0,0:0:0:0:
448,192,157317,1,0,0:0:0:0:
64,192,157489,1,0,0:0:0:0:
320,192,157660,128,0,157832:0:0:0:0:
448,192,157832,128,0,158003:0:0:0:0:
192,192,158003,1,0,0:0:0:0:
64,192,158175,1,0,0:0:0:0:
192,192,158346,1,0,0:0:0:0:
448,192,158517,1,0,0:0:0:0:
320,192,158689,1,0,0:0:0:0:
320,192,158860,1,0,0:0:0:0:
192,192,159032,1,0,0:0:0:0:
192,192,159203,1,0,0:0:0:0:
320,192,159375,1,0,0:0:0:0:
320,192,159546,1,0,0:0:0:0:
192,192,159717,1,0,0:0:0:0:
192,192,159889,1,0,0:0:0:0:
320,192,160060,1,2,0:0:0:0:
448,192,160060,1,0,0:0:0:0:
448,192,160232,1,0,0:0:0:0:
64,192,160403,1,2,0:0:0:0:
320,192,160403,1,0,0:0:0:0:
192,192,160575,1,0,0:0:0:0:
64,192,160746,1,2,0:0:0:0:
448,192,160746,1,0,0:0:0:0:
320,192,160917,1,0,0:0:0:0:
64,192,161089,1,2,0:0:0:0:
192,192,161089,1,0,0:0:0:0:
64,192,161260,1,0,0:0:0:0:
320,192,161432,1,2,0:0:0:0:
448,192,161432,1,0,0:0:0:0:
320,192,161603,1,0,0:0:0:0:
192,192,161775,1,2,0:0:0:0:
448,192,161775,1,0,0:0:0:0:
64,192,161946,1,0,0:0:0:0:
320,192,162117,1,2,0:0:0:0:
448,192,162117,1,0,0:0:0:0:
192,192,162289,1,0,0:0:0:0:
64,192,162460,1,2,0:0:0:0:
448,192,162460,1,0,0:0:0:0:
448,192,162632,1,0,0:0:0:0:
64,192,162803,1,2,0:0:0:0:
192,192,162803,1,0,0:0:0:0:
192,192,162975,1,0,0:0:0:0:
64,192,163146,1,2,0:0:0:0:
448,192,163146,1,0,0:0:0:0:
320,192,163317,1,0,0:0:0:0:
64,192,163489,1,2,0:0:0:0:
192,192,163489,1,0,0:0:0:0:
320,192,163660,1,0,0:0:0:0:
192,192,163832,1,2,0:0:0:0:
448,192,163832,1,0,0:0:0:0:
192,192,164003,1,0,0:0:0:0:
64,192,164175,1,2,0:0:0:0:
448,192,164175,1,0,0:0:0:0:
448,192,164346,1,0,0:0:0:0:
64,192,164517,1,2,0:0:0:0:
192,192,164517,1,0,0:0:0:0:
320,192,164689,1,0,0:0:0:0:
192,192,164860,1,2,0:0:0:0:
448,192,164860,1,0,0:0:0:0:
64,192,165032,1,0,0:0:0:0:
192,192,165203,1,2,0:0:0:0:
320,192,165203,1,0,0:0:0:0:
320,192,165375,1,0,0:0:0:0:
64,192,165546,1,2,0:0:0:0:
448,192,165546,1,0,0:0:0:0:
64,192,165717,1,0,0:0:0:0:
320,192,165889,1,2,0:0:0:0:
448,192,165889,1,0,0:0:0:0:
64,192,166060,1,0,0:0:0:0:
192,192,166232,1,2,0:0:0:0:
448,192,166232,1,0,0:0:0:0:
320,192,166403,1,0,0:0:0:0:
64,192,166575,1,2,0:0:0:0:
192,192,166575,1,0,0:0:0:0:
64,192,166746,1,0,0:0:0:0:
192,192,166917,1,2,0:0:0:0:
320,192,166917,1,0,0:0:0:0:
320,192,167089,1,0,0:0:0:0:
64,192,167260,1,2,0:0:0:0:
448,192,167260,1,0,0:0:0:0:
192,192,167432,1,0,0:0:0:0:
64,192,167603,1,2,0:0:0:0:
448,192,167603,1,0,0:0:0:0:
320,192,167775,1,0,0:0:0:0:
192,192,167946,1,2,0:0:0:0:
448,192,167946,1,0,0:0:0:0:
448,192,168117,1,0,0:0:0:0:
64,192,168289,1,2,0:0:0:0:
192,192,168289,1,0,0:0:0:0:
192,192,168460,1,0,0:0:0:0:
320,192,168632,1,2,0:0:0:0:
448,192,168632,1,0,0:0:0:0:
192,192,168803,1,0,0:0:0:0:
64,192,168975,1,2,0:0:0:0:
320,192,168975,1,0,0:0:0:0:
448,192,169146,1,0,0:0:0:0:
192,192,169317,1,2,0:0:0:0:
320,192,169317,1,0,0:0:0:0:
192,192,169489,1,0,0:0:0:0:
320,192,169660,1,2,0:0:0:0:
448,192,169660,1,0,0:0:0:0:
320,192,169832,1,0,0:0:0:0:
192,192,170003,1,2,0:0:0:0:
64,192,170003,1,0,0:0:0:0:
320,192,170175,1,0,0:0:0:0:
64,192,170346,1,2,0:0:0:0:
448,192,170346,1,0,0:0:0:0:
192,192,170517,1,0,0:0:0:0:
320,192,170689,1,2,0:0:0:0:
448,192,170689,1,0,0:0:0:0:
320,192,170860,1,0,0:0:0:0:
64,192,171032,1,2,0:0:0:0:
192,192,171032,1,0,0:0:0:0:
64,192,171203,1,0,0:0:0:0:
192,192,171375,1,2,0:0:0:0:
448,192,171375,1,0,0:0:0:0:
320,192,171546,1,0,0:0:0:0:
64,192,171717,1,2,0:0:0:0:
448,192,171717,1,0,0:0:0:0:
64,192,171889,1,0,0:0:0:0:
192,192,172060,1,2,0:0:0:0:
320,192,172060,1,0,0:0:0:0:
448,192,172232,1,0,0:0:0:0:
64,192,172403,1,2,0:0:0:0:
320,192,172403,1,0,0:0:0:0:
320,192,172575,1,0,0:0:0:0:
192,192,172746,1,2,0:0:0:0:
448,192,172746,1,0,0:0:0:0:
64,192,172917,1,0,0:0:0:0:
192,192,173089,1,2,0:0:0:0:
320,192,173089,1,0,0:0:0:0:
320,192,173260,1,0,0:0:0:0:
64,192,173432,1,2,0:0:0:0:
448,192,173432,1,0,0:0:0:0:
320,192,173603,1,0,0:0:0:0:
64,192,173775,1,2,0:0:0:0:
192,192,173775,1,0,0:0:0:0:
192,192,173946,1,0,0:0:0:0:
320,192,174117,1,2,0:0:0:0:
448,192,174117,1,0,0:0:0:0:
64,192,174289,1,0,0:0:0:0:
192,192,174460,1,2,0:0:0:0:
448,192,174460,1,0,0:0:0:0:
192,192,174632,1,0,0:0:0:0:
320,192,174803,1,2,0:0:0:0:
448,192,174803,1,0,0:0:0:0:
64,192,174975,1,0,0:0:0:0:
192,192,175146,1,2,0:0:0:0:
448,192,175146,1,0,0:0:0:0:
448,192,175317,1,0,0:0:0:0:
64,192,175489,1,2,0:0:0:0:
320,192,175489,1,0,0:0:0:0:
192,192,175660,1,0,0:0:0:0:
320,192,175832,1,2,0:0:0:0:
448,192,175832,1,0,0:0:0:0:
448,192,176003,1,0,0:0:0:0:
64,192,176175,1,2,0:0:0:0:
192,192,176175,1,0,0:0:0:0:
320,192,176346,1,0,0:0:0:0:
192,192,176517,1,2,0:0:0:0:
448,192,176517,1,0,0:0:0:0:
192,192,176689,1,0,0:0:0:0:
64,192,176860,1,2,0:0:0:0:
320,192,176860,1,0,0:0:0:0:
448,192,177032,1,0,0:0:0:0:
64,192,177203,1,2,0:0:0:0:
192,192,177203,1,0,0:0:0:0:
64,192,177375,1,0,0:0:0:0:
192,192,177546,1,2,0:0:0:0:
320,192,177546,1,0,0:0:0:0:
448,192,177717,1,0,0:0:0:0:
64,192,177889,1,2,0:0:0:0:
320,192,177889,1,0,0:0:0:0:
320,192,178060,1,0,0:0:0:0:
192,192,178232,1,2,0:0:0:0:
448,192,178232,1,0,0:0:0:0:
64,192,178403,1,0,0:0:0:0:
320,192,178575,1,2,0:0:0:0:
448,192,178575,1,0,0:0:0:0:
448,192,178746,1,0,0:0:0:0:
64,192,178917,1,2,0:0:0:0:
320,192,178917,1,0,0:0:0:0:
192,192,179089,1,0,0:0:0:0:
320,192,179260,1,2,0:0:0:0:
448,192,179260,1,0,0:0:0:0:
320,192,179432,1,0,0:0:0:0:
192,192,179603,1,2,0:0:0:0:
448,192,179603,1,0,0:0:0:0:
192,192,179775,1,0,0:0:0:0:
64,192,179946,1,2,0:0:0:0:
448,192,179946,1,0,0:0:0:0:
448,192,180117,1,0,0:0:0:0:
64,192,180289,1,2,0:0:0:0:
192,192,180289,1,0,0:0:0:0:
64,192,180460,1,0,0:0:0:0:
320,192,180632,1,2,0:0:0:0:
448,192,180632,1,0,0:0:0:0:
64,192,180803,1,0,0:0:0:0:
448,192,180975,1,0,0:0:0:0:
192,192,181103,1,0,0:0:0:73:tom 1.wav
320,192,181146,1,0,0:0:0:73:tom 1.wav
64,192,181232,1,0,0:0:0:73:tom 1.wav
320,192,181317,1,8,0:0:0:0:
448,192,181317,1,0,0:0:0:0:
64,192,181489,1,0,0:0:0:73:tom 1.wav
192,192,181489,1,0,0:0:0:0:
192,192,181660,1,4,0:2:0:90:
320,192,181660,1,0,0:0:0:73:tom 2.wav
448,192,181832,1,0,0:0:0:73:tom 3.wav
64,192,182003,1,2,0:0:0:0:
192,192,182003,1,4,0:0:0:0:
320,192,182003,128,0,182175:0:0:0:0:
320,192,182346,128,0,182517:0:0:0:0:
192,192,182517,128,0,182689:0:0:0:0:
64,192,182689,128,0,182860:0:0:0:0:
448,192,182860,128,0,183032:0:0:0:0:
320,192,183203,128,0,183375:0:0:0:0:
320,192,183546,128,0,183717:0:0:0:0:
448,192,183717,128,0,183889:0:0:0:0:
448,192,184060,128,0,184232:0:0:0:0:
320,192,184232,128,0,184403:0:0:0:0:
192,192,184403,128,0,184575:0:0:0:0:
320,192,184575,128,0,184746:0:0:0:0:
192,192,184746,128,0,184917:0:0:0:0:
448,192,185089,128,0,185260:0:0:0:0:
320,192,185260,128,0,185432:0:0:0:0:
64,192,185432,128,0,185603:0:0:0:0:
192,192,185603,128,0,185775:0:0:0:0:
448,192,185946,128,0,186117:0:0:0:0:
192,192,186289,128,0,186460:0:0:0:0:
64,192,186460,128,0,186632:0:0:0:0:
320,192,186632,128,0,186803:0:0:0:0:
448,192,186975,128,0,187146:0:0:0:0:
64,192,187317,128,0,187403:0:0:0:0:
192,192,187403,128,0,187489:0:0:0:0:
320,192,187489,128,0,187660:0:0:0:0:
320,192,187832,128,0,188003:0:0:0:0:
192,192,188003,128,0,188175:0:0:0:0:
64,192,188175,128,0,188346:0:0:0:0:
448,192,188346,128,0,188517:0:0:0:0:
320,192,188689,128,0,188860:0:0:0:0:
320,192,189032,128,0,189203:0:0:0:0:
192,192,189203,128,0,189375:0:0:0:0:
192,192,189546,128,0,189717:0:0:0:0:
448,192,189717,128,0,189889:0:0:0:0:
320,192,189889,128,0,190060:0:0:0:0:
192,192,190060,128,0,190232:0:0:0:0:
64,192,190232,128,0,190403:0:0:0:0:
192,192,190403,128,0,190575:0:0:0:0:
320,192,190746,128,0,190917:0:0:0:0:
192,192,191089,128,0,191260:0:0:0:0:
448,192,191260,128,0,191432:0:0:0:0:
64,192,191603,128,0,191775:0:0:0:0:
192,192,191775,128,0,191946:0:0:0:0:
320,192,192117,128,0,192289:0:0:0:0:
64,192,192460,128,0,192632:0:0:0:0:
448,192,192632,128,0,192717:0:0:0:0:
320,192,192717,128,0,192803:0:0:0:0:
192,192,192803,128,0,192889:0:0:0:0:
64,192,192889,128,0,192975:0:0:0:0:
320,192,192975,1,2,0:0:0:0:
448,192,192975,1,4,0:0:0:0:
192,192,193146,1,0,0:0:0:0:
64,192,193317,1,2,0:0:0:0:
448,192,193317,1,0,0:0:0:0:
320,192,193489,1,0,0:0:0:0:
64,192,193660,1,2,0:0:0:0:
192,192,193660,1,0,0:0:0:0:
320,192,193832,1,0,0:0:0:0:
64,192,194003,1,2,0:0:0:0:
448,192,194003,1,0,0:0:0:0:
192,192,194175,1,0,0:0:0:0:
320,192,194346,1,2,0:0:0:0:
448,192,194346,1,0,0:0:0:0:
320,192,194517,1,0,0:0:0:0:
64,192,194689,1,2,0:0:0:0:
192,192,194689,1,0,0:0:0:0:
192,192,194860,1,0,0:0:0:0:
320,192,195032,1,2,0:0:0:0:
448,192,195032,1,0,0:0:0:0:
448,192,195203,1,0,0:0:0:0:
64,192,195375,1,2,0:0:0:0:
192,192,195375,1,0,0:0:0:0:
64,192,195546,1,0,0:0:0:0:
320,192,195717,1,2,0:0:0:0:
448,192,195717,1,0,0:0:0:0:
64,192,195889,1,0,0:0:0:0:
192,192,196060,1,2,0:0:0:0:
320,192,196060,1,0,0:0:0:0:
448,192,196232,1,0,0:0:0:0:
64,192,196403,1,2,0:0:0:0:
192,192,196403,1,0,0:0:0:0:
448,192,196575,1,0,0:0:0:0:
192,192,196746,1,2,0:0:0:0:
320,192,196746,1,0,0:0:0:0:
64,192,196917,1,0,0:0:0:0:
320,192,197089,1,2,0:0:0:0:
448,192,197089,1,0,0:0:0:0:
448,192,197260,1,0,0:0:0:0:
64,192,197432,1,2,0:0:0:0:
192,192,197432,1,0,0:0:0:0:
64,192,197603,1,0,0:0:0:0:
192,192,197689,1,0,0:0:0:0:
320,192,197775,1,2,0:0:0:0:
448,192,197775,1,0,0:0:0:0:
320,192,197946,1,0,0:0:0:0:
64,192,198117,1,2,0:0:0:0:
192,192,198117,1,0,0:0:0:0:
192,192,198289,1,0,0:0:0:0:
320,192,198460,1,2,0:0:0:0:
448,192,198460,1,0,0:0:0:0:
64,192,198632,1,0,0:0:0:0:
192,192,198803,1,2,0:0:0:0:
448,192,198803,1,0,0:0:0:0:
320,192,198975,1,0,0:0:0:0:
64,192,199146,1,2,0:0:0:0:
192,192,199146,1,0,0:0:0:0:
320,192,199317,1,0,0:0:0:0:
192,192,199489,1,2,0:0:0:0:
448,192,199489,1,0,0:0:0:0:
64,192,199660,1,0,0:0:0:0:
320,192,199832,1,2,0:0:0:0:
448,192,199832,1,0,0:0:0:0:
320,192,200003,1,0,0:0:0:0:
64,192,200175,1,2,0:0:0:0:
192,192,200175,1,0,0:0:0:0:
448,192,200260,1,0,0:0:0:0:
192,192,200346,1,0,0:0:0:0:
320,192,200517,1,2,0:0:0:0:
448,192,200517,1,0,0:0:0:0:
448,192,200689,1,0,0:0:0:0:
64,192,200860,1,2,0:0:0:0:
192,192,200860,1,0,0:0:0:0:
64,192,201032,1,0,0:0:0:0:
320,192,201203,1,2,0:0:0:0:
448,192,201203,1,0,0:0:0:0:
192,192,201375,1,0,0:0:0:0:
64,192,201546,1,2,0:0:0:0:
448,192,201546,1,0,0:0:0:0:
320,192,201717,1,0,0:0:0:0:
64,192,201889,1,2,0:0:0:0:
192,192,201889,1,0,0:0:0:0:
320,192,202060,1,0,0:0:0:0:
64,192,202232,1,2,0:0:0:0:
448,192,202232,1,0,0:0:0:0:
192,192,202317,1,0,0:0:0:0:
320,192,202403,1,0,0:0:0:0:
448,192,202489,1,0,0:0:0:0:
64,192,202575,1,2,0:0:0:0:
192,192,202575,1,0,0:0:0:0:
320,192,202660,1,8,0:0:0:60:
448,192,202746,1,8,0:0:0:60:
192,192,202832,1,8,0:0:0:60:
320,192,202917,1,8,0:0:0:60:
64,192,203003,1,8,0:0:0:60:
448,192,203089,1,8,0:0:0:60:
320,192,203175,1,8,0:0:0:60:
192,192,203260,1,8,0:0:0:60:
448,192,203346,1,8,0:0:0:60:
320,192,203432,1,8,0:0:0:60:
192,192,203517,1,8,0:0:0:60:
64,192,203603,1,8,0:0:0:60:
320,192,203775,1,8,0:0:0:0:
64,192,203946,1,2,0:0:0:0:
448,192,203946,1,4,0:0:0:0:
64,192,204117,1,8,0:0:0:0:
64,192,204289,1,8,0:0:0:0:
448,192,204289,1,0,0:0:0:0:
64,192,204460,1,8,0:0:0:0:
192,192,204632,1,8,0:0:0:0:
448,192,204632,1,2,0:0:0:0:
448,192,204803,1,8,0:0:0:0:
192,192,204975,1,8,0:0:0:0:
448,192,204975,1,0,0:0:0:0:
448,192,205146,1,8,0:0:0:0:
192,192,205317,1,2,0:0:0:0:
320,192,205317,1,8,0:0:0:0:
192,192,205489,1,8,0:0:0:0:
192,192,205660,1,8,0:0:0:0:
320,192,205660,1,0,0:0:0:0:
192,192,205832,1,8,0:0:0:0:
64,192,206003,1,8,0:0:0:0:
320,192,206003,1,2,0:0:0:0:
320,192,206175,1,8,0:0:0:0:
320,192,206346,1,8,0:0:0:0:
64,192,206346,1,0,0:0:0:0:
320,192,206517,1,8,0:0:0:0:
64,192,206689,1,8,0:0:0:0:
448,192,206689,1,2,0:0:0:0:
64,192,206860,1,8,0:0:0:0:
192,192,207032,1,8,0:0:0:0:
448,192,207032,1,0,0:0:0:0:
192,192,207203,1,8,0:0:0:0:
64,192,207375,1,8,0:0:0:0:
320,192,207375,1,2,0:0:0:0:
320,192,207546,1,8,0:0:0:0:
64,192,207717,1,8,0:0:0:0:
448,192,207717,1,0,0:0:0:0:
448,192,207889,1,8,0:0:0:0:
64,192,208060,1,8,0:0:0:0:
320,192,208060,1,2,0:0:0:0:
64,192,208232,1,8,0:0:0:0:
192,192,208403,1,8,0:0:0:0:
448,192,208403,1,0,0:0:0:0:
192,192,208575,1,8,0:0:0:0:
64,192,208746,1,8,0:0:0:0:
320,192,208746,1,2,0:0:0:0:
320,192,208917,1,8,0:0:0:0:
192,192,209089,1,8,0:0:0:0:
448,192,209089,1,0,0:0:0:0:
448,192,209260,1,8,0:0:0:0:
64,192,209432,1,10,0:0:0:60:
192,192,209517,1,8,0:0:0:60:
320,192,209603,1,10,0:0:0:60:
64,192,209689,1,8,0:0:0:60:
448,192,209775,1,10,0:0:0:60:
192,192,209860,1,8,0:0:0:60:
320,192,209946,1,10,0:0:0:60:
448,192,210032,1,8,0:0:0:60:
64,192,210117,1,10,0:0:0:0:
192,192,210203,1,8,0:0:0:60:
320,192,210289,1,10,0:0:0:0:
64,192,210375,1,8,0:0:0:60:
448,192,210460,1,10,0:0:0:0:
192,192,210546,1,8,0:0:0:60:
320,192,210632,1,10,0:0:0:0:
448,192,210717,1,8,0:0:0:60:
192,192,210803,1,10,0:0:0:60:
64,192,210889,1,8,0:0:0:60:
320,192,210975,1,10,0:0:0:60:
192,192,211060,1,8,0:0:0:60:
448,192,211146,1,10,0:0:0:60:
320,192,211232,1,8,0:0:0:60:
192,192,211317,1,10,0:0:0:0:
64,192,211403,1,8,0:0:0:60:
320,192,211489,1,10,0:0:0:60:
192,192,211575,1,8,0:0:0:60:
448,192,211660,1,10,0:0:0:0:
320,192,211746,1,8,0:0:0:60:
192,192,211832,1,10,0:0:0:0:
64,192,211917,1,8,0:0:0:60:
320,192,212003,1,10,0:0:0:60:
192,192,212089,1,8,0:0:0:60:
64,192,212175,1,8,0:0:0:60:
448,192,212175,1,2,0:0:0:60:
320,192,212260,1,10,0:0:0:60:
192,192,212346,1,10,0:0:0:60:
320,192,212432,1,10,0:0:0:60:
64,192,212517,1,8,0:0:0:60:
448,192,212517,1,2,0:0:0:60:
192,192,212603,1,10,0:0:0:60:
320,192,212689,1,10,0:0:0:60:
192,192,212775,1,10,0:0:0:60:
64,192,212860,1,8,0:0:0:60:
448,192,212860,1,2,0:0:0:60:
320,192,212946,1,10,0:0:0:60:
192,192,213032,1,10,0:0:0:60:
320,192,213117,1,10,0:0:0:60:
448,192,213203,1,10,0:0:0:60:
64,192,213289,1,8,0:0:0:60:
192,192,213375,1,10,0:0:0:60:
448,192,213460,1,8,0:0:0:60:
64,192,213546,1,8,0:0:0:60:
192,192,213546,1,2,0:0:0:0:
320,192,214232,1,0,0:0:0:0:
64,192,214575,1,4,0:2:0:90:
448,192,214575,1,0,0:0:0:0:
192,192,214746,1,2,0:0:0:0:
320,192,214746,1,0,0:0:0:0:
64,192,214917,1,2,0:0:0:0:
320,192,214917,1,4,0:0:0:0:
448,192,214917,1,0,0:0:0:0:
192,192,215089,1,0,0:0:0:0:
64,192,215260,1,2,0:0:0:0:
448,192,215260,1,8,0:0:0:0:
320,192,215432,1,0,0:0:0:0:
448,192,215432,1,0,0:0:0:0:
64,192,215603,1,2,0:0:0:0:
192,192,215603,1,0,0:0:0:0:
192,192,215775,1,0,0:0:0:0:
320,192,215775,1,0,0:0:0:0:
64,192,215946,1,2,0:0:0:0:
448,192,215946,1,8,0:0:0:0:
192,192,216117,1,0,0:0:0:0:
448,192,216117,1,0,0:0:0:0:
64,192,216289,1,2,0:0:0:0:
320,192,216289,1,0,0:0:0:0:
192,192,216460,1,0,0:0:0:0:
320,192,216460,1,0,0:0:0:0:
64,192,216632,1,8,0:0:0:0:
448,192,216632,1,2,0:0:0:0:
320,192,216803,1,0,0:0:0:0:
64,192,216975,1,2,0:0:0:0:
192,192,216975,1,0,0:0:0:0:
192,192,217146,1,0,0:0:0:0:
448,192,217146,1,0,0:0:0:0:
64,192,217317,1,8,0:0:0:0:
320,192,217317,1,2,0:0:0:0:
192,192,217489,1,0,0:0:0:0:
320,192,217489,1,0,0:0:0:0:
64,192,217660,1,2,0:0:0:0:
448,192,217660,1,0,0:0:0:0:
320,192,217832,1,0,0:0:0:0:
64,192,218003,1,2,0:0:0:0:
192,192,218003,1,8,0:0:0:0:
192,192,218175,1,0,0:0:0:0:
448,192,218175,1,0,0:0:0:0:
64,192,218346,1,2,0:0:0:0:
320,192,218346,1,0,0:0:0:0:
192,192,218517,1,0,0:0:0:0:
320,192,218517,1,0,0:0:0:0:
64,192,218689,1,8,0:0:0:0:
448,192,218689,1,2,0:0:0:0:
320,192,218860,1,0,0:0:0:0:
448,192,218860,1,0,0:0:0:0:
64,192,219032,1,2,0:0:0:0:
192,192,219032,1,0,0:0:0:0:
192,192,219203,1,0,0:0:0:0:
448,192,219203,1,0,0:0:0:0:
64,192,219375,1,2,0:0:0:0:
320,192,219375,1,8,0:0:0:0:
64,192,219546,1,0,0:0:0:0:
192,192,219546,1,0,0:0:0:0:
320,192,219717,1,2,0:0:0:0:
448,192,219717,1,0,0:0:0:0:
64,192,219889,1,0,0:0:0:0:
448,192,219889,1,0,0:0:0:0:
192,192,220060,1,2,0:0:0:0:
320,192,220060,1,8,0:0:0:0:
64,192,220232,1,0,0:0:0:0:
192,192,220232,1,0,0:0:0:0:
320,192,220317,1,0,0:0:0:0:
64,192,220403,1,2,0:0:0:0:
448,192,220403,1,0,0:0:0:0:
192,192,220575,1,0,0:0:0:0:
320,192,220746,1,8,0:0:0:0:
448,192,220746,1,2,0:0:0:0:
64,192,220917,1,0,0:0:0:0:
320,192,220917,1,0,0:0:0:0:
192,192,221089,1,2,0:0:0:0:
448,192,221089,1,0,0:0:0:0:
192,192,221260,1,0,0:0:0:0:
320,192,221260,1,0,0:0:0:0:
64,192,221432,1,2,0:0:0:0:
448,192,221432,1,8,0:0:0:0:
320,192,221603,1,0,0:0:0:0:
448,192,221603,1,0,0:0:0:0:
64,192,221775,1,2,0:0:0:0:
192,192,221775,1,0,0:0:0:0:
64,192,221946,1,0,0:0:0:0:
320,192,221946,1,0,0:0:0:0:
192,192,222117,1,2,0:0:0:0:
448,192,222117,1,8,0:0:0:0:
320,192,222289,1,0,0:0:0:0:
64,192,222460,1,2,0:0:0:0:
192,192,222460,1,0,0:0:0:0:
192,192,222632,1,0,0:0:0:0:
448,192,222632,1,0,0:0:0:0:
64,192,222803,1,2,0:0:0:0:
320,192,222803,1,8,0:0:0:0:
320,192,222975,1,0,0:0:0:0:
448,192,222975,1,0,0:0:0:0:
64,192,223146,1,2,0:0:0:0:
192,192,223146,1,0,0:0:0:0:
64,192,223317,1,0,0:0:0:0:
320,192,223317,1,0,0:0:0:0:
192,192,223489,1,2,0:0:0:0:
448,192,223489,1,8,0:0:0:0:
320,192,223660,1,0,0:0:0:0:
448,192,223660,1,0,0:0:0:0:
64,192,223832,1,2,0:0:0:0:
192,192,223832,1,0,0:0:0:0:
192,192,224003,1,0,0:0:0:0:
448,192,224003,1,0,0:0:0:0:
64,192,224175,1,2,0:0:0:0:
320,192,224175,1,8,0:0:0:0:
448,192,224346,1,0,0:0:0:0:
64,192,224517,1,2,0:0:0:0:
192,192,224517,1,0,0:0:0:0:
64,192,224689,1,0,0:0:0:0:
320,192,224689,1,0,0:0:0:0:
192,192,224860,1,2,0:0:0:0:
448,192,224860,1,8,0:0:0:0:
320,192,225032,1,0,0:0:0:0:
448,192,225032,1,0,0:0:0:0:
64,192,225203,1,2,0:0:0:0:
192,192,225203,1,0,0:0:0:0:
192,192,225375,1,0,0:0:0:0:
448,192,225375,1,0,0:0:0:0:
64,192,225546,1,8,0:0:0:0:
320,192,225546,1,2,0:0:0:0:
192,192,225717,1,0,0:0:0:0:
320,192,225717,1,0,0:0:0:0:
64,192,225889,1,2,0:0:0:0:
192,192,225889,1,4,0:0:0:0:
448,192,225889,1,0,0:0:0:0:
320,192,226060,1,0,0:0:0:0:
64,192,226232,1,2,0:0:0:0:
448,192,226232,1,8,0:0:0:0:
64,192,226403,1,0,0:0:0:0:
192,192,226403,1,0,0:0:0:0:
320,192,226575,1,2,0:0:0:0:
448,192,226575,1,0,0:0:0:0:
192,192,226746,1,0,0:0:0:0:
320,192,226746,1,0,0:0:0:0:
64,192,226917,1,2,0:0:0:0:
448,192,226917,1,8,0:0:0:0:
64,192,227089,1,0,0:0:0:0:
192,192,227089,1,0,0:0:0:0:
320,192,227260,1,2,0:0:0:0:
448,192,227260,1,0,0:0:0:0:
192,192,227432,1,0,0:0:0:0:
320,192,227432,1,0,0:0:0:0:
64,192,227603,1,2,0:0:0:0:
448,192,227603,1,8,0:0:0:0:
192,192,227775,1,0,0:0:0:0:
320,192,227946,1,2,0:0:0:0:
448,192,227946,1,0,0:0:0:0:
64,192,228117,1,0,0:0:0:0:
448,192,228117,1,0,0:0:0:0:
192,192,228289,1,2,0:0:0:0:
320,192,228289,1,8,0:0:0:0:
64,192,228460,1,0,0:0:0:0:
192,192,228460,1,0,0:0:0:0:
320,192,228632,1,2,0:0:0:0:
448,192,228632,1,0,0:0:0:0:
192,192,228803,1,0,0:0:0:0:
64,192,228975,1,8,0:0:0:0:
320,192,228975,1,2,0:0:0:0:
192,192,229146,1,0,0:0:0:0:
320,192,229146,1,0,0:0:0:0:
64,192,229317,1,2,0:0:0:0:
448,192,229317,1,0,0:0:0:0:
320,192,229489,1,0,0:0:0:0:
448,192,229489,1,0,0:0:0:0:
64,192,229660,1,2,0:0:0:0:
192,192,229660,1,8,0:0:0:0:
192,192,229832,1,0,0:0:0:0:
448,192,229832,1,0,0:0:0:0:
64,192,230003,1,2,0:0:0:0:
320,192,230003,1,0,0:0:0:0:
320,192,230175,1,0,0:0:0:0:
448,192,230175,1,0,0:0:0:0:
64,192,230346,1,8,0:0:0:0:
192,192,230346,1,2,0:0:0:0:
192,192,230517,1,0,0:0:0:0:
320,192,230517,1,0,0:0:0:0:
64,192,230689,1,2,0:0:0:0:
448,192,230689,1,0,0:0:0:0:
192,192,230860,1,0,0:0:0:0:
448,192,230860,1,0,0:0:0:0:
64,192,231032,1,2,0:0:0:0:
320,192,231032,1,8,0:0:0:0:
64,192,231203,1,0,0:0:0:0:
192,192,231203,1,0,0:0:0:0:
320,192,231289,1,0,0:0:0:0:
64,192,231375,1,2,0:0:0:0:
192,192,231375,1,4,0:0:0:0:
448,192,231375,1,0,0:0:0:0:
320,192,231546,1,0,0:0:0:0:
192,192,231717,1,8,0:0:0:0:
448,192,231717,1,2,0:0:0:0:
64,192,231889,1,0,0:0:0:0:
192,192,231889,1,0,0:0:0:0:
320,192,232060,1,2,0:0:0:0:
448,192,232060,1,0,0:0:0:0:
192,192,232232,1,0,0:0:0:0:
448,192,232232,1,0,0:0:0:0:
64,192,232403,1,2,0:0:0:0:
320,192,232403,1,8,0:0:0:0:
320,192,232575,1,8,0:0:0:0:
448,192,232575,1,0,0:0:0:0:
192,192,232660,1,8,0:0:0:0:
64,192,232746,1,2,0:0:0:0:
320,192,232746,1,0,0:0:0:0:
64,192,232917,1,0,0:0:0:0:
192,192,232917,1,0,0:0:0:0:
320,192,233089,1,2,0:0:0:0:
448,192,233089,1,8,0:0:0:0:
64,192,233260,1,0,0:0:0:0:
192,192,233432,1,2,0:0:0:0:
320,192,233432,1,0,0:0:0:0:
192,192,233603,1,0,0:0:0:0:
448,192,233603,1,0,0:0:0:0:
64,192,233775,1,8,0:0:0:0:
320,192,233775,1,2,0:0:0:0:
320,192,233946,1,8,0:0:0:0:
448,192,233946,1,0,0:0:0:0:
192,192,234032,1,8,0:0:0:0:
64,192,234117,1,2,0:0:0:0:
448,192,234117,1,8,0:0:0:0:
64,192,234289,1,8,0:0:0:0:
320,192,234289,1,0,0:0:0:0:
192,192,234460,1,8,0:0:0:0:
448,192,234460,1,2,0:0:0:0:
320,192,234632,1,8,0:0:0:0:
448,192,234632,1,0,0:0:0:0:
64,192,234803,1,8,0:0:0:0:
192,192,234803,1,2,0:0:0:0:
192,192,234975,1,8,0:0:0:0:
320,192,234975,1,0,0:0:0:0:
64,192,235146,1,8,0:0:0:0:
448,192,235146,1,0,0:0:0:0:
192,192,235232,1,8,0:0:0:0:
320,192,235317,1,8,0:0:0:0:
448,192,235317,1,0,0:0:0:0:
64,192,235403,1,8,0:0:0:0:
192,192,235489,1,2,0:0:0:0:
320,192,235489,1,0,0:0:0:0:
448,192,236003,1,0,0:0:0:87:tom 1.wav
192,192,236089,1,0,0:0:0:87:tom 1.wav
64,192,236175,1,8,0:0:0:0:
320,192,236346,1,0,0:0:0:87:tom 1.wav
64,192,236517,1,4,0:2:0:90:
448,192,236517,1,0,0:0:0:0:
192,192,236689,1,0,0:0:0:0:
64,192,236860,1,4,0:0:0:0:
320,192,236860,1,2,0:0:0:0:
448,192,236860,1,0,0:0:0:0:
320,192,237032,1,0,0:0:0:0:
64,192,237203,1,8,0:0:0:0:
192,192,237203,1,2,0:0:0:0:
448,192,237203,1,0,0:0:0:0:
320,192,237375,1,0,0:0:0:0:
64,192,237546,1,2,0:0:0:0:
192,192,237546,1,0,0:0:0:0:
192,192,237717,1,0,0:0:0:0:
64,192,237889,1,2,0:0:0:0:
320,192,237889,1,8,0:0:0:0:
448,192,237889,1,0,0:0:0:0:
192,192,238060,1,0,0:0:0:0:
64,192,238232,1,2,0:0:0:0:
448,192,238232,1,0,0:0:0:0:
448,192,238403,1,0,0:0:0:0:
64,192,238575,1,2,0:0:0:0:
192,192,238575,1,8,0:0:0:0:
320,192,238575,1,0,0:0:0:0:
448,192,238746,1,0,0:0:0:0:
64,192,238917,1,2,0:0:0:0:
320,192,238917,1,0,0:0:0:0:
64,192,239089,1,0,0:0:0:0:
192,192,239260,1,2,0:0:0:0:
320,192,239260,1,8,0:0:0:0:
448,192,239260,1,0,0:0:0:0:
64,192,239432,1,0,0:0:0:0:
320,192,239603,1,2,0:0:0:0:
448,192,239603,1,0,0:0:0:0:
320,192,239775,1,0,0:0:0:0:
64,192,239946,1,8,0:0:0:0:
192,192,239946,1,2,0:0:0:0:
448,192,239946,1,0,0:0:0:0:
320,192,240117,1,0,0:0:0:0:
64,192,240289,1,2,0:0:0:0:
448,192,240289,1,0,0:0:0:0:
448,192,240460,1,0,0:0:0:0:
64,192,240632,1,8,0:0:0:0:
192,192,240632,1,2,0:0:0:0:
320,192,240632,1,0,0:0:0:0:
448,192,240803,1,0,0:0:0:0:
64,192,240975,1,2,0:0:0:0:
192,192,240975,1,0,0:0:0:0:
64,192,241146,1,0,0:0:0:0:
192,192,241317,1,2,0:0:0:0:
320,192,241317,1,8,0:0:0:0:
448,192,241317,1,0,0:0:0:0:
64,192,241489,1,0,0:0:0:0:
192,192,241660,1,2,0:0:0:0:
320,192,241660,1,0,0:0:0:0:
192,192,241832,1,0,0:0:0:0:
64,192,242003,1,8,0:0:0:0:
320,192,242003,1,2,0:0:0:0:
448,192,242003,1,0,0:0:0:0:
192,192,242175,1,0,0:0:0:0:
320,192,242346,1,2,0:0:0:0:
448,192,242346,1,0,0:0:0:0:
448,192,242517,1,0,0:0:0:0:
64,192,242689,1,8,0:0:0:0:
192,192,242689,1,2,0:0:0:0:
320,192,242689,1,0,0:0:0:0:
448,192,242860,1,0,0:0:0:0:
192,192,243032,1,2,0:0:0:0:
320,192,243032,1,0,0:0:0:0:
320,192,243203,1,0,0:0:0:0:
64,192,243375,1,8,0:0:0:0:
192,192,243375,1,2,0:0:0:0:
448,192,243375,1,0,0:0:0:0:
320,192,243546,1,0,0:0:0:0:
192,192,243717,1,2,0:0:0:0:
448,192,243717,1,0,0:0:0:0:
192,192,243889,1,0,0:0:0:0:
64,192,244060,1,8,0:0:0:0:
320,192,244060,1,2,0:0:0:0:
448,192,244060,1,0,0:0:0:0:
192,192,244232,1,0,0:0:0:0:
64,192,244403,1,2,0:0:0:0:
320,192,244403,1,0,0:0:0:0:
64,192,244575,1,0,0:0:0:0:
192,192,244746,1,8,0:0:0:0:
320,192,244746,1,2,0:0:0:0:
448,192,244746,1,0,0:0:0:0:
64,192,244917,1,0,0:0:0:0:
320,192,245089,1,2,0:0:0:0:
448,192,245089,1,0,0:0:0:0:
320,192,245260,1,0,0:0:0:0:
64,192,245432,1,8,0:0:0:0:
192,192,245432,1,2,0:0:0:0:
448,192,245432,1,0,0:0:0:0:
320,192,245603,1,0,0:0:0:0:
64,192,245775,1,2,0:0:0:0:
192,192,245775,1,0,0:0:0:0:
192,192,245946,1,0,0:0:0:0:
64,192,246117,1,8,0:0:0:0:
320,192,246117,1,2,0:0:0:0:
448,192,246117,1,0,0:0:0:0:
192,192,246289,1,0,0:0:0:0:
320,192,246460,1,2,0:0:0:0:
448,192,246460,1,0,0:0:0:0:
448,192,246632,1,0,0:0:0:0:
64,192,246803,1,2,0:0:0:0:
192,192,246803,1,8,0:0:0:0:
320,192,246803,1,0,0:0:0:0:
448,192,246975,1,0,0:0:0:0:
64,192,247146,1,2,0:0:0:0:
192,192,247146,1,0,0:0:0:0:
64,192,247317,1,0,0:0:0:0:
192,192,247489,1,8,0:0:0:0:
320,192,247489,1,2,0:0:0:0:
448,192,247489,1,0,0:0:0:0:
64,192,247660,1,0,0:0:0:0:
192,192,247832,1,2,0:0:0:0:
320,192,247832,1,4,0:0:0:0:
448,192,247832,1,8,0:0:0:0:
320,192,248003,1,8,0:0:0:0:
64,192,248175,1,8,0:0:0:0:
192,192,248175,1,2,0:0:0:0:
192,192,248346,1,8,0:0:0:0:
64,192,248517,1,8,0:0:0:0:
448,192,248517,1,2,0:0:0:0:
448,192,248689,1,8,0:0:0:0:
192,192,248860,1,8,0:0:0:0:
320,192,248860,1,2,0:0:0:0:
192,192,249032,1,8,0:0:0:0:
64,192,249203,1,8,0:0:0:0:
448,192,249203,1,2,0:0:0:0:
64,192,249375,1,8,0:0:0:0:
192,192,249546,1,8,0:0:0:0:
320,192,249546,1,2,0:0:0:0:
320,192,249717,1,8,0:0:0:0:
64,192,249889,1,8,0:0:0:0:
448,192,249889,1,2,0:0:0:0:
64,192,250060,1,8,0:0:0:0:
192,192,250232,1,2,0:0:0:0:
448,192,250232,1,8,0:0:0:0:
448,192,250403,1,8,0:0:0:0:
192,192,250575,1,8,0:0:0:0:
320,192,250575,1,2,0:0:0:0:
192,192,250746,1,8,0:0:0:0:
64,192,250917,1,2,0:0:0:0:
448,192,250917,1,8,0:0:0:0:
448,192,251089,1,8,0:0:0:0:
192,192,251260,1,2,0:0:0:0:
320,192,251260,1,8,0:0:0:0:
320,192,251432,1,8,0:0:0:0:
192,192,251603,1,8,0:0:0:0:
448,192,251603,1,2,0:0:0:0:
192,192,251775,1,8,0:0:0:0:
64,192,251946,1,2,0:0:0:0:
320,192,251946,1,8,0:0:0:0:
64,192,252117,1,8,0:0:0:0:
192,192,252289,1,2,0:0:0:0:
320,192,252289,1,8,0:0:0:0:
320,192,252460,1,8,0:0:0:0:
192,192,252632,1,2,0:0:0:0:
448,192,252632,1,8,0:0:0:0:
192,192,252803,1,8,0:0:0:0:
320,192,252975,1,8,0:0:0:0:
448,192,252975,1,2,0:0:0:0:
448,192,253146,1,8,0:0:0:0:
64,192,253317,1,10,0:0:0:60:
192,192,253317,1,4,0:0:0:0:
320,192,253403,1,8,0:0:0:60:
448,192,253489,1,10,0:0:0:60:
192,192,253575,1,8,0:0:0:60:
320,192,253660,1,10,0:0:0:60:
64,192,253746,1,8,0:0:0:60:
192,192,253832,1,10,0:0:0:60:
448,192,253917,1,8,0:0:0:60:
320,192,254003,1,10,0:0:0:60:
192,192,254089,1,8,0:0:0:60:
448,192,254175,1,10,0:0:0:60:
320,192,254260,1,8,0:0:0:60:
64,192,254346,1,10,0:0:0:60:
448,192,254432,1,8,0:0:0:60:
192,192,254517,1,10,0:0:0:60:
320,192,254603,1,8,0:0:0:60:
448,192,254689,1,10,0:0:0:60:
64,192,254775,1,8,0:0:0:60:
192,192,254860,1,10,0:0:0:60:
320,192,254946,1,8,0:0:0:60:
64,192,255032,1,10,0:0:0:60:
448,192,255117,1,8,0:0:0:60:
192,192,255203,1,10,0:0:0:60:
64,192,255289,1,8,0:0:0:60:
320,192,255375,1,10,0:0:0:60:
192,192,255460,1,8,0:0:0:60:
448,192,255546,1,10,0:0:0:60:
320,192,255632,1,8,0:0:0:60:
64,192,255717,1,10,0:0:0:60:
448,192,255803,1,8,0:0:0:60:
320,192,255889,1,10,0:0:0:60:
192,192,255975,1,8,0:0:0:60:
64,192,256060,1,8,0:0:0:60:
448,192,256060,1,2,0:0:0:60:
320,192,256146,1,10,0:0:0:60:
192,192,256232,1,10,0:0:0:60:
320,192,256317,1,10,0:0:0:60:
64,192,256403,1,8,0:0:0:60:
448,192,256403,1,2,0:0:0:60:
192,192,256489,1,10,0:0:0:60:
320,192,256575,1,10,0:0:0:60:
192,192,256660,1,10,0:0:0:60:
64,192,256746,1,8,0:0:0:60:
448,192,256746,1,2,0:0:0:60:
320,192,256832,1,10,0:0:0:60:
192,192,256917,1,10,0:0:0:60:
320,192,257003,1,10,0:0:0:60:
64,192,257089,1,2,0:0:0:60:
448,192,257089,1,8,0:0:0:60:
192,192,257175,1,8,0:0:0:60:
320,192,257260,1,10,0:0:0:60:
64,192,257346,1,8,0:0:0:60:
320,192,257432,1,8,0:0:0:60:
448,192,257432,1,2,0:0:0:0:
192,192,258117,1,0,0:0:0:0:
64,192,258460,1,4,0:2:0:90:
448,192,258460,1,0,0:0:0:0:
192,192,258632,1,2,0:0:0:0:
320,192,258632,1,0,0:0:0:0:
64,192,258803,1,2,0:3:0:87:
320,192,258803,1,4,0:3:0:87:
448,192,258803,1,0,0:0:0:0:
