osu file format v14

[General]
AudioFilename: audio.mp3
AudioLeadIn: 0
PreviewTime: -1
Countdown: 0
SampleSet: Soft
StackLeniency: 0
Mode: 0
LetterboxInBreaks: 0
WidescreenStoryboard: 1

[Editor]
Bookmarks: 10504
DistanceSpacing: 0.9
BeatDivisor: 4
GridSize: 4
TimelineZoom: 1.5

[Metadata]
Title:Chirality
TitleUnicode:Chirality
Artist:Camellia
ArtistUnicode:かめりあ
Creator:rrtyui
Version:Original
Source:REFLEC BEAT groovin'!!
Tags:Pending cup #5
BeatmapID:1411920
BeatmapSetID:667253

[Difficulty]
HPDrainRate:4
CircleSize:4
OverallDifficulty:9
ApproachRate:9.6
SliderMultiplier:2.1
SliderTickRate:1

[Events]
//Background and Video events
//Break Periods
//Storyboard Layer 0 (Background)
//Storyboard Layer 1 (Fail)
//Storyboard Layer 2 (Pass)
//Storyboard Layer 3 (Foreground)
//Storyboard Sound Samples

[TimingPoints]
952,298.507462686567,4,2,1,40,1,0
9011,-200,4,2,1,40,0,0
9310,-200,4,2,1,50,0,0
9459,-200,4,2,1,30,0,0
9608,-200,4,2,1,45,0,0
9683,-200,4,2,1,40,0,0
9757,-200,4,2,1,35,0,0
9832,-200,4,2,1,30,0,0
9907,-200,4,2,1,35,0,0
9981,-200,4,2,1,40,0,0
10056,-200,4,2,1,50,0,0
10131,-200,4,2,1,60,0,0
10205,-666.666666666667,4,2,1,50,0,0
10354,-666.666666666667,4,2,1,20,0,0
10504,-50,4,1,1,80,0,0
10802,-50,4,2,1,40,0,0
11101,-333.333333333333,4,2,1,70,0,0
11250,-25,4,2,1,70,0,0
11549,-133.333333333333,4,2,1,70,0,0
11698,-200,4,2,1,70,0,0
11847,-200,4,2,1,30,0,0
12146,-200,4,2,1,40,0,0
12593,-1000,4,2,1,60,0,0
12892,-50,4,1,1,80,0,0
13190,-50,4,2,1,40,0,0
13489,-333.333333333333,4,2,1,70,0,0
13614,-25,4,2,1,70,0,0
13787,-100,4,2,1,70,0,0
14235,-100,4,2,1,30,0,0
14384,-100,4,2,1,40,0,0
14534,-100,4,2,1,40,0,0
14683,-100,4,2,1,50,0,0
14832,-100,4,2,1,50,0,0
14981,-133.333333333333,4,2,1,60,0,0
15280,-50,4,1,1,80,0,0
15578,-50,4,2,1,40,0,0
15877,-333.333333333333,4,2,1,70,0,0
16026,-25,4,2,1,70,0,0
16175,-100,4,2,1,70,0,0
16623,-100,4,2,1,50,0,0
16810,-100,4,2,1,30,0,0
17071,-100,4,2,1,60,0,0
17146,-100,4,2,1,50,0,0
17220,-100,4,2,1,40,0,0
17295,-100,4,2,1,30,0,0
17369,-500,4,2,1,50,0,0
17668,-48.780487804878,4,1,1,80,0,0
17966,-50,4,2,1,50,0,0
18265,-333.333333333333,4,2,1,70,0,0
18340,-333.333333333333,4,2,1,50,0,0
18414,-333.333333333333,4,2,1,70,0,0
18489,-100,4,2,1,50,0,0
18713,-25,4,2,1,70,0,0
18787,-25,4,2,1,50,0,0
18862,-50,4,2,1,70,0,0
18937,-50,4,2,1,40,0,0
19086,-100,4,2,1,50,0,0
19496,-100,4,1,1,70,0,0
19534,-100,4,1,1,40,0,0
19608,-25.5102040816327,4,2,1,80,0,0
19832,-25.5102040816327,4,2,1,40,0,0
19907,-100,4,2,1,55,0,0
19981,-100,4,2,1,35,0,0
20056,-40,4,2,1,90,0,1
20075,-40,4,2,1,90,0,0
20354,-40,4,2,1,50,0,0
20653,-40,4,2,1,70,0,0
20728,-40,4,2,1,60,0,0
21250,-57.1428571428571,4,2,1,60,0,0
21325,-57.1428571428571,4,2,1,50,0,0
21549,-33.3333333333333,4,2,1,70,0,0
21847,-33.3333333333333,4,2,1,70,0,0
21922,-33.3333333333333,4,2,1,50,0,0
21996,-40,4,2,1,50,0,0
22146,-80,4,2,1,70,0,0
22220,-80,4,2,1,50,0,0
22444,-28.5714285714286,4,2,1,90,0,1
22463,-28.5714285714286,4,2,1,90,0,0
22743,-40,4,2,1,50,0,0
23041,-40,4,2,1,70,0,0
23116,-40,4,2,1,60,0,0
23638,-50,4,2,1,80,0,0
24086,-50,4,2,1,50,0,0
24160,-66.6666666666667,4,2,1,60,0,0
24235,-66.6666666666667,4,2,1,70,0,0
24534,-80,4,2,1,60,0,0
24832,-28.5714285714286,4,2,1,90,0,1
24851,-28.5714285714286,4,2,1,90,0,0
25131,-40,4,2,1,70,0,0
25429,-40,4,2,1,75,0,0
25504,-40,4,2,1,70,0,0
25951,-40,4,2,1,50,0,0
26026,-40,4,2,1,80,0,0
26325,-133.333333333333,4,2,1,55,0,0
26399,-133.333333333333,4,2,1,20,0,0
26474,-66.6666666666667,4,2,1,55,0,0
26549,-66.6666666666667,4,2,1,20,0,0
26623,-33.3333333333333,4,2,1,70,0,0
26698,-33.3333333333333,4,2,1,50,0,0
26772,-66.6666666666667,4,2,1,60,0,0
26922,-50,4,2,1,60,0,0
27220,-66.6666666666667,4,2,1,90,0,1
27668,-66.6666666666667,4,2,1,40,0,1
27817,-66.6666666666667,4,2,1,70,0,1
27966,-66.6666666666667,4,2,1,50,0,0
28116,-33.3333333333333,4,2,1,95,0,1
28489,-33.3333333333333,4,2,1,40,0,1
28563,-33.3333333333333,4,2,1,70,0,1
28713,-66.6666666666667,4,2,1,70,0,0
28862,-66.6666666666667,4,1,1,70,0,0
28937,-66.6666666666667,4,1,1,40,0,0
29011,-200,4,2,1,80,0,0
29049,-200,4,2,1,40,0,0
29310,-100,4,2,1,60,0,0
29459,-100,4,2,0,60,0,0
29608,-40,4,2,1,70,0,1
29627,-40,4,2,1,90,0,0
29907,-40,4,2,1,50,0,0
30205,-40,4,2,1,70,0,0
30280,-40,4,2,1,60,0,0
30802,-57.1428571428571,4,2,1,60,0,0
30840,-57.1428571428571,4,2,1,50,0,0
31101,-33.3333333333333,4,2,1,70,0,0
31399,-33.3333333333333,4,2,1,70,0,0
31474,-33.3333333333333,4,2,1,50,0,0
31549,-40,4,2,1,50,0,0
31698,-80,4,2,1,70,0,0
31996,-30.7692307692308,4,2,1,70,0,1
32015,-30.7692307692308,4,2,1,90,0,0
32295,-40,4,2,1,50,0,0
32593,-40,4,2,1,70,0,0
32668,-40,4,2,1,60,0,0
33190,-50,4,2,1,80,0,0
33489,-50,4,2,1,40,0,0
33638,-50,4,2,1,50,0,0
33713,-66.6666666666667,4,2,1,60,0,0
33787,-66.6666666666667,4,2,1,70,0,0
34086,-80,4,2,1,60,0,0
34384,-769.230769230769,4,2,1,70,0,0
34422,-769.230769230769,4,2,1,40,0,0
34683,-66.6666666666667,4,2,1,70,0,0
34981,-200,4,2,1,70,0,0
35205,-200,4,2,1,80,0,0
35280,-100,4,2,1,90,0,0
35354,-100,4,2,1,20,0,0
35429,-100,4,2,1,50,0,0
35578,-200,4,2,1,70,0,1
35597,-200,4,2,1,20,0,0
35653,-100,4,2,1,70,0,0
35690,-100,4,2,1,20,0,0
35728,-50,4,2,1,70,0,0
35765,-50,4,2,1,20,0,0
35802,-100,4,2,1,70,0,0
35951,-100,4,2,1,40,0,0
36026,-100,4,2,1,60,0,0
36175,-33.3333333333333,4,2,1,70,0,0
36250,-33.3333333333333,4,2,1,50,0,0
36325,-66.6666666666667,4,2,1,60,0,0
36474,-50,4,2,1,60,0,0
36772,-50,4,2,1,90,0,1
36996,-50,4,2,1,40,0,1
37071,-57.1428571428571,4,2,1,70,0,1
37146,-57.1428571428571,4,2,1,40,0,1
37220,-100,4,2,1,50,0,1
37257,-100,4,2,1,20,0,1
37295,-100,4,2,1,50,0,1
37332,-100,4,2,1,20,0,1
37369,-50,4,2,1,70,0,1
37593,-50,4,2,1,20,0,1
37668,-100,4,2,1,70,0,1
37817,-100,4,2,1,50,0,1
37966,-66.6666666666667,4,2,1,80,0,1
38190,-66.6666666666667,4,2,1,60,0,1
38265,-66.6666666666667,4,2,1,80,0,1
38489,-66.6666666666667,4,2,1,60,0,1
38563,-66.6666666666667,4,2,1,60,0,0
38862,-66.6666666666667,4,2,1,80,0,0
38937,-66.6666666666667,4,2,1,70,0,0
39011,-66.6666666666667,4,2,1,60,0,0
39086,-66.6666666666667,4,2,1,50,0,0
39160,-66.6666666666667,4,2,1,80,0,1
39179,-66.6666666666667,4,2,1,70,0,0
39757,-66.6666666666667,4,2,1,70,0,0
39907,-66.6666666666667,4,2,1,60,0,0
40056,-66.6666666666667,4,2,1,70,0,0
40205,-66.6666666666667,4,2,1,60,0,0
40504,-66.6666666666667,4,2,1,70,0,0
40653,-66.6666666666667,4,2,1,60,0,0
40951,-66.6666666666667,4,2,1,70,0,0
41101,-200,4,2,1,50,0,0
41175,-200,4,2,1,20,0,0
41250,-200,4,2,1,50,0,0
41325,-200,4,2,1,20,0,0
41399,-66.6666666666667,4,2,1,50,0,0
41549,-66.6666666666667,4,2,1,60,0,0
42146,-66.6666666666667,4,2,1,70,0,0
42295,-66.6666666666667,4,2,1,60,0,0
42444,-66.6666666666667,4,2,1,70,0,0
42593,-66.6666666666667,4,2,1,60,0,0
42892,-66.6666666666667,4,2,1,70,0,0
43041,-66.6666666666667,4,2,1,60,0,0
43190,-66.6666666666667,4,2,1,80,0,0
43265,-66.6666666666667,4,2,1,70,0,0
43340,-133.333333333333,4,2,1,80,0,0
43414,-133.333333333333,4,2,1,40,0,0
43489,-100,4,2,1,100,0,0
43563,-100,4,2,1,40,0,0
43638,-200,4,2,1,30,0,0
43787,-133.333333333333,4,2,1,90,0,0
43862,-133.333333333333,4,2,1,30,0,0
43937,-133.333333333333,4,2,1,70,0,0
44534,-66.6666666666667,4,2,1,70,0,0
44683,-66.6666666666667,4,2,1,60,0,0
44832,-66.6666666666667,4,2,1,70,0,0
44981,-66.6666666666667,4,2,1,60,0,0
45280,-66.6666666666667,4,2,1,70,0,0
45429,-66.6666666666667,4,2,1,60,0,0
45728,-66.6666666666667,4,2,1,70,0,0
45877,-200,4,2,1,60,0,0
45951,-200,4,2,1,20,0,0
46026,-200,4,2,1,60,0,0
46101,-200,4,2,1,20,0,0
46175,-200,4,2,1,50,0,0
46325,-200,4,2,1,60,0,0
46922,-66.6666666666667,4,2,1,70,0,0
47071,-66.6666666666667,4,2,1,60,0,0
47220,-66.6666666666667,4,2,1,70,0,0
47369,-66.6666666666667,4,2,1,60,0,0
47668,-66.6666666666667,4,2,1,70,0,0
47817,-66.6666666666667,4,2,1,60,0,0
48116,-1000,4,2,1,70,0,0
48134,-1000,4,2,1,20,0,0
48414,-50,4,2,1,60,0,0
48638,-50,4,2,1,60,0,0
48713,-50,4,2,1,80,0,0
48862,-50,4,2,1,60,0,0
49310,-50,4,2,1,80,0,0
49347,-50,4,2,1,70,0,0
50504,-50,4,2,1,80,0,0
50653,-200,4,2,1,40,0,0
50802,-200,4,2,1,60,0,0
50877,-200,4,2,1,50,0,0
50951,-200,4,2,1,60,0,0
51026,-200,4,2,1,50,0,0
51101,-200,4,2,1,60,0,0
51698,-50,4,2,1,80,0,0
51772,-50,4,2,1,70,0,0
52146,-57.1428571428571,4,2,1,70,0,0
52593,-50,4,2,1,70,0,0
52743,-50,4,2,1,80,0,0
52817,-50,4,2,1,70,0,0
52892,-133.333333333333,4,2,1,80,0,0
52966,-133.333333333333,4,2,1,40,0,0
53041,-100,4,2,1,100,0,0
53116,-100,4,2,1,40,0,0
53190,-200,4,2,1,30,0,0
53340,-133.333333333333,4,2,1,90,0,0
53414,-133.333333333333,4,2,1,30,0,0
53489,-50,4,2,1,70,0,0
53563,-50,4,2,1,60,0,0
54086,-50,4,2,1,80,0,0
54160,-50,4,2,1,70,0,0
55280,-50,4,2,1,80,0,0
55429,-32.258064516129,4,2,1,70,0,0
55877,-25,4,2,1,80,0,0
56026,-25,4,2,1,60,0,0
56325,-33.3333333333333,4,2,1,75,0,0
56474,-33.3333333333333,4,2,1,55,0,0
56772,-50,4,2,1,70,0,0
56922,-50,4,2,1,50,0,0
57220,-100,4,2,1,65,0,0
57369,-100,4,2,1,45,0,0
57668,-80,4,2,1,60,0,0
57817,-100,4,2,1,50,0,0
57966,-133.333333333333,4,2,1,60,0,0
58116,-200,4,2,1,70,0,0
58265,-50,4,2,1,80,0,0
58787,-50,4,2,1,40,0,0
58862,-333.333333333333,4,2,1,70,0,0
59011,-25,4,2,1,70,0,0
59310,-100,4,2,1,70,0,0
59608,-200,4,2,1,30,0,0
59907,-200,4,2,1,40,0,0
60354,-1000,4,2,1,60,0,0
60653,-50,4,1,1,80,0,0
60951,-50,4,2,1,40,0,0
61250,-333.333333333333,4,2,1,70,0,0
61399,-25,4,2,1,70,0,0
61549,-66.6666666666667,4,2,1,70,0,0
61996,-66.6666666666667,4,2,1,30,0,0
62295,-66.6666666666667,4,2,1,40,0,0
62444,-66.6666666666667,4,2,1,50,0,0
62544,-66.6666666666667,4,2,1,40,0,0
62743,-66.6666666666667,4,2,1,60,0,0
62842,-66.6666666666667,4,2,1,50,0,0
63041,-50,4,1,1,80,0,0
63340,-50,4,2,1,40,0,0
63638,-333.333333333333,4,2,1,70,0,0
63787,-25,4,2,1,70,0,0
63937,-100,4,2,1,70,0,0
64384,-100,4,2,1,50,0,0
64571,-100,4,2,1,30,0,0
64832,-100,4,2,1,60,0,0
64907,-100,4,2,1,50,0,0
64981,-100,4,2,1,40,0,0
65056,-100,4,2,1,30,0,0
65429,-50,4,1,1,80,0,0
65728,-50,4,2,1,50,0,0
66026,-333.333333333333,4,2,1,70,0,0
66101,-100,4,2,1,50,0,0
66175,-100,4,2,1,70,0,0
66250,-100,4,2,1,50,0,0
66474,-25,4,2,1,70,0,0
66549,-25,4,2,1,50,0,0
66623,-50,4,2,1,70,0,0
66698,-50,4,2,1,40,0,0
66772,-100,4,2,1,50,0,0
67257,-100,4,1,1,70,0,0
67295,-100,4,2,1,40,0,0
67369,-25,4,2,1,80,0,0
67444,-25,4,2,1,20,0,0
67519,-25,4,2,1,50,0,0
67668,-25,4,2,1,60,0,0
67817,-100,4,2,1,70,0,1
68265,-75.187969924812,4,2,1,75,0,1
68713,-60.2409638554217,4,2,1,80,0,1
69160,-50,4,2,1,85,0,1
69608,-50,4,2,1,80,0,1
69757,-66.6666666666667,4,2,1,75,0,1
70056,-100,4,2,1,70,0,1
70205,-100,4,2,1,70,0,1
70653,-75.187969924812,4,2,1,75,0,1
71101,-60.2409638554217,4,2,1,80,0,1
71549,-50,4,2,1,85,0,1
71698,-50,4,2,1,90,0,1
71996,-25,4,2,1,85,0,1
72146,-33.3333333333333,4,2,1,75,0,1
72295,-50,4,2,1,70,0,1
72444,-66.6666666666667,4,2,1,70,0,1
72593,-100,4,2,1,70,0,1
73041,-75.187969924812,4,2,1,75,0,1
73489,-60.2409638554217,4,2,1,80,0,1
73937,-50,4,2,1,85,0,1
74384,-33.3333333333333,4,2,1,90,0,1
74683,-50,4,2,1,80,0,1
74832,-66.6666666666667,4,2,1,70,0,1
74981,-66.6666666666667,4,2,1,80,0,1
75205,-66.6666666666667,4,2,1,70,0,1
75578,-80,4,2,1,80,0,1
75802,-80,4,2,1,70,0,1
76175,-80,4,2,1,80,0,1
76250,-80,4,2,1,60,0,1
76325,-80,4,2,1,65,0,1
76474,-200,4,2,1,80,0,1
76698,-200,4,2,1,65,0,1
76847,-200,4,2,1,40,0,1
76922,-200,4,2,1,80,0,1
76996,-200,4,2,1,70,0,1
77071,-100,4,2,1,90,0,1
77220,-50,4,2,1,100,0,1
77369,-50,4,2,1,90,0,1
77668,-66.6666666666667,4,2,1,90,0,1
77817,-75.187969924812,4,2,1,75,0,1
78265,-60.2409638554217,4,2,1,80,0,1
78862,-50,4,2,1,85,0,1
79160,-50,4,2,1,80,0,1
79310,-66.6666666666667,4,2,1,75,0,1
79757,-100,4,2,1,70,0,1
80205,-75.187969924812,4,2,1,75,0,1
80653,-60.2409638554217,4,2,1,80,0,1
81101,-50,4,2,1,85,0,1
81549,-16,4,2,1,90,0,1
81698,-22.2222222222222,4,2,1,85,0,1
81847,-33.3333333333333,4,2,1,75,0,1
82146,-100,4,2,1,70,0,1
82593,-75.187969924812,4,2,1,75,0,1
83041,-60.2409638554217,4,2,1,80,0,1
83489,-50,4,2,1,85,0,1
83937,-50,4,2,1,90,0,1
84011,-50,4,2,1,90,0,1
84086,-50,4,2,1,70,0,1
84235,-40,4,2,1,90,0,1
84310,-60.6060606060606,4,2,1,80,0,1
84384,-100,4,2,1,80,0,1
84422,-100,4,2,1,40,0,1
84459,-100,4,2,1,80,0,1
84496,-100,4,2,1,40,0,1
84534,-50,4,2,1,80,0,1
84571,-100,4,2,1,70,0,1
84832,-200,4,2,1,70,0,1
84981,-66.6666666666667,4,2,1,60,0,1
85131,-90.9090909090909,4,2,1,80,0,1
85504,-90.9090909090909,4,2,1,90,0,1
85728,-50,4,2,1,90,0,1
86026,-40,4,2,1,90,0,1
86101,-40,4,2,1,80,0,1
86175,-100,4,2,1,80,0,1
86250,-100,4,2,1,70,0,1
86325,-50,4,2,1,90,0,1
86474,-50,4,2,1,40,0,1
86549,-50,4,2,1,90,0,1
86623,-50,4,2,1,65,0,1
86772,-50,4,2,1,90,0,1
86847,-50,4,2,1,60,0,1
86903,-50,4,2,1,70,0,0
86922,-100,4,2,1,90,0,1
86940,-100,4,2,1,70,0,0
87071,-100,4,2,1,70,0,0
87369,-200,4,2,1,70,0,0
87519,-50,4,2,1,80,0,0
87593,-50,4,2,1,70,0,0
87668,-400,4,2,1,70,0,0
88116,-33.3333333333333,4,2,1,70,0,0
88414,-400,4,2,1,70,0,0
88713,-50,4,2,1,80,0,0
88787,-50,4,2,1,70,0,0
88862,-100,4,2,1,70,0,0
89011,-66.6666666666667,4,2,1,70,0,0
89608,-200,4,2,1,70,0,0
89901,-50,4,2,1,80,0,0
89981,-50,4,2,1,70,0,0
90056,-100,4,2,1,70,0,0
90205,-400,4,2,1,70,0,0
90504,-200,4,2,1,70,0,0
91101,-50,4,2,1,80,0,0
91175,-50,4,2,1,70,0,0
91399,-200,4,2,1,70,0,0
91623,-100,4,2,1,70,0,0
91698,-200,4,2,1,80,0,0
91847,-200,4,2,1,70,0,0
91996,-200,4,2,1,80,0,0
92146,-200,4,2,1,70,0,0
92295,-23.5294117647059,4,2,1,100,0,0
92369,-23.5294117647059,4,2,1,60,0,0
92444,-133.333333333333,4,2,1,50,0,0
92743,-100,4,2,1,40,0,0
92892,-100,4,2,1,50,0,0
96772,333.333333333333,4,2,1,70,1,0
96938,342.857142857143,4,2,1,70,1,0
97109,387.096774193548,4,2,1,70,1,0
97302,413.793103448276,4,2,1,70,1,0
97508,470.588235294118,4,2,1,70,1,0
97743,585.365853658537,4,2,1,70,1,0

[Colours]
Combo1 : 117,117,117
Combo2 : 193,132,255
Combo3 : 140,198,255
Combo4 : 255,159,128
Combo5 : 188,122,122
Combo6 : 255,85,85
Combo7 : 238,238,238
Combo8 : 189,189,189

[HitObjects]
148,333,9160,86,0,L|146:349,2,13.125
148,333,9310,2,0,L|156:280,1,52.5,2|0,0:0|0:0,0:0:0:0:
174,133,9608,21,0,1:0:0:0:
192,137,9683,1,0,1:0:0:0:
208,148,9757,1,0,1:0:0:0:
217,163,9832,1,0,1:0:0:0:
233,245,9907,101,0,1:0:0:0:
281,219,9981,1,0,1:0:0:0:
335,232,10056,1,0,1:0:0:0:
383,206,10130,1,0,1:0:0:0:
461,230,10205,102,0,L|477:227,1,15.7499995193482,2|2,0:0|0:0,0:0:0:0:
122,118,10504,38,0,B|92:74|34:83|34:83|116:43|189:86|186:171|186:171|134:212|151:276|151:276|116:279|93:303|93:303|33:285|10:218|53:164|53:164|49:195|69:220,1,735,4|0,3:2|0:0,0:0:0:0:
365,219,11101,86,0,L|361:235,1,15.7499995193482,8|0,2:1|2:0,0:0:0:0:
401,341,11250,22,2,P|334:263|233:245,1,210,4|0,3:2|2:0,2:0:0:0:
233,245,11549,86,0,B|246:256|246:256|233:190,1,78.75,4|0,3:2|2:0,0:0:0:0:
10,373,11847,6,0,L|20:322,1,52.5,2|2,0:0|0:0,0:0:0:0:
80,262,12146,1,2,0:0:0:0:
76,251,12220,1,2,0:0:0:0:
66,245,12295,1,2,0:0:0:0:
103,212,12369,1,2,0:0:0:0:
153,221,12444,1,0,0:0:0:0:
229,178,12593,86,2,L|225:160,1,15.75,0|0,2:0|2:0,2:0:0:0:
201,17,12892,54,0,B|165:8|165:8|183:69|259:80|314:50|272:20|342:-22|411:22|411:22|337:193|337:193|321:117|321:117|428:93|428:93|420:56,1,735,4|0,3:2|2:0,0:0:0:0:
506,27,13489,70,0,L|502:42,1,15.7499995193482,8|0,2:1|0:0,0:0:0:0:
440,291,13638,38,0,B|273:265|273:265|262:225,1,210,4|0,3:2|0:0,0:0:0:0:
360,294,13937,70,0,L|252:278,1,105,4|0,3:2|0:0,0:0:0:0:
72,259,14235,5,4,0:3:0:0:
76,246,14310,1,4,0:3:0:0:
85,255,14384,1,0,1:0:0:0:
164,223,14534,101,4,0:3:0:0:
156,195,14609,1,4,0:3:0:0:
182,203,14683,1,0,1:0:0:0:
240,135,14832,101,4,0:3:0:0:
198,93,14907,1,4,0:3:0:0:
256,80,14981,53,0,1:2:0:0:
313,18,15081,1,2,2:2:0:0:
394,34,15180,1,2,2:2:0:0:
470,210,15280,6,0,B|362:228|362:228|349:237|349:237|255:255|255:255|262:265|262:265|187:212|85:252|85:252|105:168|179:131|268:153|268:153|209:165|199:224,1,735,4|0,3:2|2:0,0:0:0:0:
280,233,15877,54,0,L|296:229,1,15.7499995193482,8|0,2:1|0:0,0:0:0:0:
447,348,16026,54,0,B|515:336|515:336|275:298,1,210,4|0,3:2|0:0,0:0:0:0:
351,145,16325,54,0,L|369:42,1,105,4|0,3:2|0:0,0:0:0:0:
369,41,16623,101,2,0:0:0:0:
357,43,16698,1,2,0:0:0:0:
344,45,16772,2,0,L|313:50,6,26.25,2|0|0|0|0|0|0,0:0|0:0|0:0|0:0|0:0|0:0|0:0,0:0:0:0:
226,9,17071,5,2,0:0:0:0:
233,41,17145,1,2,0:0:0:0:
223,64,17220,1,2,0:0:0:0:
207,74,17294,1,2,0:0:0:0:
126,77,17369,6,0,B|110:79|110:79|99:69,1,31.5,0|0,2:0|2:0,2:0:0:0:
51,172,17668,54,0,B|92:185|121:158|121:158|177:148|177:148|226:183|226:183|252:138|309:140|309:140|267:109|276:58|276:58|241:52|213:80|213:80|207:74|207:74|213:80|213:80|190:104|195:145|195:145|220:228|144:285|144:285|157:232,1,753.37501149559,4|0,3:2|2:0,0:0:0:0:
299,222,18265,38,0,L|314:225,1,15.7499995193482,8|0,1:1|1:0,0:0:0:0:
473,322,18414,101,4,3:2:0:0:
459,319,18489,1,0,1:0:0:0:
447,316,18563,2,0,L|437:265,1,52.5,0|0,1:0|1:0,0:0:0:0:
417,112,18713,86,0,B|400:191|400:191|366:215|366:215|348:303,1,210,4|0,3:2|1:0,0:0:0:0:
335,380,18862,6,0,B|311:494,1,105,0|0,3:2|0:0,0:0:0:0:
122,314,19086,86,0,B|108:294|108:294|118:240|118:240|137:227|137:227|191:236|191:236|205:255|205:255|195:310|195:310|176:323|176:323|116:313,1,315,2|0,2:1|2:0,0:0:0:0:
26,99,19608,22,2,B|38:79|38:79|224:55|224:55|41:118|41:118|228:93|228:93|241:73,1,617.399994347534,2|0,2:0|2:1,2:1:0:0:
108,89,19907,86,0,L|161:82,1,52.5,2|0,0:0|0:0,0:0:0:0:
442,11,20056,102,2,B|362:15|332:86|332:86|324:83|324:83|332:86|332:86|308:153|357:213|357:213|392:254|376:305,1,393.75,4|0,3:2|0:0,1:0:0:0:
301,357,20355,69,2,0:0:0:0:
314,360,20429,1,2,0:0:0:0:
298,369,20504,1,2,0:0:0:0:
310,373,20578,1,2,0:0:0:0:
375,305,20653,22,0,P|411:251|471:229,1,131.25,10|0,2:1|0:0,0:0:0:0:
111,110,20802,1,2,0:0:0:0:
67,181,20877,2,0,B|105:237|188:247|177:213|266:224|299:275,1,262.5,2|2,0:1|0:0,0:0:0:0:
218,191,21101,2,0,P|237:253|292:288,1,131.25,2|0,0:1|0:0,0:0:0:0:
457,367,21250,22,2,B|465:287|465:287|469:288|469:288|465:287|465:287|471:228|471:228|467:215|467:215|479:97,1,275.625002628565,0|0,3:2|0:0,1:0:0:0:
354,48,21549,2,2,B|347:-17|347:-17|366:-1|366:-1|376:96|376:96|368:115|368:115|371:150|371:150|376:150|376:150|371:150|371:150|375:195|375:195|380:194|380:194|375:195|375:195|384:273|384:273|376:226|338:206,1,472.500018024445,2|0,0:1|0:0,1:0:0:0:
140,111,21847,22,0,B|194:120|194:120|218:112|218:112|237:128|237:128|288:138,1,157.500006008148,8|0,2:1|0:0,1:0:0:0:
46,224,21996,2,0,B|107:215|107:215|111:209|111:209|173:200,1,131.25,2|0,0:0|0:0,1:0:0:0:
24,372,22146,6,2,B|74:378|74:378|73:382|73:382|74:378|74:378|115:383|115:383|104:331|140:293,1,196.875,2|0,0:1|0:0,1:0:0:0:
467,258,22444,54,2,B|488:228|482:190|424:151|362:217|389:289|389:289|404:324|404:324|411:321|411:321|404:324|404:324|425:378|425:378|377:259|248:271,1,551.25000525713,4|0,3:2|0:0,1:0:0:0:
185,203,22761,69,2,0:0:0:0:
172,200,22835,1,2,0:0:0:0:
181,216,22910,1,2,0:0:0:0:
169,212,22985,1,2,0:0:0:0:
118,277,23041,22,0,P|65:304|-5:294,1,131.25,10|0,2:1|0:0,0:0:0:0:
330,73,23190,1,2,0:0:0:0:
251,94,23265,2,0,B|195:131|186:217|238:208|234:284|182:330,1,262.5,2|2,0:1|0:0,0:0:0:0:
107,51,23489,2,0,P|159:88|182:149,1,131.25,2|0,0:1|0:0,0:0:0:0:
284,359,23638,38,2,B|287:274|362:224|362:224|360:219|360:219|362:224|362:224|438:181|515:216|515:216|468:229|453:272,1,420,0|0,3:2|2:0,1:0:0:0:
453,271,24086,38,0,L|443:219,1,52.5,2|0,0:0|0:0,0:0:0:0:
442,267,24160,2,0,L|434:228,1,39.3750015020371,2|0,0:0|0:0,0:0:0:0:
403,114,24235,102,0,B|382:48|425:1|425:1|435:36,1,157.500006008148,10|0,2:1|0:0,0:0:0:0:
367,139,24459,1,0,0:0:0:0:
323,142,24534,2,0,B|271:115|267:59|267:59|291:72,1,131.25,2|0,0:0|0:0,0:0:0:0:
46,20,24832,54,2,B|75:-26|156:-31|193:42|146:105|146:105|137:99|137:99|156:189|73:158|101:273|101:273|155:259|155:259|152:264|152:264|155:259|155:259|230:240,1,551.25000525713,4|0,3:2|0:0,1:0:0:0:
301,220,25131,69,2,0:0:0:0:
314,223,25205,1,2,0:0:0:0:
298,232,25280,1,2,0:0:0:0:
310,236,25355,1,2,0:0:0:0:
364,300,25429,22,0,P|431:271|466:218,1,131.25,10|0,2:1|0:0,0:0:0:0:
173,112,25578,1,0,0:0:0:0:
250,141,25653,2,0,B|315:172|313:257|258:262|267:340|322:374,1,262.5,2|0,2:1|0:0,0:0:0:0:
142,189,25877,2,0,P|188:226|258:237,1,131.25,2|0,0:1|0:0,0:0:0:0:
459,24,26026,54,0,B|356:40|356:40|335:31|335:31|221:49|221:49|198:78|198:78|86:95,1,393.75,0|0,3:2|2:2,1:3:0:0:
69,97,26325,22,0,L|30:103,1,39.3750015020371,2|0,0:0|0:0,0:0:0:0:
100,18,26474,2,0,L|85:95,1,78.7500030040742,2|0,0:0|0:0,0:0:0:0:
321,117,26623,86,0,B|334:202|276:178|292:266,1,157.500006008148,8|0,2:1|0:0,0:0:0:0:
396,316,26772,6,0,B|375:281|394:276|374:241,1,78.7500030040742,2|0,0:2|0:0,0:0:0:0:
467,272,26922,2,2,B|461:169|358:113|265:151|265:151|278:186,1,315,2|0,0:0|0:0,0:0:0:0:
241,336,27220,70,2,B|170:331|170:331|102:290|102:290|119:205|119:205|153:284|153:284|100:340|100:340|29:365,1,472.500018024445,4|0,3:2|2:0,0:1:0:0:
32,364,27817,1,8,2:1:0:0:
99,16,27966,1,2,0:0:0:0:
96,31,28041,1,2,0:0:0:0:
33,85,28116,22,2,B|186:56|186:56|276:39|313:113|313:113|179:140|179:140|285:115|346:179|346:179|414:244|495:199,1,787.500030040742,4|0,3:2|0:0,1:0:0:0:
495,199,28563,1,0,3:2:0:0:
420,8,28713,6,2,B|363:71|391:166|442:160|474:134|471:97|450:80|419:85|435:113,1,236.250009012223,0|0,3:0|2:0,0:0:0:0:
499,31,29011,22,0,L|512:28,1,13.125,8|0,2:1|0:0,0:0:0:0:
143,365,29310,102,0,B|120:368|117:350|90:354,1,52.5,2|0,0:0|0:0,0:0:0:0:
6,307,29459,6,0,L|1:282,1,26.25,8|0,0:0|0:0,0:0:0:0:
8,318,29534,2,0,L|13:343,1,26.25,8|0,0:0|0:0,0:0:0:0:
120,206,29608,22,2,B|174:170|240:183|240:183|242:178|242:178|240:183|240:183|308:199|334:266|334:266|362:337|427:338,1,393.75,4|0,3:2|2:0,1:0:0:0:
456,259,29907,69,2,0:0:0:0:
460,246,29981,1,2,0:0:0:0:
444,255,30056,1,2,0:0:0:0:
447,243,30131,1,2,0:0:0:0:
421,164,30205,22,0,P|368:123|305:115,1,131.25,10|0,2:1|0:0,0:0:0:0:
193,299,30354,1,0,0:0:0:0:
236,228,30429,2,0,B|255:155|207:85|169:146|124:79|138:7,1,262.5,2|0,0:1|0:0,0:0:0:0:
25,158,30653,2,0,P|86:139|130:84,1,131.25,2|0,0:1|0:0,0:0:0:0:
354,10,30802,22,2,B|357:17|357:17|353:23|353:23|356:28|356:28|352:34|352:34|355:41|355:41|351:46|351:46|354:52|354:52|350:57|350:57|345:120|345:120|336:130|336:130|331:192|331:192|336:192|336:192|331:192|331:192|323:293,1,275.625002628565,0|0,3:2|0:0,1:0:0:0:
466,361,31101,2,2,B|460:313|460:313|476:359|476:359|467:259|467:259|456:251|456:251|453:223|453:223|448:225|448:225|453:223|453:223|448:172|448:172|455:156|455:156|445:141|445:141|452:127|452:127|442:114|442:114|451:103|451:103|438:93|438:93|428:105|428:105|435:162,1,472.500018024445,2|0,0:0|0:0,1:0:0:0:
373,333,31399,22,0,B|363:281|363:281|348:262|348:262|356:238|356:238|348:184,1,157.500006008148,8|0,2:1|0:0,1:0:0:0:
201,366,31549,2,0,B|235:312|235:312|232:304|232:304|265:254,1,131.25,2|0,0:0|0:0,0:0:0:0:
42,257,31698,6,0,B|92:248|92:248|88:245|88:245|92:248|92:248|136:241|136:241|158:198|209:191,1,196.875,2|0,2:1|0:0,1:0:0:0:
436,163,31996,54,2,B|333:177|299:83|299:83|304:80|304:80|299:83|299:83|282:26|229:3|229:3|232:-3|232:-3|229:3|229:3|166:-19|103:12|103:12|141:5|172:23,1,511.875014644862,4|0,3:2|0:2,1:0:0:0:
215,95,32295,69,2,0:0:0:0:
203,99,32370,1,2,0:0:0:0:
219,108,32445,1,2,0:0:0:0:
206,111,32519,1,2,0:0:0:0:
147,168,32593,22,0,P|117:225|118:291,1,131.25,10|0,2:1|0:0,0:0:0:0:
439,292,32743,1,0,0:0:0:0:
396,224,32817,2,0,B|333:217|266:280|320:289|253:353|181:346,1,262.5,2|0,2:1|2:3,2:3:0:0:
322,301,33041,2,0,P|279:252|217:233,1,131.25,2|0,0:1|0:0,0:0:0:0:
81,22,33190,38,0,B|19:112|19:112|169:81|169:81|170:88|170:88|169:81|169:81|311:55,1,420,0|0,3:2|2:0,1:0:0:0:
310,55,33639,38,0,L|300:107,1,52.5,2|0,0:0|0:0,0:0:0:0:
299,59,33713,2,0,L|291:98,1,39.3750015020371,2|0,0:0|0:0,0:0:0:0:
261,214,33788,102,0,B|240:280|283:327|283:327|293:292,1,157.500006008148,10|0,2:1|0:0,0:0:0:0:
226,189,34012,1,0,0:0:0:0:
181,186,34087,2,0,B|129:213|125:269|125:269|149:256,1,131.25,2|0,0:0|0:0,0:0:0:0:
148,256,34384,22,0,L|127:251,1,20.4749998750305,2|0,3:1|0:0,0:0:0:0:
50,295,34683,102,0,B|42:248|42:248|45:237|45:237|38:192,2,105.000004005432,4|4|8,2:3|2:3|2:3,0:0:0:0:
193,342,34981,86,0,L|197:321,1,13.125,0|0,1:0|1:0,0:0:0:0:
272,332,35056,2,0,L|276:311,1,13.125,0|0,1:0|1:0,0:0:0:0:
343,267,35131,85,0,1:0:0:0:
416,279,35205,1,0,3:0:0:0:
489,291,35280,2,0,B|540:300,1,52.5,8|0,2:1|0:0,0:0:0:0:
326,83,35429,53,2,0:0:0:0:
326,83,35504,1,2,0:0:0:0:
326,83,35578,54,0,L|340:187,1,13.125,2|0,3:1|0:0,0:0:0:0:
309,127,35653,2,0,L|323:231,1,26.25,0|0,1:0|0:0,0:0:0:0:
337,168,35728,2,0,L|351:272,1,52.5,0|0,1:0|0:0,0:0:0:0:
325,244,35802,2,0,L|339:348,1,105,0|0,1:0|0:0,0:0:0:0:
339,348,36026,1,0,3:0:0:0:
61,83,36175,22,0,B|142:94|126:35|208:46,1,157.500006008148,8|0,2:1|0:0,0:0:0:0:
188,127,36325,6,0,B|155:152|181:167|148:192,1,78.7500030040742,2|0,0:0|0:0,0:1:0:0:
229,232,36474,2,0,B|163:310|50:287|24:184|24:184|69:167,1,315,2|0,0:0|0:0,0:1:0:0:
148,192,36772,54,2,B|304:214|304:214|312:219|312:219|458:240,1,315,4|2,3:2|0:0,0:1:0:0:
490,316,37071,2,0,L|473:226,1,91.8750008761883,8|0,2:1|0:0,0:0:0:0:
438,8,37220,70,0,L|418:-17,1,26.25,2|0,0:0|0:0,0:0:0:0:
438,8,37295,2,0,L|448:-20,1,26.25,2|0,0:0|0:0,0:0:0:0:
497,67,37369,22,0,B|460:97|458:145|458:145|397:40|267:54,1,315,0|0,3:2|0:2,1:2:0:0:
177,17,37668,2,0,L|196:120,1,105,8|2,2:1|0:0,0:0:0:0:
256,338,37892,37,2,0:0:0:0:
245,342,37966,2,2,P|128:346|26:290,1,236.250009012223,0|0,3:0|0:0,1:0:0:0:
45,210,38265,2,2,P|161:205|263:261,1,236.250009012223,8|0,0:1|2:0,1:0:0:0:
362,330,38563,37,0,3:2:0:0:
362,330,38713,1,0,3:2:0:0:
330,28,38862,101,10,2:1:0:0:
397,104,38937,1,2,2:2:0:0:
343,178,39011,1,2,3:2:0:0:
379,256,39086,1,2,3:2:0:0:
362,330,39160,5,4,3:2:0:0:
47,210,39310,1,2,1:2:0:0:
47,210,39608,1,2,3:2:0:0:
132,150,39757,22,0,P|131:229|105:302,1,157.5,8|2,1:0|0:0,0:0:0:0:
62,373,40056,85,0,3:0:0:0:
105,302,40205,22,0,P|173:263|250:249,1,157.5,2|0,1:2|0:0,0:0:0:0:
333,258,40504,85,2,3:2:0:0:
250,249,40653,22,0,P|182:208|131:149,1,157.5,0|2,1:0|0:0,0:0:0:0:
101,72,40952,85,8,2:1:0:0:
204,13,41101,6,2,B|204:26|204:26|199:38,1,26.25,2|0,2:2|2:0,1:0:0:0:
278,55,41250,2,2,B|277:41|277:41|282:29,1,26.25,0|0,2:0|2:0,1:0:0:0:
395,0,41399,101,2,3:2:0:0:
398,11,41474,1,0,3:0:0:0:
401,24,41548,1,2,1:2:0:0:
468,318,41698,1,2,1:2:0:0:
468,318,41996,1,2,3:2:0:0:
362,373,42146,38,0,B|356:282|407:313|403:223,1,157.500006008148,8|2,1:0|0:0,0:0:0:0:
399,144,42445,69,0,3:2:0:0:
183,231,42593,38,0,B|258:180|257:240|333:191,1,157.500006008148,2|0,1:2|0:0,0:0:0:0:
399,144,42892,69,2,3:2:0:0:
216,5,43041,38,0,B|297:45|244:74|325:115,1,157.500006008148,0|2,1:2|0:0,0:0:0:0:
323,114,43265,1,0,0:0:0:0:
323,114,43340,54,0,L|315:62,1,39.3750015020371,8|2,2:1|0:0,0:0:0:0:
232,194,43489,2,0,L|239:245,1,52.5,2|2,0:0|0:0,0:0:0:0:
143,130,43638,2,0,L|135:83,1,26.25,2|2,0:0|0:0,0:0:0:0:
79,192,43787,2,0,L|86:243,1,39.3750015020371,2|2,0:0|0:0,0:0:0:0:
23,139,43937,5,2,1:2:0:0:
436,186,44086,1,2,1:2:0:0:
436,186,44384,1,2,3:2:0:0:
356,292,44534,54,0,B|361:212|361:212|305:155,1,157.500006008148,8|2,1:0|0:0,0:0:0:0:
276,324,44832,53,0,3:2:0:0:
307,157,44981,54,0,B|234:190|234:190|213:265,1,157.500006008148,2|0,1:2|0:0,3:0:0:0:
375,209,45280,53,2,3:2:0:0:
213,265,45429,54,0,B|278:309|278:309|354:292,1,157.500006008148,0|2,1:2|0:0,0:0:0:0:
224,182,45728,53,8,2:1:0:0:
349,12,45877,6,2,P|337:6|324:8,1,26.25,2|0,2:1|2:0,1:0:0:0:
310,85,46026,2,2,P|322:91|336:90,1,26.25,2|0,2:1|2:0,1:0:0:0:
463,55,46176,101,2,3:2:0:0:
451,57,46251,1,0,3:2:0:0:
438,60,46325,1,2,1:2:0:0:
47,135,46474,1,2,1:2:0:0:
47,135,46772,1,2,3:2:0:0:
113,274,46922,70,0,L|134:117,1,157.500006008148,8|2,1:0|0:2,0:2:0:0:
76,59,47220,37,0,3:2:0:0:
134,118,47369,70,0,L|289:89,1,157.500006008148,2|0,1:2|0:2,0:2:0:0:
326,15,47668,37,2,3:2:0:0:
289,89,47817,70,0,L|364:228,1,157.500006008148,0|2,1:2|0:2,0:2:0:0:
445,240,48116,38,0,L|460:242,1,15.75,8|0,2:1|0:0,0:0:0:0:
451,255,48414,6,2,B|307:274|307:274|296:282|296:282|139:303,1,315,2|0,2:1|0:0,1:0:0:0:
84,247,48713,101,4,1:2:0:0:
171,4,48862,1,0,1:2:0:0:
171,4,49160,1,0,3:2:0:0:
212,76,49310,22,0,P|366:83|510:20,1,315,8|0,1:0|0:0,1:0:0:0:
510,19,49608,1,0,3:0:0:0:
328,281,49757,2,0,P|255:142|129:50,1,315,0|0,1:2|0:0,1:0:0:0:
130,50,50055,1,0,3:0:0:0:
448,77,50205,2,0,P|364:209|347:365,1,315,0|0,1:2|0:0,1:0:0:0:
347,364,50504,1,8,2:1:0:0:
471,186,50653,101,2,0:0:0:0:
471,186,50728,1,2,0:0:0:0:
471,186,50802,2,0,B|484:182|484:182|488:183|488:183|496:181,1,26.25,2|0,0:0|0:0,0:0:0:0:
487,266,50951,2,0,B|500:262|500:262|504:263|504:263|512:261,1,26.25,2|0,0:0|0:0,0:0:0:0:
294,100,51101,101,0,1:0:0:0:
250,370,51250,1,0,1:0:0:0:
250,370,51549,1,0,3:0:0:0:
323,331,51698,38,0,B|161:307|206:397|17:370,1,315,8|0,1:0|0:0,0:0:0:0:
17,370,51996,1,0,3:0:0:0:
294,84,52146,2,0,B|265:224|204:160|169:323,1,275.625002628565,0|0,1:0|0:0,0:0:0:0:
169,323,52444,1,0,3:0:0:0:
90,8,52593,2,0,B|175:72|107:100|200:181,1,210,0|0,1:0|0:0,0:0:0:0:
200,181,52817,1,0,0:0:0:0:
200,181,52892,54,0,L|193:223,1,39.3750015020371,8|2,2:1|0:0,0:0:0:0:
294,84,53041,2,0,L|305:16,1,52.5,2|2,0:0|0:0,0:0:0:0:
377,156,53190,2,0,L|370:198,1,26.25,2|2,0:0|0:0,0:0:0:0:
451,102,53340,2,0,L|462:34,1,39.3750015020371,2|2,0:0|0:0,0:0:0:0:
512,146,53489,5,2,1:2:0:0:
117,234,53638,1,2,1:2:0:0:
117,234,53937,1,2,3:2:0:0:
166,301,54086,54,0,B|319:346|319:346|451:262,1,315,8|0,1:0|0:0,0:0:0:0:
450,262,54384,1,0,3:2:0:0:
275,36,54534,2,0,B|159:146|159:146|166:302,1,315,0|0,1:0|0:0,0:0:0:0:
166,301,54832,1,0,3:2:0:0:
450,263,54981,2,0,B|412:107|412:107|273:35,1,315,0|0,1:0|0:0,0:0:0:0:
275,36,55280,1,8,2:1:0:0:
68,130,55429,22,2,B|50:88|4:79|4:79|62:89|62:89|63:83|63:83|62:89|62:89|80:92|80:92|81:86|81:86|80:92|80:92|98:95|98:95|99:89|99:89|98:95|98:95|116:98|116:98|117:92|117:92|116:98|116:98|132:101|132:101|210:115|265:184|243:269|243:269|305:262|345:217|343:164,1,651.000004966736,2|2,2:1|0:2,2:1:0:0:
450,20,55877,102,0,L|420:227,1,210,4|0,3:2|0:0,0:2:0:0:
484,277,56026,37,4,3:2:0:0:
420,228,56325,70,0,L|273:286,1,157.500006008148,4|0,3:2|0:0,0:0:0:0:
259,368,56474,37,4,3:2:0:0:
274,286,56772,70,0,L|191:221,1,105,4|0,3:2|0:0,0:0:0:0:
115,250,56922,37,4,3:2:0:0:
192,221,57220,70,0,L|199:169,1,52.5,4|0,3:2|0:0,0:0:0:0:
137,117,57369,37,4,3:2:0:0:
456,10,57668,5,2,0:0:0:0:
433,91,57817,2,0,L|377:96,1,52.5,2|0,1:2|1:2,0:0:0:0:
330,34,57966,2,0,L|274:39,1,39.3750015020371,2|0,1:2|1:2,0:0:0:0:
235,91,58116,2,0,L|202:94,1,26.25,2|0,1:2|1:2,0:0:0:0:
45,21,58265,6,0,B|166:33|166:33|192:90|192:90|183:160|183:160|146:194|146:194|62:186|62:186|36:146|36:146|68:105|68:105|154:113|154:113|183:160|183:160|176:198|198:232|238:234,1,735,4|0,3:2|0:0,0:0:0:0:
320,237,58862,86,0,L|316:221,1,15.7499995193482,8|0,2:1|0:0,0:0:0:0:
399,147,59011,22,0,P|359:243|359:347,1,210,4|0,3:2|0:0,0:0:0:0:
456,370,59310,86,0,B|469:318|469:318|436:278,1,105,4|0,3:2|0:0,0:0:0:0:
493,45,59608,6,0,B|480:51|480:51|439:44,1,52.5,2|2,0:0|0:0,0:0:0:0:
355,7,59907,1,2,0:0:0:0:
356,20,59982,1,2,0:0:0:0:
363,29,60056,1,2,0:0:0:0:
328,63,60131,1,2,0:0:0:0:
281,49,60205,1,0,0:0:0:0:
185,10,60354,86,0,L|188:26,1,15.75
229,263,60653,54,0,B|163:273|163:273|162:267|162:267|163:273|163:273|75:286|75:286|54:231|90:183|90:183|122:138|106:89|106:89|151:138|219:122|219:122|287:141|293:207|293:207|321:150|385:149,1,735,4|0,3:2|0:0,0:0:0:0:
318,64,61250,70,0,L|315:80,1,15.7499995193482,8|0,2:1|0:0,0:0:0:0:
491,318,61399,38,0,B|431:325|396:277|396:277|357:283|357:283|353:287|353:287|357:283|357:283|308:290,1,210,4|0,3:2|0:0,0:0:0:0:
307,290,61698,70,0,B|274:319|274:319|294:204,1,157.500006008148,4|0,3:2|0:0,0:0:0:0:
75,362,61996,5,4,0:3:0:0:
79,349,62071,1,4,0:3:0:0:
88,357,62145,1,0,1:3:0:0:
170,342,62295,101,4,0:3:0:0:
176,322,62370,1,4,0:3:0:0:
189,335,62444,37,8,2:3:0:0:
252,284,62544,1,4,2:3:0:0:
331,305,62643,1,4,2:3:0:0:
393,252,62743,1,4,2:3:0:0:
315,179,62842,1,4,2:3:0:0:
208,209,62942,1,4,2:3:0:0:
147,154,63041,6,0,B|124:118|133:75|133:75|124:67|124:67|129:37|115:11|115:11|199:-3|252:60|230:150|230:150|245:133|245:133|207:197|264:220|249:291|201:329|201:329|168:257|208:209,1,735,4|0,3:2|0:0,0:0:0:0:
314,86,63638,54,0,L|329:90,1,15.7499995193482,8|0,2:1|0:0,0:0:0:0:
511,212,63787,54,0,B|461:234|399:211|432:182|370:157|315:178,1,210,4|0,3:2|0:0,0:0:0:0:
506,308,64086,54,0,B|525:291|525:291|511:212,1,105,4|0,3:2|0:0,0:0:0:0:
419,47,64384,101,2,0:0:0:0:
417,59,64459,1,2,0:0:0:0:
415,72,64533,2,0,L|410:103,6,26.25,2|0|0|0|0|0|0,0:0|0:0|0:0|0:0|0:0|0:0|0:0,0:0:0:0:
336,131,64832,5,2,0:0:0:0:
392,181,64906,1,2,0:0:0:0:
401,238,64981,1,2,0:0:0:0:
384,276,65055,1,2,0:0:0:0:
444,370,65131,6,0,B|376:362|376:362|373:358|373:358|376:362|376:362|291:352,1,157.5,2|0,0:0|0:0,0:0:0:0:
116,376,65429,54,0,B|177:331|177:331|167:291|167:291|171:290|171:290|167:291|167:291|155:251|155:251|121:224|136:175|136:175|65:146|4:183|-2:251|-2:251|61:247|91:297|91:297|149:256|149:256|162:189|227:181,1,735,4|0,3:2|0:0,0:0:0:0:
299,222,66026,38,0,L|314:225,1,15.7499995193482,8|0,1:1|1:0,0:0:0:0:
473,322,66175,101,4,3:2:0:0:
459,319,66250,1,0,1:0:0:0:
447,316,66324,2,0,L|437:265,1,52.5,0|0,1:0|1:0,1:0:0:0:
417,112,66474,86,0,B|400:191|400:191|366:215|366:215|348:303,1,210,4|0,3:2|1:2,0:0:0:0:
335,380,66623,6,0,B|311:494,1,105,0|0,3:0|0:0,0:0:0:0:
122,314,66847,86,0,B|108:294|108:294|118:240|118:240|137:227|137:227|191:236|191:236|205:255|205:255|195:310|195:310|176:323|176:323|116:313,1,315,2|0,2:1|2:0,0:0:0:0:
32,96,67369,22,0,B|132:82|132:82|147:87|147:87|254:74,1,210,2|0,2:0|0:0,0:0:0:0:
320,63,67519,21,0,0:0:0:0:
324,48,67668,1,2,0:0:0:0:
439,243,67817,37,6,3:2:0:0:
493,177,67966,2,0,B|467:166|454:143|454:143|436:162|407:164,1,105,2|8,0:2|2:0,0:2:0:0:
331,198,68265,101,2,0:2:0:0:
348,115,68414,2,0,B|308:111|287:81|287:81|291:117|266:145,1,139.649994246598,2|0,3:2|0:2,0:2:0:0:
219,217,68712,21,10,2:0:0:0:
190,136,68862,2,0,B|142:147|106:124|106:124|138:153|133:202,1,174.300002526627,2|0,0:2|3:2,0:2:0:0:
137,305,69160,21,2,0:2:0:0:
69,250,69310,2,0,B|24:285|-29:277|-29:277|24:285|54:335,1,210,10|0,0:2|0:2,0:2:0:0:
219,217,69608,22,0,P|268:204|310:235,1,105,2|0,3:2|0:0,0:0:0:0:
365,177,69757,2,0,P|389:207|388:245,1,78.7500030040742,2|0,2:2|0:0,0:0:0:0:
310,235,69907,5,10,0:0:0:0:
305,239,69957,1,2,0:2:0:0:
299,242,70007,1,2,0:2:0:0:
293,242,70056,1,2,0:2:0:0:
63,198,70205,21,2,3:2:0:0:
10,134,70354,2,0,B|36:123|49:100|49:100|67:119|96:121,1,105,2|8,0:2|0:2,0:2:0:0:
189,214,70653,101,2,0:2:0:0:
134,274,70802,2,0,B|165:298|166:333|166:333|182:301|219:291,1,139.649994246598,2|0,3:2|0:2,0:2:0:0:
450,233,71100,53,10,0:2:0:0:
298,59,71250,86,0,B|331:25|329:-20|329:-20|337:24|383:44,1,174.300002526627,2|0,0:2|3:2,0:2:0:0:
352,119,71548,1,2,2:2:0:0:
390,288,71698,22,0,B|422:336|410:389|410:389|422:336|472:311,1,210,10|0,2:2|2:2,2:2:0:0:
504,167,71996,6,0,B|451:141|392:166|421:191|363:217|308:189,1,210,2|0,3:2|0:0,0:0:0:0:
382,209,72146,6,0,B|299:231|306:173|229:191,1,157.500006008148,2|0,0:0|0:0,0:0:0:0:
189,121,72295,5,10,0:0:0:0:
162,98,72344,1,2,0:0:0:0:
129,90,72394,1,2,0:0:0:0:
96,100,72444,1,2,0:0:0:0:
20,314,72594,21,2,3:2:0:0:
85,368,72743,2,0,B|96:342|119:329|119:329|100:311|98:282,1,105,2|8,0:2|0:2,0:2:0:0:
206,157,73042,101,2,0:2:0:0:
128,124,73191,2,0,B|115:161|83:174|83:174|118:177|141:209,1,139.649994246598,2|0,3:2|0:2,0:2:0:0:
250,273,73489,21,10,0:2:0:0:
328,306,73639,2,0,B|348:261|392:253|392:253|347:254|313:221,1,174.300002526627,2|0,0:2|3:2,0:2:0:0:
476,63,73937,21,2,0:2:0:0:
411,9,74087,2,0,B|367:45|313:38|313:38|367:45|398:95,1,210,10|0,0:2|0:2,0:2:0:0:
472,246,74384,22,0,B|510:198|510:198|490:295,1,157.500006008148,2|0,3:2|0:0,0:0:0:0:
504,372,74534,1,2,0:0:0:0:
494,383,74583,1,2,0:0:0:0:
481,386,74633,1,2,0:0:0:0:
470,382,74683,6,0,P|428:354|376:359,1,105,10|0,0:2|0:0,0:0:0:0:
279,228,74832,2,0,P|233:250|212:297,1,78.7500030040742,2|0,0:2|0:0,0:0:0:0:
25,339,74981,6,0,P|142:331|247:382,1,236.250009012223,2|2,3:2|0:0,0:0:0:0:
247,382,75280,2,0,L|279:228,1,157.500006008148,8|2,0:0|0:0,0:0:0:0:
233,52,75578,6,0,P|330:52|419:13,1,196.875,2|2,3:2|0:0,0:0:0:0:
420,13,75877,2,0,L|437:143,1,131.25,8|2,0:0|0:0,0:0:0:0:
487,254,76101,1,0,0:0:0:0:
496,246,76175,22,0,P|509:216|509:183,1,65.625,6|0,3:2|0:0,0:0:0:0:
355,150,76325,2,0,P|342:180|341:212,1,65.625,2|0,0:2|0:0,0:0:0:0:
413,255,76474,53,8,2:2:0:0:
413,255,76549,1,0,3:2:0:0:
413,255,76623,2,2,B|403:291|403:291|404:297|404:297|395:331,1,78.75,2|0,3:2|0:0,1:0:0:0:
467,369,76922,102,0,B|480:372|480:372|489:363,1,26.25,2|0,3:2|0:0,0:0:0:0:
341,212,77071,54,0,B|359:192|359:192|354:167,1,52.5,10|0,0:2|0:0,0:0:0:0:
144,164,77220,22,0,B|128:112|128:112|80:97,1,105,10|0,0:2|0:0,0:0:0:0:
20,347,77369,6,2,B|95:368|148:305|148:305|150:320|150:320|203:255|290:278,1,315,0|0,2:0|2:0,1:0:0:0:
366,307,77668,86,0,B|384:337|384:337|469:350|469:350|499:330,1,157.500006008148,12|2,0:1|0:0,0:0:0:0:
348,115,77966,70,0,B|327:85|287:81|287:81|265:105|267:143,1,139.649994246598,2|0,3:2|0:2,0:2:0:0:
219,217,78264,21,10,2:0:0:0:
190,136,78414,2,0,B|154:112|106:124|106:124|99:169|133:202,1,174.300002526627,2|0,0:2|3:2,0:2:0:0:
137,305,78712,21,2,0:2:0:0:
69,250,78862,2,0,B|14:242|-29:277|-29:277|-5:321|54:335,1,210,10|0,0:2|0:2,0:2:0:0:
219,216,79160,22,0,B|270:202|270:202|311:236,1,105,2|0,3:2|0:0,0:0:0:0:
365,177,79310,2,0,B|393:205|393:205|389:244,1,78.7500030040742,2|0,2:2|0:0,0:0:0:0:
310,235,79459,5,10,0:0:0:0:
305,239,79509,1,2,0:2:0:0:
299,242,79559,1,2,0:2:0:0:
293,242,79608,1,2,0:2:0:0:
63,198,79757,21,2,3:2:0:0:
10,134,79907,2,0,B|21:111|49:100|49:100|76:102|96:121,1,105,2|8,0:2|0:2,0:2:0:0:
189,214,80205,101,2,0:2:0:0:
134,274,80354,2,0,B|136:311|166:333|166:333|204:322|219:291,1,139.649994246598,2|0,3:2|0:2,0:2:0:0:
450,233,80652,53,10,0:2:0:0:
298,59,80802,86,0,B|294:13|329:-20|329:-20|372:0|382:44,1,174.300002526627,2|0,0:2|3:2,0:2:0:0:
352,119,81100,1,2,2:2:0:0:
390,288,81250,22,0,B|378:341|410:389|410:389|462:361|473:311,1,210,10|0,2:2|2:2,2:2:0:0:
504,167,81549,6,0,B|470:161|478:182|492:205|530:211|552:177|554:137|525:111|454:122|404:141|439:202|366:223|307:188,1,328.125,2|0,3:2|0:0,0:0:0:0:
378,210,81698,6,0,B|342:224|283:223|303:174|250:157|210:160|170:206|204:252|257:242|261:200|241:195|233:205,1,236.250009012223,2|0,0:0|0:0,0:0:0:0:
189,121,81847,5,10,0:0:0:0:
162,98,81896,1,2,0:0:0:0:
129,90,81946,1,2,0:0:0:0:
96,100,81996,1,2,0:0:0:0:
20,314,82146,21,2,3:2:0:0:
85,368,82295,2,0,B|109:355|119:329|119:329|118:301|98:282,1,105,2|8,0:2|0:2,0:2:0:0:
206,157,82594,101,2,0:2:0:0:
128,124,82743,2,0,B|95:138|83:174|83:174|102:204|141:209,1,139.649994246598,2|0,3:2|0:2,0:2:0:0:
250,273,83041,21,10,0:2:0:0:
328,306,83190,2,0,B|375:295|392:252|392:252|363:220|313:221,1,174.300002526627,2|0,0:2|3:2,0:2:0:0:
476,63,83489,21,2,0:2:0:0:
411,9,83638,2,0,B|358:2|313:38|313:38|339:85|397:93,1,210,10|0,0:2|0:2,0:2:0:0:
472,246,83937,21,2,3:2:0:0:
506,318,84011,2,0,B|492:344|492:344|415:332,2,105,8|2|2,0:2|0:2|0:2,0:0:0:0:
342,368,84235,2,0,B|337:339|337:339|228:319,1,131.25,8|0,0:1|2:2,0:0:0:0:
107,237,84384,6,0,L|82:232,1,26.25,0|0,1:0|0:0,0:0:0:0:
105,224,84459,2,0,L|80:219,1,26.25,0|0,1:0|0:0,0:0:0:0:
68,138,84534,6,2,B|50:72|50:72|150:60|209:129|186:226,1,315,2|2,3:2|0:0,2:1:0:0:
146,354,84832,70,0,B|149:344|149:344|148:338|148:338|151:333|151:333|161:303,1,52.5,2|0,0:0|3:0,0:0:0:0:
236,58,85131,54,0,B|293:35|344:68|344:68|333:74|333:74|378:109|433:90,1,231.000007049561,8|0,0:1|0:0,0:0:0:0:
510,173,85504,1,0,1:0:0:0:
470,164,85578,1,0,1:0:0:0:
434,187,85653,1,0,1:0:0:0:
356,211,85728,6,8,B|406:191|471:215|506:263|503:314,1,210,2|0,3:2|2:0,1:0:0:0:
487,319,85951,1,2,3:2:0:0:
434,380,86026,22,0,B|385:372|385:372|381:365|381:365|379:378|379:378|375:370|375:370|307:358,1,131.25,8|0,2:1|0:0,0:0:0:0:
242,237,86175,22,0,L|190:247,1,52.5,2|0,3:2|0:0,0:0:0:0:
50,360,86325,54,0,B|62:277|62:277|72:253|72:253|68:228|68:228|77:153,1,210,2|0,3:2|0:0,0:0:0:0:
46,76,86549,1,2,3:2:0:0:
93,145,86623,21,8,1:0:0:0:
121,165,86697,1,0,1:2:0:0:
155,171,86772,1,2,1:2:0:0:
189,162,86846,1,0,1:2:0:0:
253,112,86922,6,0,B|260:58,1,52.5,4|0,1:1|0:0,0:0:0:0:
334,14,87071,2,0,B|343:68,1,52.5,0|0,1:2|0:0,0:0:0:0:
449,298,87369,6,0,L|476:293,1,26.25,0|0,1:0|0:0,0:0:0:0:
369,310,87519,54,0,L|195:342,1,105,8|0,2:1|0:0,0:0:0:0:
457,311,87668,70,0,L|475:312,1,13.125,0|0,1:0|0:0,0:0:0:0:
362,296,87817,2,0,L|348:293,1,13.125,0|0,1:0|0:0,0:0:0:0:
52,352,88116,102,0,L|74:193,1,157.500006008148,0|0,1:0|0:0,0:0:0:0:
288,41,88414,102,0,L|273:-61,1,13.125,0|0,1:0|0:0,0:0:0:0:
308,151,88563,2,0,L|323:253,1,13.125,0|0,1:0|0:0,0:0:0:0:
222,84,88713,70,0,L|118:68,1,105,8|0,2:1|0:0,0:0:0:0:
371,107,88862,54,0,L|422:114,1,52.5,0|0,1:0|0:0,0:0:0:0:
423,114,89160,6,0,L|439:232,1,78.7500030040742,0|0,1:0|0:0,0:0:0:0:
448,271,89310,2,0,L|464:389,1,78.7500030040742,0|0,1:0|0:0,0:0:0:0:
30,334,89608,102,0,L|-12:339,1,26.25,0|0,1:0|0:0,0:0:0:0:
124,217,89907,54,0,L|102:358,1,105,8|0,2:1|0:0,0:0:0:0:
437,289,90056,38,0,L|430:341,1,52.5,0|0,1:0|0:0,0:0:0:0:
356,294,90354,6,0,L|354:307,1,13.125,0|0,1:0|0:0,0:0:0:0:
238,299,90653,6,0,L|234:272,1,26.25,0|0,1:0|0:0,0:0:0:0:
203,32,90802,2,0,L|199:5,1,26.25,0|0,1:0|0:0,0:0:0:0:
175,217,91101,38,0,L|192:114,1,105,8|0,2:1|0:0,0:0:0:0:
192,113,91399,54,0,L|195:140,1,26.25,0|0,1:0|0:0,0:0:0:0:
220,285,91549,2,0,L|223:312,1,26.25,0|0,1:0|0:0,0:0:0:0:
273,165,91698,53,8,1:0:0:0:
271,177,91772,1,0,3:0:0:0:
269,189,91847,2,0,L|262:226,1,26.25,0|0,1:0|2:0,0:0:0:0:
300,37,91996,1,8,1:0:0:0:
297,47,92070,1,0,3:0:0:0:
295,59,92145,2,0,L|288:96,1,26.25,0|0,1:0|2:0,0:0:0:0:
363,115,92295,22,0,B|292:123|292:123|292:118|292:118|292:123|292:123|151:139,1,223.125004255772,0|0,1:2|0:0,0:0:0:0:
2,193,92444,22,2,B|11:140|11:140|8:132|8:132|17:77,1,118.125004506111,0|0,2:0|0:0,2:1:0:0:
77,10,92743,2,0,B|69:-15|69:-15|67:11,1,52.5,2|0,0:0|0:0,0:0:0:0:
141,60,92892,101,4,3:2:0:0:
