osu file format v14

[General]
AudioFilename: audio.mp3
AudioLeadIn: 0
PreviewTime: 67444
Countdown: 0
SampleSet: Normal
StackLeniency: 0.7
Mode: 1
LetterboxInBreaks: 0
WidescreenStoryboard: 1

[Editor]
DistanceSpacing: 1
BeatDivisor: 4
GridSize: 32
TimelineZoom: 2.799999

[Metadata]
Title:Chirality
TitleUnicode:Chirality
Artist:Camellia
ArtistUnicode:かめりあ
Creator:_DUSK_
Version:Oni
Source:REFLEC BEAT groovin'!!
Tags:drumstep KONAMI Official Soundtrack
BeatmapID:1741816
BeatmapSetID:831411

[Difficulty]
HPDrainRate:5.5
CircleSize:4
OverallDifficulty:6
ApproachRate:9
SliderMultiplier:1.4
SliderTickRate:1

[Events]
//Background and Video events
0,0,"BGSTAN.jpg",0,0
//Break Periods
//Storyboard Layer 0 (Background)
//Storyboard Layer 1 (Fail)
//Storyboard Layer 2 (Pass)
//Storyboard Layer 3 (Foreground)
//Storyboard Sound Samples

[TimingPoints]
952,298.507462686567,4,1,0,100,1,0
67519,-100,4,1,0,60,0,0
67668,-100,4,1,0,80,0,0
67817,-100,4,1,0,100,0,1
76175,-100,4,1,0,100,0,0
77668,-100,4,1,0,100,0,1
92892,-100,4,1,0,100,0,0

[HitObjects]
256,192,10504,5,4,0:0:0:0:
256,192,11101,1,8,0:0:0:0:
256,192,11250,1,4,0:0:0:0:
256,192,11549,1,4,0:0:0:0:
256,192,12892,1,4,0:0:0:0:
256,192,13489,1,8,0:0:0:0:
256,192,13638,1,4,0:0:0:0:
256,192,13937,1,4,0:0:0:0:
256,192,14384,1,8,0:0:0:0:
256,192,14608,1,0,0:0:0:0:
256,192,14683,1,8,0:0:0:0:
256,192,14832,1,0,0:0:0:0:
256,192,14981,1,8,0:0:0:0:
256,192,15280,1,4,0:0:0:0:
256,192,15877,1,8,0:0:0:0:
256,192,16026,1,4,0:0:0:0:
256,192,16325,1,4,0:0:0:0:
256,192,17668,1,4,0:0:0:0:
256,192,18265,1,8,0:0:0:0:
256,192,18340,1,8,0:0:0:0:
256,192,18414,1,0,0:0:0:0:
256,192,18563,1,8,0:0:0:0:
256,192,18713,1,8,0:0:0:0:
256,192,18862,1,4,0:0:0:0:
256,192,20056,1,4,0:0:0:0:
256,192,20354,1,8,0:0:0:0:
256,192,20429,1,0,0:0:0:0:
256,192,20504,1,8,0:0:0:0:
256,192,20653,1,8,0:0:0:0:
256,192,20802,1,0,0:0:0:0:
256,192,20877,1,8,0:0:0:0:
256,192,21026,1,0,0:0:0:0:
256,192,21101,1,8,0:0:0:0:
256,192,21250,1,0,0:0:0:0:
256,192,21399,1,0,0:0:0:0:
256,192,21474,1,0,0:0:0:0:
256,192,21549,1,8,0:0:0:0:
256,192,21698,1,0,0:0:0:0:
256,192,21847,1,8,0:0:0:0:
256,192,21996,1,8,0:0:0:0:
256,192,22146,1,8,0:0:0:0:
256,192,22444,1,0,0:0:0:0:
256,192,22743,1,8,0:0:0:0:
256,192,22817,1,0,0:0:0:0:
256,192,22892,1,8,0:0:0:0:
256,192,23041,1,8,0:0:0:0:
256,192,23190,1,0,0:0:0:0:
256,192,23265,1,8,0:0:0:0:
256,192,23414,1,0,0:0:0:0:
256,192,23489,1,8,0:0:0:0:
256,192,23638,1,0,0:0:0:0:
256,192,23787,1,0,0:0:0:0:
256,192,23862,1,0,0:0:0:0:
256,192,23937,1,8,0:0:0:0:
256,192,24086,1,0,0:0:0:0:
256,192,24160,1,8,0:0:0:0:
256,192,24235,1,8,0:0:0:0:
256,192,24384,1,0,0:0:0:0:
256,192,24534,1,8,0:0:0:0:
256,192,24832,1,0,0:0:0:0:
256,192,25131,1,8,0:0:0:0:
256,192,25205,1,0,0:0:0:0:
256,192,25280,1,8,0:0:0:0:
256,192,25429,1,8,0:0:0:0:
256,192,25578,1,0,0:0:0:0:
256,192,25653,1,8,0:0:0:0:
256,192,25802,1,0,0:0:0:0:
256,192,25877,1,8,0:0:0:0:
256,192,26026,1,0,0:0:0:0:
256,192,26175,1,0,0:0:0:0:
256,192,26325,1,8,0:0:0:0:
256,192,26474,1,0,0:0:0:0:
256,192,26623,1,8,0:0:0:0:
256,192,26772,1,8,0:0:0:0:
256,192,26922,1,8,0:0:0:0:
256,192,27220,1,4,0:0:0:0:
256,192,27519,1,0,0:0:0:0:
256,192,27817,1,8,0:0:0:0:
256,192,28116,1,0,0:0:0:0:
256,192,28265,1,8,0:0:0:0:
256,192,28414,1,0,0:0:0:0:
256,192,28563,1,8,0:0:0:0:
256,192,28713,1,0,0:0:0:0:
256,192,29011,1,8,0:0:0:0:
256,192,29608,1,4,0:0:0:0:
256,192,29907,1,8,0:0:0:0:
256,192,29981,1,0,0:0:0:0:
256,192,30056,1,8,0:0:0:0:
256,192,30205,1,8,0:0:0:0:
256,192,30354,1,0,0:0:0:0:
256,192,30429,1,8,0:0:0:0:
256,192,30578,1,0,0:0:0:0:
256,192,30653,1,8,0:0:0:0:
256,192,30802,1,0,0:0:0:0:
256,192,30951,1,8,0:0:0:0:
256,192,31026,1,8,0:0:0:0:
256,192,31101,1,0,0:0:0:0:
256,192,31250,1,0,0:0:0:0:
256,192,31399,1,8,0:0:0:0:
256,192,31549,1,8,0:0:0:0:
256,192,31698,1,8,0:0:0:0:
256,192,31996,1,0,0:0:0:0:
256,192,32295,1,8,0:0:0:0:
256,192,32369,1,0,0:0:0:0:
256,192,32444,1,8,0:0:0:0:
256,192,32593,1,8,0:0:0:0:
256,192,32743,1,0,0:0:0:0:
256,192,32817,1,8,0:0:0:0:
256,192,32966,1,0,0:0:0:0:
256,192,33041,1,8,0:0:0:0:
256,192,33190,1,0,0:0:0:0:
256,192,33340,1,0,0:0:0:0:
256,192,33489,1,8,0:0:0:0:
256,192,33638,1,0,0:0:0:0:
256,192,33713,1,8,0:0:0:0:
256,192,33787,1,8,0:0:0:0:
256,192,33937,1,0,0:0:0:0:
256,192,34086,1,8,0:0:0:0:
256,192,34384,1,0,0:0:0:0:
256,192,34683,1,8,0:0:0:0:
256,192,34782,1,0,0:0:0:0:
256,192,34882,1,0,0:0:0:0:
256,192,34981,1,0,0:0:0:0:
256,192,35280,1,8,0:0:0:0:
256,192,35578,1,0,0:0:0:0:
256,192,35653,1,0,0:0:0:0:
256,192,35728,1,0,0:0:0:0:
256,192,35802,1,0,0:0:0:0:
256,192,35877,1,8,0:0:0:0:
256,192,36026,1,0,0:0:0:0:
256,192,36175,1,8,0:0:0:0:
256,192,36250,1,0,0:0:0:0:
256,192,36325,1,8,0:0:0:0:
256,192,36474,1,8,0:0:0:0:
256,192,36772,1,4,0:0:0:0:
256,192,37071,1,8,0:0:0:0:
256,192,37369,1,0,0:0:0:0:
256,192,37668,1,8,0:0:0:0:
256,192,37966,1,0,0:0:0:0:
256,192,38265,1,8,0:0:0:0:
256,192,38563,1,0,0:0:0:0:
256,192,38713,1,0,0:0:0:0:
256,192,38862,1,8,0:0:0:0:
256,192,38937,1,8,0:0:0:0:
256,192,39011,1,8,0:0:0:0:
256,192,39086,1,8,0:0:0:0:
256,192,39160,1,0,0:0:0:0:
256,192,39310,1,0,0:0:0:0:
256,192,39608,1,8,0:0:0:0:
256,192,39907,1,8,0:0:0:0:
256,192,40205,1,0,0:0:0:0:
256,192,40504,1,0,0:0:0:0:
256,192,40802,1,8,0:0:0:0:
256,192,41101,1,8,0:0:0:0:
256,192,41399,1,8,0:0:0:0:
256,192,41549,1,0,0:0:0:0:
256,192,41698,1,0,0:0:0:0:
256,192,41996,1,8,0:0:0:0:
256,192,42295,1,8,0:0:0:0:
256,192,42593,1,0,0:0:0:0:
256,192,42892,1,0,0:0:0:0:
256,192,43190,1,0,0:0:0:0:
256,192,43265,1,0,0:0:0:0:
256,192,43340,1,8,0:0:0:0:
256,192,43489,1,8,0:0:0:0:
256,192,43638,1,8,0:0:0:0:
256,192,43713,1,8,0:0:0:0:
256,192,43787,1,0,0:0:0:0:
256,192,43862,1,0,0:0:0:0:
256,192,43937,1,8,0:0:0:0:
256,192,44086,1,0,0:0:0:0:
256,192,44384,1,0,0:0:0:0:
256,192,44534,1,8,0:0:0:0:
256,192,44683,1,0,0:0:0:0:
256,192,44981,1,8,0:0:0:0:
256,192,45280,1,8,0:0:0:0:
256,192,45578,1,0,0:0:0:0:
256,192,45728,1,8,0:0:0:0:
256,192,45877,1,0,0:0:0:0:
256,192,46175,1,8,0:0:0:0:
256,192,46325,1,8,0:0:0:0:
256,192,46474,1,0,0:0:0:0:
256,192,46772,1,0,0:0:0:0:
256,192,46922,1,8,0:0:0:0:
256,192,47071,1,0,0:0:0:0:
256,192,47369,1,8,0:0:0:0:
256,192,47668,1,8,0:0:0:0:
256,192,47966,1,8,0:0:0:0:
256,192,48713,1,4,0:0:0:0:
256,192,48862,1,0,0:0:0:0:
256,192,49160,1,8,0:0:0:0:
256,192,49310,1,0,0:0:0:0:
256,192,49459,1,8,0:0:0:0:
256,192,49757,1,0,0:0:0:0:
256,192,50056,1,0,0:0:0:0:
256,192,50354,1,8,0:0:0:0:
256,192,50504,1,0,0:0:0:0:
256,192,50653,1,8,0:0:0:0:
256,192,50728,1,8,0:0:0:0:
256,192,50802,1,8,0:0:0:0:
256,192,50951,1,8,0:0:0:0:
256,192,51101,1,0,0:0:0:0:
256,192,51250,1,0,0:0:0:0:
256,192,51549,1,8,0:0:0:0:
256,192,51698,1,0,0:0:0:0:
256,192,51847,1,8,0:0:0:0:
256,192,52146,1,0,0:0:0:0:
256,192,52444,1,0,0:0:0:0:
256,192,52743,1,0,0:0:0:0:
256,192,52817,1,0,0:0:0:0:
256,192,52892,1,8,0:0:0:0:
256,192,52966,1,8,0:0:0:0:
256,192,53041,1,0,0:0:0:0:
256,192,53190,1,8,0:0:0:0:
256,192,53265,1,8,0:0:0:0:
256,192,53340,1,0,0:0:0:0:
256,192,53489,1,12,0:0:0:0:
256,192,53638,1,0,0:0:0:0:
256,192,53937,1,0,0:0:0:0:
256,192,54086,1,8,0:0:0:0:
256,192,54235,1,0,0:0:0:0:
256,192,54534,1,8,0:0:0:0:
256,192,54832,1,0,0:0:0:0:
256,192,54981,1,8,0:0:0:0:
256,192,55131,1,0,0:0:0:0:
256,192,55429,1,0,0:0:0:0:
256,192,55728,1,0,0:0:0:0:
256,192,55877,1,12,0:0:0:0:
256,192,56026,1,4,0:0:0:0:
256,192,56325,1,12,0:0:0:0:
256,192,56474,1,4,0:0:0:0:
256,192,56772,1,12,0:0:0:0:
256,192,56922,1,4,0:0:0:0:
256,192,57220,1,4,0:0:0:0:
256,192,57369,1,12,0:0:0:0:
256,192,57668,1,8,0:0:0:0:
256,192,57817,1,8,0:0:0:0:
256,192,57966,1,8,0:0:0:0:
256,192,58116,1,0,0:0:0:0:
256,192,58265,1,12,0:0:0:0:
256,192,58862,1,8,0:0:0:0:
256,192,59011,1,4,0:0:0:0:
256,192,59310,1,4,0:0:0:0:
256,192,60653,1,4,0:0:0:0:
256,192,61250,1,8,0:0:0:0:
256,192,61399,1,4,0:0:0:0:
256,192,61698,1,4,0:0:0:0:
256,192,63041,1,4,0:0:0:0:
256,192,63638,1,8,0:0:0:0:
256,192,63787,1,4,0:0:0:0:
256,192,64086,1,4,0:0:0:0:
256,192,65429,1,4,0:0:0:0:
256,192,66026,1,8,0:0:0:0:
256,192,66101,1,0,0:0:0:0:
256,192,66175,1,0,0:0:0:0:
256,192,66250,1,0,0:0:0:0:
256,192,66325,1,8,0:0:0:0:
256,192,66474,1,8,0:0:0:0:
256,192,66549,1,8,0:0:0:0:
256,192,66623,1,0,0:0:0:0:
256,192,67519,1,0,0:0:0:0:
256,192,67668,1,8,0:0:0:0:
256,192,67817,1,4,0:0:0:0:
256,192,67966,1,0,0:0:0:0:
256,192,68041,1,0,0:0:0:0:
256,192,68116,1,8,0:0:0:0:
256,192,68265,1,0,0:0:0:0:
256,192,68414,1,8,0:0:0:0:
256,192,68489,1,8,0:0:0:0:
256,192,68563,1,0,0:0:0:0:
256,192,68713,1,8,0:0:0:0:
256,192,68862,1,8,0:0:0:0:
256,192,69011,1,0,0:0:0:0:
256,192,69160,1,0,0:0:0:0:
256,192,69235,1,0,0:0:0:0:
256,192,69310,1,8,0:0:0:0:
256,192,69459,1,0,0:0:0:0:
256,192,69608,1,8,0:0:0:0:
256,192,69683,1,8,0:0:0:0:
256,192,69757,1,0,0:0:0:0:
256,192,69832,1,0,0:0:0:0:
256,192,69907,1,8,0:0:0:0:
256,192,70205,1,0,0:0:0:0:
256,192,70354,1,0,0:0:0:0:
256,192,70429,1,0,0:0:0:0:
256,192,70504,1,8,0:0:0:0:
256,192,70653,1,0,0:0:0:0:
256,192,70802,1,8,0:0:0:0:
256,192,70877,1,0,0:0:0:0:
256,192,70951,1,8,0:0:0:0:
256,192,71101,1,8,0:0:0:0:
256,192,71250,1,0,0:0:0:0:
256,192,71399,1,8,0:0:0:0:
256,192,71474,1,0,0:0:0:0:
256,192,71549,1,0,0:0:0:0:
256,192,71623,1,0,0:0:0:0:
256,192,71698,1,8,0:0:0:0:
256,192,71847,1,0,0:0:0:0:
256,192,71996,1,8,0:0:0:0:
256,192,72295,1,8,0:0:0:0:
256,192,72369,1,8,0:0:0:0:
256,192,72444,1,8,0:0:0:0:
256,192,72593,1,0,0:0:0:0:
256,192,72743,1,0,0:0:0:0:
256,192,72817,1,0,0:0:0:0:
256,192,72892,1,8,0:0:0:0:
256,192,73041,1,0,0:0:0:0:
256,192,73190,1,8,0:0:0:0:
256,192,73265,1,8,0:0:0:0:
256,192,73340,1,0,0:0:0:0:
256,192,73414,1,0,0:0:0:0:
256,192,73489,1,8,0:0:0:0:
256,192,73638,1,8,0:0:0:0:
256,192,73787,1,0,0:0:0:0:
256,192,73937,1,8,0:0:0:0:
256,192,74011,1,0,0:0:0:0:
256,192,74086,1,8,0:0:0:0:
256,192,74235,1,0,0:0:0:0:
256,192,74384,1,8,0:0:0:0:
256,192,74459,1,8,0:0:0:0:
256,192,74534,1,8,0:0:0:0:
256,192,74608,1,8,0:0:0:0:
256,192,74683,1,0,0:0:0:0:
256,192,74981,1,8,0:0:0:0:
256,192,75131,1,0,0:0:0:0:
256,192,75205,1,8,0:0:0:0:
256,192,75280,1,0,0:0:0:0:
256,192,75429,1,8,0:0:0:0:
256,192,75578,1,8,0:0:0:0:
256,192,75728,1,8,0:0:0:0:
256,192,75802,1,0,0:0:0:0:
256,192,75877,1,8,0:0:0:0:
256,192,76026,1,8,0:0:0:0:
256,192,76175,1,4,0:0:0:0:
256,192,76325,1,0,0:0:0:0:
256,192,76474,1,0,0:0:0:0:
256,192,76549,1,0,0:0:0:0:
256,192,76623,1,8,0:0:0:0:
256,192,76922,1,8,0:0:0:0:
256,192,77071,1,8,0:0:0:0:
256,192,77146,1,8,0:0:0:0:
256,192,77220,1,8,0:0:0:0:
256,192,77668,1,12,0:0:0:0:
256,192,77817,1,0,0:0:0:0:
256,192,77892,1,0,0:0:0:0:
256,192,77966,1,8,0:0:0:0:
256,192,78116,1,0,0:0:0:0:
256,192,78265,1,8,0:0:0:0:
256,192,78340,1,8,0:0:0:0:
256,192,78414,1,0,0:0:0:0:
256,192,78563,1,8,0:0:0:0:
256,192,78713,1,0,0:0:0:0:
256,192,78787,1,8,0:0:0:0:
256,192,78862,1,0,0:0:0:0:
256,192,79011,1,0,0:0:0:0:
256,192,79160,1,8,0:0:0:0:
256,192,79235,1,0,0:0:0:0:
256,192,79310,1,8,0:0:0:0:
256,192,79459,1,8,0:0:0:0:
256,192,79757,1,0,0:0:0:0:
256,192,79907,1,0,0:0:0:0:
256,192,79981,1,0,0:0:0:0:
256,192,80056,1,8,0:0:0:0:
256,192,80205,1,0,0:0:0:0:
256,192,80354,1,8,0:0:0:0:
256,192,80429,1,8,0:0:0:0:
256,192,80504,1,0,0:0:0:0:
256,192,80578,1,0,0:0:0:0:
256,192,80653,1,8,0:0:0:0:
256,192,80802,1,8,0:0:0:0:
256,192,80951,1,0,0:0:0:0:
256,192,81101,1,0,0:0:0:0:
256,192,81175,1,0,0:0:0:0:
256,192,81250,1,8,0:0:0:0:
256,192,81399,1,0,0:0:0:0:
256,192,81549,1,8,0:0:0:0:
256,192,81623,1,0,0:0:0:0:
256,192,81698,1,0,0:0:0:0:
256,192,81772,1,0,0:0:0:0:
256,192,81847,1,8,0:0:0:0:
256,192,82146,1,0,0:0:0:0:
256,192,82295,1,0,0:0:0:0:
256,192,82369,1,0,0:0:0:0:
256,192,82444,1,8,0:0:0:0:
256,192,82593,1,0,0:0:0:0:
256,192,82743,1,8,0:0:0:0:
256,192,82817,1,0,0:0:0:0:
256,192,82892,1,8,0:0:0:0:
256,192,83041,1,8,0:0:0:0:
256,192,83190,1,0,0:0:0:0:
256,192,83340,1,8,0:0:0:0:
256,192,83414,1,8,0:0:0:0:
256,192,83489,1,0,0:0:0:0:
256,192,83638,1,8,0:0:0:0:
256,192,83787,1,0,0:0:0:0:
256,192,83937,1,8,0:0:0:0:
256,192,84011,1,0,0:0:0:0:
256,192,84086,1,8,0:0:0:0:
256,192,84235,1,8,0:0:0:0:
256,192,84384,1,0,0:0:0:0:
256,192,84534,1,8,0:0:0:0:
256,192,84757,1,0,0:0:0:0:
256,192,84981,1,0,0:0:0:0:
256,192,85131,1,8,0:0:0:0:
256,192,85354,1,0,0:0:0:0:
256,192,85578,1,0,0:0:0:0:
256,192,85653,1,0,0:0:0:0:
256,192,85728,1,8,0:0:0:0:
256,192,85951,1,0,0:0:0:0:
256,192,86176,1,0,0:0:0:0:
256,192,86325,1,8,0:0:0:0:
256,192,86549,1,8,0:0:0:0:
256,192,86772,1,8,0:0:0:0:
256,192,86922,1,4,0:0:0:0:
256,192,87071,1,4,0:0:0:0:
256,192,87370,1,4,0:0:0:0:
256,192,87519,1,8,0:0:0:0:
256,192,87668,1,4,0:0:0:0:
256,192,87817,1,4,0:0:0:0:
256,192,88116,1,4,0:0:0:0:
256,192,88414,1,4,0:0:0:0:
256,192,88563,1,4,0:0:0:0:
256,192,88713,1,8,0:0:0:0:
256,192,88862,1,4,0:0:0:0:
256,192,89160,1,4,0:0:0:0:
256,192,89310,1,4,0:0:0:0:
256,192,89608,1,4,0:0:0:0:
256,192,89907,1,12,0:0:0:0:
256,192,90056,1,12,0:0:0:0:
256,192,90354,1,12,0:0:0:0:
256,192,90653,1,12,0:0:0:0:
256,192,90802,1,12,0:0:0:0:
256,192,91101,1,8,0:0:0:0:
256,192,91175,1,0,0:0:0:0:
256,192,91250,1,0,0:0:0:0:
256,192,91399,1,0,0:0:0:0:
256,192,91549,1,0,0:0:0:0:
256,192,91698,1,8,0:0:0:0:
256,192,91772,1,8,0:0:0:0:
256,192,91847,1,0,0:0:0:0:
256,192,91996,1,8,0:0:0:0:
256,192,92071,1,8,0:0:0:0:
256,192,92146,1,0,0:0:0:0:
256,192,92295,1,0,0:0:0:0:
256,192,92369,1,0,0:0:0:0:
256,192,92444,1,0,0:0:0:0:
256,192,92519,1,0,0:0:0:0:
256,192,92593,1,8,0:0:0:0:
256,192,92743,1,8,0:0:0:0:
256,192,92892,1,4,0:0:0:0:
