osu file format v14

[General]
AudioFilename: audio.mp3
AudioLeadIn: 0
PreviewTime: 67444
Countdown: 0
SampleSet: Normal
StackLeniency: 0.7
Mode: 1
LetterboxInBreaks: 0
WidescreenStoryboard: 0

[Editor]
DistanceSpacing: 1
BeatDivisor: 4
GridSize: 32
TimelineZoom: 2.799999

[Metadata]
Title:Chirality
TitleUnicode:Chirality
Artist:Camellia
ArtistUnicode:かめりあ
Creator:_DUSK_
Version:Inner Oni
Source:REFLEC BEAT groovin'!!
Tags:drumstep KONAMI Official Soundtrack
BeatmapID:1741806
BeatmapSetID:831411

[Difficulty]
HPDrainRate:6
CircleSize:4
OverallDifficulty:6.5
ApproachRate:9
SliderMultiplier:1.4
SliderTickRate:1

[Events]
//Background and Video events
0,0,"BGSTAN.jpg",0,0
//Break Periods
//Storyboard Layer 0 (Background)
//Storyboard Layer 1 (Fail)
//Storyboard Layer 2 (Pass)
//Storyboard Layer 3 (Foreground)
//Storyboard Sound Samples

[TimingPoints]
952,298.507462686567,4,1,0,100,1,0
10504,-125,4,1,0,100,0,0
18265,-121.951219512195,4,1,0,100,0,0
18340,-119.047619047619,4,1,0,100,0,0
18414,-116.279069767442,4,1,0,100,0,0
18489,-113.636363636364,4,1,0,100,0,0
18563,-111.111111111111,4,1,0,100,0,0
18638,-108.695652173913,4,1,0,100,0,0
18713,-106.382978723404,4,1,0,100,0,0
18787,-104.166666666667,4,1,0,100,0,0
18862,-102.040816326531,4,1,0,100,0,0
36772,-100,4,1,0,100,0,0
37071,-98.0392156862745,4,1,0,100,0,0
37369,-96.1538461538461,4,1,0,100,0,0
38862,-97.0873786407767,4,1,0,100,0,0
38937,-98.0392156862745,4,1,0,100,0,0
39011,-99.009900990099,4,1,0,100,0,0
39086,-100,4,1,0,100,0,0
39160,-101.010101010101,4,1,0,100,0,0
39310,-102.040816326531,4,1,0,100,0,0
39608,-103.092783505155,4,1,0,100,0,0
39757,-104.166666666667,4,1,0,100,0,0
39907,-105.263157894737,4,1,0,100,0,0
40056,-106.382978723404,4,1,0,100,0,0
40205,-107.52688172043,4,1,0,100,0,0
48414,-105.263157894737,4,1,0,100,0,0
48464,-103.092783505155,4,1,0,100,0,0
48514,-101.010101010101,4,1,0,100,0,0
48563,-99.009900990099,4,1,0,100,0,0
48613,-97.0873786407767,4,1,0,100,0,0
48663,-95.2380952380952,4,1,0,100,0,0
48713,-93.4579439252336,4,1,0,100,0,0
48862,-94.3396226415094,4,1,0,100,0,0
49160,-95.2380952380952,4,1,0,100,0,0
49310,-96.1538461538461,4,1,0,100,0,0
49459,-97.0873786407767,4,1,0,100,0,0
49608,-98.0392156862745,4,1,0,100,0,0
49757,-99.009900990099,4,1,0,100,0,0
50056,-100,4,1,0,100,0,0
55877,-103.092783505155,4,1,0,100,0,0
56325,-106.382978723404,4,1,0,100,0,0
56772,-109.89010989011,4,1,0,100,0,0
57220,-113.636363636364,4,1,0,100,0,0
66026,-111.111111111111,4,1,0,100,0,0
66101,-108.695652173913,4,1,0,100,0,0
66175,-106.382978723404,4,1,0,100,0,0
66250,-104.166666666667,4,1,0,100,0,0
66325,-102.040816326531,4,1,0,100,0,0
66399,-100,4,1,0,100,0,0
66474,-98.0392156862745,4,1,0,100,0,0
66549,-96.1538461538461,4,1,0,100,0,0
66623,-94.3396226415094,4,1,0,100,0,0
66772,-90.9090909090909,4,1,0,100,0,0
66822,-89.2857142857143,4,1,0,100,0,0
66872,-87.719298245614,4,1,0,100,0,0
66922,-86.2068965517241,4,1,0,100,0,0
67519,-98.0392156862745,4,1,0,60,0,0
67668,-96.1538461538461,4,1,0,80,0,0
67817,-94.3396226415094,4,1,0,100,0,1
76175,-94.3396226415094,4,1,0,100,0,0
76325,-95.2380952380952,4,1,0,100,0,0
76474,-96.1538461538461,4,1,0,100,0,0
76549,-97.0873786407767,4,1,0,100,0,0
76623,-98.0392156862745,4,1,0,100,0,0
76922,-99.009900990099,4,1,0,100,0,0
77071,-100,4,1,0,100,0,0
77146,-101.010101010101,4,1,0,100,0,0
77220,-102.040816326531,4,1,0,100,0,0
77369,-101.010101010101,4,1,0,100,0,0
77419,-100,4,1,0,100,0,0
77469,-99.009900990099,4,1,0,100,0,0
77519,-98.0392156862745,4,1,0,100,0,0
77568,-97.0873786407767,4,1,0,100,0,0
77618,-96.1538461538461,4,1,0,100,0,0
77668,-95.2380952380952,4,1,0,100,0,1
77817,-94.3396226415094,4,1,0,100,0,1
92892,-94.3396226415094,4,1,0,100,0,0

[HitObjects]
256,192,10504,5,4,0:0:0:0:
256,192,11101,1,8,0:0:0:0:
256,192,11250,1,4,0:0:0:0:
256,192,11549,1,4,0:0:0:0:
256,192,12892,1,4,0:0:0:0:
256,192,13489,1,8,0:0:0:0:
256,192,13638,1,4,0:0:0:0:
256,192,13937,1,4,0:0:0:0:
256,192,14384,1,8,0:0:0:0:
256,192,14534,1,0,0:0:0:0:
256,192,14608,1,0,0:0:0:0:
256,192,14683,1,8,0:0:0:0:
256,192,14832,1,0,0:0:0:0:
256,192,14981,1,8,0:0:0:0:
256,192,15131,1,8,0:0:0:0:
256,192,15280,1,4,0:0:0:0:
256,192,15877,1,8,0:0:0:0:
256,192,16026,1,4,0:0:0:0:
256,192,16325,1,4,0:0:0:0:
256,192,17668,1,4,0:0:0:0:
256,192,18265,1,8,0:0:0:0:
256,192,18340,1,0,0:0:0:0:
256,192,18414,1,8,0:0:0:0:
256,192,18489,1,0,0:0:0:0:
256,192,18563,1,0,0:0:0:0:
256,192,18638,1,0,0:0:0:0:
256,192,18713,1,8,0:0:0:0:
256,192,18787,1,0,0:0:0:0:
256,192,18862,1,8,0:0:0:0:
256,192,20056,1,4,0:0:0:0:
256,192,20354,1,8,0:0:0:0:
256,192,20429,1,8,0:0:0:0:
256,192,20504,1,8,0:0:0:0:
256,192,20578,1,8,0:0:0:0:
256,192,20653,1,0,0:0:0:0:
256,192,20802,1,8,0:0:0:0:
256,192,20877,1,0,0:0:0:0:
256,192,21026,1,0,0:0:0:0:
256,192,21101,1,8,0:0:0:0:
256,192,21250,1,0,0:0:0:0:
256,192,21300,1,0,0:0:0:0:
256,192,21350,1,0,0:0:0:0:
256,192,21399,1,8,0:0:0:0:
256,192,21474,1,0,0:0:0:0:
256,192,21549,1,8,0:0:0:0:
256,192,21698,1,0,0:0:0:0:
256,192,21772,1,0,0:0:0:0:
256,192,21847,1,8,0:0:0:0:
256,192,21922,1,0,0:0:0:0:
256,192,21996,1,8,0:0:0:0:
256,192,22146,1,8,0:0:0:0:
256,192,22220,1,8,0:0:0:0:
256,192,22295,1,0,0:0:0:0:
256,192,22369,1,8,0:0:0:0:
256,192,22444,1,0,0:0:0:0:
256,192,22743,1,8,0:0:0:0:
256,192,22817,1,0,0:0:0:0:
256,192,22892,1,8,0:0:0:0:
256,192,22966,1,8,0:0:0:0:
256,192,23041,1,0,0:0:0:0:
256,192,23190,1,8,0:0:0:0:
256,192,23265,1,0,0:0:0:0:
256,192,23414,1,0,0:0:0:0:
256,192,23489,1,8,0:0:0:0:
256,192,23638,1,8,0:0:0:0:
256,192,23713,1,8,0:0:0:0:
256,192,23787,1,0,0:0:0:0:
256,192,23837,1,0,0:0:0:0:
256,192,23887,1,0,0:0:0:0:
256,192,23937,1,8,0:0:0:0:
256,192,24086,1,0,0:0:0:0:
256,192,24160,1,0,0:0:0:0:
256,192,24235,1,8,0:0:0:0:
256,192,24459,1,0,0:0:0:0:
256,192,24534,1,8,0:0:0:0:
256,192,24683,1,8,0:0:0:0:
256,192,24757,1,8,0:0:0:0:
256,192,24832,1,0,0:0:0:0:
256,192,25131,1,8,0:0:0:0:
256,192,25205,1,8,0:0:0:0:
256,192,25280,1,8,0:0:0:0:
256,192,25354,1,0,0:0:0:0:
256,192,25429,1,8,0:0:0:0:
256,192,25578,1,8,0:0:0:0:
256,192,25653,1,0,0:0:0:0:
256,192,25802,1,0,0:0:0:0:
256,192,25877,1,8,0:0:0:0:
256,192,26026,1,8,0:0:0:0:
256,192,26076,1,8,0:0:0:0:
256,192,26126,1,8,0:0:0:0:
256,192,26175,1,0,0:0:0:0:
256,192,26325,1,8,0:0:0:0:
256,192,26399,1,0,0:0:0:0:
256,192,26474,1,8,0:0:0:0:
256,192,26623,1,8,0:0:0:0:
256,192,26698,1,0,0:0:0:0:
256,192,26772,1,8,0:0:0:0:
256,192,26847,1,0,0:0:0:0:
256,192,26922,1,8,0:0:0:0:
256,192,27071,1,8,0:0:0:0:
256,192,27220,1,4,0:0:0:0:
256,192,27519,1,0,0:0:0:0:
256,192,27817,1,8,0:0:0:0:
256,192,28016,1,8,0:0:0:0:
256,192,28116,1,0,0:0:0:0:
256,192,28215,1,8,0:0:0:0:
256,192,28414,1,8,0:0:0:0:
256,192,28563,1,0,0:0:0:0:
256,192,28713,1,0,0:0:0:0:
256,192,28862,1,0,0:0:0:0:
256,192,28912,1,0,0:0:0:0:
256,192,28961,1,0,0:0:0:0:
256,192,29011,1,8,0:0:0:0:
256,192,29160,1,0,0:0:0:0:
256,192,29310,1,8,0:0:0:0:
256,192,29608,1,4,0:0:0:0:
256,192,29907,1,8,0:0:0:0:
256,192,29981,1,8,0:0:0:0:
256,192,30056,1,0,0:0:0:0:
256,192,30131,1,0,0:0:0:0:
256,192,30205,1,8,0:0:0:0:
256,192,30354,1,8,0:0:0:0:
256,192,30429,1,0,0:0:0:0:
256,192,30578,1,0,0:0:0:0:
256,192,30653,1,8,0:0:0:0:
256,192,30802,1,0,0:0:0:0:
256,192,30852,1,0,0:0:0:0:
256,192,30902,1,0,0:0:0:0:
256,192,30951,1,8,0:0:0:0:
256,192,31026,1,8,0:0:0:0:
256,192,31101,1,0,0:0:0:0:
256,192,31250,1,0,0:0:0:0:
256,192,31325,1,0,0:0:0:0:
256,192,31399,1,8,0:0:0:0:
256,192,31549,1,0,0:0:0:0:
256,192,31623,1,0,0:0:0:0:
256,192,31698,1,8,0:0:0:0:
256,192,31772,1,0,0:0:0:0:
256,192,31847,1,8,0:0:0:0:
256,192,31921,1,8,0:0:0:0:
256,192,31996,1,0,0:0:0:0:
256,192,32295,1,8,0:0:0:0:
256,192,32369,1,0,0:0:0:0:
256,192,32444,1,0,0:0:0:0:
256,192,32519,1,8,0:0:0:0:
256,192,32593,1,8,0:0:0:0:
256,192,32743,1,8,0:0:0:0:
256,192,32817,1,0,0:0:0:0:
256,192,32966,1,0,0:0:0:0:
256,192,33041,1,8,0:0:0:0:
256,192,33190,1,8,0:0:0:0:
256,192,33240,1,8,0:0:0:0:
256,192,33290,1,8,0:0:0:0:
256,192,33340,1,0,0:0:0:0:
256,192,33489,1,0,0:0:0:0:
256,192,33638,1,0,0:0:0:0:
256,192,33713,1,8,0:0:0:0:
256,192,33787,1,8,0:0:0:0:
256,192,34011,1,0,0:0:0:0:
256,192,34086,1,8,0:0:0:0:
256,192,34235,1,8,0:0:0:0:
256,192,34310,1,8,0:0:0:0:
256,192,34384,1,0,0:0:0:0:
256,192,34608,1,0,0:0:0:0:
256,192,34683,1,8,0:0:0:0:
256,192,34782,1,0,0:0:0:0:
256,192,34882,1,0,0:0:0:0:
256,192,34981,1,8,0:0:0:0:
256,192,35031,1,8,0:0:0:0:
256,192,35081,1,8,0:0:0:0:
256,192,35131,1,0,0:0:0:0:
256,192,35205,1,0,0:0:0:0:
256,192,35280,1,8,0:0:0:0:
256,192,35429,1,0,0:0:0:0:
256,192,35578,1,8,0:0:0:0:
256,192,35653,1,8,0:0:0:0:
256,192,35728,1,8,0:0:0:0:
256,192,35802,1,8,0:0:0:0:
256,192,35877,1,0,0:0:0:0:
256,192,36026,1,0,0:0:0:0:
256,192,36175,1,8,0:0:0:0:
256,192,36250,1,0,0:0:0:0:
256,192,36325,1,8,0:0:0:0:
256,192,36399,1,0,0:0:0:0:
256,192,36474,1,8,0:0:0:0:
256,192,36623,1,8,0:0:0:0:
256,192,36772,1,4,0:0:0:0:
256,192,37071,1,8,0:0:0:0:
256,192,37369,1,0,0:0:0:0:
256,192,37519,1,0,0:0:0:0:
256,192,37668,1,8,0:0:0:0:
256,192,37966,1,0,0:0:0:0:
256,192,38116,1,0,0:0:0:0:
256,192,38265,1,8,0:0:0:0:
256,192,38414,1,8,0:0:0:0:
256,192,38563,1,0,0:0:0:0:
256,192,38713,1,0,0:0:0:0:
256,192,38862,1,8,0:0:0:0:
256,192,38937,1,0,0:0:0:0:
256,192,39011,1,0,0:0:0:0:
256,192,39086,1,8,0:0:0:0:
256,192,39160,1,0,0:0:0:0:
256,192,39310,1,0,0:0:0:0:
256,192,39608,1,0,0:0:0:0:
256,192,39757,1,8,0:0:0:0:
256,192,39907,1,0,0:0:0:0:
256,192,40056,1,8,0:0:0:0:
256,192,40205,1,0,0:0:0:0:
256,192,40504,1,0,0:0:0:0:
256,192,40653,1,8,0:0:0:0:
256,192,40802,1,0,0:0:0:0:
256,192,40951,1,8,0:0:0:0:
256,192,41101,1,8,0:0:0:0:
256,192,41250,1,8,0:0:0:0:
256,192,41399,1,8,0:0:0:0:
256,192,41474,1,8,0:0:0:0:
256,192,41549,1,0,0:0:0:0:
256,192,41698,1,0,0:0:0:0:
256,192,41996,1,0,0:0:0:0:
256,192,42146,1,8,0:0:0:0:
256,192,42295,1,0,0:0:0:0:
256,192,42444,1,8,0:0:0:0:
256,192,42593,1,0,0:0:0:0:
256,192,42892,1,0,0:0:0:0:
256,192,43041,1,8,0:0:0:0:
256,192,43190,1,0,0:0:0:0:
256,192,43265,1,0,0:0:0:0:
256,192,43340,1,8,0:0:0:0:
256,192,43414,1,0,0:0:0:0:
256,192,43489,1,8,0:0:0:0:
256,192,43563,1,8,0:0:0:0:
256,192,43638,1,0,0:0:0:0:
256,192,43713,1,0,0:0:0:0:
256,192,43787,1,8,0:0:0:0:
256,192,43937,1,8,0:0:0:0:
256,192,44086,1,0,0:0:0:0:
256,192,44384,1,0,0:0:0:0:
256,192,44534,1,8,0:0:0:0:
256,192,44683,1,0,0:0:0:0:
256,192,44832,1,8,0:0:0:0:
256,192,44981,1,0,0:0:0:0:
256,192,45280,1,0,0:0:0:0:
256,192,45429,1,8,0:0:0:0:
256,192,45578,1,0,0:0:0:0:
256,192,45728,1,8,0:0:0:0:
256,192,45877,1,8,0:0:0:0:
256,192,46026,1,8,0:0:0:0:
256,192,46175,1,8,0:0:0:0:
256,192,46250,1,0,0:0:0:0:
256,192,46325,1,8,0:0:0:0:
256,192,46474,1,0,0:0:0:0:
256,192,46772,1,0,0:0:0:0:
256,192,46922,1,8,0:0:0:0:
256,192,47071,1,8,0:0:0:0:
256,192,47220,1,0,0:0:0:0:
256,192,47369,1,8,0:0:0:0:
256,192,47668,1,8,0:0:0:0:
256,192,47817,1,0,0:0:0:0:
256,192,47966,1,8,0:0:0:0:
256,192,48116,1,8,0:0:0:0:
256,192,48414,1,0,0:0:0:0:
256,192,48464,1,0,0:0:0:0:
256,192,48514,1,0,0:0:0:0:
256,192,48563,1,8,0:0:0:0:
256,192,48613,1,8,0:0:0:0:
256,192,48663,1,8,0:0:0:0:
256,192,48713,1,0,0:0:0:0:
256,192,48862,1,0,0:0:0:0:
256,192,49160,1,0,0:0:0:0:
256,192,49310,1,8,0:0:0:0:
256,192,49459,1,0,0:0:0:0:
256,192,49608,1,0,0:0:0:0:
256,192,49757,1,0,0:0:0:0:
256,192,50056,1,0,0:0:0:0:
256,192,50205,1,0,0:0:0:0:
256,192,50354,1,0,0:0:0:0:
256,192,50504,1,8,0:0:0:0:
256,192,50653,1,8,0:0:0:0:
256,192,50728,1,8,0:0:0:0:
256,192,50802,1,8,0:0:0:0:
256,192,50951,1,8,0:0:0:0:
256,192,51101,1,0,0:0:0:0:
256,192,51250,1,0,0:0:0:0:
256,192,51549,1,0,0:0:0:0:
256,192,51698,1,8,0:0:0:0:
256,192,51847,1,0,0:0:0:0:
256,192,51996,1,0,0:0:0:0:
256,192,52146,1,0,0:0:0:0:
256,192,52444,1,0,0:0:0:0:
256,192,52593,1,8,0:0:0:0:
256,192,52743,5,0,0:0:0:0:
256,192,52817,1,0,0:0:0:0:
256,192,52892,1,8,0:0:0:0:
256,192,52966,1,0,0:0:0:0:
256,192,53041,1,8,0:0:0:0:
256,192,53091,1,8,0:0:0:0:
256,192,53141,1,8,0:0:0:0:
256,192,53190,1,0,0:0:0:0:
256,192,53265,1,0,0:0:0:0:
256,192,53340,1,8,0:0:0:0:
256,192,53489,1,12,0:0:0:0:
256,192,53638,1,0,0:0:0:0:
256,192,53937,1,0,0:0:0:0:
256,192,54086,1,8,0:0:0:0:
256,192,54235,1,0,0:0:0:0:
256,192,54384,1,8,0:0:0:0:
256,192,54534,1,0,0:0:0:0:
256,192,54832,1,0,0:0:0:0:
256,192,54981,1,8,0:0:0:0:
256,192,55131,1,8,0:0:0:0:
256,192,55280,1,0,0:0:0:0:
256,192,55354,1,8,0:0:0:0:
256,192,55429,1,0,0:0:0:0:
256,192,55479,1,8,0:0:0:0:
256,192,55529,1,8,0:0:0:0:
256,192,55578,1,0,0:0:0:0:
256,192,55728,1,0,0:0:0:0:
256,192,55877,1,12,0:0:0:0:
256,192,56026,1,4,0:0:0:0:
256,192,56325,1,12,0:0:0:0:
256,192,56474,1,4,0:0:0:0:
256,192,56772,1,12,0:0:0:0:
256,192,56922,1,4,0:0:0:0:
256,192,57220,1,4,0:0:0:0:
256,192,57369,1,12,0:0:0:0:
256,192,57668,1,8,0:0:0:0:
256,192,57817,1,0,0:0:0:0:
256,192,57892,1,0,0:0:0:0:
256,192,57966,1,8,0:0:0:0:
256,192,58016,1,8,0:0:0:0:
256,192,58066,1,8,0:0:0:0:
256,192,58116,1,0,0:0:0:0:
256,192,58265,1,12,0:0:0:0:
256,192,58862,1,8,0:0:0:0:
256,192,59011,1,4,0:0:0:0:
256,192,59310,1,4,0:0:0:0:
256,192,60653,1,4,0:0:0:0:
256,192,61250,1,8,0:0:0:0:
256,192,61399,1,4,0:0:0:0:
256,192,61698,1,4,0:0:0:0:
256,192,62146,1,8,0:0:0:0:
256,192,62295,1,0,0:0:0:0:
256,192,62369,1,0,0:0:0:0:
256,192,62444,1,8,0:0:0:0:
256,192,62593,1,0,0:0:0:0:
256,192,62743,1,8,0:0:0:0:
256,192,62892,1,8,0:0:0:0:
256,192,63041,1,4,0:0:0:0:
256,192,63638,1,8,0:0:0:0:
256,192,63787,1,4,0:0:0:0:
256,192,64086,1,4,0:0:0:0:
256,192,65429,1,4,0:0:0:0:
256,192,66026,1,8,0:0:0:0:
256,192,66101,1,0,0:0:0:0:
256,192,66175,1,8,0:0:0:0:
256,192,66250,1,0,0:0:0:0:
256,192,66325,1,0,0:0:0:0:
256,192,66399,1,0,0:0:0:0:
256,192,66474,1,8,0:0:0:0:
256,192,66549,1,8,0:0:0:0:
256,192,66623,1,0,0:0:0:0:
256,192,66772,1,8,0:0:0:0:
256,192,66822,1,8,0:0:0:0:
256,192,66872,1,8,0:0:0:0:
256,192,66922,1,0,0:0:0:0:
256,192,67519,1,0,0:0:0:0:
256,192,67668,1,8,0:0:0:0:
256,192,67817,1,4,0:0:0:0:
256,192,67966,1,0,0:0:0:0:
256,192,68041,1,0,0:0:0:0:
256,192,68116,1,8,0:0:0:0:
256,192,68265,1,0,0:0:0:0:
256,192,68414,1,8,0:0:0:0:
256,192,68489,1,8,0:0:0:0:
256,192,68563,1,0,0:0:0:0:
256,192,68638,1,0,0:0:0:0:
256,192,68713,1,8,0:0:0:0:
256,192,68862,1,8,0:0:0:0:
256,192,69011,1,0,0:0:0:0:
256,192,69160,1,0,0:0:0:0:
256,192,69235,1,8,0:0:0:0:
256,192,69310,1,8,0:0:0:0:
256,192,69459,1,0,0:0:0:0:
256,192,69608,1,8,0:0:0:0:
256,192,69683,1,8,0:0:0:0:
256,192,69757,1,0,0:0:0:0:
256,192,69831,1,0,0:0:0:0:
256,192,69906,1,8,0:0:0:0:
256,192,69956,1,8,0:0:0:0:
256,192,70006,1,8,0:0:0:0:
256,192,70056,1,0,0:0:0:0:
256,192,70205,1,0,0:0:0:0:
256,192,70354,1,0,0:0:0:0:
256,192,70429,1,0,0:0:0:0:
256,192,70504,1,8,0:0:0:0:
256,192,70653,1,0,0:0:0:0:
256,192,70802,1,8,0:0:0:0:
256,192,70877,1,0,0:0:0:0:
256,192,70951,1,8,0:0:0:0:
256,192,71026,1,8,0:0:0:0:
256,192,71101,1,0,0:0:0:0:
256,192,71250,1,8,0:0:0:0:
256,192,71399,1,0,0:0:0:0:
256,192,71549,1,8,0:0:0:0:
256,192,71623,1,0,0:0:0:0:
256,192,71698,1,8,0:0:0:0:
256,192,71847,1,0,0:0:0:0:
256,192,71996,1,8,0:0:0:0:
256,192,72071,1,0,0:0:0:0:
256,192,72146,1,8,0:0:0:0:
256,192,72220,1,8,0:0:0:0:
256,192,72295,1,0,0:0:0:0:
256,192,72345,1,0,0:0:0:0:
256,192,72394,1,0,0:0:0:0:
256,192,72444,1,8,0:0:0:0:
256,192,72593,1,0,0:0:0:0:
256,192,72743,1,0,0:0:0:0:
256,192,72817,1,0,0:0:0:0:
256,192,72892,1,8,0:0:0:0:
256,192,73041,1,0,0:0:0:0:
256,192,73190,1,8,0:0:0:0:
256,192,73265,1,0,0:0:0:0:
256,192,73340,1,0,0:0:0:0:
256,192,73414,1,8,0:0:0:0:
256,192,73489,1,8,0:0:0:0:
256,192,73638,1,8,0:0:0:0:
256,192,73787,1,0,0:0:0:0:
256,192,73937,1,0,0:0:0:0:
256,192,74011,1,8,0:0:0:0:
256,192,74086,1,8,0:0:0:0:
256,192,74235,1,0,0:0:0:0:
256,192,74384,1,8,0:0:0:0:
256,192,74459,1,8,0:0:0:0:
256,192,74534,1,0,0:0:0:0:
256,192,74583,1,8,0:0:0:0:
256,192,74633,1,8,0:0:0:0:
256,192,74683,1,0,0:0:0:0:
256,192,74757,1,8,0:0:0:0:
256,192,74832,1,0,0:0:0:0:
256,192,74981,1,8,0:0:0:0:
256,192,75131,1,0,0:0:0:0:
256,192,75205,1,0,0:0:0:0:
256,192,75280,1,8,0:0:0:0:
256,192,75429,1,0,0:0:0:0:
256,192,75578,1,8,0:0:0:0:
256,192,75728,1,8,0:0:0:0:
256,192,75802,1,0,0:0:0:0:
256,192,75877,1,8,0:0:0:0:
256,192,76026,1,8,0:0:0:0:
256,192,76175,1,4,0:0:0:0:
256,192,76325,1,0,0:0:0:0:
256,192,76474,1,0,0:0:0:0:
256,192,76549,1,0,0:0:0:0:
256,192,76623,1,8,0:0:0:0:
256,192,76922,1,8,0:0:0:0:
256,192,77071,1,8,0:0:0:0:
256,192,77146,1,8,0:0:0:0:
256,192,77220,1,0,0:0:0:0:
256,192,77369,1,0,0:0:0:0:
256,192,77419,1,0,0:0:0:0:
256,192,77469,1,0,0:0:0:0:
256,192,77519,1,8,0:0:0:0:
256,192,77568,1,8,0:0:0:0:
256,192,77618,1,8,0:0:0:0:
256,192,77668,1,0,0:0:0:0:
256,192,77817,1,0,0:0:0:0:
256,192,77966,1,8,0:0:0:0:
256,192,78116,1,0,0:0:0:0:
256,192,78190,1,0,0:0:0:0:
256,192,78265,1,8,0:0:0:0:
256,192,78414,1,0,0:0:0:0:
256,192,78563,1,8,0:0:0:0:
256,192,78713,1,8,0:0:0:0:
256,192,78787,1,0,0:0:0:0:
256,192,78862,1,8,0:0:0:0:
256,192,79011,1,0,0:0:0:0:
256,192,79160,1,8,0:0:0:0:
256,192,79235,1,8,0:0:0:0:
256,192,79310,1,0,0:0:0:0:
256,192,79384,1,0,0:0:0:0:
256,192,79459,1,8,0:0:0:0:
256,192,79509,1,8,0:0:0:0:
256,192,79558,1,8,0:0:0:0:
256,192,79608,1,0,0:0:0:0:
256,192,79757,1,8,0:0:0:0:
256,192,79907,1,0,0:0:0:0:
256,192,79981,1,0,0:0:0:0:
256,192,80056,1,8,0:0:0:0:
256,192,80205,1,0,0:0:0:0:
256,192,80354,1,8,0:0:0:0:
256,192,80429,1,0,0:0:0:0:
256,192,80504,1,0,0:0:0:0:
256,192,80578,1,0,0:0:0:0:
256,192,80653,1,8,0:0:0:0:
256,192,80802,1,0,0:0:0:0:
256,192,80951,1,8,0:0:0:0:
256,192,81101,1,0,0:0:0:0:
256,192,81175,1,0,0:0:0:0:
256,192,81250,1,8,0:0:0:0:
256,192,81399,1,0,0:0:0:0:
256,192,81549,1,8,0:0:0:0:
256,192,81623,1,8,0:0:0:0:
256,192,81698,1,0,0:0:0:0:
256,192,81772,1,0,0:0:0:0:
256,192,81847,1,8,0:0:0:0:
256,192,81897,1,0,0:0:0:0:
256,192,81947,1,0,0:0:0:0:
256,192,81996,1,8,0:0:0:0:
256,192,82146,1,0,0:0:0:0:
256,192,82295,1,0,0:0:0:0:
256,192,82369,1,0,0:0:0:0:
256,192,82444,1,8,0:0:0:0:
256,192,82593,1,0,0:0:0:0:
256,192,82743,1,8,0:0:0:0:
256,192,82817,1,8,0:0:0:0:
256,192,82892,1,0,0:0:0:0:
256,192,82966,1,0,0:0:0:0:
256,192,83041,1,8,0:0:0:0:
256,192,83190,1,8,0:0:0:0:
256,192,83340,1,0,0:0:0:0:
256,192,83489,1,8,0:0:0:0:
256,192,83563,1,0,0:0:0:0:
256,192,83638,1,8,0:0:0:0:
256,192,83787,1,0,0:0:0:0:
256,192,83937,1,8,0:0:0:0:
256,192,84011,1,0,0:0:0:0:
256,192,84086,1,8,0:0:0:0:
256,192,84136,1,8,0:0:0:0:
256,192,84185,1,8,0:0:0:0:
256,192,84235,1,0,0:0:0:0:
256,192,84384,1,0,0:0:0:0:
256,192,84534,1,12,0:0:0:0:
256,192,84757,1,0,0:0:0:0:
256,192,84981,1,0,0:0:0:0:
256,192,85131,1,8,0:0:0:0:
256,192,85354,1,0,0:0:0:0:
256,192,85504,1,0,0:0:0:0:
256,192,85578,1,0,0:0:0:0:
256,192,85653,1,0,0:0:0:0:
256,192,85728,1,8,0:0:0:0:
256,192,85951,1,0,0:0:0:0:
256,192,86026,1,8,0:0:0:0:
256,192,86175,1,0,0:0:0:0:
256,192,86325,1,8,0:0:0:0:
256,192,86549,1,8,0:0:0:0:
256,192,86623,1,0,0:0:0:0:
256,192,86698,1,0,0:0:0:0:
256,192,86772,1,8,0:0:0:0:
256,192,86922,1,4,0:0:0:0:
256,192,87071,1,4,0:0:0:0:
256,192,87369,1,4,0:0:0:0:
256,192,87519,1,8,0:0:0:0:
256,192,87668,1,4,0:0:0:0:
256,192,87817,1,4,0:0:0:0:
256,192,88116,1,4,0:0:0:0:
256,192,88414,1,4,0:0:0:0:
256,192,88563,1,4,0:0:0:0:
256,192,88713,1,8,0:0:0:0:
256,192,88862,1,4,0:0:0:0:
256,192,89160,1,4,0:0:0:0:
256,192,89310,1,4,0:0:0:0:
256,192,89608,1,4,0:0:0:0:
256,192,89907,1,12,0:0:0:0:
256,192,90056,1,12,0:0:0:0:
256,192,90354,1,12,0:0:0:0:
256,192,90653,1,12,0:0:0:0:
256,192,90802,1,12,0:0:0:0:
256,192,91101,1,8,0:0:0:0:
256,192,91250,1,0,0:0:0:0:
256,192,91325,1,0,0:0:0:0:
256,192,91399,1,8,0:0:0:0:
256,192,91474,1,0,0:0:0:0:
256,192,91549,1,8,0:0:0:0:
256,192,91623,1,0,0:0:0:0:
256,192,91698,1,8,0:0:0:0:
256,192,91847,1,0,0:0:0:0:
256,192,91922,1,0,0:0:0:0:
256,192,91996,1,8,0:0:0:0:
256,192,92146,1,8,0:0:0:0:
256,192,92295,1,0,0:0:0:0:
256,192,92345,1,0,0:0:0:0:
256,192,92394,1,0,0:0:0:0:
256,192,92444,1,0,0:0:0:0:
256,192,92519,1,0,0:0:0:0:
256,192,92593,1,8,0:0:0:0:
256,192,92743,1,8,0:0:0:0:
256,192,92892,1,4,0:0:0:0:
