osu file format v14

[General]
AudioFilename: audio.mp3
AudioLeadIn: 0
PreviewTime: 67444
Countdown: 0
SampleSet: Normal
StackLeniency: 0.7
Mode: 1
LetterboxInBreaks: 0
WidescreenStoryboard: 1

[Editor]
DistanceSpacing: 1
BeatDivisor: 2
GridSize: 32
TimelineZoom: 2.399999

[Metadata]
Title:Chirality
TitleUnicode:Chirality
Artist:Camellia
ArtistUnicode:かめりあ
Creator:_DUSK_
Version:Futsuu
Source:REFLEC BEAT groovin'!!
Tags:drumstep KONAMI Official Soundtrack
BeatmapID:1741805
BeatmapSetID:831411

[Difficulty]
HPDrainRate:7
CircleSize:4
OverallDifficulty:4
ApproachRate:9
SliderMultiplier:1.4
SliderTickRate:1

[Events]
//Background and Video events
0,0,"BGSTAN.jpg",0,0
//Break Periods
//Storyboard Layer 0 (Background)
//Storyboard Layer 1 (Fail)
//Storyboard Layer 2 (Pass)
//Storyboard Layer 3 (Foreground)
//Storyboard Sound Samples

[TimingPoints]
952,298.507462686567,4,1,0,100,1,0
67817,-100,4,1,0,100,0,1
76175,-100,4,1,0,100,0,0
77668,-100,4,1,0,100,0,1
92892,-100,4,1,0,100,0,0

[HitObjects]
256,192,10504,5,4,0:0:0:0:
256,192,11101,1,8,0:0:0:0:
256,192,11549,1,4,0:0:0:0:
256,192,12892,1,4,0:0:0:0:
256,192,13489,1,8,0:0:0:0:
256,192,13937,1,4,0:0:0:0:
256,192,15280,1,4,0:0:0:0:
256,192,15877,1,8,0:0:0:0:
256,192,16325,1,4,0:0:0:0:
256,192,17668,1,4,0:0:0:0:
256,192,18265,1,8,0:0:0:0:
256,192,18563,1,8,0:0:0:0:
256,192,18862,1,4,0:0:0:0:
256,192,20056,1,4,0:0:0:0:
256,192,20354,1,8,0:0:0:0:
256,192,20504,1,8,0:0:0:0:
256,192,20653,1,8,0:0:0:0:
256,192,21250,1,0,0:0:0:0:
256,192,21549,1,0,0:0:0:0:
256,192,21698,1,0,0:0:0:0:
256,192,21847,1,8,0:0:0:0:
256,192,22444,1,0,0:0:0:0:
256,192,22743,1,8,0:0:0:0:
256,192,22892,1,8,0:0:0:0:
256,192,23041,1,8,0:0:0:0:
256,192,23340,1,8,0:0:0:0:
256,192,23638,1,0,0:0:0:0:
256,192,24235,1,8,0:0:0:0:
256,192,24534,1,8,0:0:0:0:
256,192,24832,1,0,0:0:0:0:
256,192,25131,1,8,0:0:0:0:
256,192,25280,1,8,0:0:0:0:
256,192,25429,1,8,0:0:0:0:
256,192,26026,1,0,0:0:0:0:
256,192,26325,1,8,0:0:0:0:
256,192,26474,1,8,0:0:0:0:
256,192,26623,1,0,0:0:0:0:
256,192,27220,1,4,0:0:0:0:
256,192,27817,1,8,0:0:0:0:
256,192,28116,1,0,0:0:0:0:
256,192,28414,1,8,0:0:0:0:
256,192,29011,1,8,0:0:0:0:
256,192,29608,1,4,0:0:0:0:
256,192,29907,1,8,0:0:0:0:
256,192,30056,1,8,0:0:0:0:
256,192,30205,1,8,0:0:0:0:
256,192,30802,1,0,0:0:0:0:
256,192,31101,1,0,0:0:0:0:
256,192,31250,1,0,0:0:0:0:
256,192,31399,1,8,0:0:0:0:
256,192,31996,1,0,0:0:0:0:
256,192,32295,1,8,0:0:0:0:
256,192,32444,1,8,0:0:0:0:
256,192,32593,1,8,0:0:0:0:
256,192,32892,1,8,0:0:0:0:
256,192,33190,1,0,0:0:0:0:
256,192,33489,1,0,0:0:0:0:
256,192,33787,1,8,0:0:0:0:
256,192,34384,1,0,0:0:0:0:
256,192,34534,1,0,0:0:0:0:
256,192,35280,1,8,0:0:0:0:
256,192,35578,1,0,0:0:0:0:
256,192,36175,1,8,0:0:0:0:
256,192,36772,1,4,0:0:0:0:
256,192,37071,1,8,0:0:0:0:
256,192,37668,1,8,0:0:0:0:
256,192,37966,1,0,0:0:0:0:
256,192,38563,1,8,0:0:0:0:
256,192,38862,1,8,0:0:0:0:
256,192,39011,1,8,0:0:0:0:
256,192,39160,1,0,0:0:0:0:
256,192,39757,1,8,0:0:0:0:
256,192,40205,1,0,0:0:0:0:
256,192,40951,1,8,0:0:0:0:
256,192,41101,1,8,0:0:0:0:
256,192,41250,1,8,0:0:0:0:
256,192,41549,1,0,0:0:0:0:
256,192,42146,1,8,0:0:0:0:
256,192,42593,1,0,0:0:0:0:
256,192,43340,1,8,0:0:0:0:
256,192,43489,1,8,0:0:0:0:
256,192,43638,1,8,0:0:0:0:
256,192,43937,1,0,0:0:0:0:
256,192,44534,1,8,0:0:0:0:
256,192,44981,1,0,0:0:0:0:
256,192,45728,1,8,0:0:0:0:
256,192,45877,1,8,0:0:0:0:
256,192,46026,1,8,0:0:0:0:
256,192,46325,1,0,0:0:0:0:
256,192,46922,1,8,0:0:0:0:
256,192,47369,1,0,0:0:0:0:
256,192,47966,1,8,0:0:0:0:
256,192,48713,1,4,0:0:0:0:
256,192,49310,1,8,0:0:0:0:
256,192,49757,1,0,0:0:0:0:
256,192,50504,1,8,0:0:0:0:
256,192,50653,1,8,0:0:0:0:
256,192,50802,1,8,0:0:0:0:
256,192,51101,1,0,0:0:0:0:
256,192,51698,1,8,0:0:0:0:
256,192,52146,1,0,0:0:0:0:
256,192,52892,1,8,0:0:0:0:
256,192,53041,1,8,0:0:0:0:
256,192,53190,1,8,0:0:0:0:
256,192,53489,1,4,0:0:0:0:
256,192,54086,1,8,0:0:0:0:
256,192,54534,1,0,0:0:0:0:
256,192,55280,1,8,0:0:0:0:
256,192,55877,1,12,0:0:0:0:
256,192,56325,1,12,0:0:0:0:
256,192,56772,1,12,0:0:0:0:
256,192,57668,1,8,0:0:0:0:
256,192,58265,1,4,0:0:0:0:
256,192,58862,1,8,0:0:0:0:
256,192,59310,1,4,0:0:0:0:
256,192,60653,1,4,0:0:0:0:
256,192,61250,1,8,0:0:0:0:
256,192,61698,1,4,0:0:0:0:
256,192,63041,1,4,0:0:0:0:
256,192,63638,1,8,0:0:0:0:
256,192,64086,1,4,0:0:0:0:
256,192,65429,1,4,0:0:0:0:
256,192,66026,1,8,0:0:0:0:
256,192,66175,1,8,0:0:0:0:
256,192,66325,1,8,0:0:0:0:
256,192,66623,1,4,0:0:0:0:
256,192,67817,1,4,0:0:0:0:
256,192,68116,1,8,0:0:0:0:
256,192,68414,1,0,0:0:0:0:
256,192,68713,1,8,0:0:0:0:
256,192,68862,1,8,0:0:0:0:
256,192,69011,1,0,0:0:0:0:
256,192,69310,1,8,0:0:0:0:
256,192,69608,1,0,0:0:0:0:
256,192,70205,1,0,0:0:0:0:
256,192,70504,1,8,0:0:0:0:
256,192,70802,1,0,0:0:0:0:
256,192,70951,1,0,0:0:0:0:
256,192,71101,1,8,0:0:0:0:
256,192,71399,1,0,0:0:0:0:
256,192,71698,1,8,0:0:0:0:
256,192,71847,1,0,0:0:0:0:
256,192,71996,1,8,0:0:0:0:
256,192,72593,1,0,0:0:0:0:
256,192,72892,1,8,0:0:0:0:
256,192,73041,1,8,0:0:0:0:
256,192,73190,1,0,0:0:0:0:
256,192,73489,1,8,0:0:0:0:
256,192,73787,1,0,0:0:0:0:
256,192,73937,1,0,0:0:0:0:
256,192,74086,1,8,0:0:0:0:
256,192,74384,1,8,0:0:0:0:
256,192,74683,1,0,0:0:0:0:
256,192,74981,1,8,0:0:0:0:
256,192,75578,1,8,0:0:0:0:
256,192,76175,1,4,0:0:0:0:
256,192,76623,1,8,0:0:0:0:
256,192,77071,1,8,0:0:0:0:
256,192,77668,1,4,0:0:0:0:
256,192,77966,1,8,0:0:0:0:
256,192,78265,1,0,0:0:0:0:
256,192,78414,1,0,0:0:0:0:
256,192,78563,1,8,0:0:0:0:
256,192,78862,1,0,0:0:0:0:
256,192,79160,1,8,0:0:0:0:
256,192,79459,1,8,0:0:0:0:
256,192,79757,1,0,0:0:0:0:
256,192,80056,1,8,0:0:0:0:
256,192,80354,1,0,0:0:0:0:
256,192,80504,1,0,0:0:0:0:
256,192,80653,1,8,0:0:0:0:
256,192,80951,1,0,0:0:0:0:
256,192,81250,1,8,0:0:0:0:
256,192,81399,1,0,0:0:0:0:
256,192,81549,1,8,0:0:0:0:
256,192,82146,1,0,0:0:0:0:
256,192,82444,1,8,0:0:0:0:
256,192,82743,1,8,0:0:0:0:
256,192,82892,1,0,0:0:0:0:
256,192,83041,1,8,0:0:0:0:
256,192,83340,1,8,0:0:0:0:
256,192,83638,1,0,0:0:0:0:
256,192,83937,1,8,0:0:0:0:
256,192,84086,1,8,0:0:0:0:
256,192,84235,1,8,0:0:0:0:
256,192,84534,1,8,0:0:0:0:
256,192,85131,1,8,0:0:0:0:
256,192,85429,1,0,0:0:0:0:
256,192,85728,1,8,0:0:0:0:
256,192,86325,1,8,0:0:0:0:
256,192,86922,1,4,0:0:0:0:
256,192,87518,1,8,0:0:0:0:
256,192,87817,1,8,0:0:0:0:
256,192,88116,1,0,0:0:0:0:
256,192,88712,1,8,0:0:0:0:
256,192,88861,1,8,0:0:0:0:
256,192,89310,1,0,0:0:0:0:
256,192,89907,1,8,0:0:0:0:
256,192,90354,1,8,0:0:0:0:
256,192,90802,1,0,0:0:0:0:
256,192,91101,1,8,0:0:0:0:
256,192,91698,1,8,0:0:0:0:
256,192,91996,1,8,0:0:0:0:
256,192,92295,1,0,0:0:0:0:
256,192,92892,1,4,0:0:0:0:
