osu file format v14

[General]
AudioFilename: audio.mp3
AudioLeadIn: 0
PreviewTime: 67519
Countdown: 0
SampleSet: Soft
StackLeniency: 0.7
Mode: 0
LetterboxInBreaks: 0
WidescreenStoryboard: 1

[Editor]
DistanceSpacing: 1
BeatDivisor: 4
GridSize: 4
TimelineZoom: 1.3

[Metadata]
Title:Chirality
TitleUnicode:Chirality
Artist:Camellia
ArtistUnicode:かめりあ
Creator:Suzuki_1112
Version:yf's Another
Source:REFLEC BEAT groovin'!!
Tags:Pending cup #5 1112deng Moecho Moeri Vert LowComboFC LCFC StarrStyx yf_bmp Ryuusei Aika _Stan Kashima fanzhen0019 liaoxingyao SnowNiNo_ Koiyuki Minakami Yuki
BeatmapID:1498891
BeatmapSetID:692068

[Difficulty]
HPDrainRate:6
CircleSize:4.2
OverallDifficulty:7.5
ApproachRate:9.2
SliderMultiplier:1.7
SliderTickRate:1

[Events]
//Background and Video events
0,0,"BGYF.jpg",0,0
//Break Periods
//Storyboard Layer 0 (Background)
//Storyboard Layer 1 (Fail)
//Storyboard Layer 2 (Pass)
//Storyboard Layer 3 (Foreground)
//Storyboard Sound Samples

[TimingPoints]
952,298.507462686567,4,2,98,50,1,0
1101,-133.333333333333,4,2,98,50,0,0
2743,-100,4,2,98,50,0,0
2892,-133.333333333333,4,2,98,50,0,0
4832,-100,4,2,98,50,0,0
4981,-133.333333333333,4,2,98,50,0,0
5131,-200,4,2,98,50,0,0
5728,-133.333333333333,4,2,98,50,0,0
7519,-100,4,2,98,50,0,0
7668,-133.333333333333,4,2,98,50,0,0
9160,-66.6666666666667,4,2,0,70,0,0
9459,-100,4,2,0,70,0,0
10205,-200,4,2,0,70,0,0
10504,-66.6666666666667,4,2,0,70,0,0
11698,-100,4,2,0,70,0,0
12146,-100,4,2,0,70,0,0
12593,-200,4,2,0,70,0,0
12892,-66.6666666666667,4,2,0,70,0,0
14086,-100,4,2,0,70,0,0
15280,-66.6666666666667,4,2,0,70,0,0
16474,-100,4,2,0,70,0,0
16922,-200,4,2,0,70,0,0
16996,-200,4,2,0,50,0,0
17668,-66.6666666666667,4,2,0,70,0,0
18414,-66.6666666666667,4,2,99,45,0,0
18489,-66.6666666666667,4,2,99,50,0,0
18563,-76.9230769230769,4,2,99,55,0,0
18638,-76.9230769230769,4,2,99,60,0,0
18713,-90.9090909090909,4,2,99,65,0,0
18787,-90.9090909090909,4,2,99,68,0,0
18862,-50,4,2,99,70,0,0
19011,-400,4,2,99,70,0,0
19459,-66.6666666666667,4,2,99,70,0,0
19608,-50,4,2,99,55,0,0
19757,-100,4,2,99,55,0,0
19907,-66.6666666666667,4,2,99,55,0,0
20056,-83.3333333333333,4,2,99,70,0,0
20354,-66.6666666666667,4,2,99,70,0,0
21250,-100,4,2,99,70,0,0
21399,-50,4,2,99,40,0,0
21847,-100,4,2,99,70,0,0
22146,-200,4,2,99,70,0,0
22444,-83.3333333333333,4,2,99,70,0,0
22743,-66.6666666666667,4,2,99,70,0,0
23638,-100,4,2,99,70,0,0
23787,-66.6666666666667,4,2,99,70,0,0
24832,-100,4,2,99,70,0,0
25131,-66.6666666666667,4,2,99,70,0,0
26026,-100,4,2,99,70,0,0
26175,-50,4,2,99,40,0,0
26325,-66.6666666666667,4,2,99,70,0,0
26623,-100,4,2,99,70,0,0
26922,-200,4,2,99,70,0,0
27220,-133.333333333333,4,2,99,70,0,0
29011,-100,4,2,99,70,0,0
29310,-66.6666666666667,4,2,99,70,0,0
29608,-100,4,2,99,70,0,0
29907,-66.6666666666667,4,2,99,70,0,0
30802,-100,4,2,99,70,0,0
30951,-50,4,2,99,40,0,0
31399,-100,4,2,99,70,0,0
31698,-200,4,2,99,70,0,0
31996,-100,4,2,99,70,0,0
32295,-66.6666666666667,4,2,99,70,0,0
33190,-100,4,2,99,70,0,0
33340,-66.6666666666667,4,2,99,70,0,0
33787,-66.6666666666667,4,2,99,70,0,0
34384,-133.333333333333,4,2,99,70,0,0
34981,-66.6666666666667,4,2,99,70,0,0
35280,-55.5555555555556,4,2,99,70,0,0
35578,-100,4,2,99,70,0,0
36026,-100,4,2,99,70,0,0
36474,-200,4,2,99,70,0,0
36772,-100,4,2,99,70,0,0
37966,-66.6666666666667,4,2,99,70,0,0
39160,-100,4,2,99,70,0,0
41101,-83.3333333333333,4,2,99,70,0,0
41399,-100,4,2,99,70,0,0
45877,-83.3333333333333,4,2,99,70,0,0
46175,-100,4,2,99,70,0,0
48116,-133.333333333333,4,2,99,70,0,0
48340,-66.6666666666667,4,2,99,50,0,0
48563,-66.6666666666667,4,2,99,70,0,0
48713,-100,4,2,99,70,0,0
55429,-50,4,2,99,70,0,0
55877,-100,4,2,99,70,0,0
56474,-133.333333333333,4,2,99,70,0,0
56772,-200,4,2,99,70,0,0
57220,-133.333333333333,4,2,99,70,0,0
57668,-100,4,2,99,70,0,0
57817,-50,4,2,99,70,0,0
58265,-100,4,2,0,70,0,0
66101,-100,4,2,99,40,0,0
66175,-100,4,2,99,50,0,0
66325,-100,4,2,99,60,0,0
66474,-100,4,2,99,70,0,0
66623,-66.6666666666667,4,2,99,70,0,0
66772,-400,4,2,99,70,0,0
67220,-100,4,2,99,70,0,0
67369,-50,4,2,99,70,0,0
67817,-100,4,2,99,70,0,1
69310,-149.253731343284,4,2,99,70,0,1
69608,-100,4,2,99,70,0,1
71698,-74.6268656716418,4,2,99,70,0,1
71996,-100,4,2,99,70,0,1
74981,-83.3333333333333,4,2,99,70,0,1
76175,-55.5555555555556,4,2,99,70,0,1
76623,-200,4,2,99,70,0,1
76922,-66.6666666666667,4,2,99,70,0,1
77220,-200,4,2,99,70,0,1
77481,-50,4,2,99,70,0,1
77817,-100,4,2,99,70,0,1
78862,-149.253731343284,4,2,99,70,0,1
79160,-100,4,2,99,70,0,1
81250,-74.6268656716418,4,2,99,70,0,1
81549,-100,4,2,99,70,0,1
84534,-83.3333333333333,4,2,99,70,0,1
85728,-66.6666666666667,4,2,99,70,0,1
86922,-133.333333333333,4,2,99,70,0,0
90354,-100,4,2,99,70,0,0
92295,-66.6666666666667,4,2,99,70,0,0
92444,-133.333333333333,4,2,99,70,0,0
92593,-66.6666666666667,4,2,99,70,0,0
92743,-66.6666666666667,4,2,99,70,0,0
92892,-133.333333333333,4,2,98,60,0,0
94683,-100,4,2,98,60,0,0
94832,-133.333333333333,4,2,98,60,0,0
96772,333.333333333333,4,2,98,60,1,0
96938,342.857142857143,4,2,98,60,1,0
96938,-133.333333333333,4,2,98,60,0,0
97109,387.096774193548,4,2,98,60,1,0
97302,413.793103448276,4,2,98,60,1,0
97508,470.588235294118,4,2,98,50,1,0
97743,585.365853658537,4,2,98,40,1,0

[Colours]
Combo1 : 255,128,0
Combo2 : 0,202,0
Combo3 : 18,124,255
Combo4 : 255,128,128
Combo5 : 255,255,0
Combo6 : 255,128,255
Combo7 : 255,0,128
Combo8 : 0,255,255

[HitObjects]
468,232,952,6,0,P|471:247|475:259,2,21.25,4|2|0,1:0|0:2|0:0,0:0:0:0:
449,324,1101,1,0,0:0:0:0:
376,353,1250,1,0,0:0:0:0:
309,314,1399,1,0,0:0:0:0:
297,237,1549,1,0,0:0:0:0:
428,186,1698,5,2,0:0:0:0:
390,168,1847,1,0,0:0:0:0:
349,180,1996,5,0,3:0:0:0:
309,314,2146,1,0,0:0:0:0:
172,340,2295,1,2,3:2:0:0:
152,340,2369,1,0,3:0:0:0:
136,328,2444,1,0,0:0:0:0:
241,229,2593,6,0,P|245:214|240:200,1,31.8750012159348,0|2,0:0|0:0,0:0:0:0:
164,216,2743,2,0,P|161:235|144:248,1,42.5,2|2,0:0|0:0,0:0:0:0:
67,204,2892,2,0,P|82:200|92:188,1,31.8750012159348,2|0,0:0|0:0,0:0:0:0:
39,131,3041,5,0,0:0:0:0:
63,60,3190,1,0,0:0:0:0:
136,31,3339,1,0,0:0:0:0:
203,70,3488,1,0,0:0:0:0:
215,147,3638,1,0,0:0:0:0:
84,198,3787,5,2,0:0:0:0:
163,204,3936,1,0,0:0:0:0:
203,70,4085,5,2,0:0:0:0:
268,28,4235,1,0,0:0:0:0:
344,24,4384,1,2,3:2:0:0:
412,60,4534,1,0,0:0:0:0:
452,124,4683,2,0,L|480:128,2,21.2500008106232,0|0|0,3:0|3:0|0:0,0:0:0:0:
459,159,4832,6,0,P|465:180|458:199,1,42.5,0|2,0:0|0:0,0:0:0:0:
368,151,4982,2,0,P|380:160|384:176,1,31.8750012159348,2|2,0:0|0:0,0:0:0:0:
296,196,5131,2,0,P|306:198|312:206,1,21.25,2|0,0:0|0:0,0:0:0:0:
260,268,5280,1,0,0:0:0:0:
228,344,5429,1,2,0:0:0:0:
136,353,5578,1,2,0:0:0:0:
39,252,5728,5,0,0:0:0:0:
63,324,5877,1,0,0:0:0:0:
136,353,6026,1,0,0:0:0:0:
203,314,6175,1,0,0:0:0:0:
215,237,6325,1,0,0:0:0:0:
84,186,6474,5,2,0:0:0:0:
122,168,6623,1,0,0:0:0:0:
163,180,6772,5,0,3:0:0:0:
203,314,6921,1,0,0:0:0:0:
219,326,6996,1,0,3:0:0:0:
239,326,7070,1,0,0:2:0:0:
344,232,7220,1,2,0:0:0:0:
232,132,7369,6,0,P|228:117|233:103,1,31.8750012159348,0|2,0:0|0:0,0:0:0:0:
309,119,7519,2,0,P|312:138|329:151,1,42.5,2|2,0:0|0:0,0:0:0:0:
406,107,7668,6,0,P|391:103|381:91,1,31.8750012159348,2|0,0:0|0:0,0:0:0:0:
360,16,7817,1,0,0:0:0:0:
309,119,7966,1,0,0:0:0:0:
400,184,8116,2,0,P|431:181|458:165,1,63.7500024318696,2|0,0:0|0:0,0:0:0:0:
480,92,8414,5,0,0:0:0:0:
406,107,8563,1,2,0:2:0:0:
400,184,8713,1,0,0:0:0:0:
282,234,8862,6,0,P|267:230|257:218,1,31.8750012159348,2|0,0:0|0:0,0:0:0:0:
238,134,9011,1,2,0:0:0:0:
252,48,9160,6,0,P|237:40|217:19,3,31.8750012159348,0|0|0|0,0:0|0:0|0:0|0:0,0:0:0:0:
232,50,9310,2,0,P|271:69|293:63,1,63.7500024318696,2|0,0:0|0:0,0:0:0:0:
372,72,9459,5,2,3:2:0:0:
366,122,9534,1,0,3:0:0:0:
340,159,9608,1,4,3:0:0:0:
306,182,9683,1,0,3:0:0:0:
267,187,9757,1,0,3:0:0:0:
233,176,9832,1,0,3:0:0:0:
210,159,9907,1,8,3:0:0:0:
194,138,9981,5,0,1:0:0:0:
238,134,10056,1,0,1:0:0:0:
278,150,10131,1,0,1:0:0:0:
306,182,10205,2,0,P|334:198|374:194,1,63.75,0|0,1:0|0:0,0:0:0:0:
384,192,10504,6,0,B|395:117|317:90|247:117|255:192|255:192|262:262|192:289|114:262|127:192,1,446.250017023087,4|0,1:2|2:0,0:1:0:0:
184,144,11101,1,4,1:2:0:0:
328,240,11250,6,0,P|356:264|400:256,1,63.7500024318696,2|0,2:0|0:0,0:0:0:0:
382,265,11549,2,0,P|350:268|328:289,1,63.7500024318696,2|0,1:2|0:0,0:0:0:0:
184,360,11698,6,0,L|268:356,2,85,2|0|2,0:0|0:0|0:0,0:0:0:0:
340,304,12146,5,0,0:0:0:0:
347,255,12221,1,0,0:0:0:0:
331,212,12295,1,2,3:2:0:0:
304,181,12370,1,0,3:2:0:0:
268,166,12444,1,2,3:2:0:0:
232,168,12519,1,0,3:2:0:0:
206,182,12593,2,0,P|178:198|138:194,1,63.75,2|0,3:2|0:0,0:0:0:0:
128,192,12892,6,0,B|117:117|195:90|265:117|257:192|257:192|250:262|320:289|398:262|385:192,1,446.250017023087,4|0,0:0|2:0,0:1:0:0:
328,144,13489,1,4,1:2:0:0:
184,240,13638,6,0,P|156:264|112:256,1,63.7500024318696,2|0,1:2|0:0,0:0:0:0:
130,265,13937,2,0,P|162:268|184:289,1,63.7500024318696,2|0,1:2|0:0,0:0:0:0:
328,360,14086,6,0,L|243:356,1,85,2|0,0:0|3:0,0:0:0:0:
232,360,14272,2,0,L|196:368,3,21.25,4|0|4|2,0:3|3:0|0:3|3:0,0:0:0:0:
400,308,14534,5,8,3:0:0:0:
400,292,14608,1,8,0:3:0:0:
408,276,14683,1,2,1:3:0:0:
472,152,14832,1,2,3:0:0:0:
348,69,14981,5,2,1:2:0:0:
341,118,15081,5,2,0:2:0:0:
357,161,15180,5,2,0:2:0:0:
384,192,15280,6,0,B|395:267|317:294|247:267|255:192|255:192|262:122|192:95|114:122|127:192,1,446.250017023087,4|0,1:2|2:0,0:1:0:0:
184,240,15877,1,4,1:2:0:0:
328,144,16026,6,0,P|356:120|400:128,1,63.7500024318696,2|0,1:2|0:0,0:0:0:0:
382,119,16325,2,0,P|350:116|328:95,1,63.7500024318696,2|0,1:2|0:0,0:0:0:0:
184,24,16474,6,0,L|268:27,2,85,2|0|2,2:0|2:0|2:2,0:0:0:0:
340,80,16922,5,0,0:0:0:0:
347,129,16997,1,2,0:0:0:0:
331,172,17071,1,0,0:3:0:0:
304,203,17146,1,2,0:2:0:0:
268,218,17220,1,2,2:2:0:0:
232,216,17295,1,0,0:0:0:0:
206,202,17369,2,0,P|178:186|138:190,1,63.75,2|0,2:2|0:0,0:0:0:0:
128,192,17668,6,0,B|117:267|195:294|265:267|257:192|257:192|250:122|320:95|398:122|385:192,1,446.250017023087,4|0,1:2|2:0,1:1:0:0:
328,240,18265,1,4,1:2:0:0:
184,144,18414,6,0,P|156:120|112:128,1,63.7500024318696,0|0,1:0|1:0,0:0:0:0:
228,80,18563,6,0,P|215:45|173:30,1,55.2499974708558,0|0,1:0|1:0,0:0:0:0:
304,72,18713,6,0,P|310:35|281:1,1,46.7500014266968,0|0,1:0|1:0,0:0:0:0:
373,112,18862,6,0,P|416:96|428:60,1,85,12|0,3:0|0:0,0:1:0:0:
386,190,19011,6,0,P|413:197|441:193,1,53.125,2|0,0:0|0:0,0:0:0:0:
452,188,19459,6,0,B|479:208|479:208|452:228,1,63.7500024318696,2|0,0:0|0:0,0:0:0:0:
456,308,19608,6,0,L|456:352,3,42.5,2|0|0|0,2:0|0:0|2:0|0:0,0:0:0:0:
456,364,19757,6,0,L|392:364,1,42.5,2|0,3:0|0:0,0:0:0:0:
344,256,19907,6,0,B|317:276|317:276|344:296,1,63.7500024318696,2|0,1:2|0:0,0:0:0:0:
312,372,20056,6,0,B|224:380|224:380|252:300,1,152.999995330811,12|0,2:3|0:0,0:0:0:0:
248,236,20354,2,0,L|252:204,1,31.8750012159348,0|0,3:0|0:0,0:0:0:0:
232,236,20429,2,0,L|227:204,1,31.8750012159348,0|0,3:0|0:0,0:0:0:0:
216,240,20504,2,0,L|203:210,1,31.8750012159348,0|0,3:0|0:0,0:0:0:0:
200,248,20578,2,0,L|180:222,1,31.8750012159348,0|0,3:0|0:0,0:0:0:0:
188,256,20653,6,2,B|164:280|164:280|165:312|165:312|132:336|80:308,1,127.500004863739,8|0,1:2|0:0,0:1:0:0:
36,264,20877,2,2,B|60:240|60:240|92:241|92:241|116:208|88:156,1,127.500004863739,2|2,0:0|0:0,0:1:0:0:
112,96,21101,2,2,P|148:104|176:92,1,63.7500024318696,0|0,0:0|0:0,0:1:0:0:
256,120,21250,6,0,L|256:40,1,63.75,12|0,2:3|0:0,0:0:0:0:
276,44,21399,6,0,B|256:36|256:36|236:44,11,42.5,2|0|2|0|2|0|2|0|2|0|2|0,2:1|2:0|0:1|0:0|3:1|3:0|3:1|3:0|3:1|3:0|3:1|0:0,0:0:0:0:
256,56,21847,6,0,L|256:120,1,42.5,8|0,1:2|0:0,0:0:0:0:
256,184,21996,2,0,L|256:248,1,42.5,0|0,1:0|0:0,0:0:0:0:
339,94,22146,6,2,P|369:104|400:96,1,63.7500024318696,0|0,1:0|0:0,0:1:0:0:
392,80,22444,6,0,B|480:72|480:72|452:152,1,152.999995330811,8|0,2:3|0:0,0:0:0:0:
452,216,22743,2,0,L|484:212,1,31.8750012159348,0|0,3:0|0:0,0:0:0:0:
452,232,22817,2,0,L|484:237,1,31.8750012159348,0|0,3:0|0:0,0:0:0:0:
448,248,22892,2,0,L|478:261,1,31.8750012159348,0|0,3:0|0:0,0:0:0:0:
440,264,22966,2,0,L|466:284,1,31.8750012159348,0|0,3:0|0:0,0:0:0:0:
431,277,23041,6,2,B|408:312|368:308|368:308|368:280|342:263,1,127.500004863739,8|0,1:2|0:0,0:1:0:0:
300,184,23265,2,2,B|277:149|237:153|237:153|237:181|211:198,1,127.500004863739,2|2,0:0|0:0,0:1:0:0:
80,232,23489,2,2,P|105:249|137:248,1,63.7500024318696,0|0,3:0|0:0,0:1:0:0:
256,268,23638,6,0,L|256:348,1,63.75,8|0,2:3|0:0,0:0:0:0:
236,344,23787,6,0,B|256:352|256:352|276:344,5,42.5,0|0|0|0|0|0,3:0|3:0|3:0|3:0|3:0|3:0,0:0:0:0:
256,331,24086,5,2,3:2:0:0:
256,299,24160,1,2,3:2:0:0:
256,268,24235,6,0,P|216:228|224:148,1,127.500004863739,12|2,1:2|3:2,0:0:0:0:
256,96,24459,1,2,3:2:0:0:
295,160,24534,2,0,P|298:222|256:268,1,127.500004863739,2|2,3:2|3:2,0:0:0:0:
192,232,24757,1,2,3:2:0:0:
124,264,24832,6,0,B|84:240|62:268|62:268|32:296|-4:260,1,127.5,8|0,2:3|0:0,0:0:0:0:
10,148,25131,2,0,L|14:116,1,31.8750012159348,0|0,3:0|0:0,0:0:0:0:
25,152,25205,2,0,L|38:122,1,31.8750012159348,0|0,3:0|0:0,0:0:0:0:
39,160,25280,2,0,L|59:134,1,31.8750012159348,0|0,3:0|0:0,0:0:0:0:
53,172,25354,2,0,L|79:152,1,31.8750012159348,0|0,3:0|0:0,0:0:0:0:
62,182,25429,6,2,B|78:211|78:211|69:242|69:242|95:273|152:260,1,127.500004863739,8|0,1:2|0:0,0:1:0:0:
52,324,25653,2,2,B|81:340|81:340|88:372|88:372|126:386|169:346,1,127.500004863739,2|2,0:0|0:0,0:1:0:0:
228,328,25877,2,2,P|256:314|284:327,1,63.7500024318696,0|0,3:0|0:0,0:1:0:0:
256,144,26026,6,0,L|256:224,1,63.75,8|0,2:3|3:0,0:0:0:0:
236,220,26175,6,0,B|256:228|256:228|276:220,3,42.5,2|0|2|0,3:1|3:0|3:1|0:0,0:0:0:0:
296,224,26325,6,0,P|324:204|376:208,1,63.7500024318696,2|0,3:3|0:0,0:0:0:0:
216,224,26474,2,0,P|188:204|136:208,1,63.7500024318696,2|0,0:0|0:0,0:0:0:0:
256,144,26623,6,0,L|256:80,1,42.5,12|0,1:2|0:0,0:0:0:0:
256,80,26772,2,2,L|256:32,1,42.5,0|0,0:0|0:0,0:1:0:0:
256,16,26922,6,2,P|226:26|195:18,1,63.7500024318696,0|0,0:0|0:0,0:1:0:0:
176,16,27220,6,0,B|291:-31|299:68|423:18,1,255.000009727478,12|8,2:3|1:2,0:0:0:0:
152,100,27966,1,0,0:0:0:0:
152,100,28041,1,0,0:0:0:0:
152,100,28116,2,0,P|84:96|40:80,1,95.6250036478044,12|2,2:3|0:0,0:0:0:0:
344,120,28563,1,8,0:3:0:0:
388,192,28713,1,8,0:3:0:0:
332,252,28862,2,0,L|328:272,2,15.9375006079674,0|2|0,0:0|0:0|0:0,0:0:0:0:
256,292,29011,6,0,P|216:252|224:172,1,127.500004863739,8|0,1:2|0:0,0:0:0:0:
295,184,29310,6,2,P|298:246|256:292,1,127.500004863739,0|0,0:0|3:0,0:1:0:0:
256,368,29533,1,0,3:0:0:0:
328,332,29608,6,0,B|432:320|432:320|464:344,1,127.5,12|0,2:3|0:0,0:0:0:0:
472,244,29907,2,0,L|495:222,1,31.8750012159348,0|0,3:0|0:0,0:0:0:0:
458,233,29981,2,0,L|474:205,1,31.8750012159348,0|0,3:0|0:0,0:0:0:0:
444,226,30056,2,0,L|453:194,1,31.8750012159348,0|0,3:0|0:0,0:0:0:0:
426,221,30130,2,0,L|427:188,1,31.8750012159348,0|0,3:0|0:0,0:0:0:0:
412,220,30205,6,2,B|378:222|378:222|358:248|358:248|317:245|295:190,1,127.500004863739,8|2,1:2|0:0,0:1:0:0:
344,128,30429,2,2,B|377:125|377:125|401:146|401:146|441:136|453:78,1,127.500004863739,2|2,0:0|0:0,0:1:0:0:
424,20,30653,2,2,B|392:28|392:28|360:20,1,63.7500024318696,0|0,3:0|0:0,0:1:0:0:
256,108,30802,6,0,L|256:171,1,63.75,8|0,2:3|0:0,0:0:0:0:
236,184,30951,6,0,B|256:192|256:192|276:184,11,42.5,2|0|2|0|2|0|2|0|2|0|2|0,2:1|2:0|0:1|0:0|3:1|3:0|3:1|3:0|3:1|3:0|3:1|0:0,0:0:0:0:
256,172,31399,6,0,L|256:129,1,42.5,8|0,1:2|0:0,0:0:0:0:
256,44,31548,2,0,L|256:1,1,42.5,0|0,1:0|0:0,0:0:0:0:
180,88,31698,6,2,P|150:98|119:90,1,63.7500024318696,2|0,0:0|0:0,0:1:0:0:
124,72,31996,6,0,B|20:60|20:60|-12:84,1,127.5,8|0,2:3|0:0,0:0:0:0:
40,140,32295,2,0,L|17:162,1,31.8750012159348,0|0,3:0|0:0,0:0:0:0:
54,151,32369,2,0,L|38:179,1,31.8750012159348,0|0,3:0|0:0,0:0:0:0:
68,158,32444,2,0,L|59:190,1,31.8750012159348,0|0,3:0|0:0,0:0:0:0:
86,163,32518,2,0,L|85:196,1,31.8750012159348,0|0,3:0|0:0,0:0:0:0:
100,164,32593,6,2,B|134:162|134:162|154:136|154:136|195:139|217:194,1,127.500004863739,8|2,1:2|0:0,0:1:0:0:
168,256,32817,2,2,B|135:259|135:259|111:238|111:238|71:248|59:306,1,127.500004863739,2|2,0:0|0:0,0:1:0:0:
88,364,33041,2,2,B|120:356|120:356|152:364,1,63.7500024318696,0|0,3:0|0:0,0:1:0:0:
256,268,33190,6,0,L|256:348,1,63.75,4|0,1:2|3:0,0:0:0:0:
276,344,33340,6,0,B|256:352|256:352|236:344,3,42.5,0|0|0|0,3:0|3:0|3:0|3:0,0:0:0:0:
256,268,33638,6,0,L|256:204,2,42.5000016212464,0|2|2,3:0|2:0|2:0,0:0:0:0:
256,268,33787,6,0,B|308:208|308:208|288:148,1,127.500004863739,10|2,1:2|3:2,0:0:0:0:
256,100,34011,1,0,3:0:0:0:
219,162,34086,6,0,B|204:208|204:208|256:268,1,127.500004863739,2|2,3:0|3:2,0:0:0:0:
320,232,34309,1,0,3:0:0:0:
388,264,34384,6,0,L|432:260,1,31.8750012159348,8|0,2:3|0:0,0:0:0:0:
420,261,34782,5,0,1:0:0:0:
492,252,34882,2,0,L|496:229,1,21.2500008106232,0|0,1:0|1:0,0:0:0:0:
492,208,34981,6,0,L|484:168,4,31.8750012159348,0|0|0|0|0,1:0|1:0|1:0|1:0|1:0,0:0:0:0:
464,320,35205,1,0,1:0:0:0:
400,357,35280,6,0,P|308:344|260:208,1,229.499992996216,10|2,1:2|0:2,0:0:0:0:
172,96,35578,5,8,1:3:0:0:
172,140,35653,1,0,1:3:0:0:
172,184,35728,1,0,1:3:0:0:
172,228,35802,1,0,1:3:0:0:
172,228,36026,5,8,2:3:0:0:
256,144,36175,2,0,L|256:80,1,42.5,8|0,1:2|0:0,0:0:0:0:
256,80,36324,2,2,L|256:4,1,42.5,0|0,0:0|0:0,0:1:0:0:
256,16,36474,6,2,P|226:26|195:18,1,63.7500024318696,0|0,1:0|0:0,0:1:0:0:
180,12,36772,6,0,P|136:56|52:18,1,127.5,12|0,2:3|2:0,0:0:0:0:
64,32,37071,1,8,1:2:0:0:
255,143,37220,2,0,L|332:136,1,42.5,2|0,0:0|0:0,0:0:0:0:
180,140,37369,6,0,P|127:159|96:148,1,85,8|2,2:3|0:0,0:0:0:0:
44,256,37593,2,0,P|59:242|62:221,1,42.5,2|8,0:0|1:2,0:0:0:0:
0,76,37743,2,0,P|4:131|28:155,1,85,2|0,2:0|0:0,0:0:0:0:
132,292,37966,6,0,B|116:308|116:308|124:320|124:320|112:338|112:338|123:355|123:355|148:348|148:348|164:372|164:372|179:362|179:362|197:378|197:378|213:375,1,191.250007295609,12|0,2:3|0:0,0:0:0:0:
298,375,38265,2,0,B|314:378|314:378|332:362|332:362|348:372|348:372|364:348|364:348|388:355|388:355|399:338|399:338|387:320|387:320|396:308|396:308|380:292,1,191.250007295609,10|0,1:2|0:0,0:0:0:0:
188,216,38563,6,0,B|189:238|189:238|208:260|208:260|212:280,1,63.7500024318696,8|0,2:3|0:0,0:0:0:0:
301,272,38713,2,0,B|304:260|304:260|322:238|322:238|324:216,1,63.7500024318696,8|0,2:3|0:0,0:0:0:0:
256,160,38862,1,10,1:2:0:0:
256,168,38937,1,2,0:2:0:0:
256,176,39011,1,2,1:2:0:0:
256,184,39085,1,2,1:2:0:0:
256,192,39160,5,4,1:0:0:0:
80,288,39310,1,2,1:2:0:0:
84,280,39608,5,2,1:2:0:0:
256,308,39757,1,8,1:2:0:0:
172,272,39907,2,2,B|176:308|176:308|172:312|172:312|176:316|176:316|181:353,1,85,2|0,0:2|1:0,0:1:0:0:
256,320,40205,5,2,1:2:0:0:
330,353,40354,2,2,B|336:316|336:316|340:312|340:312|336:308|336:308|340:272,2,85,0|2|0,0:0|1:2|1:2,0:1:0:0:
256,332,40803,1,2,0:2:0:0:
256,96,40952,1,8,1:2:0:0:
140,208,41101,6,0,P|159:224|183:224,1,50.9999984436036,2|0,3:2|0:0,0:0:0:0:
372,160,41250,2,0,P|352:143|328:143,1,50.9999984436036,2|0,3:2|0:0,0:0:0:0:
256,176,41399,1,0,1:0:0:0:
256,184,41474,1,0,1:0:0:0:
256,192,41549,5,0,1:0:0:0:
432,120,41699,1,2,1:2:0:0:
428,132,41997,5,2,1:2:0:0:
256,96,42146,1,8,1:2:0:0:
328,52,42296,2,2,B|364:48|364:48|368:52|368:52|372:48|372:48|409:42,1,85,2|0,0:2|1:0,0:1:0:0:
256,80,42594,5,2,1:2:0:0:
103,42,42743,2,2,B|140:48|140:48|144:52|144:52|148:48|148:48|184:52,2,85,0|2|0,0:0|1:2|1:0,0:1:0:0:
164,150,43191,5,0,3:0:0:0:
185,188,43265,1,0,3:0:0:0:
223,201,43340,1,10,1:2:0:0:
256,192,43414,1,0,3:2:0:0:
277,170,43489,1,2,3:2:0:0:
295,155,43563,1,2,3:2:0:0:
318,151,43638,1,2,0:2:0:0:
333,156,43713,1,2,3:2:0:0:
343,164,43787,1,2,3:2:0:0:
256,192,43937,5,4,1:2:0:0:
400,332,44087,1,2,1:2:0:0:
396,324,44385,5,2,1:2:0:0:
256,308,44534,1,8,1:2:0:0:
192,252,44684,2,2,B|156:248|156:248|152:252|152:252|148:248|148:248|111:243,1,85,2|0,0:2|1:0,0:1:0:0:
256,320,44982,5,2,1:2:0:0:
401,243,45131,2,2,B|364:248|364:248|360:252|360:252|356:248|356:248|320:252,2,85,0|2|0,0:0|1:2|1:0,0:1:0:0:
256,332,45578,1,2,0:2:0:0:
256,96,45728,1,8,1:2:0:0:
372,208,45878,6,0,P|352:224|328:224,1,50.9999984436036,2|0,3:1|0:0,0:0:0:0:
140,160,46026,2,0,P|159:143|183:143,1,50.9999984436036,2|0,3:1|0:0,0:0:0:0:
257,173,46176,1,0,1:0:0:0:
256,182,46251,1,0,1:0:0:0:
256,192,46326,5,0,1:0:0:0:
80,120,46474,1,2,1:2:0:0:
84,132,46772,5,2,1:2:0:0:
256,104,46923,1,8,1:2:0:0:
340,112,47071,2,2,B|336:76|336:76|340:72|340:72|336:68|336:68|330:31,1,85,2|0,0:2|1:0,0:1:0:0:
256,92,47369,5,2,1:2:0:0:
182,31,47519,2,2,B|176:68|176:68|172:72|172:72|176:76|176:76|172:112,2,85,0|2|0,0:0|1:2|1:0,0:1:0:0:
256,80,47966,1,2,0:0:0:0:
256,256,48116,6,0,B|248:264|248:276|256:284|256:284|265:294|265:304|256:312,1,63.7500024318696,8|0,1:2|2:0,0:0:0:0:
256,240,48340,6,0,L|256:184,9,31.8750012159348,0|0|0|0|0|0|0|0|0|0,3:2|3:0|3:2|3:0|3:2|3:0|3:2|3:0|3:0|3:0,0:0:0:0:
256,192,48713,5,4,1:2:0:0:
100,180,48862,2,0,B|132:208|132:208|173:212,1,85,4|0,1:2|0:0,0:0:0:0:
80,52,49160,1,4,1:2:0:0:
100,284,49310,2,0,L|-4:292,1,85,4|0,1:2|0:0,0:0:0:0:
256,348,49609,1,4,1:2:0:0:
16,204,49758,1,4,1:2:0:0:
20,196,50057,5,4,1:2:0:0:
72,16,50205,1,4,1:2:0:0:
112,92,50354,1,2,2:0:0:0:
160,24,50504,1,4,1:0:0:0:
168,40,50603,6,0,B|187:29|187:29|208:29,1,42.5,2|2,0:0|0:0,0:0:0:0:
304,29,50752,2,0,B|325:29|325:29|344:40,1,42.5,2|2,0:0|0:0,0:0:0:0:
256,264,50952,1,2,3:2:0:0:
256,228,51026,1,2,3:2:0:0:
256,192,51102,5,4,1:2:0:0:
411,180,51250,2,0,B|380:208|380:208|338:212,1,85,4|0,1:2|0:0,0:0:0:0:
432,52,51550,1,4,1:2:0:0:
412,284,51699,2,0,L|516:292,1,85,4|0,1:2|0:0,0:0:0:0:
256,348,51996,1,4,1:2:0:0:
496,204,52147,1,0,1:0:0:0:
492,196,52444,5,4,1:2:0:0:
256,192,52593,1,4,1:2:0:0:
344,128,52744,1,2,0:2:0:0:
323,90,52818,1,0,3:0:0:0:
285,77,52893,1,2,1:2:0:0:
252,86,52967,1,0,0:0:0:0:
231,108,53042,1,2,3:2:0:0:
213,123,53116,1,0,0:0:0:0:
190,127,53191,1,2,2:2:0:0:
175,122,53266,1,2,0:2:0:0:
165,114,53340,1,2,3:2:0:0:
256,192,53489,5,4,1:2:0:0:
100,203,53638,2,0,B|132:176|132:176|173:171,1,85,4|0,1:2|0:0,0:0:0:0:
156,356,53938,1,4,1:2:0:0:
100,100,54087,2,0,L|-4:92,1,85,4|0,1:2|0:0,0:0:0:0:
236,108,54384,1,4,1:2:0:0:
16,180,54535,1,4,1:2:0:0:
20,188,54832,5,4,1:2:0:0:
72,368,54981,1,4,1:2:0:0:
112,292,55132,1,2,2:0:0:0:
160,360,55281,1,4,1:0:0:0:
276,224,55429,6,0,P|256:216|236:224,7,42.5,0|0|0|0|0|0|0|0,3:0|3:0|3:0|3:0|3:0|3:0|3:0|3:0,0:0:0:0:
255,209,55728,5,0,1:0:0:0:
255,201,55802,1,0,1:0:0:0:
256,192,55877,5,4,1:2:0:0:
319,295,56026,2,0,P|358:313|399:307,1,85,4|0,1:2|0:0,0:0:0:0:
512,120,56325,5,4,1:2:0:0:
440,56,56474,2,0,P|409:48|379:58,1,63.7500024318696,4|0,1:2|0:0,0:0:0:0:
256,192,56772,5,4,1:2:0:0:
195,244,56922,2,0,P|175:245|157:233,1,42.5,4|0,1:2|0:0,0:0:0:0:
0,120,57220,5,0,1:0:0:0:
71,56,57369,2,0,P|102:48|132:58,1,63.7500024318696,4|0,1:2|0:0,0:0:0:0:
256,192,57668,5,0,1:0:0:0:
191,296,57817,2,0,P|165:307|138:304,4,42.5,2|2|0|2|2,1:2|1:0|0:0|0:0|1:2,0:0:0:0:
256,104,58116,1,2,1:2:0:0:
256,148,58190,1,0,1:0:0:0:
256,192,58265,6,0,B|249:241|301:259|347:241|342:192|342:192|337:145|384:127|436:145|427:192,1,297.5,0|0,1:0|2:0,0:1:0:0:
408,208,58862,2,0,P|391:218|373:207,1,42.5,4|0,1:2|0:0,0:0:0:0:
344,68,59011,6,0,L|392:56,1,42.5,2|0,1:2|0:0,0:0:0:0:
256,316,59310,2,0,L|256:360,1,42.5,2|0,1:2|0:0,0:0:0:0:
256,192,60653,6,0,B|263:241|211:259|165:241|170:192|170:192|175:145|128:127|76:145|85:192,1,297.5,4|0,1:2|2:0,0:1:0:0:
104,208,61250,2,0,P|121:218|139:207,1,42.5,4|0,1:2|0:0,0:0:0:0:
168,68,61399,6,0,L|120:56,1,42.5,0|0,1:0|0:0,0:0:0:0:
256,316,61698,2,0,L|256:360,1,42.5,2|0,1:2|0:0,0:0:0:0:
256,358,62033,6,0,L|292:366,4,21.25,4|4|4|0|0,0:3|0:3|0:3|3:0|0:0,0:0:0:0:
112,308,62295,1,0,3:0:0:0:
112,292,62369,1,0,3:0:0:0:
104,276,62444,1,4,3:0:0:0:
24,256,62593,1,0,3:0:0:0:
84,192,62743,6,0,P|91:172|92:128,2,56.6666666666667,8|4|4,3:0|0:3|0:3,0:0:0:0:
256,192,63041,6,0,B|263:143|211:125|165:143|170:192|170:192|175:239|128:257|76:239|85:192,1,297.5,4|0,1:2|2:0,0:1:0:0:
104,176,63638,2,0,P|121:166|139:177,1,42.5,4|0,1:2|0:0,0:0:0:0:
168,316,63787,6,0,L|120:328,1,42.5,0|0,1:0|0:0,0:0:0:0:
256,68,64086,2,0,L|256:24,1,42.5,2|0,1:2|0:0,0:0:0:0:
256,192,65429,6,0,B|249:143|301:125|347:143|342:192|342:192|337:239|384:257|436:239|427:192,1,297.5,4|0,1:2|2:0,0:1:0:0:
408,176,66026,2,0,P|391:166|373:177,1,42.5,4|0,1:2|1:0,0:0:0:0:
344,316,66175,6,0,L|392:328,1,42.5,8|8,2:3|2:3,0:0:0:0:
256,316,66325,2,0,L|256:358,1,42.5,8|8,2:3|2:3,0:0:0:0:
168,316,66474,2,0,L|126:326,1,42.5,8|8,2:3|2:3,0:0:0:0:
216,188,66623,6,0,L|216:252,1,63.7500024318696,8|0,0:3|0:0,0:0:0:0:
296,132,66772,6,0,L|296:185,1,53.125,2|0,0:2|0:0,0:0:0:0:
216,68,67220,6,0,L|216:116,1,42.5,2|0,0:0|0:0,0:0:0:0:
296,12,67369,6,0,L|296:56,3,42.5,2|0|0|0,3:0|0:0|0:0|0:0,0:0:0:0:
92,140,67668,1,2,2:2:0:0:
0,24,67817,5,12,2:3:0:0:
80,56,67966,2,0,P|136:37|160:-12,1,85,2|8,0:1|1:1,0:0:0:0:
20,184,68265,5,2,0:0:0:0:
120,216,68414,2,2,L|204:184,1,85,8|0,2:3|0:0,0:1:0:0:
32,364,68713,5,8,1:0:0:0:
178,332,68862,2,0,P|220:333|256:356,1,85,2|8,0:1|2:3,0:0:0:0:
96,300,69160,5,2,0:0:0:0:
216,192,69310,2,0,B|256:208|256:208|296:192,1,85.4249959592058,10|0,1:1|0:0,0:0:0:0:
256,132,69608,1,8,2:3:0:0:
256,340,69757,1,2,0:1:0:0:
416,300,69907,2,0,L|388:300,3,28.3333333333333,8|2|0|2,1:0|0:1|0:0|0:1,0:0:0:0:
512,24,70205,5,8,2:3:0:0:
432,56,70354,2,0,P|376:37|352:-12,1,85,2|8,0:1|1:0,0:0:0:0:
492,184,70653,5,2,0:0:0:0:
392,216,70802,2,2,L|308:184,1,85,8|0,2:3|0:0,0:1:0:0:
480,364,71101,5,8,1:0:0:0:
333,332,71250,2,0,P|291:333|256:356,1,85,2|8,0:1|2:3,0:0:0:0:
416,300,71548,5,2,0:0:0:0:
296,192,71698,2,0,B|256:268|256:268|216:192,1,170.849991918412,10|0,1:0|0:0,0:0:0:0:
256,132,71996,1,8,2:3:0:0:
256,340,72145,1,2,0:1:0:0:
96,300,72295,2,0,L|124:300,3,28.3333333333333,8|2|0|2,1:0|0:1|0:0|0:1,0:0:0:0:
256,132,72593,5,8,2:3:0:0:
220,208,72743,2,0,P|255:227|291:207,1,85,2|8,0:1|1:0,0:0:0:0:
256,132,73041,5,2,2:0:0:0:
388,204,73190,2,2,P|408:164|408:120,1,85,8|0,2:3|0:0,0:1:0:0:
256,48,73489,5,8,1:0:0:0:
124,204,73639,2,0,P|104:164|104:120,1,85,2|8,0:1|2:3,0:0:0:0:
108,364,73937,5,2,0:0:0:0:
200,204,74086,2,0,B|240:203|240:203|256:188|256:188|272:204|272:204|315:203,1,127.5,10|0,1:1|0:0,0:0:0:0:
388,204,74384,1,8,2:3:0:0:
404,364,74534,2,0,L|432:364,3,28.3333333333333,2|2|0|10,3:2|3:1|3:2|1:1,0:0:0:0:
256,364,74832,1,2,1:1:0:0:
256,188,74981,6,2,P|223:155|224:88,1,101.999996887207,8|0,2:3|0:0,0:1:0:0:
293,101,75205,2,0,P|290:151|256:188,1,101.999996887207,2|0,3:1|0:0,0:0:0:0:
256,268,75429,1,10,2:3:0:0:
256,268,75504,1,8,2:3:0:0:
256,268,75578,6,2,P|209:251|180:204,1,101.999996887207,8|0,0:3|0:0,0:1:0:0:
330,209,75802,2,0,P|303:251|256:268,1,101.999996887207,2|0,2:1|0:0,0:0:0:0:
124,304,76026,1,10,0:3:0:0:
124,304,76101,1,8,0:3:0:0:
124,304,76175,6,0,P|256:371|388:304,1,305.999990661621,4|8,1:0|1:0,0:0:0:0:
256,187,76549,1,0,1:0:0:0:
199,244,76623,6,0,P|224:263|256:268,1,63.75,0|0,1:0|0:0,0:0:0:0:
256,268,76922,6,0,P|287:263|312:244,1,63.75,2|0,1:1|0:0,0:0:0:0:
256,108,77071,6,0,P|224:112|199:131,1,63.75,2|0,1:1|0:0,0:0:0:0:
312,131,77220,6,0,P|287:112|256:108,1,63.75,2|0,1:1|3:0,0:0:0:0:
256,92,77481,6,0,L|256:44,5,42.5,0|0|0|0|0|12,3:0|3:1|3:0|3:1|3:0|3:1,0:0:0:0:
492,200,77817,5,2,0:0:0:0:
392,168,77966,2,2,L|308:200,1,85,8|0,2:3|0:0,0:1:0:0:
480,20,78265,5,8,1:0:0:0:
334,52,78414,2,0,P|292:51|256:28,1,85,2|8,0:1|2:3,0:0:0:0:
416,84,78712,5,2,0:0:0:0:
296,192,78862,2,0,B|256:176|256:176|216:192,1,85.4249959592058,10|0,1:1|0:0,0:0:0:0:
256,252,79160,1,8,2:3:0:0:
256,44,79309,1,2,0:1:0:0:
96,84,79459,2,0,L|124:84,3,28.3333333333333,8|2|0|2,1:0|3:1|3:0|3:1,0:0:0:0:
0,360,79757,5,8,2:3:0:0:
80,328,79906,2,0,P|136:347|160:396,1,85,2|8,0:1|1:0,0:0:0:0:
20,200,80205,5,2,0:0:0:0:
120,168,80354,2,2,L|204:200,1,85,8|0,2:3|0:0,0:1:0:0:
32,20,80653,5,8,1:0:0:0:
179,52,80802,2,0,P|221:51|256:28,1,85,2|8,0:1|2:3,0:0:0:0:
96,84,81100,5,2,0:0:0:0:
216,192,81250,2,0,B|256:116|256:116|296:192,1,170.849991918412,10|0,1:1|0:0,0:0:0:0:
256,252,81548,1,8,2:3:0:0:
256,44,81697,1,2,0:1:0:0:
416,84,81847,2,0,L|388:84,3,28.3333333333333,8|2|0|2,1:0|3:1|3:0|3:1,0:0:0:0:
256,252,82146,5,8,2:3:0:0:
292,176,82296,2,0,P|257:157|221:177,1,85,2|8,0:1|1:0,0:0:0:0:
256,252,82594,5,2,2:0:0:0:
124,180,82743,2,2,P|104:220|104:264,1,85,8|0,2:3|0:0,0:1:0:0:
256,336,83042,5,8,1:0:0:0:
388,180,83190,2,0,P|408:220|408:264,1,85,2|8,0:1|2:3,0:0:0:0:
404,20,83489,5,2,0:0:0:0:
312,180,83638,2,0,B|272:181|272:181|256:196|256:196|240:180|240:180|197:181,1,127.5,10|0,1:1|0:0,0:0:0:0:
108,108,83936,1,2,1:1:0:0:
108,64,84011,1,8,1:1:0:0:
108,20,84086,2,0,L|136:20,3,28.3333333333333,2|2|0|10,1:2|3:1|3:0|1:1,0:0:0:0:
256,196,84384,1,0,1:0:0:0:
256,196,84459,1,0,0:0:0:0:
256,196,84534,6,2,B|296:228|296:228|288:312,1,101.999996887207,6|0,1:0|0:0,0:1:0:0:
220,278,84757,2,2,B|216:228|216:228|256:196,1,101.999996887207,2|0,0:1|0:0,0:1:0:0:
256,116,84981,1,2,1:3:0:0:
256,116,85056,1,0,1:3:0:0:
256,116,85130,6,0,B|320:108|320:108|324:176,1,101.999996887207,4|0,1:2|0:0,0:1:0:0:
189,145,85354,2,0,B|192:108|192:108|256:116,1,101.999996887207,2|0,0:1|1:0,0:0:0:0:
220,278,85578,1,0,1:0:0:0:
220,278,85653,1,0,1:0:0:0:
220,278,85728,6,0,B|156:260|156:260|132:188,1,127.500004863739,2|0,1:1|1:0,0:0:0:0:
374,202,85951,2,0,B|352:264|352:264|292:278,1,127.500004863739,2|0,1:1|0:0,0:0:0:0:
216,356,86175,1,2,1:0:0:0:
216,356,86250,1,0,1:0:0:0:
216,356,86324,6,0,B|152:364|152:364|72:318,1,127.500004863739,4|0,1:2|0:0,0:0:0:0:
414,332,86549,2,0,B|360:364|360:364|296:356,1,127.500004863739,2|0,1:1|1:0,0:0:0:0:
256,212,86772,1,0,1:0:0:0:
256,140,86847,1,0,1:0:0:0:
256,68,86922,5,4,1:2:0:0:
104,108,87071,2,0,L|60:100,1,31.8750012159348,0|0,1:0|0:0,0:0:0:0:
68,96,87369,5,0,1:2:0:0:
92,328,87519,1,4,1:2:0:0:
72,246,87668,5,0,1:0:0:0:
225,206,87817,2,0,L|269:214,1,31.8750012159348,0|0,1:0|0:0,0:0:0:0:
256,211,88116,6,0,L|256:131,1,63.7500024318696,0|0,1:0|0:0,0:0:0:0:
458,84,88413,5,4,1:2:0:0:
431,340,88563,1,4,1:2:0:0:
453,249,88712,5,8,1:0:0:0:
288,206,88861,2,0,L|239:214,2,31.8750012159348,0|0|0,1:0|0:0|0:0,0:0:0:0:
256,44,89160,5,0,1:0:0:0:
73,92,89309,2,0,L|20:82,1,31.8750012159348,0|0,1:0|0:0,0:0:0:0:
30,77,89607,5,0,1:0:0:0:
59,356,89757,1,2,1:2:0:0:
35,257,89906,5,8,1:0:0:0:
225,206,90056,2,0,L|277:215,1,31.8750012159348,0|0,1:0|0:0,0:0:0:0:
256,211,90354,6,0,L|256:123,1,85,4|0,1:2|0:0,0:0:0:0:
255,23,90653,5,0,1:0:0:0:
452,74,90802,2,0,L|509:63,1,42.5,4|0,1:2|0:0,0:0:0:0:
499,59,91100,5,4,1:2:0:0:
468,360,91250,1,2,1:2:0:0:
494,254,91399,5,4,1:2:0:0:
298,204,91548,2,0,L|240:214,1,42.5,4|0,1:2|0:0,0:0:0:0:
0,32,91698,5,8,1:0:0:0:
32,376,91848,1,4,1:2:0:0:
5,256,91997,5,8,1:0:0:0:
214,204,92146,2,0,L|273:214,1,42.5,4|0,1:2|0:0,0:0:0:0:
288,288,92295,6,0,L|224:288,1,63.7500024318696,4|0,1:2|0:0,0:0:0:0:
224,372,92444,6,0,B|248:372|248:372|256:368|256:368|264:372|264:372|285:372,1,63.7500024318696,2|0,3:0|2:2,0:0:0:0:
352,288,92743,6,0,L|288:288,1,63.7500024318696,2|0,3:2|0:0,0:0:0:0:
39,252,92892,5,4,1:0:0:0:
63,324,93041,1,0,0:0:0:0:
136,353,93190,1,0,0:0:0:0:
203,314,93339,1,0,0:0:0:0:
215,237,93489,1,0,0:0:0:0:
84,186,93638,5,2,0:0:0:0:
122,168,93787,1,0,0:0:0:0:
163,180,93936,5,0,0:0:0:0:
203,314,94086,1,0,0:0:0:0:
268,352,94235,1,2,0:2:0:0:
336,320,94384,1,0,0:0:0:0:
271,229,94533,6,0,P|267:214|272:200,1,31.8750012159348,0|2,0:0|0:0,0:0:0:0:
348,216,94683,2,0,P|351:235|368:248,1,42.5,2|2,0:0|0:0,0:0:0:0:
445,204,94832,2,0,P|430:200|420:188,1,31.8750012159348,2|0,0:0|0:0,0:0:0:0:
473,131,94981,5,0,0:0:0:0:
449,60,95130,1,0,0:0:0:0:
376,31,95279,1,0,0:0:0:0:
309,70,95428,1,0,0:0:0:0:
297,147,95578,1,0,0:0:0:0:
428,198,95727,5,2,0:0:0:0:
349,204,95876,1,0,0:0:0:0:
309,70,96025,5,0,0:0:0:0:
244,28,96175,1,0,0:0:0:0:
168,24,96324,1,0,0:2:0:0:
100,60,96474,1,0,0:0:0:0:
60,124,96623,1,2,0:0:0:0:
176,208,96772,6,0,P|182:229|175:248,1,42.5,2|2,0:0|0:0,0:0:0:0:
85,200,96938,2,0,P|97:209|101:225,1,31.8750012159348,2|0,0:0|0:0,0:0:0:0:
24,252,97109,5,2,0:0:0:0:
140,324,97302,5,2,0:0:0:0:
204,128,97508,5,2,0:0:0:0:
256,192,97743,5,0,0:0:0:0:
