osu file format v14

[General]
AudioFilename: audio.mp3
AudioLeadIn: 0
PreviewTime: 67519
Countdown: 0
SampleSet: Soft
StackLeniency: 0.3
Mode: 0
LetterboxInBreaks: 0
WidescreenStoryboard: 0

[Editor]
Bookmarks: 39160,58265,86922
DistanceSpacing: 1
BeatDivisor: 4
GridSize: 8
TimelineZoom: 2.899999

[Metadata]
Title:Chirality
TitleUnicode:Chirality
Artist:Camellia
ArtistUnicode:かめりあ
Creator:Suzuki_1112
Version:liaoxingyao's Insane
Source:REFLEC BEAT groovin'!!
Tags:Pending cup #5 1112deng Moecho Moeri Vert LowComboFC LCFC StarrStyx yf_bmp Ryuusei Aika _Stan Kashima fanzhen0019 liaoxingyao SnowNiNo_ Koiyuki Minakami Yuki
BeatmapID:1464585
BeatmapSetID:692068

[Difficulty]
HPDrainRate:6
CircleSize:5
OverallDifficulty:8
ApproachRate:9.1
SliderMultiplier:1.7
SliderTickRate:1

[Events]
//Background and Video events
0,0,"BGLIAOXINGYAO.jpg",0,0
//Break Periods
//Storyboard Layer 0 (Background)
//Storyboard Layer 1 (Fail)
//Storyboard Layer 2 (Pass)
//Storyboard Layer 3 (Foreground)
//Storyboard Sound Samples

[TimingPoints]
952,298.507462686567,4,2,1,50,1,0
952,-133.333333333333,4,2,1,50,0,0
10504,-133.333333333333,4,3,3,70,0,0
11250,-100,4,3,3,70,0,0
11698,-100,4,3,3,5,0,0
11996,-100,4,3,1,70,0,0
12593,-133.333333333333,4,3,1,70,0,0
12892,-153.846153846154,4,3,3,70,0,0
13638,-100,4,3,3,70,0,0
14086,-100,4,3,3,5,0,0
14235,-100,4,3,1,70,0,0
15280,-153.846153846154,4,3,3,70,0,0
16026,-100,4,3,3,70,0,0
16474,-100,4,3,3,5,0,0
16772,-100,4,3,3,70,0,0
17369,-200,4,3,3,70,0,0
17668,-133.333333333333,4,3,3,70,0,0
19011,-133.333333333333,4,3,1,70,0,0
19160,-66.6666666666667,4,3,1,70,0,0
19235,-100,4,3,1,5,0,0
19459,-133.333333333333,4,3,1,70,0,0
20056,-100,4,3,2,70,0,0
21250,-80,4,3,2,70,0,0
22444,-100,4,3,2,70,0,0
24086,-100,4,3,1,70,0,0
24832,-100,4,3,2,70,0,0
27220,-100,4,3,1,70,0,0
28116,-80,4,3,1,70,0,0
28638,-100,4,3,1,70,0,0
29310,-200,4,3,1,70,0,0
29608,-100,4,3,2,70,0,0
31101,-80,4,3,2,70,0,0
31399,-100,4,3,2,70,0,0
33638,-100,4,3,1,70,0,0
34384,-151.515151515152,4,3,2,70,0,0
34683,-66.6666666666667,4,3,2,70,0,0
34981,-80,4,3,1,70,0,0
35131,-80,4,3,2,70,0,0
35280,-100,4,3,2,70,0,0
36474,-80,4,3,2,70,0,0
36772,-100,4,3,1,70,0,0
48116,-200,4,3,1,70,0,0
48713,-200,4,3,3,70,0,0
48862,-100,4,3,3,70,0,0
55280,-100,4,3,2,70,0,0
55877,-100,4,3,3,70,0,0
58265,-133.333333333333,4,3,3,70,0,0
59011,-100,4,3,3,70,0,0
59459,-100,4,3,3,5,0,0
59608,-100,4,3,1,70,0,0
60354,-200,4,3,1,70,0,0
60653,-133.333333333333,4,3,3,70,0,0
61101,-100,4,3,3,70,0,0
61847,-100,4,3,1,70,0,0
62146,-133.333333333333,4,3,1,70,0,0
62444,-100,4,3,1,70,0,0
63041,-133.333333333333,4,3,3,70,0,0
63787,-100,4,3,3,70,0,0
65131,-200,4,3,3,70,0,0
65429,-133.333333333333,4,3,3,70,0,0
66772,-133.333333333333,4,3,1,70,0,0
66922,-66.6666666666667,4,3,1,70,0,0
66996,-66.6666666666667,4,3,1,70,0,0
67220,-133.333333333333,4,3,1,70,0,0
67817,-100,4,3,1,70,0,1
76175,-100,4,3,3,70,0,1
77369,-151.515151515152,4,1,2,70,0,0
77668,-100,4,3,1,70,0,1
86922,-100,4,3,3,70,0,0
92444,-100,4,3,1,70,0,0
92593,-200,4,3,1,70,0,0
92892,-133.333333333333,4,2,1,50,0,0
96772,333.333333333333,4,2,1,50,1,0
96938,342.857142857143,4,2,1,50,1,0
97109,387.096774193548,4,2,1,50,1,0
97109,-133.333333333333,4,2,1,50,0,0
97302,413.793103448276,4,2,1,50,1,0
97508,470.588235294118,4,2,1,50,1,0
97508,-133.333333333333,4,2,1,50,0,0
97743,585.365853658537,4,2,1,50,1,0

[Colours]
Combo1 : 253,191,130
Combo2 : 255,128,128
Combo3 : 128,64,64
Combo4 : 181,96,11

[HitObjects]
91,59,952,6,0,L|83:129,2,63.7500024318696,2|0|0,0:0|0:0|0:0,0:0:0:0:
155,24,1399,1,0,0:0:0:0:
202,130,1549,1,0,0:0:0:0:
140,166,1698,1,2,0:0:0:0:
83,122,1847,1,0,0:0:0:0:
155,24,1996,5,2,0:0:0:0:
215,64,2146,2,0,L|283:62,1,63.7500024318696,2|2,0:0|0:0,0:0:0:0:
437,115,2444,2,0,L|369:117,1,63.7500024318696,0|2,0:0|0:0,0:0:0:0:
360,144,2668,1,0,0:0:0:0:
347,171,2743,2,0,P|348:185|352:210,3,31.8750012159348,2|0|0|0,0:0|0:0|0:0|0:0,0:0:0:0:
401,255,3041,6,0,L|392:331,2,63.7500024318696,0|0|0,0:0|0:0|0:0,0:0:0:0:
350,202,3489,1,0,0:0:0:0:
276,309,3638,1,0,0:0:0:0:
331,355,3787,1,2,0:0:0:0:
393,318,3937,1,0,0:0:0:0:
276,309,4086,5,2,0:0:0:0:
221,263,4235,1,2,0:0:0:0:
159,300,4385,1,0,0:0:0:0:
35,332,4534,1,0,0:0:0:0:
90,378,4683,1,2,0:0:0:0:
152,341,4832,5,2,0:0:0:0:
157,321,4906,1,2,0:0:0:0:
159,300,4981,1,2,0:0:0:0:
157,279,5055,1,2,0:0:0:0:
150,259,5131,2,0,L|76:253,1,63.7500024318696,2|2,0:0|0:0,0:0:0:0:
213,184,5429,2,0,L|287:190,1,63.7500024318696,2|2,0:0|0:0,0:0:0:0:
421,325,5728,6,0,L|429:255,2,63.7500024318696,0|0|0,0:0|0:0|0:0,0:0:0:0:
357,360,6175,1,0,0:0:0:0:
310,254,6325,1,0,0:0:0:0:
372,218,6474,1,2,0:0:0:0:
429,262,6623,1,0,0:0:0:0:
357,360,6772,5,0,0:0:0:0:
297,320,6922,2,0,L|229:322,1,63.7500024318696,0|0,0:0|0:0,0:0:0:0:
75,269,7220,2,0,L|143:267,1,63.7500024318696,0|2,0:0|0:0,0:0:0:0:
152,240,7444,1,0,0:0:0:0:
165,213,7519,2,0,P|164:199|160:174,3,31.8750012159348,0|0|0|0,0:0|0:0|0:0|0:0,0:0:0:0:
111,129,7817,6,0,L|120:53,2,63.7500024318696,0|0|0,0:0|0:0|0:0,0:0:0:0:
162,182,8265,1,0,0:0:0:0:
236,75,8414,1,0,0:0:0:0:
181,29,8563,1,2,0:0:0:0:
119,66,8713,1,0,0:0:0:0:
236,75,8862,5,2,0:0:0:0:
291,121,9011,1,2,0:0:0:0:
353,84,9161,1,2,0:0:0:0:
477,52,9310,1,2,0:0:0:0:
422,6,9459,2,0,L|387:8,1,31.8750012159348,8|8,0:0|0:0,0:0:0:0:
360,42,9608,5,0,0:0:0:0:
355,63,9682,1,0,0:0:0:0:
353,84,9757,1,8,0:0:0:0:
355,105,9831,1,8,0:0:0:0:
362,125,9907,2,0,L|399:128,3,31.8750012159348,0|0|0|0,0:0|0:0|0:0|0:0,0:0:0:0:
448,171,10205,6,0,B|460:202|460:202|448:266,1,95.6250036478044,0|0,0:0|0:0,0:0:0:0:
409,329,10504,6,0,B|352:317|352:317|270:246|270:246|211:231,1,223.125008511544,6|0,0:0|0:0,0:0:0:0:
215,232,11101,1,8,0:0:0:0:
131,287,11250,6,0,L|148:190,1,85,6|0,0:0|0:0,0:0:0:0:
230,148,11549,2,0,L|213:245,1,85,6|0,0:0|0:0,0:0:0:0:
147,204,12593,2,0,P|138:161|154:109,1,95.6250036478044,0|0,2:0|2:0,0:0:0:0:
161,21,12892,6,0,B|95:103|194:103|141:218,1,193.374991147995,6|0,0:0|0:0,0:0:0:0:
156,275,13489,1,8,0:0:0:0:
146,203,13638,6,0,B|106:219|106:219|76:267,1,85,6|0,0:0|0:0,0:0:0:0:
170,345,13937,2,0,B|210:329|210:329|240:281,1,85,6|0,0:0|0:0,0:0:0:0:
232,293,14384,6,0,L|240:203,1,85,8|8,2:0|2:0,0:0:0:0:
299,172,14608,1,8,2:0:0:0:
299,172,14683,2,0,B|321:163|321:163|398:175,1,85,8|8,2:0|2:0,0:0:0:0:
480,124,14981,1,8,2:0:0:0:
487,102,15055,1,0,0:0:0:0:
488,78,15130,1,0,0:0:0:0:
483,55,15204,1,0,0:0:0:0:
472,34,15280,6,0,B|431:53|431:53|281:18,1,193.374991147995,6|0,0:0|0:0,0:0:0:0:
286,19,15877,5,8,0:0:0:0:
221,146,16026,2,0,B|210:103|210:103|229:54,1,85,6|0,0:0|0:0,0:0:0:0:
298,171,16325,2,0,B|313:209|313:209|302:252,1,85,6|0,0:0|0:0,0:0:0:0:
230,344,17369,6,0,L|295:340,1,63.7500024318696,0|0,0:0|0:0,0:0:0:0:
293,340,17668,6,0,B|170:288|205:381|61:322,1,223.125008511544,6|0,0:0|0:0,0:0:0:0:
19,297,18265,1,8,0:0:0:0:
59,205,18414,1,6,0:0:0:0:
58,194,18488,1,2,0:0:0:0:
58,183,18563,1,2,0:0:0:0:
57,173,18637,1,2,0:0:0:0:
57,162,18712,1,6,0:0:0:0:
57,151,18787,1,2,0:0:0:0:
56,141,18861,5,2,0:0:0:0:
56,141,19160,6,0,L|134:138,1,63.7500024318696,2|0,0:2|0:0,0:0:0:0:
119,138,19459,6,0,P|127:159|124:202,1,63.7500024318696,0|2,0:0|1:0,0:0:0:0:
173,322,19757,2,0,P|165:301|168:258,1,63.7500024318696,4|0,1:0|0:0,0:0:0:0:
256,192,20056,6,0,B|297:179|297:179|390:210,1,127.5,6|0,3:0|0:0,0:0:0:0:
443,168,20354,1,0,0:0:0:0:
446,146,20428,1,0,0:0:0:0:
449,125,20503,1,0,0:0:0:0:
452,104,20577,1,0,0:0:0:0:
456,83,20653,2,0,B|419:64|419:64|371:71,1,85,8|0,0:2|0:0,0:0:0:0:
349,94,20877,2,0,B|264:82,1,85,2|0,0:2|0:0,0:0:0:0:
304,17,21101,1,2,0:2:0:0:
202,51,21250,6,0,B|192:98|192:98|201:154|201:154|188:218,1,159.375,6|0,1:0|0:0,0:0:0:0:
190,207,21549,2,0,L|157:212,6,26.5625,0|0|0|0|0|0|0,0:0|0:0|0:0|0:0|0:0|0:0|0:0,0:0:0:0:
256,192,21847,2,0,L|250:246,1,53.125,4|0,0:2|0:0,0:0:0:0:
265,255,21996,2,0,L|259:309,1,53.125,0|0,0:0|0:0,0:0:0:0:
243,339,22146,2,0,P|162:317|95:345,1,159.375,0|0,0:0|0:0,0:0:0:0:
54,279,22444,6,0,B|46:235|46:235|55:192|55:192|48:132,1,127.5,2|0,0:0|0:0,0:0:0:0:
116,113,22743,1,0,0:0:0:0:
138,110,22817,1,0,0:0:0:0:
159,107,22892,1,0,0:0:0:0:
180,104,22966,1,0,0:0:0:0:
201,100,23042,2,0,B|213:185,1,85,8|0,0:2|0:0,0:0:0:0:
190,207,23266,2,0,B|183:233|183:233|201:300,1,85,2|0,0:2|0:0,0:0:0:0:
243,339,23490,1,2,0:2:0:0:
414,357,23638,6,0,B|444:300|444:300|415:228,1,127.5,6|0,1:0|0:0,0:0:0:0:
392,203,23937,2,0,L|305:198,1,85,0|2,0:0|0:2,0:0:0:0:
310,201,24160,1,0,0:0:0:0:
310,201,24235,2,0,P|292:242|299:287,1,85,8|0,0:0|0:0,0:0:0:0:
414,357,24534,2,0,B|385:324|385:324|325:323,1,85
322,338,24757,1,0,0:0:0:0:
301,355,24832,6,0,L|172:353,1,127.5,6|0,0:0|0:0,0:0:0:0:
112,294,25131,1,0,0:0:0:0:
107,273,25205,1,0,0:0:0:0:
104,252,25280,1,0,0:0:0:0:
103,231,25354,1,0,0:0:0:0:
105,208,25429,2,0,L|196:205,1,85,8|0,0:2|0:0,0:0:0:0:
216,176,25653,2,0,B|231:149|231:149|221:85,1,85,2|0,0:2|0:0,0:0:0:0:
173,40,25877,1,2,0:2:0:0:
309,84,26026,6,0,L|343:79,6,21.25,6|0|0|0|0|0|0,1:0|0:0|0:0|0:0|0:0|0:0|0:0,0:0:0:0:
387,120,26325,2,0,L|381:164,1,42.5,0|0,0:0|0:0,0:0:0:0:
395,195,26474,2,0,L|401:239,1,42.5,0|0,0:0|0:0,0:0:0:0:
358,303,26623,1,4,0:2:0:0:
254,258,26772,1,0,0:0:0:0:
358,303,26922,2,0,B|314:252|314:252|233:260,1,127.5,0|0,0:0|0:0,0:0:0:0:
186,300,27220,6,0,L|177:160,1,127.5,6|0,0:0|0:0,0:0:0:0:
126,106,27519,1,0,0:0:0:0:
251,133,27668,1,0,0:0:0:0:
251,133,27743,1,0,0:0:0:0:
251,133,27817,2,0,L|340:131,1,85,8|2,0:0|0:0,0:0:0:0:
429,181,28116,6,0,P|460:118|337:140,1,265.625,6|0,0:0|0:0,0:0:0:0:
343,151,28563,1,2,0:0:0:0:
375,245,28713,2,0,L|470:256,1,85,2|0,0:0|0:0,0:0:0:0:
300,289,29011,2,0,P|237:271|181:305,1,127.5,8|0,0:0|0:0,0:0:0:0:
159,289,29310,6,0,L|152:245,1,42.5,2|0,0:2|0:0,0:0:0:0:
115,91,29608,6,0,B|80:116|80:116|97:209,1,127.5,6|0,0:0|0:0,0:0:0:0:
152,247,29907,1,0,0:0:0:0:
173,245,29981,1,0,0:0:0:0:
194,243,30056,1,0,0:0:0:0:
215,242,30130,1,0,0:0:0:0:
237,242,30205,2,0,P|246:271|236:331,1,85,8|0,0:2|0:0,0:0:0:0:
259,349,30429,2,0,L|345:344,1,85,2|0,0:2|0:0,0:0:0:0:
405,302,30653,1,2,0:2:0:0:
449,141,30802,6,0,P|448:127|443:115,6,21.25,6|0|0|0|0|0|0,1:0|0:0|0:0|0:0|0:0|0:0|0:0,0:0:0:0:
386,88,31101,2,0,P|328:67|349:143,1,159.375,0|0,0:0|0:0,0:0:0:0:
361,177,31399,2,0,L|355:226,1,42.5,4|0,0:2|0:0,0:0:0:0:
410,259,31549,2,0,L|404:308,1,42.5,0|0,0:0|0:0,0:0:0:0:
357,352,31698,2,0,B|258:349|258:349|289:325,1,127.5,0|0,0:0|0:0,0:0:0:0:
322,268,31996,6,0,L|193:262,1,127.5,2|0,0:0|0:0,0:0:0:0:
128,289,32295,1,0,0:0:0:0:
119,308,32369,1,0,0:0:0:0:
111,327,32444,1,0,0:0:0:0:
117,348,32518,1,0,0:0:0:0:
123,368,32593,2,0,P|81:356|35:362,1,85,8|0,0:2|0:0,0:0:0:0:
13,319,32817,2,0,L|7:231,1,85,2|0,0:2|0:0,0:0:0:0:
53,177,33041,1,2,0:2:0:0:
162,34,33190,6,0,L|168:122,1,85,6|0,1:0|0:0,0:0:0:0:
431,145,33489,2,0,B|388:132|388:132|342:148,1,85,0|2,0:0|0:2,0:0:0:0:
331,163,33713,1,0,0:0:0:0:
315,183,33787,2,0,L|321:267,1,85,8|0,0:0|0:0,0:0:0:0:
80,216,34086,2,0,B|123:229|123:229|169:213,1,85,8|0,0:0|0:0,0:0:0:0:
180,198,34310,1,0,0:0:0:0:
196,178,34384,6,0,L|190:92,1,84.1499997431946,6|0,0:0|0:0,0:0:0:0:
162,34,34683,6,0,B|188:26|188:26|223:35|223:35|259:21,2,85.0000032424928,8|0|0,1:0|0:0|0:0,0:0:0:0:
89,62,34981,2,0,P|84:73|85:88,3,26.5625,8|0|8|0,2:0|0:0|2:0|0:0,0:0:0:0:
129,149,35131,1,2,0:0:0:0:
129,149,35205,1,2,0:0:0:0:
129,149,35280,2,0,P|130:174|123:202,1,42.5,8|0,0:0|0:0,0:0:0:0:
63,274,35429,2,0,P|62:249|69:221,1,42.5,0|0,0:0|0:0,0:0:0:0:
128,343,35578,5,2,0:0:0:0:
128,343,35653,1,2,0:0:0:0:
128,343,35728,1,2,0:0:0:0:
128,343,35802,1,2,0:0:0:0:
128,343,35877,2,0,L|172:341,1,42.5,2|0,0:0|0:0,0:0:0:0:
234,365,36026,2,0,L|278:363,1,42.5,2|0,0:0|0:0,0:0:0:0:
352,357,36175,1,4,0:2:0:0:
403,211,36325,1,0,0:0:0:0:
352,357,36474,2,0,B|363:302|363:302|394:267|394:267|406:199,1,159.375,0|0,0:0|0:0,0:0:0:0:
458,155,36772,6,0,L|462:66,1,85,6|0,0:0|0:0,0:0:0:0:
459,46,36996,1,0,0:0:0:0:
444,27,37071,2,0,B|402:36|402:36|364:15,1,85,8|0,0:0|0:0,0:0:0:0:
232,99,37369,2,0,L|228:188,1,85,2|0,0:0|0:0,0:0:0:0:
231,208,37593,1,0,0:0:0:0:
246,227,37668,2,0,B|288:218|288:218|326:239,1,85,8|0,0:0|0:0,0:0:0:0:
467,331,37966,6,0,B|428:311|428:311|387:336,1,85,2|0,0:0|0:0,0:0:0:0:
374,347,38190,1,0,0:0:0:0:
352,357,38265,2,0,L|261:342,1,85,8|0,0:0|0:0,0:0:0:0:
231,208,38563,1,2,0:0:0:0:
268,343,38713,1,2,0:0:0:0:
231,208,38862,1,8,0:0:0:0:
232,186,38936,1,8,0:0:0:0:
234,165,39011,1,8,0:0:0:0:
236,144,39085,1,8,0:0:0:0:
238,123,39160,5,6,0:0:0:0:
82,74,39310,2,0,B|179:71,1,85,2|0,0:0|0:0,0:0:0:70:C6.wav
238,123,39608,1,2,0:0:0:0:
82,74,39757,2,0,B|85:171,1,85,8|0,0:0|0:0,0:0:0:0:
114,307,40056,5,2,0:0:0:0:
270,258,40206,2,0,B|173:255,1,85,2|0,0:0|0:0,0:0:0:0:
114,307,40504,1,2,0:0:0:0:
270,258,40653,2,0,B|267:355,1,85,2|0,0:0|0:0,0:0:0:0:
114,307,40951,5,8,0:0:0:0:
84,158,41101,2,0,L|78:213,1,42.5,0|0,0:0|0:0,0:0:0:0:
80,208,41250,2,0,L|86:263,1,42.5,0|0,0:0|0:0,0:0:0:0:
119,313,41399,1,2,0:0:0:0:
119,313,41474,1,2,0:0:0:0:
119,313,41549,5,2,0:0:0:0:
200,359,41698,2,0,P|237:366|287:357,1,85,2|0,0:0|0:0,0:0:0:0:
497,346,41996,1,2,0:0:0:0:
416,300,42145,2,0,P|379:293|329:302,1,85,8|0,0:0|0:0,0:0:0:0:
200,359,42444,1,2,0:0:0:0:
246,278,42593,2,0,P|253:241|244:191,1,85,2|0,0:0|0:0,0:0:0:0:
211,19,42892,1,2,0:0:0:0:
165,100,43041,2,0,P|158:137|167:187,1,85,0|2,0:0|0:0,0:0:0:0:
181,204,43265,1,0,0:0:0:0:
196,224,43340,6,0,L|186:273,3,42.5,8|2|2|2,0:0|0:2|0:2|0:2,0:0:0:0:
117,310,43638,2,0,L|33:320,1,85,2|2,0:2|0:2,0:0:0:0:
196,224,43937,5,2,0:0:0:0:
255,286,44086,2,0,B|276:274|276:274|339:279,1,85,2|0,0:0|0:0,0:0:0:0:
485,367,44384,1,2,0:0:0:0:
426,305,44533,2,0,B|404:316|404:316|342:312,1,85,8|0,0:0|0:0,0:0:0:0:
196,224,44832,1,2,0:0:0:0:
285,165,44981,2,0,B|312:157|312:157|375:168,1,85,2|0,0:0|0:0,0:0:0:0:
426,305,45280,1,2,0:0:0:0:
337,364,45429,2,0,B|310:372|310:372|247:361,1,85,2|0,0:0|0:0,0:0:0:0:
196,224,45728,5,8,0:0:0:0:
112,38,45877,2,0,L|120:93,1,42.5,0|0,0:0|0:0,0:0:0:0:
111,101,46026,2,0,L|119:156,1,42.5,0|0,0:0|0:0,0:0:0:0:
87,208,46175,1,2,0:0:0:0:
87,208,46250,1,2,0:0:0:0:
87,208,46325,5,2,0:0:0:0:
139,284,46474,2,0,P|144:309|113:367,1,85,2|0,0:0|0:0,0:0:0:0:
26,270,46772,1,2,0:0:0:0:
139,284,46922,2,0,L|226:283,1,85,8|0,0:0|0:0,0:0:0:0:
425,208,47220,5,2,0:0:0:0:
373,284,47369,2,0,P|368:309|399:367,1,85,2|0,0:0|0:0,0:0:0:0:
486,271,47667,1,2,0:0:0:0:
373,284,47817,2,0,L|286:283,1,85,0|2,0:0|0:0,0:0:0:0:
256,192,48116,6,0,B|240:152|256:120|256:120|272:88|256:40,1,148.75,8|0,0:0|0:0,0:0:0:0:
181,64,48713,5,6,0:0:0:0:
181,64,48862,2,0,L|97:83,1,85,6|0,0:0|0:0,0:0:0:0:
37,238,49160,1,2,0:0:0:0:
37,238,49310,2,0,P|54:206|50:149,1,85,8|0,0:0|0:0,0:0:0:0:
93,305,49608,5,6,0:0:0:0:
93,305,49757,2,0,L|177:286,1,85,6|0,0:0|0:0,0:0:0:0:
237,131,50055,1,2,0:0:0:0:
237,131,50205,2,0,P|220:163|224:220,1,85,8|0,0:0|0:0,0:0:0:0:
322,310,50504,2,0,B|346:304|346:304|418:319,1,85,2|0,0:2|0:2,0:0:0:0:
426,327,50728,1,0,0:2:0:0:
448,336,50802,2,0,L|434:250,1,85,2|2,0:2|0:2,0:0:0:0:
331,64,51101,5,6,0:0:0:0:
331,64,51250,2,0,L|415:83,1,85,6|0,0:0|0:0,0:0:0:0:
475,238,51548,1,2,0:0:0:0:
475,238,51698,2,0,P|458:206|462:149,1,85,8|0,0:0|0:0,0:0:0:0:
419,305,51996,5,6,0:0:0:0:
419,305,52145,2,0,L|335:286,1,85,6|0,0:0|0:0,0:0:0:0:
275,131,52443,1,2,0:0:0:0:
275,131,52593,2,0,P|292:163|288:220,1,85,2|0,0:0|0:0,0:0:0:0:
268,229,52817,1,0,0:2:0:0:
242,243,52892,2,0,P|224:236|196:240,3,42.5,8|2|2|2,0:0|0:2|0:2|0:2,0:0:0:0:
130,243,53190,2,0,L|37:231,1,85,2|2,0:2|0:2,0:0:0:0:
56,91,53489,5,6,0:0:0:0:
217,31,53638,2,0,P|176:25|117:50,1,85,6|0,0:0|0:0,0:0:0:0:
217,151,53937,1,2,0:0:0:0:
56,91,54086,2,0,P|97:85|156:110,1,85,8|0,0:0|0:0,0:0:0:0:
217,151,54384,5,6,0:0:0:0:
146,285,54534,2,0,B|157:201,1,85,6|0,0:0|0:0,0:0:0:0:
288,285,54832,1,2,0:0:0:0:
217,151,54982,2,0,B|228:235,1,85,8|0,0:0|0:0,0:0:0:0:
362,263,55280,2,0,L|400:261,6,21.25,8|0|0|0|0|0|0,1:0|0:0|0:0|0:0|0:0|0:0|0:0,0:0:0:0:
441,310,55578,2,0,P|450:266|437:211,1,85,0|0,0:0|0:0,0:0:0:0:
399,62,55877,5,4,0:0:0:0:
270,82,56026,1,4,0:0:0:0:
260,91,56325,5,4,0:0:0:0:
389,71,56474,1,4,0:0:0:0:
329,183,56772,5,4,0:0:0:0:
458,203,56921,1,4,0:0:0:0:
468,212,57220,5,4,0:0:0:0:
339,192,57369,1,4,0:0:0:0:
348,203,57668,6,0,L|355:251,3,42.5,2|0|4|0,0:0|0:0|0:0|0:0,0:0:0:0:
420,282,57966,1,0,0:0:0:0:
415,302,58040,1,0,0:0:0:0:
410,323,58115,1,0,0:0:0:0:
405,344,58189,1,0,0:0:0:0:
399,362,58265,6,0,B|341:360|312:318|312:318|266:292|232:312|219:337|223:375,1,223.125008511544,4|0,0:0|0:0,0:0:0:0:
222,358,58862,1,8,0:0:0:0:
63,362,59011,2,0,B|104:352|104:352|152:359,1,85,6|0,0:0|0:0,0:0:0:0:
305,354,59310,2,0,B|264:364|264:364|216:357,1,85,6|0,0:0|0:0,0:0:0:0:
167,257,60354,6,0,L|161:188,1,63.75,0|0,2:0|2:0,0:0:0:0:
117,134,60653,6,0,B|175:132|204:90|204:90|250:64|284:84|297:109|293:147,1,223.125008511544,6|0,0:0|0:0,0:0:0:0:
294,130,61250,1,8,0:0:0:0:
453,134,61399,2,0,B|412:124|412:124|364:131,1,85,6|0,0:0|0:0,0:0:0:0:
211,126,61698,2,0,B|252:136|252:136|300:129,1,85,6|0,0:0|0:0,0:0:0:0:
294,129,62146,6,0,B|297:161|297:161|286:206,1,63.7500024318696,8|8,0:2|0:2,0:0:0:0:
236,231,62369,1,8,0:2:0:0:
236,231,62444,2,0,L|244:308,2,56.6666666666667,8|0|0,0:2|0:0|0:0,0:0:0:0:
173,198,62743,2,0,B|138:182|138:182|35:193,1,127.5,8|0,0:2|0:0,0:0:0:0:
64,255,63041,6,0,B|50:297|50:297|96:278|190:298|215:371,1,223.125008511544,6|0,0:0|0:0,0:0:0:0:
206,352,63638,1,8,0:0:0:0:
48,374,63787,2,0,P|71:362|135:377,1,85,6|0,0:0|0:0,0:0:0:0:
368,356,64086,2,0,P|345:368|281:353,1,85,6|0,0:0|0:0,0:0:0:0:
408,259,65131,6,0,L|418:195,1,63.75,0|0,0:0|0:0,0:0:0:0:
448,129,65429,6,0,B|462:87|462:87|416:106|322:86|297:13,1,223.125008511544,6|0,0:0|0:0,0:0:0:0:
305,31,66026,1,8,0:0:0:0:
278,119,66175,1,6,0:0:0:0:
248,140,66249,1,2,0:0:0:0:
212,140,66324,1,2,0:0:0:0:
184,117,66398,1,2,0:0:0:0:
176,81,66473,1,6,0:0:0:0:
192,48,66548,1,2,0:0:0:0:
225,33,66622,5,2,0:0:0:0:
225,33,66922,6,0,L|159:27,1,63.7500024318696,2|0,0:2|0:0,0:0:0:0:
161,27,67220,6,0,P|153:48|156:91,1,63.7500024318696,0|2,0:0|0:0,0:0:0:0:
248,140,67519,1,8,1:0:0:0:
248,140,67668,1,0,0:0:0:0:
350,177,67817,6,0,L|436:173,1,85,6|0,3:0|0:0,0:0:0:0:
458,177,68041,1,0,0:0:0:0:
482,181,68116,2,0,P|490:222|470:267,1,85,8|0,0:0|0:0,0:0:0:0:
286,351,68414,2,0,L|241:348,1,42.5,2|0,0:0|0:0,0:0:0:0:
211,325,68563,2,0,B|196:301|196:301|218:236,2,85,0|8|0,0:0|0:0|0:0,0:0:0:0:
247,139,69011,6,0,B|223:154|223:154|158:132,1,85,2|0,0:0|0:0,0:0:0:0:
141,122,69235,1,0,0:0:0:0:
112,108,69310,2,0,L|103:198,1,85,8|0,0:0|0:0,0:0:0:0:
211,325,69608,1,2,0:0:0:0:
104,193,69757,1,0,0:0:0:0:
30,332,69907,2,0,P|26:347|26:359,2,28.3333333333333,8|0|0,0:0|0:0|0:0,0:0:0:0:
92,355,70056,1,0,0:0:0:0:
211,325,70205,6,0,P|242:319|295:342,1,85,2|0,0:0|0:0,0:0:0:0:
313,354,70429,1,0,0:0:0:0:
336,370,70504,2,0,L|352:280,1,85,8|0,0:0|0:0,0:0:0:0:
468,104,70802,2,0,B|446:99|446:99|428:110,1,42.5,2|0,0:0|0:0,0:0:0:0:
406,137,70951,2,0,L|422:227,2,85,0|8|0,0:0|0:0|0:0,0:0:0:0:
350,286,71399,6,0,B|327:274|327:274|257:290,1,85,2|0,0:0|0:0,0:0:0:0:
245,298,71623,1,0,0:0:0:0:
219,307,71698,2,0,L|205:220,1,85,8|0,0:0|0:0,0:0:0:0:
112,108,71996,1,2,0:0:0:0:
205,223,72146,1,0,0:0:0:0:
112,108,72295,2,0,P|106:121|107:137,2,28.3333333333333,8|0|0,0:0|0:0|0:0,0:0:0:0:
163,61,72444,1,0,0:0:0:0:
366,82,72593,6,0,P|374:107|368:169,1,85,2|0,0:0|0:0,0:0:0:0:
350,183,72817,1,0,0:0:0:0:
332,202,72892,2,0,L|353:300,1,85,8|0,0:0|0:0,0:0:0:0:
211,359,73190,2,0,L|200:309,1,42.5,2|0,0:0|0:0,0:0:0:0:
169,293,73340,2,0,B|140:305|140:305|122:327|122:327|93:340,2,85,0|8|0,0:0|0:0|0:0,0:0:0:0:
343,293,73787,6,0,B|372:305|372:305|390:327|390:327|419:340,1,85,2|0,0:0|0:0,0:0:0:0:
434,345,74011,1,0,0:0:0:0:
455,353,74086,2,0,P|468:328|467:271,1,85,8|0,0:0|0:0,0:0:0:0:
369,164,74384,1,2,0:0:0:0:
234,308,74534,2,0,P|231:322|231:347,2,28.3333333333333,0|0|0,0:0|0:0|0:0,0:0:0:0:
258,300,74683,2,0,L|345:292,1,85,8|0,0:0|0:0,0:0:0:0:
369,164,74981,6,0,B|383:125|383:125|372:78,1,85,2|0,0:0|0:0,0:0:0:0:
305,44,75205,2,0,B|291:83|291:83|302:130,1,85,0|0,0:0|0:0,0:0:0:0:
369,164,75429,1,0,0:0:0:0:
143,164,75578,2,0,B|129:125|129:125|140:78,1,85,2|0,0:0|0:0,0:0:0:0:
207,44,75802,2,0,B|221:83|221:83|210:130,1,85,0|0,0:0|0:0,0:0:0:0:
143,164,76026,1,0,0:0:0:0:
28,286,76175,6,0,L|119:281,1,85,6|4,0:0|0:0,0:0:0:0:
302,318,76474,1,12,0:0:0:0:
280,319,76548,1,2,0:0:0:0:
259,320,76623,2,0,B|213:323|213:323|163:359|163:359|92:364,1,170,6|6,0:0|0:0,0:0:0:0:
29,286,77071,2,0,P|22:264|25:246,2,28.3333333333333,12|0|0,0:0|0:0|0:0,0:0:0:0:
60,311,77220,1,6,0:0:0:0:
259,320,77369,6,0,P|266:278|253:218,1,84.1499997431946,8|0,0:0|0:0,0:0:0:0:
235,173,77668,6,0,P|228:131|240:73,1,85,8|0,0:0|0:0,0:0:0:0:
454,126,77966,2,0,L|366:115,1,85,2|0,0:0|0:0,0:0:0:0:
346,130,78190,1,0,0:0:0:0:
330,154,78265,2,0,B|319:193|319:193|333:244,1,85,8|0,0:0|0:0,0:0:0:0:
58,258,78563,6,0,L|146:269,1,85,2|0,0:0|0:0,0:0:0:0:
166,254,78787,1,0,0:0:0:0:
182,230,78862,2,0,B|193:191|193:191|179:140,1,85,8|0,0:0|0:0,0:0:0:0:
46,35,79160,1,2,0:0:0:0:
181,148,79310,1,0,0:0:0:0:
46,35,79459,2,0,P|29:39|9:39,2,28.3333333333333,8|0|0,0:0|0:0|0:0,0:0:0:0:
108,18,79608,1,0,0:0:0:0:
306,103,79757,6,0,B|284:96|284:96|213:116,1,85,2|0,0:0|0:0,0:0:0:0:
202,129,79981,1,0,0:0:0:0:
181,148,80056,2,0,B|170:187|170:187|184:238,1,85,8|0,0:0|0:0,0:0:0:0:
294,363,80354,2,0,P|301:342|298:316,1,42.5,2|0,0:0|0:0,0:0:0:0:
281,288,80504,2,0,L|273:201,2,85,0|8|0,0:0|0:0|0:0,0:0:0:0:
454,348,80951,6,0,B|467:309|467:309|457:266,1,85,2|0,0:0|0:0,0:0:0:0:
440,245,81175,1,0,0:0:0:0:
423,224,81250,2,0,L|434:133,1,85,8|0,0:0|0:0,0:0:0:0:
321,51,81549,1,2,0:0:0:0:
433,139,81698,1,0,0:0:0:0:
321,51,81847,2,0,P|333:46|352:47,2,28.3333333333333,8|0|0,0:0|0:0|0:0,0:0:0:0:
291,106,81996,1,0,0:0:0:0:
97,153,82146,6,0,B|126:147|126:147|159:152|159:152|191:146,1,85,2|0,0:0|0:0,0:0:0:0:
205,140,82369,1,0,0:0:0:0:
230,133,82444,2,0,L|219:233,1,85,8|0,0:0|0:0,0:0:0:0:
140,371,82743,2,0,L|135:329,1,42.5,2|0,0:0|0:0,0:0:0:0:
157,306,82892,2,0,P|197:293|239:295,2,85,0|8|0,0:0|0:0|0:0,0:0:0:0:
38,188,83340,6,0,L|28:81,1,85,2|0,0:0|0:0,0:0:0:0:
46,77,83563,1,0,0:0:0:0:
62,50,83638,2,0,B|101:39|101:39|148:52,1,85,8|0,0:0|0:0,0:0:0:0:
256,192,83937,1,2,0:0:0:0:
143,50,84086,2,0,P|139:63|139:80,2,28.3333333333333,2|0|0,0:0|0:0|0:0,0:0:0:0:
158,27,84235,2,0,L|246:20,1,85,8|0,0:0|0:0,0:0:0:0:
412,73,84534,6,0,B|421:98|421:98|410:158,1,85,2|0,0:0|0:0,0:0:0:0:
347,187,84757,2,0,B|338:162|338:162|349:102,1,85,0|0,0:0|0:0,0:0:0:0:
412,73,84981,1,0,0:0:0:0:
347,187,85131,6,0,P|306:202|255:188,1,85,8|0,0:0|0:0,0:0:0:0:
151,132,85354,2,0,P|192:117|243:131,1,85,0|0,0:0|0:0,0:0:0:0:
266,194,85578,1,2,0:0:0:0:
151,132,85728,6,0,L|141:223,1,85,0|0,0:0|0:0,0:0:0:0:
67,259,85951,2,0,L|77:168,1,85,8|0,0:0|0:0,0:0:0:0:
157,137,86175,1,2,0:0:0:0:
157,137,86250,1,0,0:0:0:0:
157,137,86325,6,0,B|170:173|170:173|153:244,1,85,2|0,0:0|0:0,0:0:0:0:
76,174,86549,1,0,0:0:0:0:
73,152,86623,1,2,0:0:0:0:
70,131,86698,1,8,0:0:0:0:
68,110,86772,1,8,0:0:0:0:
65,89,86847,1,8,0:0:0:0:
80,59,86922,6,0,P|98:60|136:47,1,42.5,6|0,0:0|0:0,0:0:0:0:
151,132,87071,2,0,P|169:131|207:144,1,42.5,6|0,0:0|0:0,0:0:0:0:
401,74,87369,2,0,P|383:75|345:62,1,42.5,6|0,0:0|0:0,0:0:0:0:
290,108,87519,1,8,0:0:0:0:
223,246,87668,2,0,L|216:298,1,42.5,8|0,0:0|0:0,0:0:0:0:
277,329,87817,2,0,L|284:277,1,42.5,6|0,0:0|0:0,0:0:0:0:
164,125,88116,6,0,L|112:118,1,42.5,6|0,0:0|0:0,0:0:0:0:
223,246,88414,2,0,B|215:234|215:234|212:204,1,42.5,6|0,0:0|0:0,0:0:0:0:
291,226,88563,2,0,B|299:238|299:238|302:268,1,42.5,6|0,0:0|0:0,0:0:0:0:
277,329,88713,1,14,0:0:0:0:
147,301,88862,2,0,B|135:293|135:293|105:290,1,42.5,6|0,0:0|0:0,0:0:0:0:
164,125,89160,6,0,L|211:117,1,42.5,6|0,0:0|0:0,0:0:0:0:
290,124,89310,2,0,L|337:132,1,42.5,6|0,0:0|0:0,0:0:0:0:
277,329,89608,2,0,L|324:321,1,42.5,6|0,0:0|0:0,0:0:0:0:
445,301,89907,6,0,P|452:274|448:252,1,42.5,8|0,0:0|0:0,0:0:0:0:
429,190,90056,2,0,P|422:163|426:141,1,42.5,6|0,0:0|0:0,0:0:0:0:
445,301,90354,2,0,P|452:328|448:350,1,42.5,6|0,0:0|0:0,0:0:0:0:
277,329,90653,6,0,L|233:333,1,42.5,6|0,0:0|0:0,0:0:0:0:
169,301,90802,2,0,L|125:305,1,42.5,6|0,0:0|0:0,0:0:0:0:
60,177,91101,2,0,L|104:181,1,42.5,6|0,0:0|0:0,0:0:0:0:
169,301,91399,2,0,P|190:299|221:303,1,42.5,6|0,0:0|0:0,0:0:0:0:
306,244,91549,2,0,P|285:242|254:246,1,42.5,6|0,0:0|0:0,0:0:0:0:
356,360,91698,5,8,0:0:0:0:
362,319,91772,1,0,0:0:0:0:
331,293,91847,1,2,0:0:0:0:
292,307,91921,1,2,0:0:0:0:
253,317,91996,5,12,0:0:0:0:
260,277,92070,1,0,0:0:0:0:
229,251,92145,1,2,0:0:0:0:
190,265,92219,1,0,0:0:0:0:
169,301,92295,6,0,L|73:333,1,85,12|2,0:0|0:2,0:0:0:0:
256,192,92593,6,0,L|304:176,1,42.5,2|0,0:2|0:0,0:0:0:0:
421,59,92892,6,0,L|429:129,2,63.7500024318696,6|0|0,0:0|0:0|0:0,0:0:0:0:
357,24,93339,1,0,0:0:0:0:
310,130,93489,1,2,0:0:0:0:
372,166,93638,1,0,0:0:0:0:
429,122,93787,1,0,0:0:0:0:
357,24,93936,5,0,0:0:0:0:
297,64,94086,2,0,L|229:62,1,63.7500024318696,0|0,0:0|0:0,0:0:0:0:
75,115,94384,2,0,L|143:117,1,63.7500024318696,0|2,0:0|0:0,0:0:0:0:
152,144,94608,1,0,0:0:0:0:
165,171,94683,2,0,P|164:185|160:210,3,31.8750012159348,2|0|0|0,0:0|0:0|0:0|0:0,0:0:0:0:
111,255,94981,6,0,L|120:331,2,63.7500024318696,0|0|0,0:0|0:0|0:0,0:0:0:0:
162,202,95429,1,0,0:0:0:0:
236,309,95578,1,2,0:0:0:0:
181,355,95727,1,0,0:0:0:0:
119,318,95877,1,2,0:0:0:0:
236,309,96026,5,0,0:0:0:0:
291,263,96175,1,0,0:0:0:0:
353,300,96325,1,0,0:0:0:0:
477,332,96474,1,0,0:0:0:0:
422,378,96623,1,2,0:0:0:0:
360,341,96772,5,0,0:0:0:0:
355,321,96855,1,0,0:0:0:0:
353,300,96938,1,0,0:0:0:0:
355,279,97023,1,0,0:0:0:0:
362,259,97109,2,0,L|436:253,1,63.7500024318696,2|2,0:0|0:0,0:0:0:0:
299,184,97508,2,0,L|225:190,1,63.7500024318696,2|2,0:0|0:1,0:0:0:0:
