osu file format v14

[General]
AudioFilename: audio.mp3
AudioLeadIn: 0
PreviewTime: 67519
Countdown: 0
SampleSet: Soft
StackLeniency: 0.7
Mode: 0
LetterboxInBreaks: 0
WidescreenStoryboard: 0

[Editor]
Bookmarks: 39160,58265,86922
DistanceSpacing: 1
BeatDivisor: 4
GridSize: 4
TimelineZoom: 2.799999

[Metadata]
Title:Chirality
TitleUnicode:Chirality
Artist:Camellia
ArtistUnicode:かめりあ
Creator:Suzuki_1112
Version:Stan's Normal
Source:REFLEC BEAT groovin'!!
Tags:Pending cup #5 1112deng Moecho Moeri Vert LowComboFC LCFC StarrStyx yf_bmp Ryuusei Aika _Stan Kashima fanzhen0019 liaoxingyao SnowNiNo_ Koiyuki Minakami Yuki
BeatmapID:1464589
BeatmapSetID:692068

[Difficulty]
HPDrainRate:4
CircleSize:3
OverallDifficulty:4
ApproachRate:5.5
SliderMultiplier:1
SliderTickRate:1

[Events]
//Background and Video events
0,0,"BGSTAN.jpg",0,0
//Break Periods
//Storyboard Layer 0 (Background)
//Storyboard Layer 1 (Fail)
//Storyboard Layer 2 (Pass)
//Storyboard Layer 3 (Foreground)
//Storyboard Sound Samples

[TimingPoints]
952,298.507462686567,4,2,31,70,1,0
14383,-100,4,2,31,40,0,0
14981,-100,4,2,31,70,0,0
29309,-100,4,1,31,70,0,0
29458,-100,4,2,31,40,0,0
29608,-100,4,2,31,70,0,0
61996,-100,4,2,31,40,0,0
63041,-100,4,2,31,70,0,0
67519,-100,4,1,31,25,0,0
67817,-100,4,2,31,70,0,1
73488,-100,4,1,31,70,0,1
73712,-100,4,2,31,70,0,1
77668,-100,4,2,31,70,0,1
86922,-100,4,2,31,70,0,0
96772,333.333333333333,4,2,31,70,1,0
96938,342.857142857143,4,2,31,70,1,0
97109,387.096774193548,4,2,31,70,1,0
97302,413.793103448276,4,2,31,70,1,0
97508,470.588235294118,4,2,31,70,1,0
97743,585.365853658537,4,2,31,70,1,0

[Colours]
Combo1 : 4,71,132
Combo2 : 0,186,219
Combo3 : 0,106,236
Combo4 : 57,120,134

[HitObjects]
95,59,10504,6,0,P|73:148|158:185,1,200,0|8,1:0|0:0,0:0:0:0:
202,162,11250,2,0,L|186:269,1,100,0|0,1:0|1:0,0:0:0:0:
417,325,12892,6,0,P|438:235|353:198,1,200,0|8,1:0|0:0,0:0:0:0:
310,222,13638,2,0,L|326:115,1,100,0|0,1:0|1:0,0:0:0:0:
176,147,14384,2,0,L|192:40,2,100,2|2|2,0:3|0:3|0:2,0:0:0:0:
76,154,15280,6,0,P|127:234|225:234,1,200,0|8,1:0|0:0,0:0:0:0:
259,200,16026,2,0,B|283:304,1,100
466,60,17668,6,0,P|372:39|304:108,1,200,0|8,0:0|0:0,0:0:0:0:
254,111,18414,2,0,L|277:217,1,100,0|0,0:0|0:0,0:0:0:0:
259,256,18862,1,2,3:2:0:0:
36,35,20056,6,0,P|52:81|43:130,1,100,4|0,1:0|0:0,0:0:0:0:
69,226,20653,2,0,P|60:274|76:321,1,100,10|0,0:1|0:0,0:0:0:0:
160,267,21250,2,0,L|268:254,1,100,0|0,1:0|0:0,0:0:0:0:
289,160,21847,2,0,L|240:114,2,50,8|0|0,3:1|3:0|3:0,0:0:0:0:
379,116,22444,6,0,P|412:79|459:66,1,100,4|0,1:2|0:0,0:0:0:0:
508,152,23041,2,0,P|474:188|427:201,1,100,10|0,0:1|0:0,0:0:0:0:
372,284,23638,2,0,B|316:275|316:275|243:294|243:294|173:284,1,200,0|10,1:0|3:2,0:0:0:0:
80,316,24534,1,2,3:2:0:0:
62,223,24832,6,0,P|56:176|35:121,1,100,6|0,1:2|0:0,0:0:0:0:
83,37,25429,2,0,P|131:53|180:49,1,100,10|0,0:1|0:0,0:0:0:0:
276,21,26026,1,0,1:0:0:0:
251,118,26325,1,2,0:0:0:0:
301,204,26623,2,0,L|293:269,2,50,8|0|0,3:1|3:0|3:0,0:0:0:0:
400,190,27220,6,0,B|415:39|415:39|444:83,1,200,4|8,1:0|0:0,0:0:0:0:
500,160,28116,1,4,1:0:0:0:
388,289,28563,1,2,1:2:0:0:
388,289,28713,2,0,L|406:350,2,50,0|2|8,1:0|0:2|0:0,0:0:0:0:
196,348,29608,6,0,P|153:358|97:342,1,100,4|0,1:0|0:0,0:0:0:0:
43,266,30205,2,0,L|13:170,1,100,10|0,0:1|0:0,0:0:0:0:
108,138,30802,2,0,L|137:233,1,100,0|0,1:0|0:0,0:0:0:0:
235,217,31399,2,0,L|241:154,2,50,8|0|0,3:1|3:0|3:0,0:0:0:0:
327,256,31996,6,0,P|349:212|391:186,1,100,4|0,1:2|0:0,0:0:0:0:
461,258,32593,2,0,P|438:301|396:327,1,100,10|0,0:1|0:0,0:0:0:0:
296,345,33190,2,0,B|239:333|239:333|169:346|169:346|102:325,1,200,0|10,1:0|3:2,0:0:0:0:
136,230,34086,1,2,3:2:0:0:
61,161,34384,6,0,B|109:146|140:114|140:114|191:157|191:157|234:140|234:140|267:167|334:152,1,300,2|8,1:2|0:0,0:0:0:0:
396,85,35578,2,0,P|420:133|413:199,1,100,0|0,1:0|0:0,0:0:0:0:
349,249,36175,1,8,3:1:0:0:
213,99,36772,6,0,P|171:74|121:72,1,100,4|8,1:0|0:0,0:0:0:0:
91,167,37369,2,0,P|133:192|183:194,1,100,0|8,1:0|0:0,0:0:0:0:
277,229,37966,2,0,P|319:203|369:201,1,100,2|10,1:2|0:2,0:0:0:0:
402,295,38563,2,0,P|359:320|309:322,1,100,2|10,1:2|1:2,0:0:0:0:
210,306,39160,5,4,1:0:0:0:
32,220,39757,2,0,P|0:296|52:360,2,150,8|0|0,0:0|1:0|1:0,0:0:0:0:
88,136,40951,1,10,0:0:0:0:
237,31,41549,5,0,1:0:0:0:
414,123,42146,2,0,P|384:190|426:247,2,150,8|0|0,0:0|1:0|1:0,0:0:0:0:
337,56,43340,2,0,P|306:94|288:141,1,100,10|0,0:0|0:0,0:0:0:0:
291,241,43937,5,0,1:0:0:0:
130,360,44534,2,0,B|172:331|172:331|286:347,2,150,8|0|0,0:0|1:0|1:0,0:0:0:0:
38,319,45728,1,10,0:0:0:0:
48,119,46325,5,0,1:0:0:0:
226,209,46922,2,0,B|184:238|184:238|70:222,2,150,8|0|0,0:0|1:0|1:0,0:0:0:0:
158,134,48116,2,0,P|174:91|223:57,1,100,8|0,0:0|0:0,0:0:0:0:
306,15,48713,6,0,L|326:79,1,50,2|6,1:2|1:2,0:0:0:0:
421,56,49161,2,0,L|441:120,1,50,2|12,1:2|0:0,0:0:0:0:
352,158,49608,2,0,L|372:222,1,50,0|6,1:0|1:2,0:0:0:0:
467,202,50056,2,0,L|487:266,1,50,2|4,1:2|1:2,0:0:0:0:
413,322,50504,1,8,0:0:0:0:
213,334,51101,6,0,L|193:270,1,50,2|6,1:2|1:2,0:0:0:0:
98,293,51549,2,0,L|78:229,1,50,2|12,1:2|0:2,0:0:0:0:
167,191,51996,2,0,L|147:127,1,50,0|6,1:0|1:2,0:0:0:0:
52,147,52444,2,0,L|32:83,1,50,0|4,1:0|1:2,0:0:0:0:
106,26,52892,1,10,0:0:0:0:
288,23,53489,6,0,L|355:17,1,50,2|6,1:2|1:2,0:0:0:0:
398,99,53937,2,0,L|348:102,1,50,2|12,1:2|0:0,0:0:0:0:
296,188,54384,2,0,L|363:182,1,50,0|6,1:0|1:2,0:0:0:0:
406,264,54832,2,0,L|356:267,1,50,2|4,1:2|1:2,0:0:0:0:
283,336,55280,6,0,B|226:331|226:331|190:346|190:346|130:341,1,150,8|2,0:0|0:2,0:0:0:0:
89,360,55877,6,0,P|88:332|80:304,1,50,2|2,1:2|1:2,0:0:0:0:
164,252,56325,2,0,P|137:225|108:215,1,50,2|2,1:2|1:2,0:0:0:0:
180,130,56772,2,0,P|200:146|236:158,1,50,2|2,1:2|1:2,0:0:0:0:
304,76,57220,2,0,P|312:104|328:128,1,50,2|2,1:2|1:2,0:0:0:0:
425,136,57668,1,0,3:0:0:0:
470,229,57966,1,0,3:0:0:0:
472,333,58265,6,0,P|383:355|346:270,1,200,4|8,3:1|0:0,0:0:0:0:
369,226,59011,2,0,L|262:242,1,100,0|0,1:0|1:0,0:0:0:0:
40,51,60653,6,0,P|129:29|166:114,1,200,6|8,3:1|0:0,0:0:0:0:
143,158,61399,2,0,L|250:142,1,100,2|2,1:0|1:0,0:0:0:0:
362,232,62146,2,0,L|263:246,2,100,2|2|8,0:3|0:3|0:3,0:0:0:0:
349,132,63041,6,0,P|437:165|458:261,1,200,6|8,3:1|0:0,0:0:0:0:
486,301,63787,2,0,B|383:317,1,100,2|2,1:0|1:0,0:0:0:0:
256,192,65429,12,6,66623,3:1:0:0:
184,196,67817,5,4,1:0:0:0:
114,122,68116,2,0,P|110:72|130:25,2,100,8|2|8,0:0|1:1|0:0,0:0:0:0:
85,219,69011,2,0,P|41:242|10:281,1,100,2|8,1:1|0:0,0:0:0:0:
77,357,69608,2,0,P|124:331|156:286,1,100,2|8,1:1|0:0,0:0:0:0:
247,326,70205,5,2,1:1:0:0:
313,249,70504,2,0,L|314:144,2,100,8|2|8,0:0|1:1|0:0,0:0:0:0:
408,276,71399,2,0,P|412:325|438:367,1,100,0|10,1:0|0:1,0:0:0:0:
507,294,71996,2,0,P|502:244|476:202,1,100,2|8,1:1|0:0,0:0:0:0:
390,152,72593,5,2,1:1:0:0:
318,221,72892,2,0,P|275:246|225:244,2,100,8|2|8,0:0|1:1|2:0,0:0:0:0:
249,149,73787,2,0,L|136:128,1,100,0|10,1:0|0:1,0:0:0:0:
170,32,74384,2,0,L|268:49,1,100,0|8,1:0|0:0,0:0:0:0:
362,14,74981,5,2,1:1:0:0:
461,23,75280,1,8,0:0:0:0:
403,104,75578,1,2,1:1:0:0:
502,113,75877,1,8,0:0:0:0:
445,195,76175,2,0,P|417:261|457:321,2,150,4|4|8,1:0|1:0|0:0,0:0:0:0:
255,260,77668,5,8,0:0:0:0:
220,166,77966,2,0,P|200:102|177:72,1,100,6|8,1:1|0:0,0:0:0:0:
80,68,78563,2,0,P|35:116|20:151,1,100,0|10,1:0|0:1,0:0:0:0:
59,239,79160,2,0,P|121:255|159:250,1,100,2|8,1:1|0:0,0:0:0:0:
119,160,79757,5,2,1:1:0:0:
171,74,80056,2,0,L|281:68,2,100,8|2|8,0:0|1:1|0:2,0:0:0:0:
216,163,80951,2,0,P|238:206|231:255,1,100,0|10,1:0|0:1,0:0:0:0:
331,255,81549,2,0,P|323:303|346:347,1,100,2|8,1:1|0:0,0:0:0:0:
425,286,82146,5,2,1:1:0:0:
494,214,82444,1,8,0:0:0:0:
399,179,82743,2,0,L|388:72,1,100,2|8,1:1|0:0,0:0:0:0:
295,44,83340,1,0,1:0:0:0:
202,82,83638,2,0,P|105:80|36:149,1,200,10|10,0:1|0:1,0:0:0:0:
153,197,84534,6,0,P|151:247|263:233,2,200,6|10|2,1:1|0:2|1:1,0:0:0:0:
124,101,86026,1,8,0:0:0:0:
223,115,86325,2,0,L|323:98,1,100,2|8,1:1|1:0,0:0:0:0:
397,33,86922,5,0,1:0:0:0:
400,244,87519,2,0,P|321:203|280:298,1,200,8|0,0:0|1:0,0:0:0:0:
116,136,88713,2,0,P|195:177|236:82,1,200,8|0,0:0|1:0,0:0:0:0:
346,276,89907,6,0,L|143:296,1,200,8|0,1:0|0:0,0:0:0:0:
173,97,91101,2,0,L|289:85,1,100,8|0,1:0|1:0,0:0:0:0:
256,192,91698,5,8,1:0:0:0:
355,198,91996,1,8,1:0:0:0:
455,203,92295,1,4,1:3:0:0:
256,192,92892,5,0,0:0:0:0:
