osu file format v14

[General]
AudioFilename: audio.mp3
AudioLeadIn: 0
PreviewTime: 67519
Countdown: 0
SampleSet: None
StackLeniency: 0.7
Mode: 0
LetterboxInBreaks: 0
WidescreenStoryboard: 0

[Editor]
Bookmarks: 20056,48713,58414,66175
DistanceSpacing: 1.2
BeatDivisor: 4
GridSize: 16
TimelineZoom: 3.099999

[Metadata]
Title:Chirality
TitleUnicode:Chirality
Artist:Camellia
ArtistUnicode:かめりあ
Creator:Suzuki_1112
Version:NiNo's Extra
Source:REFLEC BEAT groovin'!!
Tags:Pending cup #5 1112deng Moecho Moeri Vert LowComboFC LCFC StarrStyx yf_bmp Ryuusei Aika _Stan Kashima fanzhen0019 liaoxingyao SnowNiNo_ Koiyuki Minakami Yuki
BeatmapID:1464587
BeatmapSetID:692068

[Difficulty]
HPDrainRate:6
CircleSize:4.3
OverallDifficulty:9
ApproachRate:9.7
SliderMultiplier:2.3
SliderTickRate:1

[Events]
//Background and Video events
0,0,"BGNINO.jpg",0,0
//Break Periods
//Storyboard Layer 0 (Background)
//Storyboard Layer 1 (Fail)
//Storyboard Layer 2 (Pass)
//Storyboard Layer 3 (Foreground)
//Storyboard Sound Samples
Sample,38862,0,"G#6.wav",50
Sample,38937,0,"G6.wav",50
Sample,39011,0,"D#6.wav",50
Sample,39086,0,"C6.wav",50
Sample,39160,0,"A#5.wav",50
Sample,39310,0,"C6.wav",50
Sample,39608,0,"D#6.wav",50
Sample,39907,0,"F6.wav",50
Sample,40205,0,"A#5.wav",50
Sample,40504,0,"C6.wav",50
Sample,40802,0,"D#6.wav",50
Sample,41101,0,"F6.wav",50
Sample,41399,0,"G6.wav",50
Sample,41549,0,"A#5.wav",50
Sample,41698,0,"C6.wav",50
Sample,41996,0,"D#6.wav",50
Sample,42295,0,"F6.wav",50
Sample,42593,0,"A#5.wav",50
Sample,42892,0,"C6.wav",50
Sample,43190,0,"D#6.wav",50
Sample,43489,0,"A#6.wav",50
Sample,43787,0,"G#6.wav",50
Sample,43937,0,"G6.wav",50
Sample,44086,0,"D#6.wav",50
Sample,44384,0,"A#5.wav",50
Sample,44683,0,"C6.wav",50
Sample,44981,0,"G6.wav",50
Sample,45280,0,"D#6.wav",50
Sample,45578,0,"A#5.wav",50
Sample,45877,0,"C6.wav",50
Sample,46175,0,"F6.wav",50
Sample,46325,0,"G6.wav",50
Sample,46474,0,"D#6.wav",50
Sample,46772,0,"A#5.wav",50
Sample,47071,0,"C6.wav",50
Sample,47369,0,"G6.wav",50
Sample,47668,0,"G#6.wav",50
Sample,47966,0,"D#7.wav",50
Sample,48713,0,"A#5.wav",50
Sample,48862,0,"C6.wav",50
Sample,49160,0,"D#6.wav",50
Sample,49459,0,"F6.wav",50
Sample,49757,0,"A#5.wav",50
Sample,50056,0,"C6.wav",50
Sample,50354,0,"D#6.wav",50
Sample,50653,0,"F6.wav",50
Sample,50951,0,"G6.wav",50
Sample,51101,0,"A#5.wav",50
Sample,51250,0,"C6.wav",50
Sample,51549,0,"D#6.wav",50
Sample,51847,0,"F6.wav",50
Sample,52146,0,"A#5.wav",50
Sample,52444,0,"C6.wav",50
Sample,52743,0,"D#6.wav",50
Sample,53041,0,"A#6.wav",50
Sample,53340,0,"G#6.wav",50
Sample,53489,0,"G6.wav",50
Sample,53638,0,"D#6.wav",50
Sample,53937,0,"A#5.wav",50
Sample,54235,0,"C6.wav",50
Sample,54534,0,"G6.wav",50
Sample,54832,0,"D#6.wav",50
Sample,55131,0,"A#5.wav",50
Sample,55429,0,"C6.wav",50
Sample,55728,0,"F6.wav",50
Sample,55877,0,"G6.wav",50
Sample,56026,0,"D#6.wav",50
Sample,56325,0,"F6.wav",50
Sample,56474,0,"C6.wav",50
Sample,56772,0,"D#6.wav",50
Sample,56922,0,"A#5.wav",50
Sample,57220,0,"F6.wav",50
Sample,57369,0,"A#6.wav",50
Sample,57668,0,"C7.wav",50
Sample,57817,0,"C#7.wav",50
Sample,57966,0,"C7.wav",50
Sample,58116,0,"A#6.wav",50
Sample,58265,0,"C7.wav",50
Sample,67817,0,"F4.wav",50
Sample,67966,0,"G4.wav",50
Sample,68265,0,"G#4.wav",50
Sample,68414,0,"A#4.wav",50
Sample,68713,0,"G#4.wav",50
Sample,68862,0,"C5.wav",50
Sample,69160,0,"A#4.wav",50
Sample,69310,0,"F5.wav",50
Sample,69608,0,"D#5.wav",50
Sample,69757,0,"C5.wav",50
Sample,69907,0,"A#4.wav",50
Sample,70056,0,"G#4.wav",50
Sample,70205,0,"G4.wav",50
Sample,70354,0,"G#4.wav",50
Sample,70653,0,"A#4.wav",50
Sample,70802,0,"C5.wav",50
Sample,71101,0,"A#4.wav",50
Sample,71250,0,"D#5.wav",50
Sample,71549,0,"C5.wav",50
Sample,71698,0,"G#5.wav",50
Sample,71996,0,"G5.wav",50
Sample,72146,0,"D#5.wav",50
Sample,72295,0,"A#4.wav",50
Sample,72444,0,"G#4.wav",50
Sample,72593,0,"F4.wav",50
Sample,72743,0,"G4.wav",50
Sample,73041,0,"G#4.wav",50
Sample,73190,0,"A#4.wav",50
Sample,73489,0,"G#4.wav",50
Sample,73638,0,"C5.wav",50
Sample,73937,0,"A#4.wav",50
Sample,74086,0,"F5.wav",50
Sample,74384,0,"G#5.wav",50
Sample,74534,0,"G5.wav",50
Sample,74683,0,"F5.wav",50
Sample,74832,0,"C5.wav",50
Sample,74981,0,"D#5.wav",50
Sample,75205,0,"A#4.wav",50
Sample,75429,0,"G#4.wav",50
Sample,75578,0,"D#5.wav",50
Sample,75802,0,"A#4.wav",50
Sample,76026,0,"G#4.wav",50
Sample,76175,0,"G4.wav",50
Sample,76325,0,"G#4.wav",50
Sample,76474,0,"A#4.wav",50
Sample,76623,0,"C5.wav",50
Sample,76922,0,"C#5.wav",50
Sample,77071,0,"C5.wav",50
Sample,77220,0,"A#4.wav",50
Sample,77668,0,"G4.wav",50
Sample,77817,0,"G#4.wav",50
Sample,77966,0,"A#4.wav",50
Sample,78265,0,"G#4.wav",50
Sample,78414,0,"C5.wav",50
Sample,78713,0,"A#4.wav",50
Sample,78862,0,"F5.wav",50
Sample,79160,0,"D#5.wav",50
Sample,79310,0,"C5.wav",50
Sample,79459,0,"A#4.wav",50
Sample,79618,0,"G#4.wav",50
Sample,79757,0,"G4.wav",50
Sample,79907,0,"G#4.wav",50
Sample,80205,0,"A#4.wav",50
Sample,80354,0,"C5.wav",50
Sample,80653,0,"A#4.wav",50
Sample,80802,0,"D#5.wav",50
Sample,81101,0,"C5.wav",50
Sample,81250,0,"G#5.wav",50
Sample,81549,0,"G5.wav",50
Sample,81698,0,"D#5.wav",50
Sample,81847,0,"A#4.wav",50
Sample,81996,0,"G#4.wav",50
Sample,82146,0,"F4.wav",50
Sample,82295,0,"G4.wav",50
Sample,82593,0,"G#4.wav",50
Sample,82743,0,"A#4.wav",50
Sample,83041,0,"G#4.wav",50
Sample,83190,0,"C5.wav",50
Sample,83489,0,"A#4.wav",50
Sample,83638,0,"F5.wav",50
Sample,83937,0,"G#5.wav",50
Sample,84086,0,"G5.wav",50
Sample,84235,0,"F5.wav",50
Sample,84384,0,"C5.wav",50
Sample,84534,0,"D#5.wav",50
Sample,84757,0,"A#4.wav",50
Sample,84981,0,"G#4.wav",50
Sample,85131,0,"D#5.wav",50
Sample,85354,0,"A#4.wav",50
Sample,85578,0,"G#4.wav",50
Sample,85728,0,"A#5.wav",50
Sample,85951,0,"F5.wav",50
Sample,86175,0,"D#5.wav",50
Sample,86325,0,"G#5.wav",50
Sample,86549,0,"A#5.wav",50
Sample,86772,0,"C6.wav",50

[TimingPoints]
952,298.507462686567,4,2,1,50,1,0
952,-166.666666666667,4,2,1,50,0,0
1101,-166.666666666667,4,2,1,70,0,0
10504,-66.6666666666667,4,3,3,70,0,0
11250,-50,4,3,3,70,0,0
11698,-50,4,3,3,5,0,0
11996,-50,4,3,1,70,0,0
12892,-66.6666666666667,4,3,3,70,0,0
13489,-50,4,3,3,70,0,0
14086,-50,4,3,3,5,0,0
14235,-50,4,3,1,70,0,0
14384,-166.666666666667,4,3,1,70,0,0
15280,-66.6666666666667,4,3,3,70,0,0
16026,-50,4,3,3,70,0,0
16474,-50,4,3,3,5,0,0
16772,-50,4,3,3,70,0,0
17668,-66.6666666666667,4,3,3,70,0,0
18862,-333.333333333333,4,3,3,70,0,0
19011,-333.333333333333,4,3,1,70,0,0
19608,-40,4,3,1,70,0,0
20056,-40,4,3,2,70,0,0
20653,-33.3333333333333,4,3,2,70,0,0
20802,-66.6666666666667,4,3,2,70,0,0
21250,-40,4,3,2,70,0,0
21847,-66.6666666666667,4,3,2,70,0,0
22146,-40,4,3,2,70,0,0
23041,-33.3333333333333,4,3,2,70,0,0
23190,-66.6666666666667,4,3,2,70,0,0
23638,-50,4,3,2,70,0,0
24086,-50,4,3,1,70,0,0
24235,-100,4,3,1,70,0,0
24832,-40,4,3,2,70,0,0
25429,-33.3333333333333,4,3,2,70,0,0
25578,-66.6666666666667,4,3,2,70,0,0
26026,-40,4,3,2,70,0,0
26325,-33.3333333333333,4,3,2,70,0,0
26623,-50,4,3,2,70,0,0
26922,-40,4,3,2,70,0,0
27220,-66.6666666666667,4,3,1,70,0,0
27817,-40,4,3,1,70,0,0
28116,-50,4,3,1,70,0,0
28563,-33.3333333333333,4,3,1,70,0,0
28713,-50,4,3,1,70,0,0
29011,-40,4,3,1,70,0,0
29310,-33.3333333333333,4,3,1,70,0,0
29608,-40,4,3,2,70,0,0
30205,-33.3333333333333,4,3,2,70,0,0
30354,-66.6666666666667,4,3,2,70,0,0
30802,-40,4,3,2,70,0,0
31399,-66.6666666666667,4,3,2,70,0,0
31698,-40,4,3,2,70,0,0
32593,-33.3333333333333,4,3,2,70,0,0
32743,-66.6666666666667,4,3,2,70,0,0
33190,-40,4,3,2,70,0,0
33638,-40,4,3,1,70,0,0
33787,-100,4,3,1,70,0,0
34384,-40,4,3,2,70,0,0
34683,-100,4,3,2,70,0,0
34981,-100,4,3,1,70,0,0
35131,-100,4,3,2,70,0,0
35280,-40,4,3,2,70,0,0
35802,-100,4,3,2,70,0,0
36026,-50,4,3,2,70,0,0
36175,-40,4,3,2,70,0,0
36772,-50,4,3,1,70,0,0
37966,-40,4,3,1,70,0,0
38563,-50,4,3,1,70,0,0
39160,-100,4,3,1,70,0,0
45877,-50,4,3,1,70,0,0
46175,-100,4,3,1,70,0,0
48713,-100,4,3,3,70,0,0
55280,-50,4,3,2,70,0,0
55877,-50,4,3,3,70,0,0
56325,-66.6666666666667,4,3,3,70,0,0
56772,-100,4,3,3,70,0,0
57220,-66.6666666666667,4,3,3,70,0,0
57369,-50,4,3,3,70,0,0
58265,-66.6666666666667,4,3,3,70,0,0
59011,-50,4,3,3,70,0,0
59459,-50,4,3,3,5,0,0
59608,-50,4,3,1,70,0,0
60653,-66.6666666666667,4,3,3,70,0,0
61399,-50,4,3,3,70,0,0
61847,-50,4,3,1,70,0,0
62146,-166.666666666667,4,3,1,70,0,0
63041,-66.6666666666667,4,3,3,70,0,0
63787,-50,4,3,3,70,0,0
64235,-66.6666666666667,4,3,3,70,0,0
66623,-333.333333333333,4,3,3,70,0,0
66772,-333.333333333333,4,3,1,70,0,0
66922,-50,4,3,1,70,0,0
66996,-50,4,3,1,70,0,0
67220,-50,4,3,1,70,0,0
67817,-83.3333333333333,4,3,1,70,0,1
76175,-83.3333333333333,4,3,3,70,0,1
77369,-40,4,1,2,70,0,0
77668,-83.3333333333333,4,3,1,70,0,1
86922,-83.3333333333333,4,3,3,70,0,0
92444,-83.3333333333333,4,3,1,70,0,0
92892,-83.3333333333333,4,2,1,50,0,0
96772,333.333333333333,4,2,1,50,1,0
96938,342.857142857143,4,2,1,50,1,0
97109,387.096774193548,4,2,1,50,1,0
97302,413.793103448276,4,2,1,50,1,0
97508,470.588235294118,4,2,1,50,1,0
97743,585.365853658537,4,2,1,50,1,0

[Colours]
Combo1 : 255,255,0
Combo2 : 192,192,192
Combo3 : 128,128,128
Combo4 : 0,255,255
Combo5 : 0,0,255
Combo6 : 255,0,0
Combo7 : 255,128,64

[HitObjects]
102,182,952,5,2,0:0:0:0:
166,130,1101,2,0,L|155:44,2,68.9999978942872,0|0|0,0:0|0:0|0:0,0:0:0:0:
184,211,1549,1,0,0:0:0:0:
248,159,1698,1,2,0:0:0:0:
266,240,1847,1,0,0:0:0:0:
248,159,1996,1,2,0:0:0:0:
184,211,2146,1,2,0:0:0:0:
266,240,2295,6,0,L|340:232,1,68.9999978942872,2|0,0:0|0:0,0:0:0:0:
378,162,2593,1,2,0:0:0:0:
360,160,2668,1,0,0:0:0:0:
343,158,2742,1,2,0:0:0:0:
326,156,2817,1,0,0:0:0:0:
309,154,2892,2,0,L|240:146,1,68.9999978942872,0|0,0:0|0:0,0:0:0:0:
157,140,3191,1,0,0:0:0:0:
128,218,3340,85,0,0:0:0:0:
193,271,3489,1,0,0:0:0:0:
262,225,3638,1,0,0:0:0:0:
157,140,3787,1,2,0:0:0:0:
240,146,3937,2,0,L|309:154,1,68.9999978942872,0|2,0:0|0:0,0:0:0:0:
393,148,4235,1,2,0:0:0:0:
422,226,4384,5,0,0:0:0:0:
357,279,4533,1,0,0:0:0:0:
288,233,4682,1,2,0:0:0:0:
393,148,4832,1,2,0:0:0:0:
391,130,4906,1,2,0:0:0:0:
385,114,4981,1,2,0:0:0:0:
376,99,5055,1,2,0:0:0:0:
365,87,5130,1,2,0:0:0:0:
350,77,5205,1,0,0:0:0:0:
334,71,5279,85,2,0:0:0:0:
309,154,5429,1,2,0:0:0:0:
393,148,5578,1,2,0:0:0:0:
367,230,5728,6,0,P|329:251|293:251,1,68.9999978942872,0|0,0:0|0:0,0:0:0:0:
240,202,6026,1,0,0:0:0:0:
170,246,6176,1,0,0:0:0:0:
192,327,6325,1,0,0:0:0:0:
274,328,6474,1,2,0:0:0:0:
304,252,6623,1,0,0:0:0:0:
240,202,6772,86,0,P|213:172|168:161,1,68.9999978942872,0|0,0:0|0:0,0:0:0:0:
108,190,7071,1,0,0:0:0:0:
170,246,7220,1,0,0:0:0:0:
187,162,7369,1,2,0:0:0:0:
179,146,7443,1,0,0:0:0:0:
168,132,7518,1,0,0:0:0:0:
155,121,7592,1,0,0:0:0:0:
140,113,7667,1,0,0:0:0:0:
124,107,7742,1,0,0:0:0:0:
107,105,7817,6,0,P|69:113|32:146,1,68.9999978942872,0|0,0:0|0:0,0:0:0:0:
28,211,8116,1,0,0:0:0:0:
108,190,8265,1,0,0:0:0:0:
92,271,8414,1,0,0:0:0:0:
44,130,8563,1,2,0:0:0:0:
108,190,8713,2,0,P|143:202|168:240,1,68.9999978942872,0|2,0:0|0:0,0:0:0:0:
162,308,9011,1,2,0:0:0:0:
235,346,9160,85,2,0:0:0:0:
314,320,9309,1,2,0:0:0:0:
314,237,9458,1,8,0:0:0:0:
313,226,9533,1,8,0:0:0:0:
312,216,9608,1,0,0:0:0:0:
311,206,9682,1,0,0:0:0:0:
310,195,9757,1,8,0:0:0:0:
309,185,9832,1,8,0:0:0:0:
308,175,9906,1,0,0:0:0:0:
307,164,9981,1,0,0:0:0:0:
306,154,10056,1,0,0:0:0:0:
305,144,10130,1,0,0:0:0:0:
304,133,10205,6,0,B|306:81|306:81|273:27,1,103.499996841431,0|0,0:0|0:0,0:0:0:0:
173,98,10504,6,0,B|135:38|135:38|116:171|116:171|176:249|176:249|145:378|145:378|138:333|109:298|57:282|10:307,1,603.750023031236,6|0,0:0|0:0,0:0:0:0:
21,301,11101,1,8,0:0:0:0:
395,252,11250,6,0,B|440:240|441:157|362:153|323:183|285:204|281:275|308:346|398:355|428:323,1,345,6|0,0:0|0:0,0:0:0:0:
398,336,11549,1,6,0:0:0:0:
343,111,12892,86,0,B|403:122|453:87|453:87|332:219|283:75|186:98|108:147|108:147|171:92|167:48,1,603.750023031236,6|0,0:0|0:0,0:0:0:0:
167,51,13489,1,8,0:0:0:0:
173,307,13638,6,0,B|90:303|90:303|209:214|209:214|282:331,1,345,6|0,0:0|0:0,0:0:0:0:
268,310,13937,1,6,0:0:0:0:
491,365,14384,54,0,L|486:319,1,34.4999989471436,8|0,2:0|0:0,0:0:0:0:
411,303,14534,1,8,2:0:0:0:
412,285,14608,1,8,2:0:0:0:
414,268,14683,2,0,L|417:233,1,34.4999989471436,8|8,2:0|2:0,0:0:0:0:
338,209,14832,2,0,L|334:174,1,34.4999989471436,8|8,2:0|2:0,0:0:0:0:
263,131,14982,1,8,2:0:0:0:
264,113,15056,1,0,0:0:0:0:
266,96,15131,1,0,0:0:0:0:
268,79,15205,1,0,0:0:0:0:
270,62,15280,22,0,B|243:43|232:7|232:7|243:84|242:196|167:251|167:251|256:203|376:210|376:210|341:187|319:157,1,603.750023031236,6|0,0:0|0:0,0:0:0:0:
334,175,15877,1,8,0:0:0:0:
143,157,16026,6,0,B|56:88|56:88|91:319,1,345,6|0,0:0|0:0,0:0:0:0:
91,319,16325,1,6,0:0:0:0:
123,181,17668,86,0,B|104:153|57:118|57:118|172:181|172:181|252:125|252:125|317:129|420:169|420:169|321:112,1,603.750023031236,6|0,0:0|0:0,0:0:0:0:
325,114,18265,1,8,0:0:0:0:
328,274,18414,1,6,0:0:0:0:
285,278,18488,1,2,0:0:0:0:
242,282,18563,1,2,0:0:0:0:
199,286,18637,1,2,0:0:0:0:
156,291,18712,1,6,0:0:0:0:
113,295,18787,1,2,0:0:0:0:
70,299,18862,70,0,P|40:268|86:293,1,155.249995262146,2|0,0:0|0:0,0:0:0:0:
90,288,19608,54,0,B|74:256|74:256|90:224|90:224|74:192|74:192|90:160|90:160|74:128|74:128|90:96|90:96|74:64|74:64|90:32|90:32|74:0,1,287.5,2|4,1:0|1:0,0:0:0:0:
236,15,19907,1,0,0:0:0:0:
257,149,20056,6,0,B|239:122|182:102|182:102|234:115|234:115|283:107|283:107|327:121|327:121|376:113|376:113|427:132|427:132|469:122|469:122|421:99,1,431.25,6|0,3:0|0:0,0:0:0:0:
428,102,20354,6,0,B|452:168|452:168|447:260,1,143.75,0|0,0:0|0:0,0:0:0:0:
231,305,20504,1,0,0:0:0:0:
231,305,20578,1,0,0:0:0:0:
231,305,20653,86,0,B|274:341|274:341|241:200,1,172.500006580353,8|0,0:2|0:0,0:0:0:0:
282,115,20802,5,0,0:0:0:0:
299,121,20877,2,0,P|337:152|354:193,1,86.2500032901765,2|0,0:2|0:0,0:0:0:0:
166,143,21026,1,0,0:0:0:0:
153,155,21101,2,0,P|131:199|134:244,1,86.2500032901765,2|0,0:2|0:0,0:0:0:0:
201,64,21250,86,0,B|226:43|247:14|247:14|222:78|226:147|226:147|260:211|260:211|238:245|231:305|231:305|222:266|205:243,1,431.25,6|0,1:0|0:0,0:0:0:0:
94,143,21549,2,0,B|185:146|308:200|404:291|404:291|367:229|354:195,1,431.25,0|0,0:0|0:0,0:0:0:0:
355,48,21847,6,0,P|341:90|335:145,1,86.2500032901765,4|0,0:2|0:0,0:0:0:0:
255,359,21996,2,0,P|241:317|235:262,1,86.2500032901765,0|0,0:0|0:0,0:0:0:0:
155,213,22146,86,0,B|206:147|344:125|319:311|449:294|481:222|481:222|465:236|430:233,1,431.25,0|0,0:0|0:0,0:0:0:0:
148,75,22444,6,0,B|120:57|76:56|76:56|139:48|180:29|180:29|210:60|268:69|268:69|311:51|362:56|362:56|298:33,1,431.25,2|0,0:0|0:0,0:0:0:0:
311,37,22743,86,0,B|293:105|293:105|313:198,1,143.75,0|0,0:0|0:0,0:0:0:0:
182,271,22892,1,0,0:0:0:0:
182,271,22966,1,0,0:0:0:0:
182,271,23041,6,0,B|236:257|236:257|290:284|290:284|345:271,1,172.500006580353,8|0,0:2|0:0,0:0:0:0:
219,180,23190,85,0,0:0:0:0:
199,175,23265,2,0,L|107:152,1,86.2500032901765,2|0,0:2|0:0,0:0:0:0:
228,347,23414,1,0,0:0:0:0:
248,352,23489,2,0,L|340:375,1,86.2500032901765,2|2,0:2|0:0,0:0:0:0:
304,216,23638,6,0,B|325:197|348:190|348:190|352:166|377:147|377:147|362:118|369:87|369:87|341:77|326:50|326:50|298:55|275:42|275:42|271:59|271:59|260:44|260:44|255:61|255:61|244:47|244:47|239:64|239:64|229:49|229:49|223:66|223:66|213:52|213:52|207:69|207:69|197:54|197:54|192:71|192:71|181:57|181:57|176:74|176:74|165:59|165:59|160:76|160:76|150:62|150:62|144:79,1,575,6|0,1:0|0:0,0:0:0:0:
79,152,24086,1,2,0:2:0:0:
79,152,24160,1,0,0:0:0:0:
79,152,24235,6,0,L|88:272,1,115,8|0,0:0|0:0,0:0:0:0:
416,360,24534,2,0,L|425:240,1,115,0|0,0:0|0:0,0:0:0:0:
380,116,24832,70,0,B|463:131|463:131|359:77|359:77|290:112|290:112|192:81|192:81|258:75,1,431.25,6|0,0:0|0:0,0:0:0:0:
241,76,25131,6,0,B|262:149|262:149|240:225,1,143.75,0|0,0:0|0:0,0:0:0:0:
106,335,25280,1,0,0:0:0:0:
106,335,25354,1,0,0:0:0:0:
106,335,25429,86,0,B|134:362|134:362|129:208,1,172.500006580353,8|0,0:2|0:0,0:0:0:0:
121,40,25578,5,0,0:0:0:0:
122,66,25653,2,0,L|126:166,1,86.2500032901765,2|0,0:2|0:0,0:0:0:0:
250,323,25802,1,0,0:0:0:0:
247,300,25877,2,0,L|243:200,1,86.2500032901765,2|0,0:2|0:0,0:0:0:0:
228,110,26026,86,0,B|294:108|324:51|324:51|321:112|309:181|244:214|244:214|312:186|386:212,1,431.25,6|0,1:0|0:0,0:0:0:0:
184,266,26325,86,0,B|154:284|154:284|122:272|122:272|92:291|92:291|60:278|60:278|31:297,1,172.500006580353,0|0,0:0|0:0,0:0:0:0:
328,118,26474,2,0,B|357:136|357:136|389:124|389:124|419:143|419:143|451:130|451:130|480:149,1,172.500006580353,0|0,0:0|0:0,0:0:0:0:
188,129,26623,6,0,B|163:77|163:77|177:7,1,115,4|0,0:2|0:0,0:0:0:0:
324,255,26772,2,0,B|349:307|349:307|335:377,1,115,0|0,0:0|0:0,0:0:0:0:
93,197,26922,6,0,B|200:220|200:220|311:163|311:163|438:197|438:197|398:181|362:153,1,431.25,0|0,0:0|0:0,0:0:0:0:
380,166,27220,85,6,0:0:0:0:
292,248,27369,2,0,B|373:290|373:290|463:256,1,172.500006580353,0|0,0:0|0:0,0:0:0:0:
374,135,27668,1,0,0:0:0:0:
240,259,27817,6,0,B|370:328|370:328|501:273,1,287.5,8|2,0:0|0:0,0:0:0:0:
264,146,28116,86,0,B|240:259|240:259|245:177|224:117|224:117|265:97|288:60|288:60|342:88|346:129|346:129|388:117|436:123|436:123|385:151,1,575,6|0,0:0|0:0,0:0:0:0:
159,136,28563,6,0,B|179:194|172:253|172:253|158:222|134:207,1,172.500006580353,2|0,0:0|0:0,0:0:0:0:
97,81,28713,86,0,B|145:60|170:35|170:35|216:74|324:78|324:78|299:93|227:108,1,345,2|0,0:0|0:0,0:0:0:0:
292,208,29011,6,0,B|258:297|258:297|233:109,1,287.5,8|0,0:0|0:0,0:0:0:0:
397,144,29310,86,0,B|423:150|438:136|438:136|445:159|461:172|461:172|456:192|463:215|463:215|440:212|426:233,1,172.500006580353,2|0,0:2|0:0,0:0:0:0:
303,218,29459,1,0,0:0:0:0:
303,218,29534,1,0,0:0:0:0:
303,218,29608,6,0,B|367:212|367:212|263:169|263:169|212:209|212:209|94:219|94:219|156:178,1,431.25,6|0,0:0|0:0,0:0:0:0:
153,179,29907,86,0,B|183:246|183:246|165:332,1,143.75,0|0,0:0|0:0,0:0:0:0:
11,364,30056,1,0,0:0:0:0:
11,364,30131,1,0,0:0:0:0:
11,364,30205,6,0,B|20:321|20:321|51:302|51:302|58:254|58:254|28:216,1,172.500006580353,8|0,0:2|0:0,0:0:0:0:
40,120,30354,85,0,0:0:0:0:
60,122,30429,2,0,P|106:149|129:195,1,86.2500032901765,2|0,0:2|0:0,0:0:0:0:
152,324,30578,1,0,0:0:0:0:
169,313,30653,2,0,P|186:273|184:231,1,86.2500032901765,2|0,0:2|0:0,0:0:0:0:
216,125,30802,6,0,B|272:147|300:182|302:252|275:295|275:295|342:206|409:218|409:218|377:229|357:262,1,431.25,6|0,1:0|0:0,0:0:0:0:
387,352,31101,2,0,P|312:343|459:245,1,431.25,0|0,0:0|0:0,0:0:0:0:
361,255,31399,86,0,P|309:251|260:226,1,86.2500032901765,4|0,0:2|0:0,0:0:0:0:
60,121,31549,2,0,P|100:105|143:104,1,86.2500032901765,0|0,0:0|0:0,0:0:0:0:
202,22,31698,6,0,B|262:61|268:143|260:210|114:226|113:340|194:391|251:375|253:324|246:296|210:307,1,431.25,0|0,0:0|0:0,0:0:0:0:
109,240,31996,86,0,B|97:275|101:326|101:326|80:259|45:221|45:221|102:158|132:65|132:65|157:138,1,431.25,2|0,0:0|0:0,0:0:0:0:
146,106,32295,6,0,B|78:123|78:123|2:90,1,143.75,0|0,0:0|0:0,0:0:0:0:
202,22,32444,1,0,0:0:0:0:
202,22,32519,1,0,0:0:0:0:
202,22,32593,86,0,B|229:107|229:107|133:106,1,172.500006580353,8|0,0:2|0:0,0:0:0:0:
312,147,32743,5,0,0:0:0:0:
321,121,32817,2,0,L|350:33,1,86.2500032901765,2|0,0:2|0:0,0:0:0:0:
181,214,32966,1,0,0:0:0:0:
173,188,33041,2,0,L|144:100,1,86.2500032901765,2|0,0:2|0:0,0:0:0:0:
325,290,33190,86,0,B|353:217|353:217|347:302|389:358|389:358|289:306|145:326|145:326|209:324|265:359,1,575,6|0,1:0|0:0,0:0:0:0:
466,340,33638,1,2,0:2:0:0:
466,340,33713,1,0,0:0:0:0:
466,340,33787,22,0,L|475:220,1,115,8|0,0:0|0:0,0:0:0:0:
499,18,34086,2,0,L|508:138,1,115,8|0,0:0|0:0,0:0:0:0:
383,238,34384,54,0,B|375:183|394:110|394:110|366:179|291:207|291:207|357:252|376:342,1,431.25,6|0,0:0|0:0,0:0:0:0:
299,346,34683,38,0,B|286:297|250:275|250:275|236:314|262:369,1,172.5,8|0,1:0|0:0,0:0:0:0:
182,351,34981,70,0,L|162:350,4,14.375,8|0|0|0|8,2:0|0:0|0:0|0:0|2:0,0:0:0:0:
179,333,35131,1,2,0:0:0:0:
176,316,35205,1,2,0:0:0:0:
173,298,35280,6,0,B|148:214|81:172|81:172|152:208|214:190|214:190|263:241|338:244,1,431.25,8|0,0:0|0:0,0:0:0:0:
462,32,35578,1,2,0:0:0:0:
433,36,35653,1,2,0:0:0:0:
404,40,35728,1,2,0:0:0:0:
375,44,35802,6,0,B|317:48|317:48|262:81,1,115,2|0,0:0|0:0,0:0:0:0:
369,25,36026,54,0,B|311:29|311:29|256:62,1,115,2|0,0:0|0:0,0:0:0:0:
173,157,36175,6,0,P|208:120|145:134,1,143.75,4|0,0:2|0:0,0:0:0:0:
365,290,36325,2,0,P|330:253|393:267,1,143.75,0|0,0:0|0:0,0:0:0:0:
262,58,36474,2,0,B|312:113|302:199|212:198|230:305|306:357,1,287.5,0|0,0:0|0:0,0:0:0:0:
173,157,36772,6,0,B|99:150|99:150|185:97|185:97|251:149|251:149|368:153,1,345,6|0,0:0|0:0,0:0:0:0:
500,146,37071,2,0,B|430:59|430:59|404:318,1,345,8|0,0:0|0:0,0:0:0:0:
248,334,37369,86,0,B|263:279|230:239|230:239|304:259|349:202|349:202|352:263|410:293,1,345,2|0,0:0|0:0,0:0:0:0:
259,141,37668,2,0,B|164:156|164:156|116:279|116:279|70:156,1,345,8|0,0:0|0:0,0:0:0:0:
348,23,37966,6,0,B|366:128|366:128|407:183|407:183|387:249|387:249|401:363|401:363|408:273,1,431.25,2|0,0:0|0:0,0:0:0:0:
163,261,38265,2,0,B|24:242|24:242|325:199,1,431.25,8|0,0:0|0:0,0:0:0:0:
507,174,38563,86,0,L|372:192,1,115,2|0,0:0|0:0,0:0:0:0:
184,100,38713,2,0,L|319:118,1,115,2|0,0:0|0:0,0:0:0:0:
316,294,38862,1,8,0:0:0:0:
259,300,38936,1,8,0:0:0:0:
202,309,39011,1,8,0:0:0:0:
145,316,39085,1,8,0:0:0:0:
88,324,39160,21,6,0:0:0:0:
43,194,39310,2,0,L|178:212,1,115,2|0,0:0|0:0,0:0:0:0:
373,286,39608,2,0,L|238:304,1,115,2|8,0:0|0:0,0:0:0:0:
248,106,39907,1,0,0:0:0:0:
351,198,40056,1,2,0:0:0:0:
157,209,40205,22,0,L|43:224,1,115,2|0,0:0|0:0,0:0:0:0:
113,78,40504,1,2,0:0:0:0:
248,106,40653,1,2,0:0:0:0:
157,209,40802,1,0,0:0:0:0:
190,49,40951,1,8,0:0:0:0:
234,180,41101,2,0,P|238:221|230:255,1,57.5,0|0,0:0|0:0,0:0:0:0:
99,152,41250,2,0,P|78:185|75:222,1,57.5,0|0,0:0|0:0,0:0:0:0:
136,310,41399,1,2,0:0:0:0:
136,310,41474,1,2,0:0:0:0:
136,310,41549,69,2,0:0:0:0:
235,236,41698,2,0,L|362:223,1,115,2|0,0:0|0:0,0:0:0:0:
99,152,41996,1,2,0:0:0:0:
218,317,42146,2,0,L|345:304,1,115,8|0,0:0|0:0,0:0:0:0:
181,159,42444,1,2,0:0:0:0:
136,310,42593,22,0,P|81:284|50:222,1,115,2|0,0:0|0:0,0:0:0:0:
195,64,42892,2,0,P|250:90|281:152,1,115,2|0,0:0|0:0,0:0:0:0:
332,305,43190,69,2,0:0:0:0:
343,278,43264,1,0,0:0:0:0:
360,255,43339,1,8,0:0:0:0:
382,237,43413,1,2,0:2:0:0:
409,226,43488,1,2,0:2:0:0:
388,246,43563,1,2,0:2:0:0:
363,259,43638,1,2,0:2:0:0:
335,266,43712,1,2,0:2:0:0:
306,264,43787,1,2,0:2:0:0:
279,255,43862,1,2,0:2:0:0:
256,238,43937,22,0,P|237:200|234:171,1,57.5,2|0,0:0|0:0,0:0:0:0:
152,56,44086,2,0,P|145:120|113:178,1,115,2|0,0:0|0:0,0:0:0:0:
94,272,44384,1,2,0:0:0:0:
234,186,44534,2,0,P|298:167|350:166,1,115,8|0,0:0|0:0,0:0:0:0:
205,294,44832,1,2,0:0:0:0:
123,165,44981,70,0,L|130:33,1,115,2|0,0:0|0:0,0:0:0:0:
228,307,45280,1,2,0:0:0:0:
92,174,45429,2,0,L|99:42,1,115,2|0,0:0|0:0,0:0:0:0:
248,247,45728,2,0,L|251:313,1,57.5,8|0,0:0|0:0,0:0:0:0:
303,182,45877,22,0,B|249:160|249:160|191:183,1,115,0|0,0:0|0:0,0:0:0:0:
197,369,46026,2,0,B|251:391|251:391|309:368,1,115,0|0,0:0|0:0,0:0:0:0:
135,278,46175,1,2,0:0:0:0:
135,278,46250,1,2,0:0:0:0:
135,278,46325,69,2,0:0:0:0:
346,277,46474,2,0,L|474:273,1,115,2|0,0:0|0:0,0:0:0:0:
248,247,46772,1,2,0:0:0:0:
370,381,46922,2,0,B|380:331|380:331|341:268,1,115,8|0,0:0|0:0,0:0:0:0:
283,350,47220,1,2,0:0:0:0:
461,373,47369,22,0,B|473:315|473:315|379:164,2,230,2|2|2,0:0|0:0|0:0,0:0:0:0:
347,277,48116,2,0,B|261:227|261:317|171:279,1,172.5,8|0,0:0|0:0,0:0:0:0:
209,205,48414,2,0,L|214:180,12,14.375,0|0|0|0|0|0|0|0|0|0|0|0|0,0:0|0:0|0:0|0:0|0:0|0:0|0:0|0:0|0:0|0:0|0:0|0:0|0:0,0:0:0:0:
111,232,48713,38,0,P|93:273|95:302,1,57.5,6|0,0:0|0:0,0:0:0:0:
139,129,48862,2,0,P|120:95|35:58,1,115,6|0,0:0|0:0,0:0:0:0:
209,205,49160,1,2,0:0:0:0:
237,102,49310,2,0,L|357:86,1,115,8|0,0:0|0:0,0:0:0:0:
266,213,49608,2,0,L|209:205,1,57.5,6|0,0:0|0:0,0:0:0:0:
378,164,49757,22,0,L|498:148,1,115,6|0,0:0|0:0,0:0:0:0:
260,296,50056,2,0,L|203:288,1,57.5,2|0,0:0|0:0,0:0:0:0:
394,244,50205,2,0,L|450:236,1,57.5,8|0,0:0|0:0,0:0:0:0:
356,343,50354,1,0,0:0:0:0:
209,205,50504,2,0,L|215:139,1,57.5,2|2,0:2|0:2,0:0:0:0:
51,246,50653,1,0,0:2:0:0:
51,246,50728,1,0,0:2:0:0:
51,246,50802,2,0,L|63:388,1,115,2|2,0:2|0:2,0:0:0:0:
97,158,51101,70,0,P|63:142|40:144,1,57.5,6|0,0:0|0:0,0:0:0:0:
142,279,51250,2,0,P|211:269|260:232,1,115,6|0,0:0|0:0,0:0:0:0:
206,136,51549,1,2,0:0:0:0:
248,245,51698,2,0,P|304:265|364:261,1,115,8|0,0:0|0:0,0:0:0:0:
374,164,51996,1,6,0:0:0:0:
248,245,52146,22,0,P|192:269|159:332,1,115,6|0,0:0|0:0,0:0:0:0:
346,73,52444,2,0,P|417:79|460:120,1,115,2|2,0:0|0:0,0:0:0:0:
380,221,52743,2,0,L|371:141,1,57.5,0|0,0:0|0:2,0:0:0:0:
266,166,52892,1,8,0:0:0:0:
270,194,52966,1,2,0:2:0:0:
263,222,53041,1,2,0:2:0:0:
248,245,53115,1,2,0:2:0:0:
224,262,53190,1,2,0:2:0:0:
197,269,53265,1,2,0:2:0:0:
168,266,53339,1,2,0:2:0:0:
143,253,53414,1,2,0:2:0:0:
124,231,53489,70,0,L|115:164,1,57.5,6|0,0:0|0:0,0:0:0:0:
21,25,53638,2,0,L|3:152,1,115,6|0,0:0|0:0,0:0:0:0:
30,259,53937,1,2,0:0:0:0:
177,76,54086,2,0,L|194:203,1,115,8|0,0:0|0:0,0:0:0:0:
23,316,54384,2,0,L|35:220,1,57.5,6|0,0:0|0:0,0:0:0:0:
265,132,54534,22,0,L|282:259,1,115,6|0,0:0|0:0,0:0:0:0:
111,357,54832,2,0,L|123:261,1,57.5,2|0,0:0|0:0,0:0:0:0:
353,173,54982,2,0,L|370:300,1,115,8|0,0:0|0:0,0:0:0:0:
192,176,55280,54,0,B|172:194|149:230|149:230|188:156|187:73|187:73|225:115|265:132|265:132|288:73|370:55|417:98|417:98|383:88|337:100,1,575,8|0,1:0|0:0,0:0:0:0:
353,173,55728,1,0,0:0:0:0:
242,32,55877,38,0,L|372:17,1,115,4|0,0:0|0:0,0:0:0:0:
351,250,56026,2,0,L|90:219,1,230,4|0,0:0|0:0,0:0:0:0:
254,45,56325,70,0,L|366:31,1,86.2500032901765,4|0,0:0|0:0,0:0:0:0:
348,234,56474,2,0,L|155:211,1,172.500006580353,4|0,0:0|0:0,0:0:0:0:
268,56,56772,22,0,L|344:47,1,57.5,4|0,0:0|0:0,0:0:0:0:
344,220,56921,2,0,L|212:204,1,115,4|0,0:0|0:0,0:0:0:0:
254,45,57220,70,0,L|366:31,1,86.2500032901765,4|0,0:0|0:0,0:0:0:0:
351,250,57369,22,0,B|117:224|117:224|222:179,1,345,4|0,0:0|0:0,0:0:0:0:
282,119,57668,1,2,0:0:0:0:
359,157,57817,1,4,0:0:0:0:
351,250,57966,1,0,0:0:0:0:
257,259,58116,1,0,0:0:0:0:
257,259,58190,1,0,0:0:0:0:
257,259,58265,22,0,B|212:267|169:261|169:261|214:304|214:304|258:295|314:303|314:303|352:250|352:250|426:236|502:255|502:255|430:220|391:149,1,603.750023031236,4|0,0:0|0:0,0:0:0:0:
401,166,58862,1,8,0:0:0:0:
251,66,59011,6,0,B|257:43|270:25|270:25|221:68|166:66|166:66|207:96|213:176|213:176|200:142|166:131,1,345,6|0,0:0|0:0,0:0:0:0:
171,133,59310,1,6,0:0:0:0:
137,156,60653,86,0,B|166:115|178:55|178:55|165:198|232:307|232:307|165:242|122:243|122:243|109:299|57:326,1,603.750023031236,6|0,0:0|0:0,0:0:0:0:
62,322,61250,1,8,0:0:0:0:
307,352,61399,6,0,B|323:299|288:236|288:236|356:323|502:361,1,345,6|0,0:0|0:0,0:0:0:0:
474,353,61698,1,6,0:0:0:0:
487,60,62146,54,0,L|440:54,1,34.4999989471436,8|0,0:2|0:0,0:0:0:0:
431,121,62295,1,8,0:2:0:0:
414,123,62369,1,8,0:2:0:0:
396,124,62444,2,0,L|349:129,1,34.4999989471436,8|0,0:2|0:0,0:0:0:0:
335,191,62593,2,0,L|288:185,1,34.4999989471436,8|8,0:2|0:2,0:0:0:0:
261,245,62743,1,8,0:2:0:0:
243,246,62817,1,0,0:0:0:0:
226,248,62892,1,8,0:2:0:0:
209,250,62966,1,0,0:0:0:0:
192,252,63041,22,0,B|133:227|78:252|78:252|150:205|169:129|169:129|285:57|301:225|406:143|406:143|378:159|326:147,1,603.750023031236,6|0,0:0|0:0,0:0:0:0:
340,149,63638,1,8,0:0:0:0:
384,246,63787,6,0,B|273:242|273:242|333:311|333:311|370:339|421:340|453:304|463:276|462:264,1,345,6|0,0:0|0:0,0:0:0:0:
455,285,64086,1,6,0:0:0:0:
133,107,65429,86,0,B|53:76|53:76|143:96|219:62|219:62|233:107|233:107|312:79|434:100|434:100|367:96|325:120,1,603.750023031236,6|0,0:0|0:0,0:0:0:0:
337,113,66026,1,8,0:0:0:0:
360,270,66175,1,6,0:0:0:0:
317,274,66249,1,2,0:0:0:0:
274,279,66324,1,2,0:0:0:0:
231,284,66398,1,2,0:0:0:0:
188,289,66473,1,6,0:0:0:0:
145,294,66548,1,2,0:0:0:0:
102,299,66623,70,0,L|40:308,1,51.7499984207154,2|0,0:0|0:0,0:0:0:0:
36,284,66922,54,0,P|43:249|17:284,1,115,2|0,0:2|0:0,0:0:0:0:
128,94,67220,6,0,L|246:101,1,115,0|0,0:0|0:0,0:0:0:0:
271,179,67369,2,0,L|236:181,4,28.75,2|0|0|0|0,0:0|0:0|0:0|0:0|0:0,0:0:0:0:
313,57,67519,1,8,1:0:0:0:
313,57,67668,1,0,0:0:0:0:
397,128,67817,53,6,3:0:0:0:
271,179,67966,2,0,B|192:184|192:184|141:234,1,137.999995788574,0|8,0:0|0:0,0:0:0:0:
195,316,68265,1,0,0:0:0:0:
52,222,68414,2,0,L|46:374,1,137.999995788574,2|0,0:0|0:0,0:0:0:0:
224,311,68713,1,8,0:0:0:0:
129,153,68862,2,0,B|75:116|75:116|-9:130,1,137.999995788574,0|2,0:0|0:0,0:0:0:0:
253,306,69160,1,0,0:0:0:0:
303,152,69310,2,0,L|293:1,1,137.999995788574,8|0,0:0|0:0,0:0:0:0:
149,225,69608,6,0,L|144:293,1,68.9999978942872,2|0,0:0|0:0,0:0:0:0:
380,203,69757,2,0,L|375:134,1,68.9999978942872,0|0,0:0|0:0,0:0:0:0:
163,238,69907,2,0,L|158:306,1,68.9999978942872,8|0,0:0|0:0,0:0:0:0:
394,216,70056,2,0,L|389:147,1,68.9999978942872,0|0,0:0|0:0,0:0:0:0:
177,251,70205,21,2,0:0:0:0:
412,232,70354,2,0,L|402:75,1,137.999995788574,0|8,0:0|0:0,0:0:0:0:
287,349,70653,1,0,0:0:0:0:
302,134,70802,2,0,B|245:100|245:100|165:117,1,137.999995788574,2|0,0:0|0:0,0:0:0:0:
314,338,71101,1,8,0:0:0:0:
403,94,71250,2,0,L|256:87,1,137.999995788574,0|2,0:0|0:0,0:0:0:0:
341,327,71549,1,0,0:0:0:0:
495,96,71698,2,0,B|471:31|471:31|398:-7,1,137.999995788574,8|0,0:0|0:0,0:0:0:0:
261,171,71996,6,0,L|338:180,1,68.9999978942872,2|0,0:0|0:0,0:0:0:0:
502,357,72146,2,0,L|433:365,1,68.9999978942872,0|0,0:0|0:0,0:0:0:0:
282,187,72295,2,0,L|378:198,1,68.9999978942872,8|0,0:0|0:0,0:0:0:0:
480,340,72445,2,0,L|411:348,1,68.9999978942872,0|0,0:0|0:0,0:0:0:0:
256,288,72593,37,2,0:0:0:0:
454,182,72743,2,0,B|423:115|423:115|357:66,1,137.999995788574,0|8,0:0|0:0,0:0:0:0:
128,123,73041,1,0,0:0:0:0:
219,215,73190,2,0,B|292:221|292:221|367:188,1,137.999995788574,2|0,0:0|0:0,0:0:0:0:
179,88,73489,1,8,0:0:0:0:
132,263,73638,2,0,B|185:310|185:310|270:303,1,137.999995788574,0|2,0:0|0:0,0:0:0:0:
154,81,73937,1,0,0:0:0:0:
25,232,74086,2,0,L|17:380,1,137.999995788574,8|0,0:0|0:0,0:0:0:0:
129,76,74384,6,0,L|124:-11,1,68.9999978942872,2|0,0:0|0:0,0:0:0:0:
256,235,74534,1,0,0:0:0:0:
256,235,74608,1,0,0:0:0:0:
256,235,74683,2,0,L|251:322,1,68.9999978942872,8|0,0:0|0:0,0:0:0:0:
97,210,74832,2,0,L|92:122,1,68.9999978942872,0|0,0:0|0:0,0:0:0:0:
218,55,74981,22,0,L|380:70,1,137.999995788574,2|0,0:0|0:0,0:0:0:0:
433,136,75205,2,0,L|295:148,1,137.999995788574,0|0,0:0|0:0,0:0:0:0:
201,193,75429,1,0,0:0:0:0:
210,49,75578,6,0,L|372:64,1,137.999995788574,2|0,0:0|0:0,0:0:0:0:
425,130,75802,2,0,L|287:142,1,137.999995788574,0|0,0:0|0:0,0:0:0:0:
193,187,76026,1,0,0:0:0:0:
141,42,76175,38,0,L|222:49,1,68.9999978942872,6|0,0:0|0:0,0:0:0:0:
347,61,76325,1,4,0:0:0:0:
193,187,76474,1,12,0:0:0:0:
193,187,76549,1,2,0:0:0:0:
193,187,76623,2,0,B|136:215|136:215|302:239,1,206.999993682861,6|0,0:0|0:0,0:0:0:0:
382,219,76922,1,6,0:0:0:0:
239,333,77071,1,12,0:0:0:0:
204,338,77145,1,0,0:0:0:0:
170,343,77220,1,6,0:0:0:0:
193,187,77369,22,0,B|179:160|179:160|193:166|193:166|193:146|193:146|206:153|206:153|213:133|213:133|219:153|219:153|233:126|233:126|233:153|233:153|239:120|239:120|246:153|246:153|246:126|246:126|253:153|253:153|266:133|266:133|266:153|266:153|286:146|286:146|286:166|286:166|299:160|299:160|286:187,1,431.25,8|0,0:0|0:0,0:0:0:0:
325,260,77668,69,8,0:0:0:0:
382,112,77817,1,0,0:0:0:0:
465,315,77966,2,0,B|408:349|408:349|331:342,1,137.999995788574,2|0,0:0|0:0,0:0:0:0:
243,246,78265,1,8,0:0:0:0:
456,177,78414,2,0,L|465:322,1,137.999995788574,0|2,0:0|0:0,0:0:0:0:
336,342,78713,1,0,0:0:0:0:
373,132,78862,2,0,B|423:86|423:86|509:92,1,137.999995788574,8|0,0:0|0:0,0:0:0:0:
243,246,79160,6,0,L|249:154,1,68.9999978942872,2|0,0:0|0:0,0:0:0:0:
368,63,79310,2,0,L|374:155,1,68.9999978942872,0|0,0:0|0:0,0:0:0:0:
223,233,79459,2,0,L|229:141,1,68.9999978942872,8|0,0:0|0:0,0:0:0:0:
348,50,79609,2,0,L|354:142,1,68.9999978942872,0|0,0:0|0:0,0:0:0:0:
203,220,79757,21,2,0:0:0:0:
376,222,79907,2,0,B|437:182|437:182|459:111,1,137.999995788574,0|8,0:0|0:0,0:0:0:0:
272,89,80205,1,0,0:0:0:0:
298,275,80354,2,0,B|352:315|352:315|432:305,1,137.999995788574,2|0,0:0|0:0,0:0:0:0:
294,96,80653,1,8,0:0:0:0:
191,239,80802,2,0,L|181:387,1,137.999995788574,0|2,0:0|0:0,0:0:0:0:
316,103,81101,1,0,0:0:0:0:
69,204,81250,2,0,B|120:247|120:247|199:237,1,137.999995788574,8|0,0:0|0:0,0:0:0:0:
172,52,81549,6,0,L|163:137,1,68.9999978942872,2|0,0:0|0:0,0:0:0:0:
330,277,81698,2,0,L|321:192,1,68.9999978942872,0|0,0:0|0:0,0:0:0:0:
190,47,81847,2,0,L|181:132,1,68.9999978942872,8|0,0:0|0:0,0:0:0:0:
348,272,81996,2,0,L|339:187,1,68.9999978942872,0|0,0:0|0:0,0:0:0:0:
208,42,82146,37,2,0:0:0:0:
366,267,82295,2,0,L|348:99,1,137.999995788574,0|8,0:0|0:0,0:0:0:0:
166,203,82593,1,0,0:0:0:0:
284,317,82743,2,0,B|344:357|344:357|422:345,1,137.999995788574,2|0,0:0|0:0,0:0:0:0:
351,129,83041,1,8,0:0:0:0:
166,202,83190,2,0,L|181:340,1,137.999995788574,0|2,0:0|0:0,0:0:0:0:
185,56,83489,1,0,0:0:0:0:
37,185,83638,2,0,B|102:217|102:217|190:197,1,137.999995788574,8|0,0:0|0:0,0:0:0:0:
341,58,83937,5,2,0:0:0:0:
323,66,84011,2,0,L|176:55,1,137.999995788574,8|0,0:0|0:0,0:0:0:0:
379,194,84235,2,0,L|458:188,1,68.9999978942872,8|0,0:0|0:0,0:0:0:0:
306,74,84384,2,0,L|237:68,1,68.9999978942872,0|0,0:0|0:0,0:0:0:0:
346,224,84534,22,0,L|483:213,1,137.999995788574,2|0,0:0|0:0,0:0:0:0:
433,320,84757,2,0,L|295:309,1,137.999995788574,0|0,0:0|0:0,0:0:0:0:
214,239,84981,1,0,0:0:0:0:
354,232,85131,6,0,L|491:221,1,137.999995788574,8|0,0:0|0:0,0:0:0:0:
441,328,85354,2,0,L|303:317,1,137.999995788574,0|0,0:0|0:0,0:0:0:0:
222,247,85578,1,2,0:0:0:0:
222,247,85653,1,2,0:0:0:0:
222,247,85728,38,0,B|249:182|249:182|227:88,1,137.999995788574,0|0,0:0|0:0,0:0:0:0:
145,150,85951,1,8,0:0:0:0:
135,168,86026,2,0,B|108:233|108:233|130:327,1,137.999995788574,0|2,0:0|0:0,0:0:0:0:
299,329,86250,1,0,0:0:0:0:
309,311,86325,2,0,B|336:246|336:246|314:152,1,137.999995788574,2|0,0:0|0:0,0:0:0:0:
224,29,86549,1,0,0:0:0:0:
224,29,86623,21,2,0:0:0:0:
292,35,86697,1,8,0:0:0:0:
362,42,86772,1,8,0:0:0:0:
430,49,86846,1,8,0:0:0:0:
498,56,86922,5,6,0:0:0:0:
320,180,87071,1,6,0:0:0:0:
320,180,87369,5,6,0:0:0:0:
452,339,87519,2,0,L|459:255,1,68.9999978942872,8|0,0:0|0:0,0:0:0:0:
403,103,87668,1,8,0:0:0:0:
256,288,87817,1,6,0:0:0:0:
256,288,88116,1,6,0:0:0:0:
256,288,88414,85,6,0:0:0:0:
210,111,88563,1,6,0:0:0:0:
104,257,88713,2,0,L|182:249,1,68.9999978942872,14|0,0:0|0:0,0:0:0:0:
319,169,88862,1,6,0:0:0:0:
319,169,89160,5,6,0:0:0:0:
419,337,89310,1,6,0:0:0:0:
419,337,89608,1,6,0:0:0:0:
419,337,89907,2,0,L|426:250,1,68.9999978942872,8|0,0:0|0:0,0:0:0:0:
441,131,90056,1,6,0:0:0:0:
441,131,90354,1,6,0:0:0:0:
441,131,90653,85,6,0:0:0:0:
308,351,90802,1,6,0:0:0:0:
308,351,91101,2,0,L|304:267,1,68.9999978942872,6|0,0:0|0:0,0:0:0:0:
302,188,91250,1,0,0:0:0:0:
207,306,91399,1,6,0:0:0:0:
403,221,91549,1,6,0:0:0:0:
257,117,91698,6,0,L|184:109,1,68.9999978942872,8|0,0:0|0:0,0:0:0:0:
89,206,91847,1,2,0:0:0:0:
251,185,91996,2,0,L|258:104,1,68.9999978942872,12|0,0:0|0:0,0:0:0:0:
109,13,92146,1,2,0:0:0:0:
89,206,92295,1,12,0:0:0:0:
66,121,92444,70,0,B|37:146|-1:146|-1:146|9:162|2:177|2:177|14:189|6:207|6:207|16:220|7:238|7:238|15:257|6:273|6:273|41:271|76:297,1,275.999991577149,2|0,0:2|0:0,0:0:0:0:
257,116,92892,1,6,0:0:0:0:
