osu file format v14

[General]
AudioFilename: audio.mp3
AudioLeadIn: 0
PreviewTime: 67519
Countdown: 0
SampleSet: None
StackLeniency: 0.2
Mode: 0
LetterboxInBreaks: 0
WidescreenStoryboard: 0

[Editor]
DistanceSpacing: 1
BeatDivisor: 4
GridSize: 32
TimelineZoom: 2.999999

[Metadata]
Title:Chirality
TitleUnicode:Chirality
Artist:Camellia
ArtistUnicode:かめりあ
Creator:Suzuki_1112
Version:LCFC's Extra
Source:REFLEC BEAT groovin'!!
Tags:Pending cup #5 1112deng Moecho Moeri Vert LowComboFC LCFC StarrStyx yf_bmp Ryuusei Aika _Stan Kashima fanzhen0019 liaoxingyao SnowNiNo_ Koiyuki Minakami Yuki
BeatmapID:1464584
BeatmapSetID:692068

[Difficulty]
HPDrainRate:5
CircleSize:4
OverallDifficulty:8.5
ApproachRate:9.5
SliderMultiplier:1.9
SliderTickRate:1

[Events]
//Background and Video events
0,0,"bglcfc.jpg",0,0
//Break Periods
//Storyboard Layer 0 (Background)
//Storyboard Layer 1 (Fail)
//Storyboard Layer 2 (Pass)
//Storyboard Layer 3 (Foreground)
//Storyboard Sound Samples
Sample,38862,0,"G#6.wav",50
Sample,38937,0,"G6.wav",50
Sample,39011,0,"D#6.wav",50
Sample,39086,0,"C6.wav",50
Sample,39160,0,"A#5.wav",50
Sample,39310,0,"C6.wav",50
Sample,39608,0,"D#6.wav",50
Sample,39907,0,"F6.wav",50
Sample,40205,0,"A#5.wav",50
Sample,40504,0,"C6.wav",50
Sample,40802,0,"D#6.wav",50
Sample,41101,0,"F6.wav",50
Sample,41399,0,"G6.wav",50
Sample,41549,0,"A#5.wav",50
Sample,41698,0,"C6.wav",50
Sample,41996,0,"D#6.wav",50
Sample,42295,0,"F6.wav",50
Sample,42593,0,"A#5.wav",50
Sample,42892,0,"C6.wav",50
Sample,43190,0,"D#6.wav",50
Sample,43489,0,"A#6.wav",50
Sample,43787,0,"G#6.wav",50
Sample,43937,0,"G6.wav",50
Sample,44086,0,"D#6.wav",50
Sample,44384,0,"A#5.wav",50
Sample,44683,0,"C6.wav",50
Sample,44981,0,"G6.wav",50
Sample,45280,0,"D#6.wav",50
Sample,45578,0,"A#5.wav",50
Sample,45877,0,"C6.wav",50
Sample,46175,0,"F6.wav",50
Sample,46325,0,"G6.wav",50
Sample,46474,0,"D#6.wav",50
Sample,46772,0,"A#5.wav",50
Sample,47071,0,"C6.wav",50
Sample,47369,0,"G6.wav",50
Sample,47668,0,"G#6.wav",50
Sample,47966,0,"D#7.wav",50
Sample,48713,0,"A#5.wav",50
Sample,48862,0,"C6.wav",50
Sample,49160,0,"D#6.wav",50
Sample,49459,0,"F6.wav",50
Sample,49757,0,"A#5.wav",50
Sample,50056,0,"C6.wav",50
Sample,50354,0,"D#6.wav",50
Sample,50653,0,"F6.wav",50
Sample,50951,0,"G6.wav",50
Sample,51101,0,"A#5.wav",50
Sample,51250,0,"C6.wav",50
Sample,51549,0,"D#6.wav",50
Sample,51847,0,"F6.wav",50
Sample,52146,0,"A#5.wav",50
Sample,52444,0,"C6.wav",50
Sample,52743,0,"D#6.wav",50
Sample,53041,0,"A#6.wav",50
Sample,53340,0,"G#6.wav",50
Sample,53489,0,"G6.wav",50
Sample,53638,0,"D#6.wav",50
Sample,53937,0,"A#5.wav",50
Sample,54235,0,"C6.wav",50
Sample,54534,0,"G6.wav",50
Sample,54832,0,"D#6.wav",50
Sample,55131,0,"A#5.wav",50
Sample,55429,0,"C6.wav",50
Sample,55728,0,"F6.wav",50
Sample,55877,0,"G6.wav",50
Sample,56026,0,"D#6.wav",50
Sample,56325,0,"F6.wav",50
Sample,56474,0,"C6.wav",50
Sample,56772,0,"D#6.wav",50
Sample,56922,0,"A#5.wav",50
Sample,57220,0,"F6.wav",50
Sample,57369,0,"A#6.wav",50
Sample,57668,0,"C7.wav",50
Sample,57817,0,"C#7.wav",50
Sample,57966,0,"C7.wav",50
Sample,58116,0,"A#6.wav",50
Sample,58265,0,"C7.wav",50
Sample,67817,0,"F4.wav",50
Sample,67966,0,"G4.wav",50
Sample,68265,0,"G#4.wav",50
Sample,68414,0,"A#4.wav",50
Sample,68713,0,"G#4.wav",50
Sample,68862,0,"C5.wav",50
Sample,69160,0,"A#4.wav",50
Sample,69310,0,"F5.wav",50
Sample,69608,0,"D#5.wav",50
Sample,69757,0,"C5.wav",50
Sample,69907,0,"A#4.wav",50
Sample,70056,0,"G#4.wav",50
Sample,70205,0,"G4.wav",50
Sample,70354,0,"G#4.wav",50
Sample,70653,0,"A#4.wav",50
Sample,70802,0,"C5.wav",50
Sample,71101,0,"A#4.wav",50
Sample,71250,0,"D#5.wav",50
Sample,71549,0,"C5.wav",50
Sample,71698,0,"G#5.wav",50
Sample,71996,0,"G5.wav",50
Sample,72146,0,"D#5.wav",50
Sample,72295,0,"A#4.wav",50
Sample,72444,0,"G#4.wav",50
Sample,72593,0,"F4.wav",50
Sample,72743,0,"G4.wav",50
Sample,73041,0,"G#4.wav",50
Sample,73190,0,"A#4.wav",50
Sample,73489,0,"G#4.wav",50
Sample,73638,0,"C5.wav",50
Sample,73937,0,"A#4.wav",50
Sample,74086,0,"F5.wav",50
Sample,74384,0,"G#5.wav",50
Sample,74534,0,"G5.wav",50
Sample,74683,0,"F5.wav",50
Sample,74832,0,"C5.wav",50
Sample,74981,0,"D#5.wav",50
Sample,75205,0,"A#4.wav",50
Sample,75429,0,"G#4.wav",50
Sample,75578,0,"D#5.wav",50
Sample,75802,0,"A#4.wav",50
Sample,76026,0,"G#4.wav",50
Sample,76175,0,"G4.wav",50
Sample,76325,0,"G#4.wav",50
Sample,76474,0,"A#4.wav",50
Sample,76623,0,"C5.wav",50
Sample,76922,0,"C#5.wav",50
Sample,77071,0,"C5.wav",50
Sample,77220,0,"A#4.wav",50
Sample,77668,0,"G4.wav",50
Sample,77817,0,"G#4.wav",50
Sample,77966,0,"A#4.wav",50
Sample,78265,0,"G#4.wav",50
Sample,78414,0,"C5.wav",50
Sample,78713,0,"A#4.wav",50
Sample,78862,0,"F5.wav",50
Sample,79160,0,"D#5.wav",50
Sample,79310,0,"C5.wav",50
Sample,79459,0,"A#4.wav",50
Sample,79618,0,"G#4.wav",50
Sample,79757,0,"G4.wav",50
Sample,79907,0,"G#4.wav",50
Sample,80205,0,"A#4.wav",50
Sample,80354,0,"C5.wav",50
Sample,80653,0,"A#4.wav",50
Sample,80802,0,"D#5.wav",50
Sample,81101,0,"C5.wav",50
Sample,81250,0,"G#5.wav",50
Sample,81549,0,"G5.wav",50
Sample,81698,0,"D#5.wav",50
Sample,81847,0,"A#4.wav",50
Sample,81996,0,"G#4.wav",50
Sample,82146,0,"F4.wav",50
Sample,82295,0,"G4.wav",50
Sample,82593,0,"G#4.wav",50
Sample,82743,0,"A#4.wav",50
Sample,83041,0,"G#4.wav",50
Sample,83190,0,"C5.wav",50
Sample,83489,0,"A#4.wav",50
Sample,83638,0,"F5.wav",50
Sample,83937,0,"G#5.wav",50
Sample,84086,0,"G5.wav",50
Sample,84235,0,"F5.wav",50
Sample,84384,0,"C5.wav",50
Sample,84534,0,"D#5.wav",50
Sample,84757,0,"A#4.wav",50
Sample,84981,0,"G#4.wav",50
Sample,85131,0,"D#5.wav",50
Sample,85354,0,"A#4.wav",50
Sample,85578,0,"G#4.wav",50
Sample,85728,0,"A#5.wav",50
Sample,85951,0,"F5.wav",50
Sample,86175,0,"D#5.wav",50
Sample,86325,0,"G#5.wav",50
Sample,86549,0,"A#5.wav",50
Sample,86772,0,"C6.wav",50

[TimingPoints]
952,298.507462686567,4,2,1,50,1,0
10205,-200,4,2,1,50,0,0
10504,-80,4,3,3,70,0,0
11250,-40,4,3,3,70,0,0
11698,-40,4,3,3,5,0,0
11847,-40,4,3,3,70,0,0
11996,-133.333333333333,4,3,1,70,0,0
12892,-80,4,3,3,70,0,0
13638,-40,4,3,3,70,0,0
14086,-40,4,3,3,5,0,0
14235,-133.333333333333,4,3,1,70,0,0
14384,-100,4,3,1,70,0,0
15280,-80,4,3,3,70,0,0
16026,-40,4,3,3,70,0,0
16474,-40,4,3,3,5,0,0
16772,-133.333333333333,4,3,3,70,0,0
17668,-80,4,3,3,70,0,0
18414,-40,4,3,3,70,0,0
18862,-100,4,3,3,70,0,0
19011,-100,4,3,1,70,0,0
19160,-100,4,3,1,70,0,0
19608,-100,4,3,1,70,0,0
19757,-66.6666666666667,4,3,1,70,0,0
20056,-57.1428571428571,4,3,2,70,0,1
20653,-66.6666666666667,4,3,2,70,0,0
21250,-57.1428571428571,4,3,2,70,0,1
21847,-66.6666666666667,4,3,2,70,0,0
22146,-50,4,3,2,70,0,0
22444,-57.1428571428571,4,3,2,70,0,1
23041,-66.6666666666667,4,3,2,70,0,0
23638,-57.1428571428571,4,3,2,70,0,1
24086,-57.1428571428571,4,3,1,70,0,1
24235,-100,4,3,1,70,0,0
24832,-57.1428571428571,4,3,2,70,0,1
25429,-66.6666666666667,4,3,2,70,0,0
26026,-57.1428571428571,4,3,2,70,0,1
26623,-66.6666666666667,4,3,2,70,0,0
27220,-100,4,3,1,70,0,0
29608,-57.1428571428571,4,3,2,70,0,1
30205,-66.6666666666667,4,3,2,70,0,0
30802,-57.1428571428571,4,3,2,70,0,1
31399,-66.6666666666667,4,3,2,70,0,0
31698,-50,4,3,2,70,0,0
31996,-57.1428571428571,4,3,2,70,0,1
32593,-66.6666666666667,4,3,2,70,0,0
33190,-57.1428571428571,4,3,2,70,0,1
33638,-57.1428571428571,4,3,1,70,0,1
33787,-100,4,3,1,70,0,0
34384,-133.333333333333,4,3,2,70,0,0
34981,-100,4,3,1,70,0,0
35131,-100,4,3,2,70,0,0
35280,-66.6666666666667,4,3,2,70,0,1
35578,-57.1428571428571,4,3,2,70,0,0
36175,-66.6666666666667,4,3,2,70,0,0
36772,-100,4,3,1,70,0,0
37071,-66.6666666666667,4,3,1,70,0,0
37369,-100,4,3,1,70,0,0
39160,-100,4,3,1,70,0,0
40951,-66.6666666666667,4,3,1,70,0,0
41549,-100,4,3,1,70,0,0
43489,-66.6666666666667,4,3,1,70,0,0
43937,-100,4,3,1,70,0,0
45728,-66.6666666666667,4,3,1,70,0,0
46325,-100,4,3,1,70,0,0
48713,-100,4,3,3,70,0,0
50504,-66.6666666666667,4,3,3,70,0,0
51101,-100,4,3,3,70,0,0
53041,-66.6666666666667,4,3,3,70,0,0
53489,-100,4,3,3,70,0,0
55280,-100,4,3,2,70,0,0
55429,-66.6666666666667,4,3,2,70,0,0
55877,-100,4,3,3,70,0,0
58265,-80,4,3,3,70,0,0
59011,-40,4,3,3,70,0,0
59459,-40,4,3,3,5,0,0
59608,-133.333333333333,4,3,1,70,0,0
60653,-80,4,3,3,70,0,0
61399,-40,4,3,3,70,0,0
61847,-40,4,3,1,70,0,0
61996,-133.333333333333,4,3,1,70,0,0
62146,-100,4,3,1,70,0,0
63041,-80,4,3,3,70,0,0
63787,-40,4,3,3,70,0,0
64534,-133.333333333333,4,3,3,70,0,0
65429,-80,4,3,3,70,0,0
66175,-40,4,3,3,70,0,0
66623,-100,4,3,3,70,0,0
66772,-100,4,3,1,70,0,0
66922,-100,4,3,1,70,0,0
67369,-100,4,3,1,70,0,0
67817,-100,4,3,1,70,0,1
68414,-80,4,3,1,70,0,1
68862,-66.6666666666667,4,3,1,70,0,1
69310,-57.1428571428571,4,3,1,70,0,1
69608,-66.6666666666667,4,3,1,70,0,1
70205,-80,4,3,1,70,0,1
70802,-66.6666666666667,4,3,1,70,0,1
71250,-57.1428571428571,4,3,1,70,0,1
71698,-50,4,3,1,70,0,1
71996,-66.6666666666667,4,3,1,70,0,1
72593,-100,4,3,1,70,0,1
73190,-80,4,3,1,70,0,1
73638,-66.6666666666667,4,3,1,70,0,1
74086,-57.1428571428571,4,3,1,70,0,1
74384,-66.6666666666667,4,3,1,70,0,1
74981,-100,4,3,1,70,0,1
76175,-100,4,3,3,70,0,1
77369,-133.333333333333,4,1,2,70,0,0
77668,-133.333333333333,4,3,1,70,0,1
77966,-80,4,3,1,70,0,1
78414,-66.6666666666667,4,3,1,70,0,1
78862,-57.1428571428571,4,3,1,70,0,1
79160,-66.6666666666667,4,3,1,70,0,1
79757,-80,4,3,1,70,0,1
80354,-66.6666666666667,4,3,1,70,0,1
80802,-57.1428571428571,4,3,1,70,0,1
81250,-50,4,3,1,70,0,1
81548,-66.6666666666667,4,3,1,70,0,1
82145,-100,4,3,1,70,0,1
82742,-80,4,3,1,70,0,1
83190,-66.6666666666667,4,3,1,70,0,1
83638,-57.1428571428571,4,3,1,70,0,1
83936,-50,4,3,1,70,0,1
84235,-66.6666666666667,4,3,1,70,0,1
84533,-100,4,3,1,70,0,1
85728,-80,4,3,1,70,0,1
86325,-66.6666666666667,4,3,1,70,0,1
86623,-57.1428571428571,4,3,1,70,0,1
86772,-50,4,3,1,70,0,1
86922,-50,4,3,3,70,0,0
87071,-100,4,3,3,70,0,0
91698,-80,4,3,3,70,0,0
91847,-66.6666666666667,4,3,3,70,0,0
91996,-57.1428571428571,4,3,3,70,0,0
92146,-50,4,3,3,70,0,0
92295,-100,4,3,3,70,0,0
92444,-100,4,3,1,70,0,0
92892,-133.333333333333,4,2,1,50,0,0
96772,333.333333333333,4,2,1,50,1,0
96938,342.857142857143,4,2,1,50,1,0
97109,387.096774193548,4,2,1,50,1,0
97302,413.793103448276,4,2,1,50,1,0
97508,470.588235294118,4,2,1,50,1,0
97743,585.365853658537,4,2,1,50,1,0

[Colours]
Combo1 : 191,128,255
Combo2 : 192,192,192
Combo3 : 128,128,128
Combo4 : 170,85,85
Combo5 : 85,170,170
Combo6 : 255,128,0
Combo7 : 255,0,128
Combo8 : 128,191,255

[HitObjects]
256,192,7668,12,0,9310,0:0:0:0:
379,44,9459,37,8,0:0:0:0:
409,41,9534,1,8,0:0:0:0:
420,80,9608,5,0,0:0:0:0:
360,60,9683,1,0,0:0:0:0:
302,41,9757,1,8,0:0:0:0:
244,22,9832,1,8,0:0:0:0:
169,43,9907,101,0,0:0:0:0:
136,94,9981,1,0,0:0:0:0:
154,136,10056,1,0,0:0:0:0:
180,149,10205,102,0,L|198:105,1,47.5
146,328,10504,6,0,B|47:351|47:351|8:267|8:267|49:280,1,237.5,6|0,0:0|0:0,0:0:0:0:
279,341,11101,1,8,0:0:0:0:
49,280,11250,6,0,B|8:267|8:267|47:351|47:351|146:328,1,237.5,6|0,0:0|0:0,0:0:0:0:
367,254,11549,2,0,B|390:155|390:155|306:116|306:116|319:157,1,237.5,6|0,0:0|0:0,0:0:0:0:
319,157,11847,69,2,0:0:0:0:
217,262,11996,2,0,L|200:259,2,17.812500679493,2|0|0,2:0|0:0|0:0,0:0:0:0:
234,267,12146,5,0,2:0:0:0:
227,232,12220,1,0,2:0:0:0:
220,196,12295,1,0,2:0:0:0:
198,167,12369,101,0,2:0:0:0:
205,132,12443,1,0,2:0:0:0:
212,96,12518,1,0,2:0:0:0:
236,70,12593,6,0,L|257:66,2,17.812500679493,0|0|0,2:0|0:0|2:0,0:0:0:0:
169,27,12743,1,0,2:0:0:0:
304,175,12892,6,0,B|394:194|394:194|418:236|418:236|512:260,1,237.5,6|0,0:0|0:0,0:0:0:0:
366,93,13489,1,8,0:0:0:0:
330,271,13638,6,0,B|240:290|240:290|216:332|216:332|121:356,1,237.5,6|0,0:0|0:0,0:0:0:0:
11,110,13937,2,0,B|101:129|101:129|125:171|125:171|220:196,1,237.5,6|0,0:0|0:0,0:0:0:0:
218,195,14235,70,0,L|212:164,2,17.812500679493,8|8|8,2:0|2:0|2:0,0:0:0:0:
262,115,14384,6,0,P|307:106|345:132,1,95,8|8,2:0|2:0,3:0:0:0:
473,198,14608,1,8,2:0:0:0:
478,185,14683,2,0,P|433:176|395:202,1,95,8|8,2:0|2:0,3:0:0:0:
370,276,14907,1,8,2:0:0:0:
375,287,14981,101,8,2:0:0:0:
334,335,15081,5,8,2:0:0:0:
271,339,15180,101,8,2:0:0:0:
297,259,15280,22,0,B|351:122|351:122|394:202,1,237.5,6|0,0:0|0:0,0:0:0:0:
139,218,15877,1,8,0:0:0:0:
198,314,16026,6,0,B|60:260|60:260|139:218,1,237.5,6|0,0:0|0:0,0:0:0:0:
294,26,16325,2,0,B|431:80|431:80|352:123,1,237.5,6|0,0:0|0:0,0:0:0:0:
352,123,16772,69,2,2:0:0:0:
221,84,16922,1,2,2:0:0:0:
213,67,16996,1,0,0:0:0:0:
205,50,17071,1,2,0:0:0:0:
294,26,17220,5,2,0:0:0:0:
205,50,17295,2,0,B|158:45|158:45|147:37|147:37|101:33,1,106.875004076958,0|0,0:0|0:0,0:0:0:0:
39,242,17668,6,0,B|99:228|99:228|130:206|130:206|163:235|163:235|189:210|189:210|245:196,1,237.5,6|0,0:0|0:0,0:0:0:0:
257,359,18116,1,0,0:0:0:0:
257,359,18190,1,0,0:0:0:0:
282,271,18265,2,0,L|262:335,1,59.375,8|0,0:0|0:0,0:0:0:0:
396,329,18414,6,0,B|383:273|383:273|358:247|358:247|387:214|387:214|365:183|365:183|351:123,1,237.5,6|2,0:0|0:0,3:0:0:0:
423,18,18638,1,2,0:0:0:0:
439,24,18713,2,0,B|470:66|470:66|450:129,1,118.75,6|2,0:0|0:0,3:0:0:0:
331,374,18862,69,2,0:0:0:0:
331,374,19011,1,0,0:0:0:0:
331,374,19160,6,0,P|271:306|180:318,1,190,2|0,0:2|0:0,0:0:0:0:
105,281,19608,2,0,L|96:251,2,23.75,2|0|0,1:0|0:0|0:0,0:0:0:0:
82,364,19757,102,0,L|91:287,1,71.2500027179719,4|0,1:0|0:0,0:0:0:0:
105,184,19907,1,0,0:0:0:0:
301,145,20056,54,0,B|319:92|319:92|170:103|170:103|212:127,1,249.375002378225,6|0,3:0|0:0,0:0:0:0:
369,201,20354,2,0,L|396:122,1,83.1250007927418,0|0,0:0|0:0,0:0:0:0:
97,75,20504,1,0,0:0:0:0:
130,99,20578,1,0,0:0:0:0:
170,103,20653,6,0,P|196:127|208:161,1,71.2500027179719,8|0,0:2|0:0,0:0:0:0:
105,281,20802,1,0,0:0:0:0:
105,281,20877,2,0,P|112:246|135:219,1,71.2500027179719,2|0,0:2|0:0,0:0:0:0:
291,248,21026,1,0,0:0:0:0:
291,248,21101,2,0,P|257:259|222:253,1,71.2500027179719,2|0,0:2|0:0,0:0:0:0:
161,17,21250,102,0,B|255:29|255:29|277:88|277:88|367:100,1,249.375002378225,6|0,1:0|0:0,0:0:0:0:
432,48,21549,2,0,L|428:-2,6,41.5625003963709,0|0|0|0|0|0|0,0:0|0:0|0:0|0:0|0:0|0:0|0:0,0:0:0:0:
491,108,21847,6,0,B|503:140|503:140|487:174,1,71.2500027179719,4|0,0:2|0:0,0:0:0:0:
368,358,21996,2,0,B|356:326|356:326|371:291,1,71.2500027179719,0|0,0:0|0:0,0:0:0:0:
485,248,22146,102,0,B|465:296|465:296|290:248|290:248|270:295,1,285,0|0,0:0|0:0,0:0:0:0:
227,366,22444,6,0,P|205:259|104:300,1,249.375002378225,2|0,0:0|0:0,0:0:0:0:
172,322,22743,2,0,P|187:284|181:243,1,83.1250007927418,0|0,0:0|0:0,0:0:0:0:
17,102,22892,1,0,0:0:0:0:
49,126,22966,1,0,0:0:0:0:
88,131,23041,102,0,B|125:136|125:136|158:120,1,71.2500027179719,8|0,0:2|0:0,0:0:0:0:
249,25,23190,1,0,0:0:0:0:
249,25,23265,2,0,B|286:20|286:20|319:36,1,71.2500027179719,2|0,0:2|0:0,0:0:0:0:
293,215,23414,1,0,0:0:0:0:
293,215,23489,2,0,B|256:220|256:220|223:204,1,71.2500027179719,2|2,0:2|0:0,0:0:0:0:
271,122,23638,5,6,1:0:0:0:
271,122,23787,2,0,B|361:108|361:108|387:264,1,249.375002378225,0|0,0:0|0:0,0:0:0:0:
400,341,24086,5,2,0:2:0:0:
408,331,24136,5,2,0:2:0:0:
410,308,24185,101,2,0:2:0:0:
387,264,24235,6,0,L|371:170,1,95,8|0,0:0|0:0,0:0:0:0:
155,228,24534,2,0,L|172:322,1,95,0|0,0:0|0:0,0:0:0:0:
433,96,24832,70,0,B|460:149|460:149|272:123,1,249.375002378225,6|0,0:0|0:0,0:0:0:0:
293,215,25131,2,0,L|375:226,1,83.1250007927418,0|0,0:0|0:0,0:0:0:0:
358,54,25280,1,0,0:0:0:0:
317,48,25354,1,0,0:0:0:0:
275,41,25429,6,0,B|239:44|239:44|212:65,1,71.2500027179719,8|0,0:2|0:0,0:0:0:0:
136,25,25578,1,0,0:0:0:0:
136,25,25653,2,0,B|112:52|112:52|108:87,1,71.2500027179719,2|0,0:2|0:0,0:0:0:0:
25,112,25802,1,0,0:0:0:0:
25,112,25877,2,0,B|27:148|27:148|49:175,1,71.2500027179719,2|0,0:2|0:0,0:0:0:0:
315,314,26026,102,0,B|275:282|231:300|231:300|180:323|143:292|143:292|155:228,1,249.375002378225,6|0,1:0|0:0,0:0:0:0:
155,228,26325,6,0,L|110:235,1,41.5625003963709,0|0,0:0|0:0,0:0:0:0:
271,122,26474,2,0,L|316:129,1,41.5625003963709,0|0,0:0|0:0,0:0:0:0:
101,230,26623,102,0,B|105:247|105:247|157:237,1,71.2500027179719,4|0,0:2|0:0,0:0:0:0:
324,123,26772,2,0,B|320:141|320:141|268:131,1,71.2500027179719,0|0,0:0|0:0,0:0:0:0:
113,51,26922,6,0,B|190:23|190:23|172:154,1,213.750008153916,0|0,0:0|0:0,0:0:0:0:
137,357,27220,6,0,B|54:335|54:335|42:257|42:257|205:299,1,332.5,6|0,0:0|0:0,0:0:0:0:
205,299,27817,1,8,0:0:0:0:
288,279,27966,2,0,L|295:330,1,47.5,2|0,0:0|0:0,0:0:0:0:
391,363,28116,1,6,0:0:0:0:
391,363,28190,1,0,0:0:0:0:
391,363,28265,6,0,L|405:269,1,95,0|0,0:0|0:0,0:0:0:0:
433,81,28563,1,2,0:0:0:0:
419,175,28713,1,2,0:0:0:0:
435,65,28862,102,0,L|441:30,2,23.75,0|0|0,0:0|0:0|0:0,0:0:0:0:
417,191,29011,1,8,0:0:0:0:
316,112,29160,2,0,L|281:105,2,23.75,0|0|0,0:0|0:0|0:0,0:0:0:0:
492,138,29310,1,2,0:2:0:0:
230,181,29459,1,0,0:0:0:0:
218,201,29534,1,0,0:0:0:0:
298,238,29608,86,0,P|186:243|192:355,1,249.375002378225,6|0,0:0|0:0,0:0:0:0:
244,296,29907,2,0,P|267:329|270:370,1,83.1250007927418,0|0,0:0|0:0,0:0:0:0:
83,279,30056,1,0,0:0:0:0:
90,237,30131,1,0,0:0:0:0:
111,200,30205,6,0,P|105:164|93:131,1,71.2500027179719,8|0,0:2|0:0,0:0:0:0:
303,147,30354,1,0,0:0:0:0:
303,147,30429,2,0,P|291:114|286:79,1,71.2500027179719,2|0,0:2|0:0,0:0:0:0:
177,63,30578,1,0,0:0:0:0:
177,63,30653,2,0,L|200:135,1,71.2500027179719,2|0,0:2|0:0,0:0:0:0:
289,363,30802,102,0,B|350:303|350:303|303:147,1,249.375002378225,6|0,1:0|0:0,0:0:0:0:
249,254,31101,2,0,L|244:296,6,41.5625003963709,0|0|0|0|0|0|0,0:0|0:0|0:0|0:0|0:0|0:0|0:0,0:0:0:0:
303,147,31399,6,0,P|330:125|370:118,1,71.2500027179719,4|0,0:2|0:0,0:0:0:0:
474,266,31549,2,0,P|439:258|411:236,1,71.2500027179719,0|0,0:0|0:0,0:0:0:0:
476,13,31698,102,0,P|490:131|375:86,1,285,0|0,0:0|0:0,0:0:0:0:
445,76,31996,6,0,B|348:68|348:68|326:55|326:55|300:62|300:62|200:54,1,249.375002378225,2|0,0:0|0:0,0:0:0:0:
70,201,32295,2,0,L|152:193,1,83.1250007927418,0|0,0:0|0:0,0:0:0:0:
327,55,32444,1,0,0:0:0:0:
324,96,32519,1,0,0:0:0:0:
321,137,32593,102,0,B|292:158|292:158|257:154,1,71.2500027179719,8|0,0:2|0:0,0:0:0:0:
186,33,32743,1,0,0:0:0:0:
186,33,32817,2,0,B|157:12|157:12|122:16,1,71.2500027179719,2|0,0:2|0:0,0:0:0:0:
30,113,32966,1,0,0:0:0:0:
30,113,33041,2,0,L|100:106,1,71.2500027179719,2|0,0:2|0:0,0:0:0:0:
283,231,33190,5,6,1:0:0:0:
283,231,33340,2,0,B|323:258|323:258|190:278|190:278|199:212,1,249.375002378225,0|0,0:0|0:0,0:0:0:0:
208,131,33638,5,2,0:2:0:0:
204,117,33688,5,2,0:2:0:0:
185,91,33738,101,2,0:2:0:0:
132,71,33787,6,0,P|84:69|38:78,1,95,8|0,0:0|0:0,0:0:0:0:
321,137,34086,2,0,P|368:139|414:130,1,95,8|0,0:0|0:0,0:0:0:0:
106,192,34384,70,0,B|87:222|87:222|77:256,1,71.2500027179719,6|2,0:0|0:0,0:0:0:0:
181,361,34683,54,0,L|168:315,2,47.5000018119813,8|0|0,1:0|0:0|0:0,0:0:0:0:
329,264,34981,6,0,L|318:228,2,23.75,8|0|8,2:0|0:0|2:0,0:0:0:0:
364,363,35131,1,2,0:0:0:0:
369,352,35205,1,2,0:0:0:0:
376,339,35280,54,0,B|410:348|410:348|440:367,1,71.2500027179719,8|0,0:0|0:0,0:0:0:0:
512,187,35429,2,0,B|477:177|477:177|447:158,1,71.2500027179719,0|0,0:0|0:0,0:0:0:0:
448,263,35578,101,2,0:0:0:0:
398,288,35653,1,2,0:0:0:0:
376,339,35728,2,0,L|357:251,1,83.1250007927418,2|2,0:0|0:0,0:0:0:0:
148,180,35877,6,0,P|190:180|225:201,1,83.1250007927418,2|0,0:0|0:0,0:0:0:0:
322,241,36026,2,0,P|280:241|245:220,1,83.1250007927418,2|0,0:0|0:0,0:0:0:0:
137,76,36175,102,0,B|103:94|103:94|135:88,1,71.2500027179719,4|0,0:2|0:0,0:0:0:0:
320,106,36325,2,0,B|354:124|354:124|321:118,1,71.2500027179719,0|0,0:0|0:0,0:0:0:0:
244,341,36474,6,0,B|230:249|230:249|234:231|234:231|216:130,1,213.750008153916,0|0,0:0|0:0,0:0:0:0:
325,15,36772,6,0,P|335:60|319:105,1,95,6|0,0:0|0:0,0:0:0:0:
68,220,37071,6,0,P|102:189|148:180,1,95,8|0,0:0|0:0,0:0:0:0:
256,192,37270,1,0,0:0:0:0:
374,340,37369,102,0,P|330:326|299:290,1,95,2|0,0:0|0:0,0:0:0:0:
137,43,37668,6,0,P|181:57|212:93,1,95,8|2,0:0|0:0,0:0:0:0:
186,369,37966,102,0,B|176:323|176:323|193:278,1,95,2|0,0:0|0:0,0:0:0:0:
443,163,38265,2,0,B|409:194|409:194|361:202,1,95,8|0,0:0|0:0,0:0:0:0:
67,220,38563,6,0,P|82:202|102:189,1,47.5,2|0,0:0|0:0,0:0:0:0:
325,14,38713,2,0,P|333:36|334:60,1,47.5,2|0,0:0|0:0,0:0:0:0:
374,340,38862,101,8,0:0:0:0:
306,317,38937,1,8,0:0:0:0:
306,246,39011,1,8,0:0:0:0:
374,224,39086,1,8,0:0:0:0:
415,282,39160,53,6,0:0:0:0:
192,278,39310,2,0,P|171:210|179:139,1,142.5,2|0,0:0|0:0,0:0:0:0:
179,139,39608,1,2,0:0:0:0:
377,126,39757,1,8,0:0:0:0:
440,162,39907,2,0,P|448:116|430:74,1,95,2|2,0:0|0:0,0:0:0:0:
316,166,40205,6,0,P|308:97|361:54,1,142.5,2|0,0:0|0:0,0:0:0:0:
377,126,40504,2,0,L|315:117,1,47.5,2|0,0:0|0:0,0:0:0:0:
255,206,40653,1,2,0:0:0:0:
386,272,40802,1,0,0:0:0:0:
246,60,40951,102,0,B|208:66|208:66|181:84,1,71.2500027179719,8|0,0:0|0:0,0:0:0:0:
125,19,41101,2,0,B|102:50|102:50|96:82,1,71.2500027179719,0|0,0:0|0:0,0:0:0:0:
10,75,41250,2,0,B|16:113|16:113|34:139,1,71.2500027179719,0|0,0:0|0:0,0:0:0:0:
132,186,41399,5,2,0:0:0:0:
156,253,41474,1,2,0:0:0:0:
101,298,41549,1,2,0:0:0:0:
255,206,41698,2,0,P|324:202|377:247,1,142.5,2|0,0:0|0:0,0:0:0:0:
377,247,41996,1,2,0:0:0:0:
127,162,42146,1,8,0:0:0:0:
228,294,42295,2,0,P|250:253|255:206,1,95,2|2,0:0|0:0,0:0:0:0:
317,314,42593,102,0,P|247:329|183:359,1,142.5,2|0,0:0|0:0,0:0:0:0:
107,319,42892,2,0,P|131:328|154:330,1,47.5,2|0,0:0|0:0,0:0:0:0:
228,294,43041,1,0,0:0:0:0:
357,116,43190,1,2,0:0:0:0:
349,93,43265,1,0,0:0:0:0:
342,70,43340,1,8,0:0:0:0:
328,115,43414,1,2,0:2:0:0:
314,160,43489,6,0,B|370:144|370:144|390:125|390:125|443:108,1,142.500005435944,2|2,0:2|0:2,0:0:0:0:
507,176,43787,1,2,0:2:0:0:
423,24,43937,101,2,0:0:0:0:
435,200,44086,2,0,L|414:340,1,142.500005435944,2|0,0:0|0:0,0:0:0:0:
414,340,44384,1,2,0:0:0:0:
503,157,44534,1,8,0:0:0:0:
355,240,44683,2,0,P|318:256|258:267,1,95,2|2,0:0|0:0,0:0:0:0:
25,238,44981,6,0,P|93:245|125:305,1,142.5,2|0,0:0|0:0,0:0:0:0:
125,305,45280,2,0,L|110:352,1,47.5,2|0,0:0|0:0,0:0:0:0:
113,217,45429,1,2,0:0:0:0:
204,346,45578,1,2,0:0:0:0:
212,67,45728,102,0,B|193:35|193:35|197:68,1,71.2500027179719,8|0,0:0|0:0,0:0:0:0:
159,157,45877,2,0,B|140:189|140:189|167:168,1,71.2500027179719,0|0,0:0|0:0,0:0:0:0:
264,158,46026,2,0,B|301:157|301:157|269:144,1,71.2500027179719,0|0,0:0|0:0,0:0:0:0:
107,66,46175,5,2,0:0:0:0:
56,116,46250,1,2,0:0:0:0:
57,187,46325,1,2,0:0:0:0:
340,22,46474,2,0,B|282:31|282:31|260:57|260:57|212:67,1,142.5,2|0,0:0|0:0,0:0:0:0:
212,67,46772,1,2,0:0:0:0:
439,120,46922,1,8,0:0:0:0:
318,259,47071,2,0,P|328:212|348:169,1,95,2|2,0:0|0:0,0:0:0:0:
479,353,47369,102,0,P|446:289|435:219,1,142.5,2|0,0:0|0:0,0:0:0:0:
439,120,47668,2,0,L|450:71,1,47.5,2|0,0:0|0:0,0:0:0:0:
443,21,47817,1,0,0:0:0:0:
348,62,47966,1,2,0:0:0:0:
435,219,48116,1,8,0:0:0:0:
435,219,48340,85,0,0:0:0:0:
435,219,48414,2,0,L|429:248,6,23.75,0|0|0|0|0|0|0,0:0|0:0|0:0|0:0|0:0|0:0|0:0,0:0:0:0:
439,120,48713,37,6,0:0:0:0:
484,308,48862,2,0,L|336:338,1,142.5,6|0,0:0|0:0,0:0:0:0:
344,336,49160,1,2,0:0:0:0:
349,164,49310,1,8,0:0:0:0:
277,210,49459,2,0,P|248:195|170:186,1,95,0|6,0:0|0:0,0:0:0:0:
81,104,49757,102,0,P|135:148|160:214,1,142.5,6|0,0:0|0:0,0:0:0:0:
139,287,50056,2,0,L|74:279,1,47.5,2|0,0:0|0:0,0:0:0:0:
17,312,50205,1,8,0:0:0:0:
154,360,50354,1,0,0:0:0:0:
21,227,50504,6,0,P|9:193|15:159,1,71.2500027179719,2|2,0:2|0:2,0:0:0:0:
216,175,50653,2,0,P|193:201|160:214,1,71.2500027179719,0|0,0:2|0:2,0:0:0:0:
74,33,50802,2,0,P|108:39|135:61,1,71.2500027179719,2|0,0:2|0:0,0:0:0:0:
108,141,50951,1,2,0:2:0:0:
297,89,51101,101,6,0:0:0:0:
216,175,51250,2,0,P|215:244|256:300,1,142.5,6|0,0:0|0:0,0:0:0:0:
257,301,51549,1,2,0:0:0:0:
380,135,51698,1,8,0:0:0:0:
393,233,51847,2,0,L|301:213,1,95,0|6,0:0|0:0,0:0:0:0:
129,18,52146,6,0,B|87:61|87:61|107:140,1,142.5,6|0,0:0|0:0,0:0:0:0:
179,84,52444,2,0,B|180:84|241:98,1,47.5,2|0,0:0|0:0,0:0:0:0:
272,104,52593,1,2,0:0:0:0:
72,227,52743,1,0,0:0:0:0:
78,249,52817,1,0,0:2:0:0:
84,271,52892,1,8,0:0:0:0:
127,288,52966,1,2,0:2:0:0:
171,305,53041,102,0,B|119:318|119:318|92:352|92:352|40:365,1,142.500005435944,2|2,0:2|0:2,0:0:0:0:
0,302,53340,1,2,0:2:0:0:
247,349,53489,5,6,0:0:0:0:
202,222,53638,2,0,P|189:153|224:93,1,142.5,6|0,0:0|0:0,0:0:0:0:
224,93,53937,1,2,0:0:0:0:
341,167,54086,1,8,0:0:0:0:
261,20,54235,2,0,P|215:11|173:32,1,95,0|6,0:0|0:0,0:0:0:0:
26,134,54534,102,0,P|94:121|154:156,1,142.5,6|0,0:0|0:0,0:0:0:0:
85,77,54832,2,0,L|77:31,1,47.5,2|0,0:0|0:0,0:0:0:0:
76,227,54981,1,8,0:0:0:0:
121,307,55131,1,0,0:0:0:0:
41,352,55280,1,8,1:0:0:0:
201,262,55429,6,0,B|269:277|269:277|297:300|297:300|331:291|331:291|401:307,1,213.750008153916,2|0,0:0|0:0,0:0:0:0:
401,307,55728,1,0,0:0:0:0:
319,210,55877,101,4,0:0:0:0:
344,132,56026,2,0,P|385:110|432:115,1,95,4|0,0:0|0:0,0:0:0:0:
182,162,56325,5,4,0:0:0:0:
205,213,56474,2,0,P|246:234|293:229,1,95,4|0,0:0|0:0,0:0:0:0:
65,163,56772,101,4,0:0:0:0:
74,138,56921,2,0,P|115:116|162:121,1,95,4|0,0:0|0:0,0:0:0:0:
234,320,57220,5,4,0:0:0:0:
260,156,57369,2,0,L|280:14,1,142.5,4|0,0:0|0:0,0:0:0:0:
193,7,57668,102,0,L|203:63,1,47.5,2|0,0:0|3:0,3:0:0:0:
361,58,57817,2,0,L|352:11,1,47.5,4|0,0:0|3:0,3:0:0:0:
280,14,57966,5,8,3:0:0:0:
273,61,58040,1,0,3:0:0:0:
266,108,58115,1,0,0:0:0:0:
260,156,58189,1,0,3:0:0:0:
295,219,58265,102,0,B|394:233|394:233|434:171|434:171|368:157,1,237.5,4|0,0:0|0:0,0:0:0:0:
124,275,58862,1,8,0:0:0:0:
260,156,59011,6,0,B|274:57|274:57|212:17|212:17|198:83,1,237.5,6|0,0:0|0:0,0:0:0:0:
487,228,59310,2,0,B|501:327|501:327|439:367|439:367|425:301,1,237.5,6|0,0:0|0:0,0:0:0:0:
434,172,59608,70,0,L|443:144,2,17.812500679493,2|0|0,0:0|0:0|0:0,0:0:0:0:
369,202,59757,1,2,0:0:0:0:
280,314,59907,5,2,2:0:0:0:
245,321,59981,1,0,0:0:0:0:
212,306,60056,1,0,2:0:0:0:
187,280,60131,101,0,2:0:0:0:
152,273,60205,1,0,2:0:0:0:
119,288,60280,1,0,2:0:0:0:
94,313,60354,6,0,L|99:337,2,17.812500679493,0|0|0,2:0|0:0|2:0,0:0:0:0:
51,245,60504,1,0,2:0:0:0:
268,27,60653,6,0,B|301:65|301:65|289:204|289:204|254:237,1,237.5,6|0,0:0|0:0,0:0:0:0:
192,122,61250,1,8,0:0:0:0:
254,236,61399,6,0,B|292:269|292:269|431:257|431:257|463:221,1,237.5,6|0,0:0|0:0,0:0:0:0:
120,27,61698,2,0,B|87:65|87:65|99:204|99:204|134:236,1,237.5,6|0,0:0|0:0,0:0:0:0:
192,122,61996,69,8,0:2:0:0:
209,121,62071,1,8,0:2:0:0:
225,120,62146,2,0,L|220:21,1,95,8|8,0:2|0:2,3:0:0:0:
303,128,62369,1,8,0:2:0:0:
319,127,62444,5,8,0:2:0:0:
314,63,62543,1,0,3:0:0:0:
310,0,62643,1,0,3:0:0:0:
390,5,62743,101,8,0:2:0:0:
394,68,62843,1,0,3:0:0:0:
399,132,62942,1,0,3:0:0:0:
354,198,63041,22,0,B|302:260|302:260|331:357|331:357|376:307,1,237.5,6|0,0:0|0:0,0:0:0:0:
394,68,63638,1,8,0:0:0:0:
210,237,63787,6,0,B|158:175|158:175|187:78|187:78|225:120,1,237.5,6|0,0:0|0:0,0:0:0:0:
71,203,64086,2,0,B|19:265|19:265|48:362|48:362|93:312,1,237.5,6|0,0:0|0:0,0:0:0:0:
85,320,64534,69,2,0:2:0:0:
256,340,64683,1,2,0:0:0:0:
273,336,64757,1,0,0:0:0:0:
290,332,64832,1,0,0:0:0:0:
168,365,64981,5,2,0:0:0:0:
256,340,65056,2,0,B|261:293|261:293|269:282|269:282|273:236,1,106.875004076958,0|0,0:0|0:0,0:0:0:0:
145,10,65429,6,0,B|145:62|170:89|170:89|155:129|112:144|112:144|132:173|131:210,1,237.5,6|0,0:0|0:0,0:0:0:0:
235,23,65877,1,0,0:0:0:0:
235,23,65951,1,0,0:0:0:0:
323,48,66026,2,0,L|259:28,1,59.375,8|0,0:0|0:0,0:0:0:0:
41,243,66175,6,0,B|93:243|120:268|120:268|160:253|175:210|175:210|204:230|241:229,1,237.5,6|2,0:0|0:0,3:0:0:0:
402,96,66399,1,2,0:0:0:0:
390,113,66474,2,0,B|400:160|400:160|414:179|414:179|423:225,1,118.75,6|2,0:0|0:0,3:0:0:0:
452,373,66623,69,2,0:0:0:0:
452,373,66772,1,0,0:0:0:0:
452,373,66922,6,0,P|368:317|290:344,1,190,2|0,0:2|0:0,0:0:0:0:
211,313,67369,2,0,L|202:282,2,23.75,2|0|0,0:0|0:0|0:0,0:0:0:0:
170,384,67519,69,8,1:0:0:0:
71,312,67668,1,0,0:0:0:0:
233,140,67817,5,6,3:0:0:0:
233,140,67966,102,0,L|92:118,1,142.5,0|0,0:0|0:0,0:0:0:0:
24,154,68265,1,0,0:0:0:0:
276,257,68414,6,0,L|452:232,1,178.125,2|0,0:0|0:0,0:0:0:0:
498,169,68713,1,8,0:0:0:0:
173,23,68862,102,0,L|143:235,1,213.750008153916,0|0,0:0|0:0,0:0:0:0:
129,313,69160,1,0,0:0:0:0:
381,325,69310,6,0,L|350:78,1,249.375002378225,8|0,0:0|0:0,0:0:0:0:
444,22,69608,102,0,P|449:58|442:92,1,71.2500027179719,2|0,0:0|0:0,0:0:0:0:
261,110,69757,2,0,P|247:77|246:41,1,71.2500027179719,0|0,0:0|0:0,0:0:0:0:
346,50,69907,6,0,L|341:3,2,47.5000018119813,8|0|0,0:0|0:0|0:0,0:0:0:0:
349,77,70056,1,0,0:0:0:0:
221,191,70205,101,2,0:0:0:0:
24,152,70354,6,0,P|90:98|172:125,1,178.125,0|0,0:0|0:0,0:0:0:0:
221,191,70653,1,0,0:0:0:0:
466,325,70802,102,0,P|364:320|327:226,1,213.750008153916,2|0,0:0|0:0,0:0:0:0:
377,155,71101,1,8,0:0:0:0:
53,343,71250,6,0,P|9:247|115:242,1,249.375002378225,0|0,0:0|0:0,0:0:0:0:
133,323,71549,1,0,0:0:0:0:
448,114,71698,102,0,P|419:0|338:84,1,285,8|0,0:0|0:0,0:0:0:0:
377,155,71996,6,0,L|358:223,1,71.2500027179719,2|0,0:0|0:0,0:0:0:0:
153,223,72146,2,0,L|135:155,1,71.2500027179719,0|0,0:0|0:0,0:0:0:0:
256,128,72295,102,0,L|256:64,2,47.5000018119813,8|0|0,0:0|0:0|0:0,0:0:0:0:
256,160,72444,1,0,0:0:0:0:
133,323,72593,5,2,0:0:0:0:
238,258,72743,102,0,B|290:271|290:271|309:303|309:303|358:317,1,142.5,0|0,0:0|0:0,0:0:0:0:
426,273,73041,1,0,0:0:0:0:
243,55,73190,6,0,B|184:76|184:76|162:121|162:121|100:142,1,178.125,2|0,0:0|0:0,0:0:0:0:
22,119,73489,1,8,0:0:0:0:
364,233,73638,102,0,B|383:162|383:162|438:124|438:124|452:51,1,213.750008153916,0|0,0:0|0:0,0:0:0:0:
379,11,73937,1,0,0:0:0:0:
100,141,74086,6,0,B|125:235|125:235|89:283|89:283|108:377,1,249.375002378225,8|0,0:0|0:0,0:0:0:0:
183,307,74384,102,0,L|257:321,1,71.2500027179719,2|0,0:0|0:0,0:0:0:0:
395,347,74534,2,0,L|448:358,2,47.5000018119813,0|0|0,0:0|0:0|0:0,0:0:0:0:
324,334,74683,5,8,0:0:0:0:
512,325,74832,1,0,0:0:0:0:
365,157,74981,102,0,B|338:117|338:117|344:64,1,95,2|0,0:0|0:0,0:0:0:0:
396,6,75205,1,0,0:0:0:0:
472,39,75280,2,0,B|499:79|499:79|493:132,1,95,8|0,0:0|0:0,0:0:0:0:
324,334,75578,6,0,B|351:294|351:294|345:241,1,95,2|0,0:0|0:0,0:0:0:0:
293,183,75802,1,0,0:0:0:0:
217,216,75877,2,0,B|190:256|190:256|196:309,1,95,8|0,0:0|0:0,0:0:0:0:
455,322,76175,102,0,L|271:274,1,190,6|12,0:0|0:0,0:0:0:0:
195,302,76549,1,2,0:0:0:0:
118,329,76623,6,0,L|81:191,1,142.5,6|0,0:0|0:0,0:0:0:0:
63,113,76922,2,0,L|56:159,1,47.5,6|0,0:0|0:0,0:0:0:0:
151,123,77071,102,0,L|155:91,2,31.6666666666667,12|0|0,0:0|0:0|0:0,0:0:0:0:
147,154,77220,1,6,0:0:0:0:
240,173,77369,22,0,B|261:133|261:133|241:74,1,106.875004076958,8|0,0:0|0:0,0:0:0:0:
194,6,77668,101,8,0:0:0:0:
194,6,77817,1,0,0:0:0:0:
296,234,77966,102,0,P|346:160|371:75,1,178.125,2|0,0:0|0:0,0:0:0:0:
312,13,78265,1,8,0:0:0:0:
422,251,78414,6,0,P|317:265|224:316,1,213.750008153916,0|0,0:0|0:0,0:0:0:0:
165,375,78713,1,0,0:0:0:0:
18,121,78862,102,0,P|141:117|256:164,1,249.375002378225,8|0,0:0|0:0,0:0:0:0:
296,234,79160,6,0,P|280:202|277:166,1,71.2500027179719,2|0,0:0|0:0,0:0:0:0:
464,117,79310,2,0,P|479:148|482:184,1,71.2500027179719,0|0,0:0|0:0,0:0:0:0:
389,222,79459,102,0,L|379:175,2,47.5000018119813,8|0|0,0:0|0:0|0:0,0:0:0:0:
395,250,79608,1,0,0:0:0:0:
362,89,79757,5,2,0:0:0:0:
160,43,79907,102,0,B|115:86|115:86|142:198,1,178.125,0|0,0:0|0:0,0:0:0:0:
163,275,80205,1,0,0:0:0:0:
479,348,80354,6,0,B|465:279|465:279|312:304,1,213.750008153916,2|0,0:0|0:0,0:0:0:0:
265,360,80653,1,8,0:0:0:0:
57,178,80802,102,0,B|122:127|122:127|297:180,1,249.375002378225,0|0,0:0|0:0,0:0:0:0:
358,203,81101,1,0,0:0:0:0:
435,1,81250,6,0,B|337:18|337:18|358:203,1,285,8|0,0:0|0:0,0:0:0:0:
393,292,81549,102,0,L|323:302,1,71.2500027179719,2|0,0:0|0:0,0:0:0:0:
211,185,81698,2,0,L|281:175,1,71.2500027179719,0|0,0:0|0:0,0:0:0:0:
455,166,81847,6,0,L|442:213,2,47.5000018119813,8|0|0,0:0|0:0|0:0,0:0:0:0:
461,142,81996,1,0,0:0:0:0:
371,114,82146,101,2,0:0:0:0:
196,43,82295,6,0,L|211:185,1,142.5,0|0,0:0|0:0,0:0:0:0:
218,264,82593,1,0,0:0:0:0:
383,26,82743,102,0,L|358:203,1,178.125,2|0,0:0|0:0,0:0:0:0:
342,283,83041,1,8,0:0:0:0:
36,43,83190,6,0,L|91:249,1,213.750008153916,2|0,0:0|0:0,0:0:0:0:
118,326,83489,1,0,0:0:0:0:
512,102,83638,102,0,L|430:337,1,249.375002378225,8|0,0:0|0:0,0:0:0:0:
342,283,83937,5,2,0:0:0:0:
264,246,84011,2,0,P|258:167|331:200,1,190,8|0,0:0|0:0,0:0:0:0:
363,111,84235,102,0,P|333:91|298:84,1,71.2500027179719,8|0,0:0|0:0,0:0:0:0:
164,188,84384,2,0,P|161:223|173:256,1,71.2500027179719,0|0,0:0|0:0,0:0:0:0:
342,283,84534,6,0,P|389:293|437:315,1,95,2|0,0:0|0:0,0:0:0:0:
441,180,84757,1,0,0:0:0:0:
511,237,84832,2,0,P|468:256|422:266,1,95,0|0,0:0|0:0,0:0:0:0:
253,159,85131,102,0,P|205:169|158:191,1,95,8|0,0:0|0:0,0:0:0:0:
191,65,85354,1,0,0:0:0:0:
132,117,85429,1,0,0:0:0:0:
149,131,85503,1,0,0:0:0:0:
172,141,85578,1,2,0:0:0:0:
125,150,85653,1,2,0:0:0:0:
82,169,85728,6,0,B|44:218|44:218|58:272,1,118.75,0|0,0:0|0:0,0:0:0:0:
228,343,85951,1,8,0:0:0:0:
220,330,86026,102,0,P|228:301|242:275,1,59.375,8|0,0:0|0:0,0:0:0:0:
158,240,86175,2,0,P|149:268|135:294,1,59.375,2|0,0:0|0:0,0:0:0:0:
320,331,86325,6,0,L|462:321,1,142.500005435944,2|0,0:0|0:0,0:0:0:0:
403,163,86549,1,0,0:0:0:0:
403,163,86623,102,0,B|428:147|428:147|408:221,1,83.1250007927418,2|8,0:0|0:0,0:0:0:0:
277,243,86772,6,0,P|250:205|253:159,1,95,8|8,0:0|0:0,0:0:0:0:
465,53,86922,37,6,0:0:0:0:
391,74,87071,2,0,P|344:70|312:37,1,95,6|0,0:0|0:0,0:0:0:0:
465,53,87369,1,6,0:0:0:0:
247,80,87519,1,8,0:0:0:0:
312,37,87668,1,8,0:0:0:0:
339,255,87817,2,0,L|320:354,1,95,6|0,0:0|0:0,0:0:0:0:
164,216,88116,2,0,L|181:122,1,95,6|0,0:0|0:0,0:0:0:0:
36,254,88414,5,6,0:0:0:0:
110,275,88563,1,6,0:0:0:0:
27,143,88713,1,14,0:0:0:0:
247,80,88862,2,0,P|294:84|326:117,1,95,6|0,0:0|0:0,0:0:0:0:
324,192,89160,1,6,0:0:0:0:
257,3,89310,2,0,P|210:7|178:40,1,95,6|0,0:0|0:0,0:0:0:0:
314,268,89608,2,0,P|361:264|393:231,1,95,6|0,0:0|0:0,0:0:0:0:
339,24,89907,101,8,0:0:0:0:
166,119,90056,2,0,L|67:100,1,95,6|0,0:0|0:0,0:0:0:0:
72,282,90354,2,0,L|166:265,1,95,6|0,0:0|0:0,0:0:0:0:
224,192,90578,5,0,3:0:0:0:
224,192,90653,2,0,L|239:133,1,47.5,6|0,0:0|3:0,3:0:0:0:
269,15,90802,1,6,0:0:0:0:
269,15,90877,1,0,3:0:0:0:
269,15,90951,102,0,L|258:62,1,47.5,8|0,0:0|3:0,3:0:0:0:
314,268,91101,1,6,0:0:0:0:
314,268,91176,1,0,3:0:0:0:
314,268,91250,2,0,L|302:221,1,47.5,0|0,3:0|3:0,3:0:0:0:
154,72,91399,6,0,L|166:119,1,47.5,6|0,0:0|3:0,3:0:0:0:
317,123,91549,2,0,L|363:111,1,47.5,6|0,0:0|3:0,3:0:0:0:
419,176,91698,6,0,P|411:205|395:230,1,59.375,8|0,0:0|0:0,3:0:0:0:
271,355,91847,6,0,P|237:344|209:322,1,71.2500027179719,2|2,0:0|0:0,3:0:0:0:
92,207,91996,102,0,P|105:167|134:138,1,83.1250007927418,12|0,0:0|0:0,3:0:0:0:
240,28,92146,6,0,P|285:45|314:81,1,95,2|2,0:0|0:0,3:0:0:0:
256,192,92295,37,12,0:0:0:0:
256,192,92444,2,0,L|214:184,2,23.75,2|0|2,0:2|0:0|0:2,0:0:0:0:
271,212,92593,2,0,L|323:204,1,47.5,2|0,0:2|0:0,0:0:0:0:
419,176,92743,1,0,0:0:0:0:
271,355,92892,85,6,0:0:0:0:
