osu file format v14

[General]
AudioFilename: audio.mp3
AudioLeadIn: 0
PreviewTime: 67519
Countdown: 0
SampleSet: Soft
StackLeniency: 0.3
Mode: 0
LetterboxInBreaks: 0
WidescreenStoryboard: 0

[Editor]
DistanceSpacing: 0.7
BeatDivisor: 4
GridSize: 8
TimelineZoom: 4.099999

[Metadata]
Title:Chirality
TitleUnicode:Chirality
Artist:Camellia
ArtistUnicode:かめりあ
Creator:Suzuki_1112
Version:Kashima's Extra
Source:REFLEC BEAT groovin'!!
Tags:Pending cup #5 1112deng Moecho Moeri Vert LowComboFC LCFC StarrStyx yf_bmp Ryuusei Aika _Stan Kashima fanzhen0019 liaoxingyao SnowNiNo_ Koiyuki Minakami Yuki
BeatmapID:1464582
BeatmapSetID:692068

[Difficulty]
HPDrainRate:6.5
CircleSize:4.3
OverallDifficulty:8.5
ApproachRate:9.6
SliderMultiplier:1.8
SliderTickRate:1

[Events]
//Background and Video events
0,0,"BGKASHIMA.jpg",0,0
//Break Periods
//Storyboard Layer 0 (Background)
//Storyboard Layer 1 (Fail)
//Storyboard Layer 2 (Pass)
//Storyboard Layer 3 (Foreground)
//Storyboard Sound Samples

[TimingPoints]
952,298.507462686567,4,2,50,70,1,0
10504,-133.333333333333,4,2,50,70,0,0
11549,-200,4,2,50,70,0,0
12892,-133.333333333333,4,2,50,70,0,0
13937,-200,4,2,50,70,0,0
14534,-100,4,2,50,70,0,0
15280,-133.333333333333,4,2,50,70,0,0
16325,-200,4,2,50,70,0,0
17220,-100,4,2,50,70,0,0
17668,-133.333333333333,4,2,50,70,0,0
19160,-200,4,2,50,70,0,0
19608,-100,4,2,50,70,0,0
20056,-90.9090909090909,4,2,50,70,0,0
20653,-76.9230769230769,4,2,50,70,0,0
21101,-66.6666666666667,4,2,50,70,0,0
21250,-90.9090909090909,4,2,50,70,0,0
23041,-76.9230769230769,4,2,50,70,0,0
23787,-90.9090909090909,4,2,50,70,0,0
25429,-76.9230769230769,4,2,50,70,0,0
27220,-200,4,2,50,70,0,0
27966,-100,4,2,50,70,0,0
28116,-133.333333333333,4,2,50,70,0,0
29011,-100,4,2,50,70,0,0
29310,-200,4,2,50,70,0,0
29608,-90.9090909090909,4,2,50,70,0,0
30205,-76.9230769230769,4,2,50,70,0,0
30802,-90.9090909090909,4,2,50,70,0,0
32593,-76.9230769230769,4,2,50,70,0,0
33190,-90.9090909090909,4,2,50,70,0,0
35578,-76.9230769230769,4,2,50,70,0,0
36175,-66.6666666666667,4,2,50,70,0,0
36772,-90.9090909090909,4,2,50,70,0,0
39160,-100,4,2,50,70,0,0
48116,-200,4,2,50,70,0,0
48414,-66.6666666666667,4,2,50,70,0,0
48713,-100,4,2,50,70,0,0
58265,-133.333333333333,4,2,50,70,0,0
59310,-200,4,2,50,70,0,0
59757,-100,4,2,50,70,0,0
60653,-133.333333333333,4,2,50,70,0,0
61698,-200,4,2,50,70,0,0
62146,-100,4,2,50,70,0,0
63041,-133.333333333333,4,2,50,70,0,0
64086,-200,4,2,50,70,0,0
64534,-100,4,2,50,70,0,0
65429,-133.333333333333,4,2,50,70,0,0
66026,-100,4,2,50,70,0,0
66922,-200,4,2,50,70,0,0
67369,-100,4,2,50,70,0,0
67519,-200,4,2,50,70,0,0
67817,-100,4,2,50,70,0,1
77369,-100,4,2,50,70,0,0
77668,-100,4,2,50,70,0,1
82593,-88.4955752212389,4,2,50,70,0,1
83190,-80.6451612903226,4,2,50,70,0,1
83638,-72.463768115942,4,2,50,70,0,1
84534,-100,4,2,50,70,0,1
86772,-66.6666666666667,4,2,50,70,0,1
86922,-100,4,2,50,70,0,0
96772,333.333333333333,4,2,50,70,1,0
96938,342.857142857143,4,2,50,70,1,0
97109,387.096774193548,4,2,50,70,1,0
97302,413.793103448276,4,2,50,70,1,0
97508,470.588235294118,4,2,50,70,1,0
97743,585.365853658537,4,2,50,70,1,0

[Colours]
Combo1 : 255,255,91
Combo2 : 128,128,255
Combo3 : 255,98,98

[HitObjects]
433,23,9160,5,0,0:0:0:0:
433,23,9235,1,0,0:0:0:0:
433,23,9310,6,0,L|451:134,1,90,0|0,0:0|0:0,0:0:0:0:
428,180,9608,1,0,0:0:0:0:
430,194,9682,1,0,0:0:0:0:
432,209,9757,1,0,0:0:0:0:
434,224,9831,1,0,0:0:0:0:
422,295,9907,1,0,0:0:0:0:
424,309,9981,1,0,0:0:0:0:
426,324,10056,1,0,0:0:0:0:
428,339,10131,1,0,0:0:0:0:
495,273,10205,5,0,0:0:0:0:
362,247,10354,1,0,0:0:0:0:
140,310,10504,6,0,L|272:335,1,135.000005149842,0|0,1:0|0:0,0:0:0:0:
140,310,11101,1,8,0:0:0:0:
362,247,11250,2,0,L|272:228,1,67.5000025749208,0|0,1:0|0:0,0:0:0:0:
494,272,11549,6,0,L|362:247,1,135.000005149842,4|0,1:0|0:0,0:0:0:0:
362,247,12593,5,0,0:0:0:0:
362,247,12743,1,0,3:0:0:0:
494,221,12892,6,0,L|361:246,1,135.000005149842,0|0,1:0|0:0,0:0:0:0:
494,221,13489,1,8,0:0:0:0:
272,158,13638,2,0,L|362:139,1,67.5000025749208,0|0,1:0|0:0,0:0:0:0:
139,183,13937,6,0,L|271:157,1,135.000005149842,4|0,1:0|0:0,0:0:0:0:
494,221,14534,1,0,0:0:0:0:
494,221,14608,1,0,0:0:0:0:
494,221,14683,1,0,0:0:0:0:
361,246,14832,2,0,L|290:261,1,45,2|0,0:0|0:0,0:0:0:0:
196,283,14981,2,0,L|240:273,1,45,2|0,0:0|0:0,0:0:0:0:
396,84,15131,2,0,L|405:130,1,45,2|0,0:2|0:3,0:0:0:0:
445,328,15280,6,0,L|419:190,1,135,0|0,1:0|0:0,1:1:0:0:
445,328,15877,1,8,1:0:0:0:
407,17,16026,2,0,L|396:83,1,67.5000025749208,0|0,1:0|0:0,0:0:0:0:
444,327,16325,2,0,L|469:195,1,135.000005149842,4|0,1:0|0:0,0:0:0:0:
255,192,17220,5,0,0:0:0:0:
255,192,17295,1,0,0:0:0:0:
255,192,17369,1,0,0:0:0:0:
167,216,17519,1,0,0:0:0:0:
49,63,17668,6,0,L|79:195,1,135.000005149842,0|0,1:0|0:0,0:0:0:0:
210,355,18265,2,0,L|201:322,1,33.7500012874604,8|0,1:0|0:0,0:0:0:0:
173,238,18414,1,4,1:0:0:0:
170,227,18488,1,0,0:0:0:0:
167,216,18563,1,0,0:0:0:0:
164,205,18638,1,0,0:0:0:0:
161,194,18712,1,0,0:0:0:0:
158,183,18786,1,0,0:0:0:0:
155,172,18861,1,0,0:0:0:0:
303,107,19011,5,0,2:0:0:0:
303,107,19086,1,2,2:0:0:0:
303,107,19160,6,0,P|271:118|197:91,1,90,0|0,0:2|3:2,0:0:0:0:
94,90,19608,2,0,L|87:56,2,22.5
61,214,19757,6,0,P|65:251|87:286,1,45,0|2,3:0|3:2,0:0:0:0:
237,312,19907,2,0,P|252:337|284:350,1,45,0|0,0:0|0:0,0:0:0:0:
490,274,20056,6,0,B|455:239|455:239|343:266,1,148.50000453186,4|0,1:0|0:0,0:0:0:0:
423,371,20354,1,0,0:0:0:0:
423,371,20429,1,0,0:0:0:0:
423,371,20504,2,0,L|434:296,1,49.5000015106202,0|0,0:0|0:0,0:0:0:0:
459,95,20653,6,0,P|395:76|343:112,1,116.999994644165,2|0,0:1|0:0,0:0:0:0:
358,242,20877,2,0,P|406:196|401:133,1,116.999994644165,2|0,0:1|0:0,0:0:0:0:
290,128,21101,2,0,P|326:166|382:142,1,67.5000025749208,2|0,0:1|0:0,0:0:0:0:
459,95,21250,5,0,1:0:0:0:
388,314,21399,1,0,0:0:0:0:
388,314,21474,1,0,0:0:0:0:
388,314,21549,2,0,L|376:349,6,24.7500007553101,0|0|0|0|0|0|0,0:0|0:0|0:0|0:0|0:0|0:0|0:0,0:0:0:0:
338,167,21847,6,0,L|328:97,1,49.5000015106202,8|0,3:1|0:0,0:0:0:0:
478,299,21996,2,0,L|464:355,1,49.5000015106202,0|0,3:0|0:0,0:0:0:0:
417,142,22146,2,0,B|404:28|404:28|377:66,1,148.50000453186,0|0,3:0|0:0,0:0:0:0:
209,297,22444,6,0,B|181:316|181:316|295:329,1,148.50000453186,0|0,3:0|0:0,0:0:0:0:
478,299,22743,1,0,0:0:0:0:
478,299,22817,1,0,0:0:0:0:
478,299,22892,2,0,L|408:292,1,49.5000015106202,0|0,0:0|0:0,0:0:0:0:
245,179,23041,2,0,B|304:222|304:222|354:230,1,116.999994644165,2|0,0:1|0:0,0:0:0:0:
442,100,23265,2,0,B|383:143|383:143|333:151,1,116.999994644165,2|0,0:1|0:0,0:0:0:0:
278,40,23489,2,0,L|327:76,1,58.4999973220826,2|0,0:1|0:0,0:0:0:0:
380,16,23638,5,0,1:0:0:0:
223,98,23787,2,0,B|176:104|176:104|124:89|124:89|77:95,1,148.50000453186,4|2,3:0|0:2,0:0:0:0:
124,175,24086,2,0,L|132:206,2,24.7500007553101,0|0|0,0:0|0:0|0:0,0:0:0:0:
245,179,24235,6,0,L|303:206,1,49.5000015106202,10|0,3:2|0:0,0:0:0:0:
442,100,24384,2,0,L|388:126,1,49.5000015106202,0|0,3:0|0:0,0:0:0:0:
278,40,24534,6,0,L|330:80,1,49.5000015106202,2|0,3:2|0:0,0:0:0:0:
380,16,24683,1,0,1:0:0:0:
380,16,24757,1,0,0:0:0:0:
223,98,24832,6,0,B|176:104|176:104|124:89|124:89|77:95,1,148.50000453186,4|2,3:0|0:2,0:0:0:0:
57,187,25131,1,0,0:0:0:0:
57,187,25205,1,0,0:0:0:0:
57,187,25280,2,0,L|121:179,1,49.5000015106202,0|0,0:0|0:0,0:0:0:0:
391,180,25429,6,0,B|402:120|402:120|381:63,1,116.999994644165,10|0,0:1|0:0,0:0:0:0:
193,219,25653,2,0,L|307:158,1,116.999994644165,2|0,0:1|0:0,0:0:0:0:
57,187,25877,2,0,L|120:178,1,58.4999973220826,2|0,0:1|0:0,0:0:0:0:
333,236,26026,6,0,L|337:268,6,29.2499986610413,0|0|0|0|0|0|0,0:0|0:0|0:0|0:0|0:0|0:0|0:0,0:0:0:0:
258,271,26325,2,0,L|210:304,1,58.4999973220826,2|0,0:0|0:0,0:0:0:0:
407,331,26474,2,0,L|459:296,1,58.4999973220826,2|0,0:0|0:0,0:0:0:0:
256,256,26623,6,0,L|208:289,1,58.4999973220826,10|0,0:0|0:0,0:0:0:0:
404,315,26772,2,0,L|453:283,1,58.4999973220826,2|0,0:0|0:0,0:0:0:0:
330,210,26922,2,0,B|337:266|337:266|327:320|327:320|331:383,1,175.499991966248,0|0,3:0|0:0,0:0:0:0:
207,289,27220,6,0,B|202:240|202:240|210:179|210:179|203:124,1,157.5,0|0,3:0|0:0,0:0:0:0:
204,132,27817,1,8,0:0:0:0:
207,289,27966,6,0,L|201:224,1,45,2|0,0:0|0:0,0:0:0:0:
321,25,28116,2,0,B|326:74|326:74|318:135|318:135|327:199,1,168.750006437302,0|0,3:0|0:0,0:0:0:0:
326,192,28563,1,4,0:3:0:0:
148,176,28713,6,0,P|204:189|251:176,1,101.250003862381,4|0,0:3|0:0,0:0:0:0:
372,311,29011,2,0,P|362:236|312:183,1,135,8|0,0:0|0:0,0:0:0:0:
301,75,29310,6,2,L|294:128,1,45,0|8,2:0|0:0,0:0:0:0:
273,253,29534,5,8,0:0:0:0:
273,253,29608,2,0,B|230:253|230:253|200:266|200:266|166:253|166:253|121:251,1,148.50000453186,0|0,0:0|0:0,0:0:0:0:
208,134,29907,1,0,0:0:0:0:
208,134,29981,1,0,0:0:0:0:
208,134,30056,2,0,L|203:201,1,49.5000015106202
128,251,30205,6,0,P|85:262|8:244,1,116.999994644165,10|0,0:1|0:0,0:0:0:0:
202,288,30429,2,0,P|182:346|133:390,1,116.999994644165,2|0,0:1|0:0,0:0:0:0:
273,253,30653,2,0,P|286:271|298:322,1,58.4999973220826,2|0,0:1|0:0,0:0:0:0:
312,185,30802,5,0,1:0:0:0:
438,32,30951,1,0,0:0:0:0:
438,32,31026,1,0,0:0:0:0:
438,32,31101,2,0,L|443:73,6,24.7500007553101,0|0|0|0|0|0|0,0:0|0:0|0:0|0:0|0:0|0:0|0:0,0:0:0:0:
388,121,31399,6,0,L|395:176,1,49.5000015106202,8|0,3:1|0:0,0:0:0:0:
475,302,31549,2,0,L|482:357,1,49.5000015106202,0|0,3:1|0:0,0:0:0:0:
316,289,31698,2,0,B|296:258|296:258|420:251,1,148.50000453186,0|0,0:0|0:0,0:0:0:0:
485,132,31996,6,0,B|505:163|505:163|381:170,1,148.50000453186
322,86,32295,1,0,0:0:0:0:
322,86,32369,1,0,0:0:0:0:
322,86,32444,2,0,L|371:83,1,49.5000015106202,0|0,0:0|0:0,0:0:0:0:
296,177,32593,6,0,B|193:181|193:181|212:216,1,116.999994644165,10|0,0:1|0:0,0:0:0:0:
407,251,32817,2,0,B|509:255|509:255|491:290,1,116.999994644165,2|0,0:1|0:0,0:0:0:0:
301,345,33041,2,0,B|243:355,1,58.4999973220826,2|0,0:1|0:0,0:0:0:0:
407,251,33190,5,0,1:0:0:0:
496,157,33340,2,0,P|471:111|381:101,1,148.50000453186,0|0,0:0|0:2,0:0:0:0:
296,177,33638,1,0,0:0:0:0:
296,177,33713,1,0,0:0:0:0:
296,177,33787,2,0,P|235:169|230:168,1,49.5000015106202,10|0,3:2|3:0,0:0:0:0:
177,138,33937,2,0,P|159:112|156:74,1,49.5000015106202,2|0,0:0|0:0,0:0:0:0:
302,260,34086,2,0,P|363:252|368:251,1,49.5000015106202,2|0,3:2|3:0,0:0:0:0:
421,221,34236,2,0,P|439:195|442:157,1,49.5000015106202,2|0,0:0|0:0,0:0:0:0:
306,49,34384,6,0,L|299:100,1,49.5000015106202,2|0,1:2|0:0,0:0:0:0:
283,341,34782,6,0,L|191:329,2,66.0000020141602,0|0|4,3:0|3:0|3:0,0:0:0:0:
302,260,35131,2,0,L|351:253,2,49.5000015106202,0|0|8,3:0|3:0|0:0,0:0:0:0:
296,177,35429,1,0,0:0:0:0:
296,177,35504,1,0,0:0:0:0:
296,177,35578,2,0,L|226:169,1,58.4999973220826,0|0,3:2|3:0,0:0:0:0:
166,160,35728,2,0,L|96:152,1,58.4999973220826,0|0,3:2|3:0,0:0:0:0:
47,210,35877,5,0,3:0:0:0:
216,99,36026,1,0,1:0:0:0:
407,278,36175,6,0,P|440:285|473:276,1,67.5000025749208,8|0,0:0|0:0,0:0:0:0:
327,295,36325,2,0,P|337:326|363:351,1,67.5000025749208,0|0,3:1|0:1,3:3:0:0:
318,116,36474,2,0,P|300:198|395:175,1,202.500007724762,0|0,0:0|0:0,0:0:0:0:
318,116,36772,6,0,L|194:122,1,99.0000030212403
103,124,37071,2,0,L|34:128,2,49.5000015106202,8|0|0,0:0|0:0|0:0,0:0:0:0:
219,120,37369,6,0,L|331:115,1,99.0000030212403,0|0,1:0|0:0,0:0:0:0:
85,202,37593,2,0,L|-8:211,1,66.0000020141602,2|0,0:2|0:0,0:0:0:0:
226,40,37767,2,0,L|320:36,1,66.0000020141602,2|0,0:2|0:0,0:0:0:0:
240,252,37966,6,0,B|183:210|182:168|182:168|217:124,1,148.50000453186,2|0,1:2|0:0,0:0:0:0:
326,230,38265,2,0,B|315:159|344:129|344:129|400:123,1,148.50000453186,10|0,1:2|0:0,0:0:0:0:
395,288,38563,2,0,B|437:231|479:230|479:230|512:256,1,148.50000453186,2|0,1:2|0:0,0:0:0:0:
326,230,38862,1,10,0:0:0:0:
282,207,38936,1,2,0:0:0:0:
234,215,39011,1,2,0:0:0:0:
200,249,39085,1,2,0:0:0:0:
195,294,39160,5,4,1:0:0:0:
447,347,39310,1,0,1:0:0:0:
447,347,39608,1,0,1:0:0:0:
195,294,39757,2,0,L|296:283,1,90,8|0,0:0|0:0,0:0:0:0:
442,180,40056,1,0,1:0:0:0:
359,331,40205,1,0,1:0:0:0:
359,331,40504,5,0,1:0:0:0:
361,107,40653,1,0,1:0:0:0:
361,107,40951,1,10,0:0:0:0:
359,331,41101,1,10,0:0:0:0:
503,168,41250,1,10,0:0:0:0:
404,215,41399,1,0,1:0:0:0:
404,215,41474,1,0,1:0:0:0:
404,215,41549,5,0,1:0:0:0:
221,63,41698,1,0,1:0:0:0:
221,63,41996,1,0,1:0:0:0:
298,254,42146,2,0,L|290:156,1,90,8|0,0:0|0:0,0:0:0:0:
221,63,42444,1,0,1:0:0:0:
298,254,42593,1,0,1:0:0:0:
298,254,42892,5,0,1:0:0:0:
121,181,43041,1,0,1:0:0:0:
198,346,43190,2,0,L|194:301,1,45,0|0,0:0|0:0,0:0:0:0:
222,208,43340,1,10,0:0:0:0:
236,190,43414,1,2,0:0:0:0:
275,168,43489,1,2,0:0:0:0:
332,171,43563,1,2,0:0:0:0:
382,228,43638,1,2,0:0:0:0:
376,296,43713,1,2,0:0:0:0:
343,326,43787,1,2,0:0:0:0:
318,334,43862,1,2,0:0:0:0:
113,317,43937,5,0,1:0:0:0:
302,249,44086,1,0,1:0:0:0:
302,249,44384,1,0,1:0:0:0:
395,118,44534,2,0,L|289:132,1,90,8|0,0:0|0:0,0:0:0:0:
211,55,44832,1,0,1:0:0:0:
302,249,44981,1,0,1:0:0:0:
302,249,45280,5,0,1:0:0:0:
79,151,45429,1,0,1:0:0:0:
322,114,45578,1,0,0:0:0:0:
322,114,45653,1,0,0:0:0:0:
322,114,45728,2,0,L|403:102,1,45,10|0,0:0|0:0,0:0:0:0:
298,254,45877,2,0,L|278:333,1,45,10|0,0:0|0:0,0:0:0:0:
197,163,46026,2,0,L|139:129,1,45,8|0,0:0|0:0,0:0:0:0:
280,180,46175,1,0,1:0:0:0:
280,180,46250,1,0,1:0:0:0:
280,180,46325,5,0,1:0:0:0:
74,297,46474,1,0,1:0:0:0:
74,297,46772,1,0,1:0:0:0:
258,313,46922,2,0,L|144:338,1,90,8|0,0:0|0:0,0:0:0:0:
74,297,47220,1,0,1:0:0:0:
316,242,47369,1,0,1:0:0:0:
316,242,47668,5,0,1:0:0:0:
480,166,47817,2,0,P|486:128|479:76,1,90,0|0,0:0|0:0,0:0:0:0:
318,175,48116,6,0,P|312:212|322:261,1,67.5000025749208,8|0,0:0|0:0,0:0:0:0:
453,90,48414,6,0,B|403:69|403:69|377:102|377:102|316:61|241:104,1,202.500007724762,0|0,0:0|0:0,0:0:0:0:
315,241,48713,5,2,1:2:0:0:
275,88,48862,2,0,P|227:79|173:80,1,90,6|0,1:2|0:0,0:0:0:0:
315,241,49160,1,2,1:2:0:0:
185,78,49310,2,0,P|140:93|98:116,1,90,12|2,0:0|0:2,0:0:0:0:
315,241,49608,1,0,1:0:0:0:
102,113,49757,2,0,P|71:149|51:187,1,90,6|0,1:2|0:0,0:0:0:0:
315,241,50056,1,2,1:2:0:0:
51,186,50205,2,0,P|35:256|75:344,1,135,6|0,1:2|0:0,0:0:0:0:
52,315,50504,1,8,0:0:0:0:
315,241,50653,5,2,0:1:0:0:
315,241,50728,1,0,0:1:0:0:
315,241,50802,2,0,L|385:226,1,45,2|0,0:1|0:0,0:0:0:0:
332,109,50951,2,0,L|402:94,1,45,2|0,0:1|0:0,0:0:0:0:
439,174,51101,5,2,1:2:0:0:
332,109,51250,2,0,L|321:-2,1,90,6|0,1:2|2:2,1:1:0:0:
439,174,51549,1,0,1:2:0:0:
323,198,51698,2,0,L|334:87,1,90,6|0,1:2|2:2,1:1:0:0:
439,174,51996,1,0,1:0:0:0:
331,287,52146,2,0,L|322:197,1,90,6|0,1:2|2:2,1:1:0:0:
439,174,52444,1,0,1:0:0:0:
322,376,52593,2,0,L|333:265,1,90,6|0,1:2|2:2,1:1:0:0:
281,126,52892,5,10,0:0:0:0:
267,108,52966,1,2,0:0:0:0:
228,86,53041,1,2,0:0:0:0:
171,89,53115,1,2,0:0:0:0:
121,146,53190,1,2,0:0:0:0:
127,214,53265,1,2,0:0:0:0:
160,244,53339,1,2,0:0:0:0:
185,252,53414,1,2,0:0:0:0:
200,168,53488,5,2,1:2:0:0:
60,95,53638,2,0,P|53:53|69:-18,1,90,6|0,1:2|0:0,0:0:0:0:
200,168,53937,1,2,1:2:0:0:
325,264,54086,2,0,P|331:308|324:352,1,90,6|0,1:2|0:0,0:0:0:0:
200,168,54384,1,0,1:0:0:0:
334,83,54534,2,0,P|382:82|427:67,1,90,6|0,1:2|0:0,0:0:0:0:
200,168,54832,1,2,1:2:0:0:
88,278,54981,2,0,P|39:279|-5:294,1,90,6|0,1:2|0:0,0:0:0:0:
200,168,55280,2,0,L|205:135,6,22.5,8|0|0|0|0|0|0,0:0|0:0|0:0|0:0|0:0|0:0|0:0,0:0:0:0:
167,340,55578,1,0,0:0:0:0:
296,248,55728,1,0,0:0:0:0:
328,94,55877,5,2,1:2:0:0:
73,209,56026,1,2,1:2:0:0:
73,209,56325,5,2,1:2:0:0:
296,248,56474,1,2,1:2:0:0:
296,248,56773,5,2,1:2:0:0:
123,345,56922,1,2,1:2:0:0:
123,345,57220,5,2,1:2:0:0:
227,373,57369,1,0,0:0:0:0:
123,345,57668,6,0,L|115:287,1,45,2|0,3:2|0:0,0:0:0:0:
296,248,57817,2,0,L|304:192,1,45,2|0,3:2|0:0,0:0:0:0:
73,209,57966,2,0,L|65:148,1,45,2|0,3:2|0:0,0:0:0:0:
328,94,58116,2,0,L|337:38,1,45,2|0,3:2|0:0,0:0:0:0:
33,53,58265,1,4,0:3:0:0:
33,53,58862,5,8,0:0:0:0:
184,79,59011,2,0,L|108:91,1,67.5000025749208,4|0,0:1|0:0,0:0:0:0:
267,114,59310,2,0,B|270:212,1,90,4|0,3:1|0:0,0:0:0:0:
269,203,59757,5,0,0:0:0:0:
184,79,59907,2,0,L|128:88,1,45,0|0,0:0|0:0,0:0:0:0:
33,53,60056,2,0,L|34:108,3,45,0|0|0|0,0:0|0:0|0:0|0:0,0:0:0:0:
184,79,60354,1,0,0:0:0:0:
269,203,60504,1,0,0:0:0:0:
189,331,60653,5,4,0:1:0:0:
189,331,61250,1,8,0:0:0:0:
345,283,61399,2,0,L|278:291,1,67.5000025749208,0|0,0:1|0:0,1:1:0:0:
448,169,61698,2,0,L|436:259,1,90,4|0,0:1|0:0,0:0:0:0:
436,258,62146,5,2,0:3:0:0:
278,291,62295,1,4,0:3:0:0:
278,291,62369,1,0,0:0:0:0:
278,291,62444,1,2,0:3:0:0:
189,331,62593,6,0,L|138:321,1,45,8|0,0:3|0:0,0:0:0:0:
256,200,62743,2,0,L|211:191,1,45,8|0,0:3|0:0,0:0:0:0:
122,228,62892,2,0,L|112:167,1,45,4|0,0:3|0:0,0:0:0:0:
278,291,63041,6,0,P|327:306|414:278,1,135.000005149842,4|0,0:1|0:0,0:0:0:0:
328,66,63638,1,8,0:0:0:0:
306,224,63787,2,0,P|339:231|377:214,1,67.5000025749208,4|0,3:1|0:0,0:0:0:0:
328,66,64086,2,0,B|333:158,1,90,0|0,1:0|0:0,0:0:0:0:
332,155,64534,5,2,0:2:0:0:
278,291,64683,1,0,0:0:0:0:
309,303,64757,1,0,0:0:0:0:
342,306,64832,1,0,0:0:0:0:
375,299,64906,1,0,0:0:0:0:
405,284,64981,1,0,0:0:0:0:
328,66,65131,1,0,0:0:0:0:
332,155,65280,1,0,0:0:0:0:
328,66,65429,1,4,0:1:0:0:
256,192,65504,12,0,66623,0:0:0:0:
337,254,66922,6,0,L|427:231,1,90
299,175,67369,2,0,L|277:179,2,22.5
211,237,67519,2,0,L|163:246,1,45,0|2,2:0|2:1,0:0:0:0:
424,231,67817,5,4,1:0:0:0:
211,237,67966,2,0,P|193:186|202:137,1,90,2|8,0:1|0:0,0:0:0:0:
496,183,68265,1,2,0:2:0:0:
496,183,68340,1,2,0:0:0:0:
496,183,68414,2,0,P|442:147|402:151,1,90,2|2,1:1|0:0,0:0:0:0:
318,352,68713,5,10,0:1:0:0:
217,231,68862,2,0,P|169:239|108:247,1,90,2|0,0:1|0:0,0:0:0:0:
491,309,69160,1,0,0:0:0:0:
418,174,69310,2,0,P|373:168|329:159,1,90,10|2,0:1|0:2,0:0:0:0:
330,160,69534,1,2,0:2:0:0:
330,160,69608,1,2,1:1:0:0:
286,330,69757,1,2,0:1:0:0:
232,139,69907,2,0,L|216:96,3,30,10|0|0|0,0:1|0:0|0:0|0:0,0:0:0:0:
435,247,70205,5,2,1:1:0:0:
286,330,70354,2,0,P|339:335|393:319,1,90,2|8,0:1|0:0,0:0:0:0:
402,131,70653,1,2,0:2:0:0:
226,211,70802,2,0,P|273:244|321:253,1,90,2|0,0:1|0:0,0:0:0:0:
446,25,71101,1,8,0:0:0:0:
262,94,71250,5,2,0:1:0:0:
262,94,71325,1,2,0:2:0:0:
262,94,71399,1,0,1:0:0:0:
303,252,71549,1,2,0:2:0:0:
138,229,71698,6,0,P|191:219|234:208,1,90,10|2,0:1|0:2,0:0:0:0:
352,58,71996,1,2,1:1:0:0:
303,252,72146,1,2,0:1:0:0:
163,133,72295,2,0,L|152:104,3,30,10|0|0|0,0:0|0:0|0:0|0:0,0:0:0:0:
417,232,72593,5,2,1:1:0:0:
249,76,72743,2,0,P|267:125|258:176,1,90,0|8,0:1|0:1,0:1:0:0:
73,124,73041,1,2,0:2:0:0:
73,124,73116,1,2,0:2:0:0:
73,124,73190,2,0,L|162:132,1,90,2|0,1:1|0:0,0:0:0:0:
172,339,73489,5,8,1:0:0:0:
429,200,73638,2,2,L|340:215,1,90,2|0,2:1|2:1,0:0:0:0:
261,156,73937,1,2,0:2:0:0:
420,334,74086,2,0,L|428:199,1,135,10|2,0:1|0:2,0:0:0:0:
430,173,74384,1,2,1:0:0:0:
395,60,74534,5,0,0:0:0:0:
414,52,74583,1,0,0:0:0:0:
435,51,74633,1,0,0:0:0:0:
455,56,74683,1,8,0:0:0:0:
430,173,74832,1,2,0:1:0:0:
286,121,74981,6,0,B|242:107|242:107|189:128,1,90,2|2,1:1|0:2,0:0:0:0:
149,175,75205,1,2,0:1:0:0:
149,175,75280,2,0,L|141:219,1,45,8|0,0:1|0:0,0:0:0:0:
359,99,75429,2,0,L|365:54,1,45,0|0,0:1|0:0,0:0:0:0:
345,175,75578,6,0,B|389:189|389:189|442:168,1,90,2|2,1:1|0:2,0:0:0:0:
482,121,75802,1,2,0:1:0:0:
482,121,75877,2,0,L|490:77,1,45,8|0,0:1|0:0,0:0:0:0:
272,197,76026,2,0,L|265:241,1,45,2|0,0:1|0:0,0:0:0:0:
225,15,76175,5,2,0:1:0:0:
272,197,76325,1,2,0:1:0:0:
359,99,76474,2,0,L|368:52,1,45,10|0,0:1|0:0,0:0:0:0:
149,175,76623,2,0,L|131:271,1,90,6|2,1:0|0:2,0:0:0:0:
225,15,76922,5,2,1:2:0:0:
272,197,77071,2,0,L|264:240,3,30,10|0|0|0,0:1|0:0|0:0|0:0,0:0:0:0:
66,119,77369,6,2,B|106:105|106:105|159:118|159:118|200:108,1,135,0|0,2:0|2:0,0:0:0:0:
231,101,77668,5,8,0:0:0:0:
261,289,77817,1,0,0:1:0:0:
114,184,77966,1,6,1:1:0:0:
309,185,78116,5,0,0:2:0:0:
309,185,78190,1,2,0:2:0:0:
309,185,78265,1,8,0:0:0:0:
114,184,78414,1,2,0:1:0:0:
201,338,78563,6,0,P|139:331|100:325,1,90,0|2,1:0|0:2,0:0:0:0:
465,299,78862,2,0,L|471:210,1,90,10|2,0:1|0:2,0:0:0:0:
448,180,79086,1,2,0:2:0:0:
417,160,79160,1,2,0:1:0:0:
379,159,79235,1,2,0:2:0:0:
346,178,79310,1,0,0:1:0:0:
293,299,79459,2,0,L|289:252,3,45,8|0|0|0,0:0|0:0|0:0|0:1,0:0:0:0:
285,216,79757,5,2,1:1:0:0:
123,117,79907,2,0,P|117:59|111:-8,1,90,2|8,0:1|0:0,0:0:0:0:
170,223,80205,1,2,0:2:0:0:
170,223,80280,1,2,0:2:0:0:
170,223,80354,2,0,P|117:227|67:230,1,90,2|2,1:1|0:2,0:0:0:0:
253,115,80653,1,10,0:2:0:0:
289,123,80728,1,2,0:2:0:0:
326,118,80802,1,2,0:1:0:0:
359,100,80877,1,2,0:2:0:0:
380,68,80951,5,0,1:0:0:0:
310,218,81101,1,2,0:2:0:0:
168,148,81250,2,0,B|163:102|163:102|180:52,1,90,10|2,0:1|0:2,0:0:0:0:
219,222,81549,2,0,B|230:268|230:268|217:326,1,90,2|0,1:1|0:1,0:0:0:0:
309,114,81847,2,0,L|365:115,3,45,8|0|0|0,0:1|0:0|0:0|0:0,0:0:0:0:
387,118,82146,5,2,1:1:0:0:
451,305,82295,2,0,L|462:208,1,90,0|8,0:1|0:1,0:1:0:0:
296,214,82593,5,2,0:2:0:0:
296,214,82668,1,2,0:2:0:0:
296,214,82743,2,0,L|310:105,1,101.700000310364,2|2,1:1|0:2,0:0:0:0:
207,326,83041,5,8,0:0:0:0:
189,27,83190,2,0,L|166:160,1,111.59999557251,2|0,0:1|1:0,0:0:0:0:
82,357,83489,5,2,0:2:0:0:
37,71,83638,2,0,L|11:218,1,124.200000189514,10|0,0:1|0:0,0:0:0:0:
207,326,83937,5,2,1:1:0:0:
207,326,84011,1,8,0:0:0:0:
207,326,84086,1,0,1:0:0:0:
96,180,84235,1,10,0:1:0:0:
238,218,84384,1,2,1:1:0:0:
121,305,84534,6,0,L|115:260,1,45,6|0,1:1|0:0,0:0:0:0:
292,332,84757,2,0,L|286:287,1,45,8|0,0:0|0:0,0:0:0:0:
469,347,84981,1,8,0:0:0:0:
464,320,85056,1,0,0:0:0:0:
460,292,85131,6,0,L|375:315,1,45,10|0,0:2|0:0,0:0:0:0:
485,160,85354,2,0,L|400:183,1,45,2|0,0:2|1:0,0:0:0:0:
163,236,85578,1,2,1:2:0:0:
136,245,85653,1,0,1:0:0:0:
109,256,85728,6,0,L|117:146,1,90,2|2,1:1|0:2,0:0:0:0:
302,179,85951,2,0,L|308:101,1,45,2|8,1:2|0:0,0:0:0:0:
485,160,86175,2,0,L|491:82,1,45,2|8,1:2|1:2,0:0:0:0:
305,134,86325,6,0,L|215:124,1,90,2|0,1:1|0:0,0:0:0:0:
64,243,86549,5,2,1:1:0:0:
64,243,86623,2,0,L|122:251,1,45,8|0,1:0|1:0,0:0:0:0:
267,236,86772,6,0,L|200:228,1,67.5000025749208,2|0,1:1|1:0,0:0:0:0:
342,300,86922,5,0,1:0:0:0:
489,249,87071,1,0,1:0:0:0:
342,300,87369,5,0,1:0:0:0:
489,249,87519,1,8,0:0:0:0:
366,129,87668,1,0,0:0:0:0:
219,180,87818,1,0,1:0:0:0:
219,180,88116,5,0,1:0:0:0:
366,129,88414,1,0,1:0:0:0:
219,180,88563,1,0,1:0:0:0:
68,90,88713,1,8,0:0:0:0:
215,39,88862,1,0,1:0:0:0:
215,39,89160,6,0,P|203:72|204:100,1,45,0|0,1:0|0:0,1:0:0:0:
219,180,89310,2,0,P|225:214|239:238,3,45,0|0|0|0,1:0|0:0|0:0|0:0,0:0:0:0:
280,309,89608,2,0,P|302:335|327:349,3,45,0|0|0|0,1:0|0:0|0:0|0:0,0:0:0:0:
395,323,89907,6,0,P|407:290|406:262,1,45,8|0,1:0|0:0,1:0:0:0:
391,182,90057,2,0,P|384:147|370:123,3,45,0|0|0|0,1:0|0:0|0:0|0:0,0:0:0:0:
330,53,90355,2,0,P|307:26|282:12,3,45,0|0|0|0,1:0|0:0|0:0|0:0,0:0:0:0:
72,107,90653,6,0,L|124:103,1,45,0|0,1:0|0:0,0:0:0:0:
208,134,90802,2,0,L|270:138,1,45,0|0,1:0|0:0,0:0:0:0:
339,95,90951,1,0,0:0:0:0:
339,95,91026,1,0,0:0:0:0:
339,95,91101,2,0,L|399:91,1,45,8|0,1:0|0:0,0:0:0:0:
490,191,91250,5,0,0:0:0:0:
490,191,91325,1,0,0:0:0:0:
490,191,91399,2,0,L|426:185,1,45,0|0,1:0|0:0,0:0:0:0:
354,215,91549,2,0,L|291:221,1,45
220,187,91698,5,8,1:0:0:0:
178,173,91772,1,0,1:0:0:0:
133,180,91847,1,0,1:0:0:0:
95,205,91922,1,0,1:0:0:0:
73,268,91996,1,8,1:0:0:0:
100,330,92071,1,0,1:0:0:0:
162,357,92146,1,0,1:0:0:0:
227,344,92220,1,0,1:0:0:0:
267,289,92295,5,4,1:3:0:0:
225,40,92892,5,6,3:2:0:0:
