osu file format v14

[General]
AudioFilename: audio.mp3
AudioLeadIn: 0
PreviewTime: 67519
Countdown: 0
SampleSet: Soft
StackLeniency: 0.5
Mode: 0
LetterboxInBreaks: 0
WidescreenStoryboard: 1

[Editor]
Bookmarks: 60653
DistanceSpacing: 1.5
BeatDivisor: 4
GridSize: 8
TimelineZoom: 2.899999

[Metadata]
Title:Chirality
TitleUnicode:Chirality
Artist:Camellia
ArtistUnicode:かめりあ
Creator:Suzuki_1112
Version:Advanced
Source:REFLEC BEAT groovin'!!
Tags:Pending cup #5 1112deng Moecho Moeri Vert LowComboFC LCFC StarrStyx yf_bmp Ryuusei Aika _Stan Kashima fanzhen0019 liaoxingyao SnowNiNo_ Koiyuki Minakami Yuki
BeatmapID:1464580
BeatmapSetID:692068

[Difficulty]
HPDrainRate:4
CircleSize:3.3
OverallDifficulty:5
ApproachRate:8
SliderMultiplier:1.3
SliderTickRate:1

[Events]
//Background and Video events
0,0,"BG3.jpg",0,0
//Break Periods
//Storyboard Layer 0 (Background)
//Storyboard Layer 1 (Fail)
//Storyboard Layer 2 (Pass)
//Storyboard Layer 3 (Foreground)
//Storyboard Sound Samples

[TimingPoints]
952,298.507462686567,4,2,31,70,1,0
14383,-100,4,2,31,40,0,0
14981,-100,4,2,31,70,0,0
15205,-100,4,2,31,5,0,0
15280,-100,4,2,31,70,0,0
29309,-100,4,1,31,70,0,0
29458,-100,4,2,31,40,0,0
29608,-100,4,2,31,70,0,0
61996,-100,4,2,31,40,0,0
63041,-100,4,2,31,70,0,0
67519,-100,4,1,31,25,0,0
67817,-83.3333333333333,4,2,31,70,0,1
73488,-83.3333333333333,4,1,31,70,0,1
73712,-83.3333333333333,4,2,31,70,0,1
77369,-83.3333333333333,4,1,31,70,0,0
77668,-83.3333333333333,4,2,31,70,0,1
86922,-100,4,2,31,70,0,0
96772,333.333333333333,4,2,1,70,1,0
96938,342.857142857143,4,2,1,70,1,0
97109,387.096774193548,4,2,1,70,1,0
97302,413.793103448276,4,2,1,70,1,0
97508,470.588235294118,4,2,1,70,1,0
97743,585.365853658537,4,2,1,70,1,0

[Colours]
Combo1 : 51,36,100
Combo2 : 128,255,255
Combo3 : 139,32,145
Combo4 : 130,108,230

[HitObjects]
55,74,10504,6,0,L|211:88,1,130,0|0,1:0|0:0,0:0:0:0:
346,37,11101,1,8,0:0:0:0:
399,102,11250,2,0,L|386:252,1,130,0|0,1:0|1:0,0:0:0:0:
168,344,12892,6,0,P|154:282|175:191,1,130,0|0,1:0|0:0,0:0:0:0:
283,96,13489,1,8,0:0:0:0:
208,136,13638,2,0,L|61:121,1,130,0|0,1:0|1:0,0:0:0:0:
78,122,14384,6,0,L|86:209,1,65,2|4,0:3|0:3,0:0:0:0:
143,247,14683,2,0,L|127:325,1,65,2|4,0:3|0:3,0:0:0:0:
192,367,14981,2,0,B|260:369|260:369|297:343,1,97.5,2|0,0:2|0:0,0:0:0:0:
284,352,15280,6,0,L|279:197,1,130,0|0,1:0|0:0,0:0:0:0:
187,79,15877,1,8,0:0:0:0:
109,112,16026,2,0,L|88:260,1,130,0|0,0:0|0:0,0:0:0:0:
427,290,17668,6,0,P|441:192|422:145,1,130,0|0,0:0|0:0,0:0:0:0:
316,40,18265,1,0,0:0:0:0:
267,108,18414,2,0,L|183:98,1,65,0|0,0:0|0:0,0:0:0:0:
129,144,18713,2,0,L|74:137,2,32.5,0|0|0,0:0|0:0|3:2,0:0:0:0:
196,217,20056,6,0,P|201:263|195:299,1,65,4|0,1:0|0:0,0:0:0:0:
158,355,20354,2,0,L|100:350,3,32.5,0|0|0|0,0:0|0:0|0:0|0:0,0:0:0:0:
84,364,20653,2,0,P|79:301|93:242,2,97.5,10|2|2,0:1|0:1|0:1,0:0:0:0:
199,281,21250,6,0,L|330:275,1,130,0|0,1:0|0:0,0:0:0:0:
472,185,21847,1,8,3:1:0:0:
398,143,21996,1,0,3:0:0:0:
326,189,22146,2,0,B|285:188|285:188|271:180|271:180|206:183,1,97.5,0|0,3:0|0:0,0:0:0:0:
230,181,22444,6,0,P|221:136|237:93,1,65,4|0,1:2|0:0,0:0:0:0:
174,50,22743,2,0,L|121:57,3,32.5,0|0|0|0,0:0|0:0|0:0|0:0,0:0:0:0:
99,48,23041,2,0,P|89:105|103:151,2,97.5,10|2|2,0:1|0:1|0:1,0:0:0:0:
224,118,23638,6,0,B|260:112|260:112|318:121,1,65,0|0,1:0|0:0,0:0:0:0:
369,89,23937,2,0,P|376:139|365:165,1,65,0|0,0:0|0:0,0:0:0:0:
354,234,24235,2,0,P|307:222|226:239,1,130,10|2,3:2|3:2,0:0:0:0:
82,323,24832,6,0,L|79:232,1,65,6|0,1:2|0:0,0:0:0:0:
107,177,25131,2,0,L|107:133,3,32.5,0|0|0|0,0:0|0:0|0:0|0:0,0:0:0:0:
87,107,25429,2,0,P|157:127|202:119,2,97.5,10|2|2,0:1|0:1|0:1,0:0:0:0:
107,24,26026,6,0,B|166:39|166:39|240:19,1,130,0|2,1:0|0:0,0:0:0:0:
309,56,26474,1,2,0:0:0:0:
393,48,26623,2,0,P|398:106|386:137,1,65,8|0,3:1|3:0,0:0:0:0:
347,180,26922,2,0,B|333:209|333:209|333:244|333:244|358:293,1,97.5,0|0,3:0|0:0,0:0:0:0:
346,270,27220,6,0,B|184:238|251:335|86:280,1,260,4|8,1:0|0:0,0:0:0:0:
13,245,27966,1,2,0:0:0:0:
81,195,28116,6,0,B|54:148|54:148|72:8,1,195,4|2,1:0|1:2,0:0:0:0:
144,53,28713,1,0,1:0:0:0:
308,88,29011,2,0,B|372:103|372:103|438:82,1,130,8|0,0:0|2:0,0:0:0:0:
507,235,29608,6,0,P|452:233|421:242,1,65,4|0,1:0|0:0,0:0:0:0:
388,300,29907,2,0,L|392:357,3,32.5,0|0|0|0,0:0|0:0|0:0|0:0,0:0:0:0:
353,352,30205,2,0,B|323:367|323:367|250:363,2,97.5,10|2|2,0:1|0:1|0:1,0:0:0:0:
303,283,30802,6,0,P|244:268|186:302,1,130,0|0,1:0|0:0,0:0:0:0:
19,322,31399,1,8,3:1:0:0:
32,238,31549,1,0,3:0:0:0:
46,154,31698,2,0,B|81:158|81:158|101:151|101:151|168:156,1,97.5,0|0,3:0|0:0,0:0:0:0:
141,154,31996,6,0,P|182:157|222:139,1,65,4|0,1:2|0:0,0:0:0:0:
285,144,32295,2,0,L|281:112,3,32.5,0|0|0|0,0:0|0:0|0:0|0:0,0:0:0:0:
307,84,32593,2,0,P|345:101|414:86,2,97.5,10|2|2,0:1|0:1|0:1,0:0:0:0:
358,7,33190,6,0,L|450:-1,1,65,0|0,1:0|0:0,0:0:0:0:
482,66,33489,2,0,P|485:120|474:146,1,65,0|2,0:0|0:2,0:0:0:0:
407,180,33787,2,0,B|384:241|384:241|410:316,1,130,10|2,3:2|3:2,0:0:0:0:
226,331,34384,5,2,1:2:0:0:
201,342,34981,2,0,L|204:262,1,65,4|0,3:0|3:0,0:0:0:0:
180,195,35280,1,8,0:0:0:0:
61,94,35578,6,0,L|52:152,3,32.5,0|0|0|0,1:0|1:0|1:0|1:0,0:0:0:0:
170,71,36026,1,0,1:0:0:0:
245,109,36175,2,0,L|341:102,1,65,8|0,3:1|3:1,0:0:0:0:
382,60,36474,2,0,B|394:109|394:109|377:182,1,97.5,0|0,3:0|0:0,0:0:0:0:
363,192,36772,6,0,L|506:184,1,130,4|8,1:0|0:0,0:0:0:0:
474,371,37369,1,0,1:0:0:0:
355,302,37593,2,0,L|263:309,1,65
213,365,37966,2,0,L|81:372,2,130,2|10|2,1:2|0:2|1:2,0:0:0:0:
260,207,38862,2,0,L|256:155,3,32.5,10|2|2|2,1:2|1:2|1:2|1:2,0:0:0:0:
264,246,39160,5,4,1:0:0:0:
176,214,39310,2,0,P|153:161|174:88,2,130,0|0|0,1:0|1:0|0:0,0:0:0:0:
342,185,40205,2,0,P|365:238|344:311,2,130,0|0|0,1:0|1:0|0:0,0:0:0:0:
296,113,40951,2,0,B|297:93|297:93|300:84|300:84|298:76|298:76|299:40,2,65,10|10|10,0:0|0:0|0:0,0:0:0:0:
129,79,41549,5,0,1:0:0:0:
197,161,41698,2,0,L|51:164,2,130,0|0|0,1:0|1:0|0:0,0:0:0:0:
290,301,42593,2,0,L|436:304,2,130,0|0|2,1:0|1:0|0:0,0:0:0:0:
120,307,43489,2,0,B|105:239|147:260|124:176,1,130,2|2,0:0|0:0,0:0:0:0:
63,103,43937,5,0,1:0:0:0:
126,40,44086,2,0,B|174:59|174:59|275:46,2,130,0|0|0,1:0|1:0|0:0,0:0:0:0:
265,135,44981,2,0,B|313:116|313:116|414:129,2,130,0|0|0,1:0|1:0|0:0,0:0:0:0:
149,258,45877,1,2,0:1:0:0:
316,241,46175,1,0,1:0:0:0:
398,262,46325,5,0,1:0:0:0:
336,320,46474,2,0,B|269:301|289:361|182:329,2,130,0|0|0,1:0|1:0|0:0,0:0:0:0:
378,159,47369,2,0,B|445:140|425:200|532:168,2,130,0|0|0,1:0|1:0|0:0,0:0:0:0:
84,53,48713,5,2,1:2:0:0:
143,113,48862,2,0,L|134:267,1,130,6|2,1:2|1:2,0:0:0:0:
54,268,49310,2,0,L|61:138,1,130,12|0,0:0|1:0,0:0:0:0:
143,113,49757,2,0,B|231:102|231:102|293:129,1,130,6|2,1:2|1:2,0:0:0:0:
299,197,50205,2,0,B|336:213|336:213|424:202,1,130,4|8,1:2|0:0,0:0:0:0:
210,354,51101,5,2,1:2:0:0:
129,329,51250,2,0,P|111:267|144:189,1,130,6|2,1:2|1:2,0:0:0:0:
211,230,51698,2,0,P|229:168|196:90,1,130,12|0,0:2|1:0,0:0:0:0:
209,22,52146,2,0,L|74:27,1,130,6|0,1:2|1:0,0:0:0:0:
80,112,52593,2,0,L|215:107,1,130,4|10,1:2|0:0,0:0:0:0:
428,53,53489,5,2,1:2:0:0:
369,113,53638,2,0,L|378:267,1,130,6|2,1:2|1:2,0:0:0:0:
458,268,54086,2,0,L|450:138,1,130,12|0,0:0|1:0,0:0:0:0:
369,113,54533,2,0,B|281:102|281:102|219:129,1,130,6|2,1:2|1:2,0:0:0:0:
213,197,54981,2,0,B|175:213|175:213|87:202,1,130,4|8,1:2|0:0,0:0:0:0:
302,354,55877,5,2,1:2:0:0:
383,329,56026,2,0,P|401:267|368:189,1,130,2|2,1:2|1:2,0:0:0:0:
301,230,56474,2,0,P|283:168|316:90,1,130,2|2,1:2|1:2,0:0:0:0:
303,22,56922,2,0,L|438:27,1,130,2|2,1:2|1:2,0:0:0:0:
465,104,57369,1,2,1:2:0:0:
301,107,57668,2,0,L|207:103,1,65,0|0,3:0|3:0,0:0:0:0:
163,147,57966,2,0,P|156:202|171:232,1,65,0|0,3:0|3:0,0:0:0:0:
191,294,58265,6,0,B|340:320|271:186|431:215,1,260,4|8,3:1|0:0,0:0:0:0:
497,280,59011,2,0,B|525:223|525:223|499:151,1,130,0|0,1:0|1:0,0:0:0:0:
321,294,60653,6,0,B|172:320|241:186|81:215,1,260,6|8,3:1|0:0,0:0:0:0:
15,280,61399,2,0,B|-13:223|-13:223|13:151,1,130,2|2,1:0|1:0,0:0:0:0:
332,294,63041,6,0,P|443:296|386:232,1,260,6|8,3:1|0:0,0:0:0:0:
338,163,63787,2,0,B|277:183|277:183|257:256,1,130,2|2,1:0|1:0,0:0:0:0:
180,294,65429,6,0,P|69:296|126:232,1,260,6|8,3:1|0:0,0:0:0:0:
216,208,66175,1,0,1:0:0:0:
290,255,66325,2,0,L|290:311,4,32.5,8|0|0|0|0,0:0|0:0|1:0|0:0|1:0,0:0:0:0:
410,299,66922,5,0,0:0:0:0:
65,67,67817,5,4,1:0:0:0:
130,144,67966,2,0,L|301:135,1,155.999995239258,0|2,1:0|0:2,0:0:0:0:
379,95,68414,2,0,P|399:181|375:257,1,155.999995239258,2|8,1:1|0:0,0:0:0:0:
288,285,68862,2,0,P|268:199|292:123,1,155.999995239258,2|2,0:1|0:0,0:0:0:0:
379,95,69310,1,10,0:1:0:0:
185,34,69608,2,0,L|80:39,1,77.999997619629,2|2,1:1|0:1,0:0:0:0:
46,144,69907,2,0,P|42:188|51:213,2,38.9999988098145,8|0|2,0:0|0:0|0:1,0:0:0:0:
97,282,70205,5,2,1:1:0:0:
179,347,70354,2,0,B|215:361|215:361|352:353,1,155.999995239258,2|2,0:1|0:2,0:0:0:0:
431,330,70802,2,0,L|435:159,1,155.999995239258,2|8,1:1|0:0,0:0:0:0:
440,72,71250,2,0,P|369:88|331:170,1,155.999995239258,2|2,0:1|0:2,0:0:0:0:
323,258,71698,1,10,0:1:0:0:
120,245,71996,2,0,L|116:148,1,77.999997619629,2|2,1:1|0:1,0:0:0:0:
115,67,72295,2,0,L|180:61,2,38.9999988098145,8|0|2,0:0|0:0|0:1,0:0:0:0:
227,132,72593,5,2,1:1:0:0:
243,232,72743,2,0,B|336:252|295:178|413:205,1,155.999995239258,2|2,0:1|0:2,0:0:0:0:
475,254,73190,2,0,P|449:313|335:336,1,155.999995239258,2|8,1:1|2:0,0:0:0:0:
266,330,73638,2,0,L|99:334,1,155.999995239258,2|2,2:1|0:2,0:0:0:0:
41,258,74086,1,10,0:1:0:0:
41,55,74384,2,0,L|125:49,1,77.999997619629,0|2,1:0|0:1,0:0:0:0:
203,106,74683,2,0,P|257:109|311:85,1,77.999997619629,8|2,0:0|0:1,0:0:0:0:
366,50,74981,6,0,L|516:39,2,116.999996429443,2|2|2,1:1|0:1|0:1,0:0:0:0:
369,151,75578,2,0,L|519:162,2,116.999996429443,2|2|2,1:1|0:1|0:1,0:0:0:0:
334,246,76175,6,0,P|341:289|331:333,1,77.999997619629,4|2,1:0|0:2,0:0:0:0:
244,369,76474,2,0,P|238:330|245:292,1,77.999997619629,8|4,0:0|1:0,0:0:0:0:
75,170,76922,1,2,1:2:0:0:
41,253,77071,2,0,B|80:262|80:262|116:253,1,77.999997619629,8|2,0:0|1:2,0:0:0:0:
286,40,77668,6,0,L|179:43,1,77.999997619629,8|2,0:0|0:1,0:0:0:0:
120,104,77966,2,0,P|100:190|124:266,1,155.999995239258,6|8,1:1|0:0,0:0:0:0:
211,294,78414,2,0,P|231:208|207:132,1,155.999995239258,2|2,0:1|0:2,0:0:0:0:
120,104,78862,1,10,0:1:0:0:
314,43,79160,2,0,L|419:48,1,77.999997619629,2|2,1:1|0:1,0:0:0:0:
466,144,79459,2,0,P|470:188|461:213,2,38.9999988098145,8|0|2,0:0|0:0|0:1,0:0:0:0:
417,291,79757,5,2,1:1:0:0:
320,356,79906,2,0,B|284:370|284:370|147:362,1,155.999995239258,2|2,0:1|0:2,0:0:0:0:
68,339,80354,2,0,L|64:168,1,155.999995239258,2|8,1:1|0:2,0:0:0:0:
59,81,80802,2,0,P|130:97|168:179,1,155.999995239258,2|2,0:1|0:2,0:0:0:0:
176,267,81250,1,10,0:1:0:0:
379,254,81548,2,0,L|383:157,1,77.999997619629,2|2,1:1|0:1,0:0:0:0:
397,67,81847,2,0,L|332:61,2,38.9999988098145,8|0|2,0:0|0:0|0:1,0:0:0:0:
272,141,82145,5,2,1:1:0:0:
256,241,82295,2,0,B|163:261|204:187|86:214,1,155.999995239258,2|2,0:1|0:2,0:0:0:0:
24,263,82742,2,0,P|50:322|164:345,1,155.999995239258,2|8,1:1|0:0,0:0:0:0:
233,339,83190,2,0,L|400:343,1,155.999995239258,2|2,0:1|0:2,0:0:0:0:
458,267,83638,1,10,0:1:0:0:
458,64,83936,2,0,L|374:58,1,77.999997619629,2|0,1:1|1:0,0:0:0:0:
296,115,84235,2,0,P|242:118|188:94,1,77.999997619629,10|2,0:1|1:1,0:0:0:0:
133,59,84533,6,0,L|-17:48,2,116.999996429443,6|8|8,1:1|0:0|0:0,0:0:0:0:
130,160,85130,2,0,L|-20:171,2,116.999996429443,10|2|2,0:2|0:2|1:2,0:0:0:0:
257,241,85728,6,0,L|373:232,2,116.999996429443,2|2|2,1:1|1:2|1:2,0:0:0:0:
260,342,86325,2,0,L|376:350,2,116.999996429443,2|2|2,1:1|1:1|1:1,0:0:0:0:
114,288,86922,6,0,L|18:290,1,65,0|0,1:0|1:0,0:0:0:0:
5,112,87369,1,0,1:0:0:0:
45,30,87519,2,0,L|110:29,1,65,8|0,0:0|1:0,0:0:0:0:
203,57,87817,2,0,L|344:51,1,130,0|0,1:0|1:0,0:0:0:0:
428,222,88414,6,0,L|334:213,2,65,0|0|8,1:0|1:0|0:0,0:0:0:0:
503,284,88862,1,0,1:0:0:0:
319,347,89160,1,0,1:0:0:0:
242,286,89310,6,0,L|113:296,1,130,0|0,1:0|1:0,0:0:0:0:
34,116,89907,1,8,1:0:0:0:
106,50,90056,2,0,L|258:58,1,130,0|0,1:0|1:0,0:0:0:0:
429,33,90653,6,0,L|513:24,1,65,0|0,1:0|1:0,0:0:0:0:
492,221,91101,2,0,L|348:212,1,130,8|0,1:0|1:0,0:0:0:0:
270,179,91549,1,0,1:0:0:0:
202,248,91698,6,0,P|200:289|212:321,1,65,8|0,1:0|1:0,0:0:0:0:
282,373,91996,2,0,L|360:372,1,65,8|0,1:0|1:0,0:0:0:0:
438,338,92295,1,4,1:3:0:0:
397,72,92892,5,0,0:0:0:0:
