osu file format v14

[General]
AudioFilename: audio.mp3
AudioLeadIn: 0
PreviewTime: 67519
Countdown: 0
SampleSet: Soft
StackLeniency: 0.7
Mode: 0
LetterboxInBreaks: 0
WidescreenStoryboard: 1

[Editor]
DistanceSpacing: 0.9
BeatDivisor: 2
GridSize: 4
TimelineZoom: 2.799999

[Metadata]
Title:Chirality
TitleUnicode:Chirality
Artist:Camellia
ArtistUnicode:かめりあ
Creator:Suzuki_1112
Version:Novice
Source:REFLEC BEAT groovin'!!
Tags:Pending cup #5 1112deng Moecho Moeri Vert LowComboFC LCFC StarrStyx yf_bmp Ryuusei Aika _Stan Kashima fanzhen0019 liaoxingyao SnowNiNo_ Koiyuki Minakami Yuki
BeatmapID:1473811
BeatmapSetID:692068

[Difficulty]
HPDrainRate:3.5
CircleSize:3
OverallDifficulty:3
ApproachRate:4.5
SliderMultiplier:0.8
SliderTickRate:1

[Events]
//Background and Video events
0,0,"BG2.jpg",0,0
//Break Periods
2,58465,66557
//Storyboard Layer 0 (Background)
//Storyboard Layer 1 (Fail)
//Storyboard Layer 2 (Pass)
//Storyboard Layer 3 (Foreground)
//Storyboard Sound Samples

[TimingPoints]
952,298.507462686567,4,2,31,70,1,0
14383,-100,4,2,31,40,0,0
14981,-100,4,2,31,70,0,0
29309,-100,4,1,31,70,0,0
29458,-100,4,2,31,40,0,0
29608,-100,4,2,31,70,0,0
67817,-100,4,2,31,70,0,1
73488,-100,4,1,31,70,0,1
73712,-100,4,2,31,70,0,1
77369,-100,4,1,31,70,0,1
77668,-100,4,2,31,70,0,1
86922,-100,4,2,31,70,0,0
96772,333.333333333333,4,2,31,70,1,0
96938,342.857142857143,4,2,31,70,1,0
97109,387.096774193548,4,2,31,70,1,0
97302,413.793103448276,4,2,31,70,1,0
97508,470.588235294118,4,2,31,70,1,0
97743,585.365853658537,4,2,31,70,1,0

[Colours]
Combo1 : 234,247,115
Combo2 : 255,128,128
Combo3 : 255,182,147
Combo4 : 249,211,134

[HitObjects]
439,226,10504,6,0,B|370:240|306:206|306:206|257:245|164:236,1,280,0|0,1:0|1:0,0:0:0:0:
43,46,12892,6,0,B|112:32|176:66|176:66|225:27|318:36,1,280,0|0,1:0|1:0,0:0:0:0:
467,195,15280,6,0,B|371:186|371:186|303:239|303:239|192:226,1,280,0|0,1:0|0:0,0:0:0:0:
28,84,17668,6,0,B|131:77|131:77|223:148|223:148|322:134,1,320,0|0,1:0|0:0,0:0:0:0:
436,320,20056,6,0,P|453:269|432:165,1,160,4|10,1:0|0:1,0:0:0:0:
328,68,21250,2,0,L|135:78,1,160,0|8,1:0|3:1,0:0:0:0:
40,143,22444,2,0,B|20:223|20:223|58:322,1,160,4|10,1:2|0:1,0:0:0:0:
162,382,23638,2,0,L|349:365,1,160,0|10,1:0|3:2,0:0:0:0:
391,351,24534,1,2,3:2:0:0:
458,325,24832,6,0,B|449:286|428:252|428:252|437:207|420:156,1,160,6|10,1:2|0:1,0:0:0:0:
355,45,26026,2,0,B|346:84|325:118|325:118|334:163|317:214,1,160,0|8,1:0|3:1,0:0:0:0:
265,330,27220,6,0,B|209:359|209:359|169:334|87:317|23:354,1,240,4|4,1:0|1:0,0:0:0:0:
30,130,29011,2,0,B|69:121|69:121|137:142,1,80,8|0,0:0|2:0,0:0:0:0:
168,171,29608,6,0,L|359:158,1,160,4|10,1:0|0:1,0:0:0:0:
412,276,30802,2,0,L|246:290,1,160,0|8,1:0|3:1,0:0:0:0:
117,339,31996,6,0,B|82:352|46:342|46:342|19:313|24:277|46:233,1,160,4|10,1:2|0:1,0:0:0:0:
67,119,33190,2,0,B|110:129|110:129|147:120|147:120|183:127|183:127|231:109,1,160,0|10,1:0|3:2,0:0:0:0:
277,66,34086,1,2,3:2:0:0:
348,67,34384,5,2,1:2:0:0:
401,276,35280,1,8,0:0:0:0:
346,229,35578,2,0,B|264:244|264:244|231:325,1,160,0|8,1:0|3:1,0:0:0:0:
98,359,36772,6,0,P|75:302|106:182,1,160,4|0,1:0|1:0,0:0:0:0:
161,208,37668,1,8,0:0:0:0:
232,209,37966,2,0,P|240:159|224:115,1,80,2|10,1:2|0:2,0:0:0:0:
191,72,38563,1,2,1:2:0:0:
120,57,38862,1,10,1:2:0:0:
48,64,39160,6,0,L|297:50,2,240,4|0|10,1:0|1:0|0:0,0:0:0:0:
39,207,41549,6,0,B|189:192|111:302|291:265,2,240,0|0|10,1:0|1:0|0:0,0:0:0:0:
159,128,43937,6,0,B|250:122|250:122|294:145|294:145|430:130,2,240,0|0|10,1:0|1:0|0:0,0:0:0:0:
208,263,46325,6,0,P|92:268|-7:186,2,240,0|0|8,1:0|1:0|0:0,0:0:0:0:
464,64,48713,6,0,L|215:50,2,240,4|0|10,1:0|1:0|0:0,0:0:0:0:
473,207,51102,6,0,B|323:192|401:302|221:265,2,240,0|0|10,1:0|1:0|0:0,0:0:0:0:
353,128,53490,6,0,B|262:122|262:122|218:145|218:145|82:130,2,240,0|0|10,1:0|1:0|0:0,0:0:0:0:
256,192,55877,12,2,58265,1:2:0:0:
28,54,67817,6,0,P|106:41|210:66,1,160,4|2,1:0|1:1,0:0:0:0:
224,115,68713,1,8,0:0:0:0:
259,177,69011,2,0,L|358:176,2,80,0|10|2,1:0|0:1|1:1,0:0:0:0:
201,219,69907,1,8,0:0:0:0:
149,267,70205,6,0,B|198:328|198:328|299:345,1,160,2|2,1:1|1:1,0:0:0:0:
350,342,71101,1,8,0:0:0:0:
421,345,71399,2,0,P|425:289|418:261,1,80,0|10,1:0|0:1,0:0:0:0:
364,219,71996,2,0,L|359:105,1,80,2|8,1:1|0:0,0:0:0:0:
406,83,72593,6,0,P|339:127|248:113,1,160,2|2,1:1|1:1,0:0:0:0:
193,98,73489,1,8,2:0:0:0:
123,115,73787,2,0,L|15:108,2,80,0|10|0,1:0|0:1|1:0,0:0:0:0:
168,171,74683,1,8,0:0:0:0:
215,220,74981,6,0,B|204:283|204:283|219:340,1,120,2|2,1:1|0:1,0:0:0:0:
230,371,75578,2,0,L|367:360,1,120,2|2,1:1|0:1,0:0:0:0:
384,353,76175,6,0,P|395:288|371:226,1,120,4|4,1:0|1:0,0:0:0:0:
288,178,77071,1,8,0:0:0:0:
380,67,77668,6,0,P|301:53|207:78,1,160,8|8,0:0|0:0,0:0:0:0:
196,136,78563,2,0,L|97:135,2,80,0|10|2,1:0|0:1|1:1,0:0:0:0:
244,189,79459,1,8,0:0:0:0:
297,237,79757,6,0,B|248:298|248:298|147:315,1,160,2|2,1:1|1:1,0:0:0:0:
96,326,80653,1,8,0:2:0:0:
25,338,80951,2,0,P|21:282|28:254,1,80,0|10,1:0|0:1,0:0:0:0:
79,211,81548,2,0,L|84:97,1,80,2|8,1:1|0:0,0:0:0:0:
43,70,82145,6,0,P|110:114|201:100,1,160,2|2,1:1|1:1,0:0:0:0:
254,82,83041,1,8,0:0:0:0:
323,98,83339,2,0,L|431:91,2,80,0|10|2,1:0|0:1|1:1,0:0:0:0:
283,158,84235,1,10,0:1:0:0:
240,216,84534,6,0,L|60:208,1,160,6|10,1:1|0:2,0:0:0:0:
61,351,85728,2,0,L|251:358,1,160,2|2,1:1|1:1,0:0:0:0:
364,361,86922,5,0,1:0:0:0:
468,261,87519,2,0,L|464:171,1,80,8|0,0:0|1:0,0:0:0:0:
320,178,88414,6,0,L|316:88,1,80,0|8,1:0|0:0,0:0:0:0:
176,61,89310,5,0,1:0:0:0:
72,161,89907,1,8,1:0:0:0:
112,300,90504,6,0,L|218:294,1,80,0|0,1:0|1:0,0:0:0:0:
276,357,91101,2,0,L|383:352,1,80,8|0,1:0|1:0,0:0:0:0:
427,345,91698,6,0,B|434:305|434:305|421:246,2,80,8|8|4,1:0|1:0|1:3,0:0:0:0:
304,268,92892,5,0,0:0:0:0:
