osu file format v14

[General]
AudioFilename: audio.mp3
AudioLeadIn: 0
PreviewTime: 67519
Countdown: 0
SampleSet: Soft
StackLeniency: 0.2
Mode: 0
LetterboxInBreaks: 0
WidescreenStoryboard: 1

[Editor]
DistanceSpacing: 0.1
BeatDivisor: 4
GridSize: 32
TimelineZoom: 2.799999

[Metadata]
Title:Chirality
TitleUnicode:Chirality
Artist:Camellia
ArtistUnicode:かめりあ
Creator:Suzuki_1112
Version:Moecho's Hypertrophy Xtra
Source:REFLEC BEAT groovin'!!
Tags:Pending cup #5 1112deng Moecho Moeri Vert LowComboFC LCFC StarrStyx yf_bmp Ryuusei Aika _Stan Kashima fanzhen0019 liaoxingyao SnowNiNo_ Koiyuki Minakami Yuki
BeatmapID:1517055
BeatmapSetID:692068

[Difficulty]
HPDrainRate:6
CircleSize:4
OverallDifficulty:8
ApproachRate:9.5
SliderMultiplier:2
SliderTickRate:1

[Events]
//Background and Video events
0,0,"BGMOERIKO.jpg",0,0
//Break Periods
//Storyboard Layer 0 (Background)
//Storyboard Layer 1 (Fail)
//Storyboard Layer 2 (Pass)
//Storyboard Layer 3 (Foreground)
//Storyboard Sound Samples
Sample,38862,0,"G#6.wav",50
Sample,38937,0,"G6.wav",50
Sample,39011,0,"D#6.wav",50
Sample,39086,0,"C6.wav",50
Sample,39160,0,"A#5.wav",50
Sample,39310,0,"C6.wav",50
Sample,39608,0,"D#6.wav",50
Sample,39907,0,"F6.wav",50
Sample,40205,0,"A#5.wav",50
Sample,40504,0,"C6.wav",50
Sample,40802,0,"D#6.wav",50
Sample,41101,0,"F6.wav",50
Sample,41399,0,"G6.wav",50
Sample,41549,0,"A#5.wav",50
Sample,41698,0,"C6.wav",50
Sample,41996,0,"D#6.wav",50
Sample,42295,0,"F6.wav",50
Sample,42593,0,"A#5.wav",50
Sample,42892,0,"C6.wav",50
Sample,43190,0,"D#6.wav",50
Sample,43489,0,"A#6.wav",50
Sample,43787,0,"G#6.wav",50
Sample,43937,0,"G6.wav",50
Sample,44086,0,"D#6.wav",50
Sample,44384,0,"A#5.wav",50
Sample,44683,0,"C6.wav",50
Sample,44981,0,"G6.wav",50
Sample,45280,0,"D#6.wav",50
Sample,45578,0,"A#5.wav",50
Sample,45877,0,"C6.wav",50
Sample,46175,0,"F6.wav",50
Sample,46325,0,"G6.wav",50
Sample,46474,0,"D#6.wav",50
Sample,46772,0,"A#5.wav",50
Sample,47071,0,"C6.wav",50
Sample,47369,0,"G6.wav",50
Sample,47668,0,"G#6.wav",50
Sample,47966,0,"D#7.wav",50
Sample,48713,0,"A#5.wav",50
Sample,48862,0,"C6.wav",50
Sample,49160,0,"D#6.wav",50
Sample,49459,0,"F6.wav",50
Sample,49757,0,"A#5.wav",50
Sample,50056,0,"C6.wav",50
Sample,50354,0,"D#6.wav",50
Sample,50653,0,"F6.wav",50
Sample,50951,0,"G6.wav",50
Sample,51101,0,"A#5.wav",50
Sample,51250,0,"C6.wav",50
Sample,51549,0,"D#6.wav",50
Sample,51847,0,"F6.wav",50
Sample,52146,0,"A#5.wav",50
Sample,52444,0,"C6.wav",50
Sample,52743,0,"D#6.wav",50
Sample,53041,0,"A#6.wav",50
Sample,53340,0,"G#6.wav",50
Sample,53489,0,"G6.wav",50
Sample,53638,0,"D#6.wav",50
Sample,53937,0,"A#5.wav",50
Sample,54235,0,"C6.wav",50
Sample,54534,0,"G6.wav",50
Sample,54832,0,"D#6.wav",50
Sample,55131,0,"A#5.wav",50
Sample,55429,0,"C6.wav",50
Sample,55728,0,"F6.wav",50
Sample,55877,0,"G6.wav",50
Sample,56026,0,"D#6.wav",50
Sample,56325,0,"F6.wav",50
Sample,56474,0,"C6.wav",50
Sample,56772,0,"D#6.wav",50
Sample,56922,0,"A#5.wav",50
Sample,57220,0,"F6.wav",50
Sample,57369,0,"A#6.wav",50
Sample,57668,0,"C7.wav",50
Sample,57817,0,"C#7.wav",50
Sample,57966,0,"C7.wav",50
Sample,58116,0,"A#6.wav",50
Sample,58265,0,"C7.wav",50
Sample,67817,0,"F4.wav",50
Sample,67966,0,"G4.wav",50
Sample,68265,0,"G#4.wav",50
Sample,68414,0,"A#4.wav",50
Sample,68713,0,"G#4.wav",50
Sample,68862,0,"C5.wav",50
Sample,69160,0,"A#4.wav",50
Sample,69310,0,"F5.wav",50
Sample,69608,0,"D#5.wav",50
Sample,69757,0,"C5.wav",50
Sample,69907,0,"A#4.wav",50
Sample,70056,0,"G#4.wav",50
Sample,70205,0,"G4.wav",50
Sample,70354,0,"G#4.wav",50
Sample,70653,0,"A#4.wav",50
Sample,70802,0,"C5.wav",50
Sample,71101,0,"A#4.wav",50
Sample,71250,0,"D#5.wav",50
Sample,71549,0,"C5.wav",50
Sample,71698,0,"G#5.wav",50
Sample,71996,0,"G5.wav",50
Sample,72146,0,"D#5.wav",50
Sample,72295,0,"A#4.wav",50
Sample,72444,0,"G#4.wav",50
Sample,72593,0,"F4.wav",50
Sample,72743,0,"G4.wav",50
Sample,73041,0,"G#4.wav",50
Sample,73190,0,"A#4.wav",50
Sample,73489,0,"G#4.wav",50
Sample,73638,0,"C5.wav",50
Sample,73937,0,"A#4.wav",50
Sample,74086,0,"F5.wav",50
Sample,74384,0,"G#5.wav",50
Sample,74534,0,"G5.wav",50
Sample,74683,0,"F5.wav",50
Sample,74832,0,"C5.wav",50
Sample,74981,0,"D#5.wav",50
Sample,75205,0,"A#4.wav",50
Sample,75429,0,"G#4.wav",50
Sample,75578,0,"D#5.wav",50
Sample,75802,0,"A#4.wav",50
Sample,76026,0,"G#4.wav",50
Sample,76175,0,"G4.wav",50
Sample,76325,0,"G#4.wav",50
Sample,76474,0,"A#4.wav",50
Sample,76623,0,"C5.wav",50
Sample,76922,0,"C#5.wav",50
Sample,77071,0,"C5.wav",50
Sample,77220,0,"A#4.wav",50
Sample,77668,0,"G4.wav",50
Sample,77817,0,"G#4.wav",50
Sample,77966,0,"A#4.wav",50
Sample,78265,0,"G#4.wav",50
Sample,78414,0,"C5.wav",50
Sample,78713,0,"A#4.wav",50
Sample,78862,0,"F5.wav",50
Sample,79160,0,"D#5.wav",50
Sample,79310,0,"C5.wav",50
Sample,79459,0,"A#4.wav",50
Sample,79618,0,"G#4.wav",50
Sample,79757,0,"G4.wav",50
Sample,79907,0,"G#4.wav",50
Sample,80205,0,"A#4.wav",50
Sample,80354,0,"C5.wav",50
Sample,80653,0,"A#4.wav",50
Sample,80802,0,"D#5.wav",50
Sample,81101,0,"C5.wav",50
Sample,81250,0,"G#5.wav",50
Sample,81549,0,"G5.wav",50
Sample,81698,0,"D#5.wav",50
Sample,81847,0,"A#4.wav",50
Sample,81996,0,"G#4.wav",50
Sample,82146,0,"F4.wav",50
Sample,82295,0,"G4.wav",50
Sample,82593,0,"G#4.wav",50
Sample,82743,0,"A#4.wav",50
Sample,83041,0,"G#4.wav",50
Sample,83190,0,"C5.wav",50
Sample,83489,0,"A#4.wav",50
Sample,83638,0,"F5.wav",50
Sample,83937,0,"G#5.wav",50
Sample,84086,0,"G5.wav",50
Sample,84235,0,"F5.wav",50
Sample,84384,0,"C5.wav",50
Sample,84534,0,"D#5.wav",50
Sample,84757,0,"A#4.wav",50
Sample,84981,0,"G#4.wav",50
Sample,85131,0,"D#5.wav",50
Sample,85354,0,"A#4.wav",50
Sample,85578,0,"G#4.wav",50
Sample,85728,0,"A#5.wav",50
Sample,85951,0,"F5.wav",50
Sample,86175,0,"D#5.wav",50
Sample,86325,0,"G#5.wav",50
Sample,86549,0,"A#5.wav",50
Sample,86772,0,"C6.wav",50

[TimingPoints]
952,298.507462686567,4,2,3,25,1,0
7817,-400,4,2,1,30,0,0
7854,-200,4,2,1,5,0,0
7966,-400,4,2,1,30,0,0
8153,-200,4,2,1,5,0,0
8265,-400,4,2,1,30,0,0
8451,-200,4,2,1,5,0,0
8563,-400,4,2,1,30,0,0
8750,-200,4,2,1,5,0,0
8862,-400,4,2,1,30,0,0
9049,-200,4,2,1,5,0,0
9160,-400,4,2,1,30,0,0
9347,-200,4,2,1,5,0,0
9459,-200,4,2,3,35,0,0
9534,-200,4,2,1,50,0,0
10205,-200,4,2,3,40,0,0
10504,-66.6666666666667,4,2,1,75,0,0
10951,-66.6666666666667,4,2,1,25,0,0
11101,-66.6666666666667,4,2,1,75,0,0
11175,-66.6666666666667,4,2,1,5,0,0
11250,-100,4,2,1,75,0,0
11325,-100,4,2,1,5,0,0
11399,-100,4,2,3,50,0,0
11549,-100,4,2,1,75,0,0
11623,-100,4,2,1,5,0,0
11698,-133.333333333333,4,2,1,50,0,0
12146,-133.333333333333,4,2,1,35,0,0
12295,-133.333333333333,4,2,1,30,0,0
12444,-133.333333333333,4,2,1,25,0,0
12593,-200,4,2,1,50,0,0
12743,-200,4,2,1,25,0,0
12892,-66.6666666666667,4,2,1,75,0,0
13340,-66.6666666666667,4,2,1,25,0,0
13489,-66.6666666666667,4,2,1,75,0,0
13563,-66.6666666666667,4,2,1,5,0,0
13638,-100,4,2,1,75,0,0
13713,-100,4,2,1,5,0,0
13787,-100,4,2,3,50,0,0
13937,-100,4,2,1,75,0,0
14011,-100,4,2,1,5,0,0
14086,-100,4,2,1,50,0,0
14757,-100,4,2,1,5,0,0
14832,-133.333333333333,4,2,1,50,0,0
14907,-133.333333333333,4,2,1,5,0,0
14981,-133.333333333333,4,2,1,50,0,0
15280,-66.6666666666667,4,2,1,75,0,0
15728,-66.6666666666667,4,2,1,25,0,0
15877,-66.6666666666667,4,2,1,75,0,0
15951,-66.6666666666667,4,2,1,5,0,0
16026,-100,4,2,1,75,0,0
16101,-100,4,2,1,5,0,0
16175,-100,4,2,3,50,0,0
16325,-100,4,2,1,75,0,0
16399,-100,4,2,1,5,0,0
16474,-200,4,2,1,50,0,0
16573,-200,4,2,1,25,0,0
16772,-200,4,2,3,50,0,0
17519,-200,4,2,3,25,0,0
17668,-66.6666666666667,4,2,1,75,0,0
18190,-66.6666666666667,4,2,1,25,0,0
18265,-57.1428571428571,4,2,1,75,0,0
18340,-57.1428571428571,4,2,1,5,0,0
18414,-57.1428571428571,4,2,1,75,0,0
18489,-57.1428571428571,4,2,1,5,0,0
18563,-57.1428571428571,4,2,1,75,0,0
18862,-200,4,2,1,50,0,0
19160,-200,4,2,3,25,0,0
19608,-113.636363636364,4,2,1,50,0,0
20056,-50,4,2,1,75,0,1
20280,-50,4,2,1,5,0,1
20354,-100,4,2,3,50,0,1
20653,-100,4,2,1,75,0,1
20802,-100,4,2,3,50,0,1
20877,-100,4,2,1,75,0,1
21026,-100,4,2,3,50,0,1
21101,-100,4,2,1,75,0,1
21250,-100,4,2,1,75,0,0
21325,-100,4,2,1,5,0,0
21399,-100,4,2,1,75,0,0
21698,-100,4,2,1,25,0,0
21847,-66.6666666666667,4,2,1,75,0,0
21922,-66.6666666666667,4,2,1,5,0,0
21996,-66.6666666666667,4,2,1,75,0,0
22071,-66.6666666666667,4,2,1,5,0,0
22146,-66.6666666666667,4,2,3,50,0,0
22369,-66.6666666666667,4,2,3,5,0,0
22444,-50,4,2,1,75,0,1
22668,-50,4,2,1,5,0,1
22743,-100,4,2,3,50,0,1
23041,-100,4,2,1,75,0,1
23190,-100,4,2,3,50,0,1
23265,-100,4,2,1,75,0,1
23414,-100,4,2,3,50,0,1
23489,-100,4,2,1,75,0,1
23638,-66.6666666666667,4,2,1,75,0,0
23713,-66.6666666666667,4,2,1,5,0,0
23787,-133.333333333333,4,2,1,75,0,0
24011,-133.333333333333,4,2,1,5,0,0
24086,-133.333333333333,4,2,1,75,0,0
24235,-100,4,2,1,75,0,0
24310,-100,4,2,1,5,0,0
24384,-133.333333333333,4,2,1,75,0,0
24459,-133.333333333333,4,2,1,5,0,0
24534,-200,4,2,3,50,0,0
24832,-50,4,2,1,75,0,1
25056,-50,4,2,1,5,0,1
25131,-66.6666666666667,4,2,3,50,0,1
25429,-66.6666666666667,4,2,1,75,0,1
25578,-66.6666666666667,4,2,3,50,0,1
25653,-66.6666666666667,4,2,1,75,0,1
25802,-66.6666666666667,4,2,3,50,0,1
25877,-66.6666666666667,4,2,1,75,0,1
26026,-80,4,2,1,75,0,0
26250,-80,4,2,1,5,0,0
26325,-66.6666666666667,4,2,1,75,0,0
26399,-66.6666666666667,4,2,1,5,0,0
26474,-66.6666666666667,4,2,1,75,0,0
26549,-66.6666666666667,4,2,1,5,0,0
26623,-100,4,2,1,75,0,0
26698,-100,4,2,1,5,0,0
26772,-100,4,2,1,75,0,0
26847,-100,4,2,1,5,0,0
26922,-200,4,2,1,75,0,0
27071,-200,4,2,3,75,0,0
27220,-66.6666666666667,4,2,1,75,0,1
27444,-66.6666666666667,4,2,1,5,0,1
27519,-100,4,2,1,75,0,1
27593,-100,4,2,1,50,0,1
27668,-100,4,2,1,25,0,1
27817,-200,4,2,1,75,0,1
27966,-200,4,2,3,50,0,1
28116,-66.6666666666667,4,2,1,75,0,1
28563,-100,4,2,1,75,0,1
28638,-100,4,2,1,5,0,1
28713,-100,4,2,1,75,0,1
28787,-100,4,2,3,50,0,1
28862,-100,4,2,1,75,0,1
29011,-66.6666666666667,4,2,1,75,0,1
29235,-66.6666666666667,4,2,1,5,0,1
29310,-80,4,2,1,75,0,0
29384,-80,4,2,1,5,0,0
29459,-133.333333333333,4,2,1,75,0,0
29608,-50,4,2,1,75,0,1
29832,-50,4,2,1,5,0,1
29907,-100,4,2,3,50,0,1
30205,-100,4,2,1,75,0,1
30354,-100,4,2,3,50,0,1
30429,-100,4,2,1,75,0,1
30578,-100,4,2,3,50,0,1
30653,-100,4,2,1,75,0,1
30802,-100,4,2,1,75,0,0
30877,-100,4,2,1,5,0,0
30951,-100,4,2,1,75,0,0
31250,-100,4,2,1,25,0,0
31399,-66.6666666666667,4,2,1,75,0,0
31474,-66.6666666666667,4,2,1,5,0,0
31549,-66.6666666666667,4,2,1,75,0,0
31623,-66.6666666666667,4,2,1,5,0,0
31698,-66.6666666666667,4,2,3,50,0,0
31922,-66.6666666666667,4,2,3,5,0,0
31996,-50,4,2,1,75,0,1
32295,-100,4,2,3,50,0,1
32593,-100,4,2,1,75,0,1
32743,-100,4,2,3,50,0,1
32817,-100,4,2,1,75,0,1
32966,-100,4,2,3,50,0,1
33041,-100,4,2,1,75,0,1
33190,-66.6666666666667,4,2,1,75,0,0
33265,-66.6666666666667,4,2,1,5,0,0
33340,-133.333333333333,4,2,1,75,0,0
33563,-133.333333333333,4,2,1,5,0,0
33638,-133.333333333333,4,2,1,75,0,0
33787,-100,4,2,1,75,0,0
33862,-100,4,2,1,5,0,0
33937,-133.333333333333,4,2,1,75,0,0
34011,-133.333333333333,4,2,1,5,0,0
34086,-200,4,2,3,50,0,0
34310,-200,4,2,3,5,0,0
34384,-400,4,2,1,75,0,0
34459,-200,4,2,1,5,0,0
34608,-200,4,2,1,5,0,0
34646,-200,4,2,1,75,0,0
34683,-200,4,2,2,5,0,0
34782,-200,4,2,1,75,0,0
35280,-133.333333333333,4,2,1,75,0,0
35429,-133.333333333333,4,2,3,75,0,0
35578,-133.333333333333,4,2,1,75,0,0
35951,-133.333333333333,4,2,1,5,0,0
36026,-133.333333333333,4,2,1,75,0,0
36101,-133.333333333333,4,2,1,5,0,0
36175,-100,4,2,1,75,0,0
36250,-100,4,2,1,5,0,0
36325,-100,4,2,1,75,0,0
36399,-100,4,2,1,5,0,0
36474,-200,4,2,1,75,0,0
36623,-200,4,2,3,75,0,0
36772,-50,4,2,1,75,0,1
36996,-50,4,2,1,5,0,1
37071,-133.333333333333,4,2,1,75,0,1
37369,-100,4,2,1,75,0,1
37593,-100,4,2,1,5,0,1
37668,-133.333333333333,4,2,1,75,0,1
37966,-80,4,2,1,75,0,1
38190,-80,4,2,1,5,0,1
38265,-133.333333333333,4,2,1,75,0,1
38563,-100,4,2,1,75,0,1
38638,-100,4,2,1,5,0,1
38713,-100,4,2,1,75,0,1
38787,-100,4,2,1,5,0,1
38862,-100,4,2,1,75,0,1
39160,-200,4,2,1,50,0,0
39235,-200,4,2,1,5,0,0
39310,-200,4,2,1,50,0,0
39459,-200,4,2,1,25,0,0
39608,-200,4,2,1,50,0,0
39683,-200,4,2,1,5,0,0
39757,-133.333333333333,4,2,1,50,0,0
39907,-133.333333333333,4,2,1,25,0,0
40056,-200,4,2,1,50,0,0
40131,-200,4,2,1,5,0,0
40205,-200,4,2,1,50,0,0
40354,-200,4,2,1,25,0,0
40504,-200,4,2,1,50,0,0
40578,-200,4,2,1,5,0,0
40653,-200,4,2,1,50,0,0
40802,-200,4,2,1,25,0,0
40951,-133.333333333333,4,2,1,50,0,0
41026,-133.333333333333,4,2,1,5,0,0
41101,-133.333333333333,4,2,1,50,0,0
41175,-133.333333333333,4,2,1,5,0,0
41250,-133.333333333333,4,2,1,50,0,0
41325,-133.333333333333,4,2,1,5,0,0
41399,-133.333333333333,4,2,1,50,0,0
41549,-200,4,2,1,50,0,0
41623,-200,4,2,1,5,0,0
41698,-200,4,2,1,50,0,0
41847,-200,4,2,1,25,0,0
41996,-200,4,2,1,50,0,0
42071,-200,4,2,1,5,0,0
42146,-133.333333333333,4,2,1,50,0,0
42295,-133.333333333333,4,2,1,25,0,0
42444,-200,4,2,1,50,0,0
42519,-200,4,2,1,5,0,0
42593,-200,4,2,1,50,0,0
42743,-200,4,2,1,25,0,0
42892,-200,4,2,1,50,0,0
42966,-200,4,2,1,5,0,0
43041,-200,4,2,1,50,0,0
43190,-200,4,2,1,35,0,0
43265,-200,4,2,1,25,0,0
43340,-133.333333333333,4,2,1,50,0,0
43414,-133.333333333333,4,2,1,25,0,0
43489,-133.333333333333,4,2,3,50,0,0
43563,-133.333333333333,4,2,3,25,0,0
43638,-133.333333333333,4,2,3,50,0,0
43713,-133.333333333333,4,2,3,25,0,0
43787,-133.333333333333,4,2,3,50,0,0
43862,-133.333333333333,4,2,3,25,0,0
43937,-200,4,2,1,50,0,0
44011,-200,4,2,1,5,0,0
44086,-200,4,2,1,50,0,0
44235,-200,4,2,1,25,0,0
44384,-200,4,2,1,50,0,0
44459,-200,4,2,1,5,0,0
44534,-133.333333333333,4,2,1,50,0,0
44683,-133.333333333333,4,2,1,25,0,0
44832,-200,4,2,1,50,0,0
44907,-200,4,2,1,5,0,0
44981,-200,4,2,1,50,0,0
45131,-200,4,2,1,25,0,0
45280,-200,4,2,1,50,0,0
45354,-200,4,2,1,5,0,0
45429,-200,4,2,1,50,0,0
45578,-200,4,2,1,25,0,0
45728,-133.333333333333,4,2,1,50,0,0
45802,-133.333333333333,4,2,1,5,0,0
45877,-133.333333333333,4,2,3,50,0,0
45951,-133.333333333333,4,2,3,5,0,0
46026,-133.333333333333,4,2,3,50,0,0
46101,-133.333333333333,4,2,3,5,0,0
46175,-133.333333333333,4,2,3,50,0,0
46325,-200,4,2,1,50,0,0
46399,-200,4,2,1,5,0,0
46474,-200,4,2,1,50,0,0
46623,-200,4,2,1,25,0,0
46772,-200,4,2,1,50,0,0
46847,-200,4,2,1,5,0,0
46922,-133.333333333333,4,2,1,50,0,0
47071,-133.333333333333,4,2,1,25,0,0
47220,-200,4,2,1,50,0,0
47295,-200,4,2,1,5,0,0
47369,-200,4,2,1,50,0,0
47519,-200,4,2,1,25,0,0
47668,-200,4,2,1,50,0,0
47743,-200,4,2,1,5,0,0
47817,-200,4,2,1,50,0,0
47966,-200,4,2,1,25,0,0
48116,-200,4,2,1,50,0,0
48563,-200,4,2,3,50,0,0
48713,-200,4,2,3,50,0,1
48787,-200,4,2,3,5,0,1
48862,-200,4,2,3,50,0,1
49011,-200,4,2,3,25,0,1
49160,-200,4,2,3,50,0,1
49235,-200,4,2,3,5,0,1
49310,-133.333333333333,4,2,3,50,0,1
49459,-133.333333333333,4,2,3,25,0,1
49608,-200,4,2,3,50,0,1
49683,-200,4,2,3,5,0,1
49757,-200,4,2,3,50,0,1
49907,-200,4,2,3,25,0,1
50056,-200,4,2,3,50,0,1
50131,-200,4,2,3,5,0,1
50205,-200,4,2,3,50,0,1
50354,-200,4,2,3,25,0,1
50504,-133.333333333333,4,2,3,50,0,0
50578,-133.333333333333,4,2,3,25,0,0
50653,-133.333333333333,4,2,3,50,0,0
50728,-133.333333333333,4,2,3,25,0,0
50802,-133.333333333333,4,2,3,50,0,0
50877,-133.333333333333,4,2,3,25,0,0
50951,-133.333333333333,4,2,3,50,0,0
51101,-200,4,2,3,50,0,1
51175,-200,4,2,3,5,0,1
51250,-200,4,2,3,50,0,1
51399,-200,4,2,3,25,0,1
51549,-200,4,2,3,50,0,1
51623,-200,4,2,3,5,0,1
51698,-133.333333333333,4,2,3,50,0,1
51847,-133.333333333333,4,2,3,25,0,1
51996,-200,4,2,3,50,0,1
52071,-200,4,2,3,5,0,1
52146,-200,4,2,3,50,0,1
52295,-200,4,2,3,25,0,1
52444,-200,4,2,3,50,0,1
52519,-200,4,2,3,5,0,1
52593,-200,4,2,3,50,0,1
52743,-200,4,2,3,35,0,1
52817,-200,4,2,3,25,0,1
52892,-133.333333333333,4,2,3,50,0,0
52966,-133.333333333333,4,2,3,5,0,0
53041,-133.333333333333,4,2,3,50,0,0
53116,-133.333333333333,4,2,3,5,0,0
53190,-133.333333333333,4,2,3,50,0,0
53265,-133.333333333333,4,2,3,5,0,0
53340,-133.333333333333,4,2,3,50,0,0
53414,-133.333333333333,4,2,3,5,0,0
53489,-200,4,2,3,50,0,1
53563,-200,4,2,3,5,0,1
53638,-200,4,2,3,50,0,1
53787,-200,4,2,3,25,0,1
53937,-200,4,2,3,50,0,1
54011,-200,4,2,3,5,0,1
54086,-133.333333333333,4,2,3,50,0,1
54235,-133.333333333333,4,2,3,25,0,1
54384,-200,4,2,3,50,0,1
54459,-200,4,2,3,5,0,1
54534,-200,4,2,3,50,0,1
54683,-200,4,2,3,25,0,1
54832,-200,4,2,3,50,0,1
54907,-200,4,2,3,5,0,1
54981,-200,4,2,3,50,0,1
55131,-200,4,2,3,25,0,1
55280,-133.333333333333,4,2,3,50,0,0
55354,-133.333333333333,4,2,3,5,0,0
55429,-100,4,2,3,75,0,0
55653,-100,4,2,3,5,0,0
55728,-100,4,2,3,75,0,0
55877,-200,4,2,3,50,0,1
55951,-200,4,2,3,5,0,1
56026,-200,4,2,3,50,0,1
56175,-200,4,2,3,25,0,1
56325,-200,4,2,3,50,0,1
56399,-200,4,2,3,5,0,1
56474,-200,4,2,3,50,0,1
56623,-200,4,2,3,25,0,1
56772,-200,4,2,3,50,0,1
56847,-200,4,2,3,5,0,1
56922,-200,4,2,3,50,0,1
57071,-200,4,2,3,25,0,1
57220,-200,4,2,3,50,0,1
57295,-200,4,2,3,5,0,1
57369,-200,4,2,3,50,0,1
57519,-200,4,2,3,25,0,1
57668,-133.333333333333,4,2,1,50,0,1
57743,-133.333333333333,4,2,1,25,0,1
57817,-133.333333333333,4,2,1,50,0,1
57892,-133.333333333333,4,2,1,25,0,1
57966,-133.333333333333,4,2,1,50,0,1
58041,-133.333333333333,4,2,1,25,0,1
58116,-133.333333333333,4,2,1,50,0,1
58190,-133.333333333333,4,2,1,25,0,1
58265,-66.6666666666667,4,2,1,65,0,0
58713,-66.6666666666667,4,2,1,25,0,0
58862,-66.6666666666667,4,2,1,65,0,0
58937,-66.6666666666667,4,2,1,5,0,0
59011,-100,4,2,1,65,0,0
59086,-100,4,2,1,5,0,0
59310,-100,4,2,1,65,0,0
59384,-100,4,2,1,5,0,0
59608,-200,4,2,3,25,0,0
60205,-200,4,2,3,50,0,0
60243,-200,4,2,3,25,0,0
60653,-66.6666666666667,4,2,1,65,0,0
61101,-66.6666666666667,4,2,1,25,0,0
61250,-66.6666666666667,4,2,1,65,0,0
61325,-66.6666666666667,4,2,1,5,0,0
61399,-100,4,2,1,65,0,0
61474,-100,4,2,1,5,0,0
61698,-100,4,2,1,65,0,0
61772,-100,4,2,1,5,0,0
61996,-133.333333333333,4,2,1,50,0,0
62593,-200,4,2,1,50,0,0
62892,-200,4,2,1,25,0,0
63041,-66.6666666666667,4,2,1,65,0,0
63489,-66.6666666666667,4,2,1,25,0,0
63638,-66.6666666666667,4,2,1,65,0,0
63713,-66.6666666666667,4,2,1,5,0,0
63787,-100,4,2,1,65,0,0
63862,-100,4,2,1,5,0,0
64086,-100,4,2,1,65,0,0
64160,-100,4,2,1,5,0,0
64384,-200,4,2,1,50,0,0
64534,-200,4,2,3,50,0,0
64981,-200,4,2,3,50,0,0
65056,-200,4,2,3,35,0,0
65429,-66.6666666666667,4,2,1,65,0,0
65951,-66.6666666666667,4,2,1,25,0,0
66026,-57.1428571428571,4,2,1,65,0,0
66101,-57.1428571428571,4,2,1,5,0,0
66175,-57.1428571428571,4,2,1,65,0,0
66250,-57.1428571428571,4,2,1,5,0,0
66325,-57.1428571428571,4,2,1,65,0,0
66623,-200,4,2,1,50,0,0
66922,-200,4,2,3,25,0,0
67369,-113.636363636364,4,2,1,50,0,0
67519,-200,4,2,1,50,0,0
67817,-100,4,2,1,100,0,1
67892,-100,4,2,1,5,0,1
67966,-100,4,2,1,100,0,1
68041,-100,4,2,1,5,0,1
68116,-100,4,2,3,75,0,1
68265,-100,4,2,1,100,0,1
68340,-100,4,2,1,5,0,1
68414,-100,4,2,1,100,0,1
68489,-100,4,2,1,5,0,1
68563,-100,4,2,3,75,0,1
68713,-100,4,2,1,100,0,1
68787,-100,4,2,1,5,0,1
68862,-100,4,2,1,100,0,1
68937,-100,4,2,1,5,0,1
69011,-100,4,2,3,75,0,1
69160,-100,4,2,1,100,0,1
69235,-100,4,2,1,5,0,1
69310,-100,4,2,1,100,0,1
69384,-100,4,2,1,5,0,1
69459,-100,4,2,3,75,0,1
69608,-400,4,2,1,100,0,1
69683,-400,4,2,1,5,0,1
69757,-400,4,2,1,100,0,1
69832,-400,4,2,1,5,0,1
69907,-400,4,2,1,100,0,1
69981,-400,4,2,1,5,0,1
70056,-400,4,2,1,100,0,1
70131,-400,4,2,1,5,0,1
70205,-100,4,2,1,100,0,1
70280,-100,4,2,1,5,0,1
70354,-100,4,2,1,100,0,1
70429,-100,4,2,1,5,0,1
70504,-100,4,2,3,75,0,1
70653,-100,4,2,1,100,0,1
70728,-100,4,2,1,5,0,1
70802,-100,4,2,1,100,0,1
70877,-100,4,2,1,5,0,1
70951,-100,4,2,3,75,0,1
71101,-100,4,2,1,100,0,1
71175,-100,4,2,1,5,0,1
71250,-100,4,2,1,100,0,1
71325,-100,4,2,1,5,0,1
71399,-100,4,2,3,75,0,1
71549,-100,4,2,1,100,0,1
71623,-100,4,2,1,5,0,1
71698,-100,4,2,1,100,0,1
71772,-100,4,2,1,5,0,1
71847,-100,4,2,3,75,0,1
71996,-400,4,2,1,100,0,1
72071,-400,4,2,1,5,0,1
72146,-400,4,2,1,100,0,1
72220,-400,4,2,1,5,0,1
72295,-400,4,2,1,100,0,1
72369,-400,4,2,1,5,0,1
72444,-400,4,2,1,100,0,1
72519,-400,4,2,1,5,0,1
72593,-100,4,2,1,100,0,1
72668,-100,4,2,1,5,0,1
72743,-100,4,2,1,100,0,1
72817,-100,4,2,1,5,0,1
72892,-100,4,2,3,75,0,1
73041,-100,4,2,1,100,0,1
73116,-100,4,2,1,5,0,1
73190,-100,4,2,1,100,0,1
73265,-100,4,2,1,5,0,1
73340,-100,4,2,3,75,0,1
73489,-100,4,2,1,100,0,1
73563,-100,4,2,1,5,0,1
73638,-100,4,2,1,100,0,1
73713,-100,4,2,1,5,0,1
73787,-100,4,2,3,75,0,1
73937,-100,4,2,1,100,0,1
74011,-100,4,2,1,5,0,1
74086,-100,4,2,1,100,0,1
74160,-100,4,2,1,5,0,1
74235,-100,4,2,3,75,0,1
74384,-400,4,2,1,100,0,1
74459,-400,4,2,1,5,0,1
74534,-400,4,2,1,100,0,1
74608,-400,4,2,1,5,0,1
74683,-400,4,2,1,100,0,1
74757,-400,4,2,1,5,0,1
74832,-400,4,2,1,100,0,1
74907,-400,4,2,1,5,0,1
74981,-100,4,2,1,100,0,1
75205,-100,4,2,3,75,0,1
75280,-100,4,2,1,100,0,1
75354,-100,4,2,1,5,0,1
75429,-100,4,2,3,75,0,1
75504,-100,4,2,1,5,0,1
75578,-100,4,2,1,100,0,1
75802,-100,4,2,3,75,0,1
75877,-100,4,2,1,100,0,1
75951,-100,4,2,1,5,0,1
76026,-100,4,2,3,75,0,1
76101,-100,4,2,1,5,0,1
76175,-100,4,2,1,100,0,1
76250,-100,4,2,1,5,0,1
76325,-100,4,2,1,100,0,1
76399,-100,4,2,1,5,0,1
76474,-100,4,2,1,100,0,1
76623,-133.333333333333,4,2,1,100,0,1
76772,-133.333333333333,4,2,3,75,0,1
76922,-133.333333333333,4,2,1,100,0,1
76996,-133.333333333333,4,2,1,5,0,1
77071,-133.333333333333,4,2,1,100,0,1
77146,-133.333333333333,4,2,1,5,0,1
77220,-133.333333333333,4,2,1,100,0,1
77295,-133.333333333333,4,2,1,5,0,1
77369,-200,4,2,2,100,0,0
77593,-200,4,2,2,5,0,0
77668,-66.6666666666667,4,2,1,100,0,1
77743,-66.6666666666667,4,2,1,5,0,1
77817,-100,4,2,1,100,0,1
77892,-100,4,2,1,5,0,1
77966,-100,4,2,1,100,0,1
78041,-100,4,2,1,5,0,1
78116,-100,4,2,3,75,0,1
78265,-100,4,2,1,100,0,1
78340,-100,4,2,1,5,0,1
78414,-100,4,2,1,100,0,1
78489,-100,4,2,1,5,0,1
78563,-100,4,2,3,75,0,1
78713,-100,4,2,1,100,0,1
78787,-100,4,2,1,5,0,1
78862,-100,4,2,1,100,0,1
78937,-100,4,2,1,5,0,1
79011,-100,4,2,3,75,0,1
79160,-400,4,2,1,100,0,1
79235,-400,4,2,1,5,0,1
79310,-400,4,2,1,100,0,1
79384,-400,4,2,1,5,0,1
79459,-400,4,2,1,100,0,1
79534,-400,4,2,1,5,0,1
79608,-400,4,2,1,100,0,1
79683,-400,4,2,1,5,0,1
79757,-100,4,2,1,100,0,1
79832,-100,4,2,1,5,0,1
79907,-100,4,2,1,100,0,1
79981,-100,4,2,1,5,0,1
80056,-100,4,2,3,75,0,1
80205,-100,4,2,1,100,0,1
80280,-100,4,2,1,5,0,1
80354,-100,4,2,1,100,0,1
80429,-100,4,2,1,5,0,1
80504,-100,4,2,3,75,0,1
80653,-100,4,2,1,100,0,1
80728,-100,4,2,1,5,0,1
80802,-100,4,2,1,100,0,1
80877,-100,4,2,1,5,0,1
80951,-100,4,2,3,75,0,1
81101,-100,4,2,1,100,0,1
81175,-100,4,2,1,5,0,1
81250,-100,4,2,1,100,0,1
81325,-100,4,2,1,5,0,1
81399,-100,4,2,3,75,0,1
81549,-400,4,2,1,100,0,1
81623,-400,4,2,1,5,0,1
81698,-400,4,2,1,100,0,1
81772,-400,4,2,1,5,0,1
81847,-400,4,2,1,100,0,1
81922,-400,4,2,1,5,0,1
81996,-400,4,2,1,100,0,1
82071,-400,4,2,1,5,0,1
82146,-100,4,2,1,100,0,1
82220,-100,4,2,1,5,0,1
82295,-100,4,2,1,100,0,1
82369,-100,4,2,1,5,0,1
82444,-100,4,2,3,75,0,1
82593,-100,4,2,1,100,0,1
82668,-100,4,2,1,5,0,1
82743,-100,4,2,1,100,0,1
82817,-100,4,2,1,5,0,1
82892,-100,4,2,3,75,0,1
83041,-100,4,2,1,100,0,1
83116,-100,4,2,1,5,0,1
83190,-100,4,2,1,100,0,1
83265,-100,4,2,1,5,0,1
83340,-100,4,2,3,75,0,1
83489,-100,4,2,1,100,0,1
83563,-100,4,2,1,5,0,1
83638,-100,4,2,1,100,0,1
83713,-100,4,2,1,5,0,1
83787,-100,4,2,3,75,0,1
83937,-400,4,2,1,100,0,1
84011,-400,4,2,1,5,0,1
84086,-400,4,2,1,100,0,1
84160,-400,4,2,1,5,0,1
84235,-400,4,2,1,100,0,1
84310,-400,4,2,1,5,0,1
84384,-400,4,2,1,100,0,1
84459,-400,4,2,1,5,0,1
84534,-100,4,2,1,100,0,1
84757,-100,4,2,3,75,0,1
84832,-100,4,2,1,100,0,1
84907,-100,4,2,1,5,0,1
84981,-100,4,2,3,75,0,1
85056,-100,4,2,1,5,0,1
85131,-100,4,2,1,100,0,1
85354,-100,4,2,3,75,0,1
85429,-100,4,2,1,100,0,1
85504,-100,4,2,1,5,0,1
85578,-100,4,2,1,100,0,1
85653,-100,4,2,1,5,0,1
85728,-80,4,2,1,100,0,1
86101,-80,4,2,1,5,0,1
86175,-80,4,2,1,100,0,1
86250,-80,4,2,1,5,0,1
86325,-66.6666666666667,4,2,1,100,0,1
86922,-100,4,2,3,80,0,0
86996,-100,4,2,3,5,0,0
87071,-100,4,2,3,80,0,0
87146,-100,4,2,3,5,0,0
87369,-100,4,2,3,80,0,0
87444,-100,4,2,3,5,0,0
87519,-100,4,2,1,80,0,0
87668,-100,4,2,3,80,0,0
87743,-100,4,2,3,5,0,0
87817,-100,4,2,3,80,0,0
87892,-100,4,2,3,5,0,0
88116,-100,4,2,3,80,0,0
88190,-100,4,2,3,5,0,0
88414,-100,4,2,3,80,0,0
88489,-100,4,2,3,5,0,0
88563,-100,4,2,3,80,0,0
88638,-100,4,2,3,5,0,0
88713,-100,4,2,1,80,0,0
88862,-100,4,2,3,80,0,0
88937,-100,4,2,3,5,0,0
89160,-100,4,2,3,80,0,0
89235,-100,4,2,3,5,0,0
89310,-100,4,2,3,80,0,0
89384,-100,4,2,3,5,0,0
89608,-100,4,2,3,80,0,0
89683,-100,4,2,3,5,0,0
89907,-100,4,2,1,80,0,0
90056,-100,4,2,3,80,0,0
90131,-100,4,2,3,5,0,0
90354,-100,4,2,3,80,0,0
90429,-100,4,2,3,5,0,0
90653,-100,4,2,3,80,0,0
90728,-100,4,2,3,5,0,0
90802,-100,4,2,3,80,0,0
90877,-100,4,2,3,5,0,0
91101,-100,4,2,1,80,0,0
91399,-100,4,2,3,80,0,0
91474,-100,4,2,3,5,0,0
91549,-100,4,2,3,80,0,0
91623,-100,4,2,3,5,0,0
91698,-100,4,2,1,80,0,0
91847,-100,4,2,3,80,0,0
91922,-100,4,2,3,5,0,0
91996,-100,4,2,1,80,0,0
92146,-100,4,2,3,80,0,0
92220,-100,4,2,3,5,0,0
92295,-100,4,2,3,80,0,0
92369,-100,4,2,3,5,0,0
92444,-200,4,2,1,50,0,0
92892,-100,4,2,3,50,0,0
93489,-100,4,2,3,30,0,0
94981,-100,4,2,3,25,0,0
96772,333.333333333333,4,2,3,25,1,0
96938,342.857142857143,4,2,3,25,1,0
97109,387.096774193548,4,2,3,25,1,0
97302,413.793103448276,4,2,3,25,1,0
97508,470.588235294118,4,2,3,25,1,0
97743,585.365853658537,4,2,1,25,1,0

[Colours]
Combo1 : 75,151,0
Combo2 : 113,51,125
Combo3 : 50,103,190
Combo4 : 211,126,190
Combo5 : 121,196,244
Combo6 : 108,108,108
Combo7 : 255,255,255
Combo8 : 255,66,66

[HitObjects]
130,153,952,69,2,0:1:0:0:
81,164,1101,1,0,0:0:0:0:
42,132,1250,1,0,0:0:0:0:
42,82,1400,1,0,0:0:0:0:
151,107,1549,5,2,0:1:0:0:
130,62,1698,1,0,0:0:0:0:
81,51,1847,1,0,0:0:0:0:
283,180,1996,101,2,0:1:0:0:
332,191,2145,1,0,0:0:0:0:
371,159,2294,1,0,0:0:0:0:
371,109,2444,1,0,0:0:0:0:
236,113,2593,5,2,0:1:0:0:
232,83,2668,1,0,0:0:0:0:
259,72,2742,1,0,0:0:0:0:
277,48,2817,1,0,0:0:0:0:
306,57,2892,2,0,L|297:106,1,49.9999994039535
219,326,3041,101,2,0:1:0:0:
170,337,3190,1,0,0:0:0:0:
131,305,3339,1,0,0:0:0:0:
131,255,3489,1,0,0:0:0:0:
240,280,3638,5,2,0:1:0:0:
219,235,3787,1,0,0:0:0:0:
170,224,3936,1,0,0:0:0:0:
363,348,4086,101,2,0:1:0:0:
412,359,4235,1,0,0:0:0:0:
451,327,4384,1,0,0:0:0:0:
451,277,4534,1,0,0:0:0:0:
289,175,4683,53,2,0:1:0:0:
316,281,4832,69,0,0:0:0:0:
312,251,4907,1,0,0:0:0:0:
339,240,4981,1,0,0:0:0:0:
357,216,5056,1,0,0:0:0:0:
386,225,5131,1,0,0:0:0:0:
240,279,5280,69,2,0:1:0:0:
394,148,5429,1,2,0:1:0:0:
433,341,5578,1,2,0:1:0:0:
291,384,5728,21,2,0:1:0:0:
248,357,5877,1,0,0:0:0:0:
199,347,6026,1,0,0:0:0:0:
150,358,6175,1,0,0:0:0:0:
38,301,6325,5,2,0:1:0:0:
87,304,6474,1,0,0:0:0:0:
129,277,6623,1,0,0:0:0:0:
406,157,6772,101,2,0:1:0:0:
363,184,6921,1,0,0:0:0:0:
314,194,7070,1,0,0:0:0:0:
265,183,7219,1,0,0:0:0:0:
101,200,7369,5,2,0:1:0:0:
120,184,7444,1,0,0:0:0:0:
150,197,7518,1,0,0:0:0:0:
174,194,7593,1,0,0:0:0:0:
192,224,7668,2,0,L|183:155,1,49.9999994039535
10,127,7817,38,0,L|14:131,1,6.24999992549419,0|0,3:2|0:0,0:0:0:0:
53,100,7966,1,0,0:0:0:0:
102,90,8116,2,0,L|102:96,1,6.24999992549419,0|0,3:0|0:0,0:0:0:0:
151,101,8264,1,0,0:0:0:0:
263,44,8414,22,0,L|261:37,1,6.24999992549419,0|0,3:2|0:0,0:0:0:0:
214,47,8563,1,0,0:0:0:0:
172,20,8713,2,0,L|173:13,1,6.24999992549419,0|0,3:0|0:0,0:0:0:0:
469,103,8862,101,0,0:0:0:0:
426,130,9011,2,0,L|424:124,1,6.24999992549419,0|0,3:0|0:0,0:0:0:0:
377,140,9160,1,0,0:0:0:0:
328,129,9310,2,0,L|330:121,1,6.24999992549419,0|0,3:0|0:0,0:0:0:0:
192,224,9459,21,2,0:1:0:0:
214,213,9534,1,8,0:0:0:0:
241,221,9608,1,8,0:0:0:0:
266,221,9683,1,8,0:0:0:0:
283,248,9757,1,8,0:0:0:0:
306,257,9832,1,8,0:0:0:0:
304,282,9907,1,8,0:0:0:0:
312,305,9981,1,8,0:0:0:0:
303,328,10056,1,8,0:0:0:0:
178,301,10205,101,2,0:1:0:0:
235,347,10354,1,2,0:1:0:0:
426,333,10504,70,0,B|472:325|504:352|504:352|472:325|444:272|449:225|449:225|444:272|389:316|345:333|303:328|303:328|325:331|346:350,1,450.00001180172,6|0,1:3|0:0,0:0:0:0:
183,148,11101,102,0,B|185:129|172:113|172:113|185:129|205:134,1,75.0000019669533,10|0,1:3|0:0,0:0:0:0:
235,347,11250,6,0,P|231:322|238:298,1,49.9999994039535,2|0,1:3|0:0,0:0:0:0:
246,210,11399,85,2,0:1:0:0:
366,223,11549,6,0,P|347:241|325:250,1,49.9999994039535,2|0,1:3|0:0,0:0:0:0:
175,251,11698,85,0,0:0:0:0:
155,249,11847,1,0,0:0:0:0:
134,247,11996,2,0,L|78:243,1,37.5000009834766
43,361,12146,5,2,0:0:0:0:
74,340,12220,1,2,0:0:0:0:
103,333,12295,1,2,0:0:0:0:
132,334,12369,1,2,0:0:0:0:
154,337,12444,1,2,0:0:0:0:
174,346,12519,1,2,0:0:0:0:
185,351,12593,2,0,L|247:345,1,49.9999994039535
385,250,12892,22,0,B|434:258|461:298|461:298|403:212|329:177|231:183|231:183|285:179|311:209,1,450.00001180172,6|0,1:3|0:0,0:0:0:0:
122,118,13489,102,0,B|103:118|93:141|93:141|112:148|127:138,1,75.0000019669533,10|0,1:3|0:0,0:0:0:0:
287,13,13638,6,0,P|289:37|283:62,1,49.9999994039535,2|0,1:3|0:0,0:0:0:0:
213,116,13787,85,2,0:1:0:0:
310,208,13937,6,0,P|286:198|267:182,1,49.9999994039535,2|0,1:3|0:0,0:0:0:0:
213,116,14086,85,0,0:0:0:0:
133,215,14235,2,0,L|140:247,2,33.333332935969,8|8|8,0:0|0:0|0:0,0:0:0:0:
218,230,14384,2,0,P|262:205|311:208,1,99.999998807907,8|10,3:2|0:0,0:0:0:0:
300,236,14608,1,8,0:0:0:0:
291,259,14683,2,0,P|310:274|334:282,1,49.9999994039535,8|0,3:2|0:0,0:0:0:0:
442,200,14832,2,0,L|437:238,1,37.5000009834766
351,130,14981,86,0,L|338:81,1,50.0000013113022,10|2,3:2|0:0,0:0:0:0:
319,8,15180,1,2,0:0:0:0:
429,120,15280,70,0,B|475:114|504:146|504:146|528:54|443:12|388:17|332:81|351:130|351:130|332:81|282:75,1,450.00001180172,6|0,1:3|0:0,0:0:0:0:
184,170,15877,102,0,P|154:164|170:191,1,75.0000019669533,10|0,1:3|0:0,0:0:0:0:
339,106,16026,6,0,P|321:89|299:78,1,50,2|0,1:3|0:0,0:0:0:0:
226,99,16175,85,2,0:1:0:0:
166,4,16325,6,0,P|160:28|163:53,1,49.9999994039535,2|0,1:3|0:0,0:0:0:0:
25,75,16474,86,0,P|15:61|10:45,2,33.3333333333333
86,31,16772,2,0,B|235:-4|213:79|334:31,1,249.999997019767,2|0,0:1|0:0,0:0:0:0:
451,136,17668,38,0,B|458:92|469:76|495:51|495:51|470:77|423:114|370:111|370:111|351:118|330:118|330:118|285:137|233:127|188:114|188:114|233:127|246:139|265:176,1,524.999998748302,6|0,1:3|0:0,0:0:0:0:
503,282,18265,102,0,B|503:267|512:251|512:251|500:251|487:243|487:243|486:261|476:268,1,87.4999997913836,10|0,1:3|0:0,0:0:0:0:
305,373,18414,6,0,B|305:358|296:342|296:342|308:342|321:334|321:334|322:352|332:359,1,87.4999997913836,2|0,1:3|0:0,0:0:0:0:
164,206,18563,85,2,3:0:0:0:
117,181,18637,1,0,3:0:0:0:
65,194,18713,1,0,3:0:0:0:
33,235,18787,1,0,3:0:0:0:
12,228,18862,6,0,B|49:234|49:234|72:251|72:251|105:257,1,99.999998807907,6|2,1:3|0:1,0:0:0:0:
242,326,19608,86,0,L|246:347,2,21.8749999478459,2|0|0,0:1|0:0|0:0,0:0:0:0:
171,361,19757,38,0,L|149:358,2,22.0000004091263,4|0|0,1:0|0:0|0:0,0:0:0:0:
76,351,19907,101,2,0:0:0:0:
427,231,20056,6,0,B|451:169|451:169|402:213|346:198|346:198|321:227|271:224|271:224|290:235|304:260,1,299.999996423721,6|0,1:3|0:0,0:0:0:0:
281,136,20354,6,0,L|272:112,1,24.9999997019767,2|0,0:1|0:0,0:0:0:0:
254,129,20429,2,0,L|273:113,1,24.9999997019767
253,99,20504,2,0,L|273:113,1,24.9999997019767,2|0,0:1|0:0,0:0:0:0:
280,89,20578,2,0,L|272:112,1,24.9999997019767
298,113,20653,2,0,L|273:113,1,24.9999997019767,10|0,1:3|0:0,0:0:0:0:
147,13,20802,22,0,L|155:43,1,24.9999997019767,2|0,0:1|0:0,0:0:0:0:
159,13,20877,2,0,L|151:43,1,24.9999997019767,8|0,0:0|0:0,0:0:0:0:
46,142,21026,86,0,L|67:120,1,24.9999997019767,2|0,0:1|0:0,0:0:0:0:
40,131,21101,2,0,L|69:122,1,24.9999997019767,8|0,0:0|0:0,0:0:0:0:
272,269,21250,54,0,L|281:219,1,49.9999994039535,2|0,1:3|0:0,0:0:0:0:
106,190,21399,2,0,B|145:168|145:168|250:182|250:182|281:220,1,199.999997615814
106,190,21847,6,0,L|179:204,1,75.0000019669533,10|0,1:3|0:0,0:0:0:0:
218,338,21996,2,0,L|291:352,1,75.0000019669533,2|0,0:0|0:0,0:0:0:0:
478,250,22146,2,0,B|440:277|440:277|312:258|312:258|281:220,1,225.00000590086,2|0,0:1|0:0,0:0:0:0:
81,115,22444,22,0,B|65:64|65:64|128:117|197:97|197:97|218:128|256:135|256:135|232:142|227:164,1,299.999996423721,6|0,1:3|0:0,0:0:0:0:
270,49,22743,22,0,L|278:25,1,24.9999997019767,2|0,0:1|0:0,0:0:0:0:
298,40,22817,2,0,L|278:24,1,24.9999997019767
299,10,22892,2,0,L|278:24,1,24.9999997019767,2|0,0:1|0:0,0:0:0:0:
272,0,22966,2,0,L|279:23,1,24.9999997019767
254,24,23041,2,0,L|278:24,1,24.9999997019767,10|0,1:3|0:0,0:0:0:0:
441,22,23190,22,0,L|419:43,1,24.9999997019767,2|0,0:1|0:0,0:0:0:0:
431,16,23265,2,0,L|422:45,1,24.9999997019767,8|0,0:0|0:0,0:0:0:0:
348,184,23414,86,0,L|370:163,1,24.9999997019767,2|0,0:1|0:0,0:0:0:0:
359,191,23489,2,0,L|368:162,1,24.9999997019767,8|0,0:0|0:0,0:0:0:0:
512,129,23638,54,0,P|481:109|444:107,1,75.0000019669533,2|0,1:3|0:0,0:0:0:0:
336,94,23787,102,0,B|371:92|371:92|408:110|408:110|444:108,1,112.50000295043
458,185,24086,2,0,L|454:210,2,25.0000006556511,2|2|2,0:0|0:0|0:0,0:0:0:0:
475,284,24235,6,0,P|453:288|425:282,1,49.9999994039535,10|0,1:3|0:0,0:0:0:0:
306,350,24384,2,0,L|298:313,1,37.5000009834766
278,228,24534,102,0,L|228:223,1,49.9999994039535,2|0,0:1|0:0,0:0:0:0:
32,161,24832,38,0,B|8:99|8:99|57:143|113:128|113:128|138:157|188:154|188:154|169:165|155:190,1,299.999996423721,6|0,1:3|0:0,0:0:0:0:
176,71,25131,6,0,L|195:22,1,37.5000009834766,2|0,0:1|0:0,0:0:0:0:
219,60,25206,2,0,L|179:27,1,37.5000009834766
221,15,25280,2,0,L|179:43,1,37.5000009834766,2|2,0:1|0:0,0:0:0:0:
177,0,25354,2,0,L|193:47,1,37.5000009834766
152,36,25429,2,0,L|203:36,1,37.5000009834766,10|0,1:3|0:0,0:0:0:0:
382,17,25578,22,0,L|346:26,1,37.5000009834766,2|0,0:1|0:0,0:0:0:0:
373,1,25653,2,0,L|345:28,1,37.5000009834766
203,180,25802,86,0,L|213:143,1,37.5000009834766,2|0,0:1|0:0,0:0:0:0:
222,181,25877,2,0,L|213:144,1,37.5000009834766
35,25,26026,54,0,B|3:66|3:66|16:152|16:152|60:171,1,187.499997764826,2|0,1:3|0:0,0:0:0:0:
37,262,26325,6,0,L|111:253,1,75.0000019669533,2|0,0:0|0:0,0:0:0:0:
208,289,26474,2,0,L|282:280,1,75.0000019669533,2|0,0:0|0:0,0:0:0:0:
413,348,26623,102,0,P|399:326|380:311,1,49.9999994039535,10|0,1:3|0:0,0:0:0:0:
283,280,26772,2,0,P|258:278|233:286,1,49.9999994039535
150,373,26922,22,0,L|100:366,1,49.9999994039535,0|2,0:0|0:1,0:0:0:0:
441,352,27220,6,0,P|365:271|257:253,1,225.00000590086,6|0,1:3|0:0,0:0:0:0:
179,216,27519,2,0,L|186:166,2,49.9999994039535
35,156,27817,102,0,P|58:148|83:149,1,49.9999994039535,10|2,1:3|0:1,0:0:0:0:
474,380,28116,6,0,B|469:323|469:323|324:231|324:231|256:252,1,300.000007867813,6|0,1:3|0:0,0:0:0:0:
79,279,28563,102,0,L|72:229,1,49.9999994039535,2|0,1:3|0:0,0:0:0:0:
193,118,28713,1,2,1:3:0:0:
192,117,28787,2,0,B|193:141|193:141|185:165,1,49.9999994039535,2|0,0:1|0:0,0:0:0:0:
8,19,29011,6,0,P|84:100|192:118,1,225.00000590086,10|0,1:3|0:0,0:0:0:0:
263,47,29310,70,0,P|292:35|323:33,1,62.4999992549419,2|0,0:0|0:0,0:0:0:0:
393,80,29459,6,0,L|411:84,1,18.7500004917383
400,98,29534,2,0,L|418:93,1,18.7500004917383
457,184,29608,22,0,B|508:170|506:120|506:120|437:93|398:139|398:139|372:155|337:143|337:143|356:156|362:174,1,299.999996423721,6|0,1:3|0:0,0:0:0:0:
287,232,29907,6,0,L|296:208,1,24.9999997019767,2|0,0:1|0:0,0:0:0:0:
261,239,29982,2,0,L|241:222,1,24.9999997019767
260,269,30057,2,0,L|239:283,1,24.9999997019767,2|0,0:1|0:0,0:0:0:0:
286,280,30131,2,0,L|294:303,1,24.9999997019767
304,255,30205,2,0,L|329:255,1,24.9999997019767,10|0,1:3|0:0,0:0:0:0:
103,320,30354,22,0,L|125:309,1,24.9999997019767,2|0,0:1|0:0,0:0:0:0:
115,331,30429,2,0,L|125:308,1,24.9999997019767,8|0,0:0|0:0,0:0:0:0:
161,125,30578,86,0,L|158:149,1,24.9999997019767,2|0,0:1|0:0,0:0:0:0:
143,129,30653,2,0,L|157:149,1,24.9999997019767,8|0,0:0|0:0,0:0:0:0:
9,275,30802,54,0,L|0:226,1,49.9999994039535,2|0,1:3|0:0,0:0:0:0:
175,256,30951,2,0,B|144:218|144:218|39:204|39:204|0:226,1,199.999997615814
175,256,31399,6,0,L|100:246,1,75.0000019669533,10|0,1:3|0:0,0:0:0:0:
261,376,31549,2,0,L|186:366,1,75.0000019669533
371,280,31698,2,0,B|329:311|329:311|206:294|206:294|175:256,1,225.00000590086,2|0,0:1|0:0,0:0:0:0:
28,161,31996,22,0,B|-6:122|31:68|31:68|81:70|120:103|120:103|156:117|189:99|189:99|174:112|165:141,1,299.999996423721,6|0,1:3|0:0,0:0:0:0:
280,153,32295,22,0,L|271:129,1,24.9999997019767,2|0,0:1|0:0,0:0:0:0:
306,160,32370,2,0,L|326:143,1,24.9999997019767
307,190,32445,2,0,L|328:204,1,24.9999997019767,2|0,0:1|0:0,0:0:0:0:
281,201,32519,2,0,L|273:224,1,24.9999997019767
263,176,32593,2,0,L|238:176,1,24.9999997019767,10|0,1:3|0:0,0:0:0:0:
464,241,32742,22,0,L|442:230,1,24.9999997019767,2|0,0:1|0:0,0:0:0:0:
452,252,32817,2,0,L|442:229,1,24.9999997019767,8|0,0:0|0:0,0:0:0:0:
406,46,32966,86,0,L|409:70,1,24.9999997019767,2|0,0:1|0:0,0:0:0:0:
424,50,33041,2,0,L|410:70,1,24.9999997019767,8|0,0:0|0:0,0:0:0:0:
229,69,33190,54,0,P|263:55|300:62,1,75.0000019669533,2|0,1:3|0:0,0:0:0:0:
409,70,33340,102,0,B|362:60|362:60|335:70|335:70|281:58,1,112.50000295043
271,129,33638,2,0,L|280:153,2,24.9999997019767,2|2|2,0:0|0:0|0:0,0:0:0:0:
282,225,33787,6,0,P|257:223|235:211,1,49.9999994039535,10|0,1:3|0:0,0:0:0:0:
155,63,33937,2,0,L|117:61,1,37.5000009834766
4,170,34086,102,0,P|31:144|67:134,1,74.9999991059302,2|0,0:1|0:0,0:0:0:0:
102,144,34384,102,0,L|100:156,1,12.4999998509884,2|0,1:3|0:0,0:0:0:0:
237,223,34608,2,0,L|235:210,2,12.4999998509884,0|0|8,0:0|0:0|1:0,0:0:0:0:
128,228,34782,86,0,L|161:231,1,33.333332935969
58,263,34981,2,0,L|59:268,4,6.24999992549419
123,352,35131,21,2,3:0:0:0:
147,346,35205,1,2,3:0:0:0:
218,312,35280,6,0,L|222:330,1,18.7500004917383,10|0,1:3|0:0,0:0:0:0:
236,316,35354,2,0,L|221:329,1,18.7500004917383
241,334,35429,2,0,L|222:328,1,18.7500004917383,2|0,0:1|0:0,0:0:0:0:
227,346,35504,2,0,L|222:327,1,18.7500004917383
147,346,35578,69,2,1:3:0:0:
110,338,35653,1,2,1:3:0:0:
72,340,35728,1,2,1:3:0:0:
39,357,35802,1,2,1:3:0:0:
31,372,35877,54,0,L|38:335,1,37.5000009834766
135,264,36026,2,0,L|127:227,1,37.5000009834766,2|0,3:0|0:0,0:0:0:0:
0,167,36175,102,0,P|21:153|45:149,1,49.9999994039535,8|0,1:3|0:0,0:0:0:0:
152,158,36325,2,0,P|173:169|190:188,1,49.9999994039535
218,312,36474,22,0,L|267:315,1,49.9999994039535,0|2,0:0|0:1,0:0:0:0:
451,213,36772,6,0,B|502:199|500:149|500:149|431:122|392:168|392:168|366:184|331:172|331:172|350:185|356:203,1,299.999996423721,6|0,1:3|0:0,0:0:0:0:
273,240,37071,38,0,L|267:315,1,75.0000019669533,10|0,1:3|0:0,0:0:0:0:
128,315,37295,1,0,0:0:0:0:
129,314,37369,102,0,P|197:340|266:314,1,149.99999821186,2|0,1:3|0:0,0:0:0:0:
346,268,37668,6,0,L|351:193,1,75.0000019669533,10|0,1:3|0:0,0:0:0:0:
438,66,37966,102,0,B|409:24|409:24|323:10|323:10|280:34,1,187.499997764826,2|0,1:3|0:0,0:0:0:0:
212,93,38265,6,0,L|207:168,1,75.0000019669533,10|0,1:3|0:0,0:0:0:0:
400,184,38563,22,0,P|376:192|352:194,1,49.9999994039535,2|0,1:3|0:0,0:0:0:0:
255,177,38713,2,0,P|231:168|206:167,1,49.9999994039535,2|0,1:3|0:0,0:0:0:0:
123,202,38862,5,10,1:2:0:0:
87,201,38937,1,2,1:3:0:0:
71,181,39011,1,2,1:3:0:0:
66,166,39086,1,2,1:3:0:0:
68,155,39160,38,0,L|72:179,1,24.9999997019767,6|0,1:3|0:0,0:0:0:0:
219,241,39310,2,0,L|211:290,1,49.9999994039535,2|0,3:0|0:0,0:0:0:0:
68,327,39608,22,0,L|72:302,1,24.9999997019767,2|0,3:0|0:0,0:0:0:0:
219,241,39757,2,0,L|206:166,1,75.0000019669533,10|0,1:3|0:0,0:0:0:0:
63,130,40056,86,0,L|67:154,1,24.9999997019767,2|0,3:0|0:0,0:0:0:0:
219,241,40205,2,0,L|211:290,1,49.9999994039535,2|0,1:3|0:0,0:0:0:0:
63,351,40504,22,0,L|67:326,1,24.9999997019767,2|0,3:0|0:0,0:0:0:0:
219,241,40653,2,0,L|211:192,1,49.9999994039535,2|0,1:3|0:0,0:0:0:0:
46,235,40951,38,0,L|83:241,1,37.5000009834766,10|0,1:3|0:0,0:0:0:0:
173,197,41101,2,0,L|210:190,1,37.5000009834766
301,290,41250,2,0,L|338:296,1,37.5000009834766
408,165,41399,37,2,3:0:0:0:
426,160,41474,1,2,3:0:0:0:
444,155,41549,2,0,L|439:179,1,24.9999997019767,2|0,1:3|0:0,0:0:0:0:
293,241,41699,2,0,L|301:290,1,49.9999994039535,2|0,3:0|0:0,0:0:0:0:
444,327,41996,22,0,L|439:302,1,24.9999997019767,2|0,3:0|0:0,0:0:0:0:
293,241,42146,2,0,L|305:166,1,75.0000019669533,10|0,1:3|0:0,0:0:0:0:
449,130,42444,86,0,L|444:154,1,24.9999997019767,2|0,3:0|0:0,0:0:0:0:
293,241,42594,2,0,L|301:290,1,49.9999994039535,2|0,1:3|0:0,0:0:0:0:
449,351,42893,22,0,L|444:326,1,24.9999997019767,2|0,1:3|0:0,0:0:0:0:
293,241,43042,2,0,L|301:192,1,49.9999994039535,2|2,1:3|0:0,0:0:0:0:
466,235,43265,1,2,0:0:0:0:
466,235,43340,38,0,L|428:241,1,37.5000009834766,10|2,1:3|0:0,0:0:0:0:
339,197,43490,2,0,L|301:190,1,37.5000009834766,2|2,0:1|0:0,0:0:0:0:
222,287,43639,2,0,L|184:293,1,37.5000009834766,2|2,0:1|0:0,0:0:0:0:
104,165,43787,2,0,L|66:158,1,37.5000009834766,2|2,0:1|0:0,0:0:0:0:
113,375,43937,54,0,L|119:337,1,24.9999997019767,2|0,1:3|0:0,0:0:0:0:
184,292,44086,2,0,L|193:242,1,49.9999994039535,2|0,3:0|0:0,0:0:0:0:
277,85,44384,22,0,L|271:123,1,24.9999997019767,2|0,3:0|0:0,0:0:0:0:
206,168,44534,2,0,L|192:241,1,75.0000019669533,10|0,1:3|0:0,0:0:0:0:
40,154,44832,86,0,L|64:157,1,24.9999997019767,2|0,3:0|0:0,0:0:0:0:
141,232,44981,2,0,L|191:241,1,49.9999994039535,2|0,1:3|0:0,0:0:0:0:
354,329,45280,22,0,L|329:325,1,24.9999997019767,2|0,3:0|0:0,0:0:0:0:
241,249,45429,2,0,L|191:240,1,49.9999994039535,2|0,1:3|0:0,0:0:0:0:
75,83,45728,22,0,L|111:89,1,37.5000009834766,10|0,1:3|0:0,0:0:0:0:
169,161,45877,2,0,L|205:167,1,37.5000009834766,0|0,0:1|0:0,0:0:0:0:
306,145,46026,2,0,L|342:151,1,37.5000009834766,0|0,0:1|0:0,0:0:0:0:
264,20,46175,53,2,3:0:0:0:
264,20,46250,1,2,3:0:0:0:
264,20,46325,2,0,L|270:58,1,24.9999997019767,2|0,1:3|0:0,0:0:0:0:
335,103,46474,2,0,L|344:153,1,49.9999994039535,2|0,3:0|0:0,0:0:0:0:
428,310,46772,22,0,L|422:272,1,24.9999997019767,2|0,3:0|0:0,0:0:0:0:
357,227,46922,2,0,L|343:154,1,75.0000019669533,10|0,1:3|0:0,0:0:0:0:
191,241,47220,86,0,L|215:238,1,24.9999997019767,2|0,3:0|0:0,0:0:0:0:
292,163,47369,2,0,L|342:154,1,49.9999994039535,2|0,1:3|0:0,0:0:0:0:
505,66,47668,22,0,L|480:70,1,24.9999997019767,2|0,1:3|0:0,0:0:0:0:
392,146,47817,2,0,L|342:155,1,49.9999994039535,2|0,1:3|0:0,0:0:0:0:
212,99,48116,6,0,P|275:62|347:78,1,149.99999821186,10|2,1:3|0:1,0:0:0:0:
474,141,48713,54,0,L|470:165,1,24.9999997019767,6|0,3:0|0:0,0:0:0:0:
331,276,48862,2,0,L|323:227,1,49.9999994039535,6|0,3:0|0:0,0:0:0:0:
474,313,49160,6,0,L|470:288,1,24.9999997019767,6|0,3:0|0:0,0:0:0:0:
335,153,49310,2,0,L|322:226,1,75.0000019669533,14|0,3:0|0:0,0:0:0:0:
479,116,49608,102,0,L|475:140,1,24.9999997019767,6|0,3:0|0:0,0:0:0:0:
331,276,49758,2,0,L|323:227,1,49.9999994039535,6|0,3:0|0:0,0:0:0:0:
479,337,50056,6,0,L|475:312,1,24.9999997019767,6|0,3:0|0:0,0:0:0:0:
331,178,50205,2,0,L|323:227,1,49.9999994039535,6|0,3:0|0:0,0:0:0:0:
496,221,50504,54,0,L|459:227,1,37.5000009834766,10|2,3:0|0:0,0:0:0:0:
369,183,50653,2,0,L|332:176,1,37.5000009834766,2|2,0:1|0:0,0:0:0:0:
241,276,50802,2,0,L|204:282,1,37.5000009834766,2|2,0:1|0:0,0:0:0:0:
134,151,50951,37,2,3:0:0:0:
116,146,51027,1,2,3:0:0:0:
98,141,51101,2,0,L|103:165,1,24.9999997019767,6|0,3:0|0:0,0:0:0:0:
241,276,51250,2,0,L|249:227,1,49.9999994039535,6|0,3:0|0:0,0:0:0:0:
98,313,51549,6,0,L|103:288,1,24.9999997019767,6|0,3:0|0:0,0:0:0:0:
237,152,51698,2,0,L|249:227,1,75.0000019669533,14|0,3:0|0:0,0:0:0:0:
93,116,51996,102,0,L|98:140,1,24.9999997019767,6|0,3:0|0:0,0:0:0:0:
241,276,52147,2,0,L|249:227,1,49.9999994039535,6|0,3:0|0:0,0:0:0:0:
93,337,52444,6,0,L|98:312,1,24.9999997019767,6|0,3:0|0:0,0:0:0:0:
241,178,52593,2,0,L|249:227,1,49.9999994039535,6|2,3:0|0:0,0:0:0:0:
76,221,52818,1,2,0:0:0:0:
76,221,52892,54,0,L|114:227,1,37.5000009834766,10|2,3:0|0:0,0:0:0:0:
203,183,53041,2,0,L|241:176,1,37.5000009834766,2|2,0:1|0:0,0:0:0:0:
320,273,53190,2,0,L|358:279,1,37.5000009834766,2|2,0:1|0:0,0:0:0:0:
438,151,53340,2,0,L|476:144,1,37.5000009834766,2|2,0:1|0:0,0:0:0:0:
429,361,53489,86,0,L|423:323,1,24.9999997019767,6|0,3:0|0:0,0:0:0:0:
349,228,53639,2,0,L|358:278,1,49.9999994039535,6|0,3:0|0:0,0:0:0:0:
265,71,53937,102,0,L|271:109,1,24.9999997019767,6|0,3:0|0:0,0:0:0:0:
349,228,54086,2,0,L|335:155,1,75.0000019669533,14|0,3:0|0:0,0:0:0:0:
502,140,54385,6,0,L|478:143,1,24.9999997019767,6|0,3:0|0:0,0:0:0:0:
349,228,54534,2,0,L|399:219,1,49.9999994039535,6|0,3:0|0:0,0:0:0:0:
188,315,54832,102,0,L|213:311,1,24.9999997019767,6|0,3:0|0:0,0:0:0:0:
349,228,54982,2,0,L|299:237,1,49.9999994039535,6|0,3:0|0:0,0:0:0:0:
341,70,55280,38,0,L|347:106,1,37.5000014305115,10|0,3:0|0:0,0:0:0:0:
475,68,55429,102,0,B|449:105|449:105|389:120|389:120|345:106,1,150,2|0,0:1|0:0,0:0:0:0:
278,6,55728,101,2,3:0:0:0:
278,6,55803,1,2,3:0:0:0:
278,6,55877,2,0,L|272:44,1,24.9999997019767,6|0,3:0|0:0,0:0:0:0:
200,141,56026,2,0,L|209:91,1,49.9999994039535,6|0,3:0|0:0,0:0:0:0:
114,296,56325,102,0,L|120:258,1,24.9999997019767,6|0,3:0|0:0,0:0:0:0:
200,141,56474,2,0,L|190:190,1,49.9999994039535,6|0,3:0|0:0,0:0:0:0:
351,227,56773,6,0,L|327:224,1,24.9999997019767,6|0,3:0|0:0,0:0:0:0:
200,141,56922,2,0,L|250:150,1,49.9999994039535,6|0,3:0|0:0,0:0:0:0:
37,52,57221,102,0,L|62:56,1,24.9999997019767,6|0,3:0|0:0,0:0:0:0:
200,141,57369,2,0,L|150:132,1,49.9999994039535,6|0,3:0|0:0,0:0:0:0:
37,52,57668,6,0,L|74:57,1,37.5000009834766,2|0,3:0|0:0,0:0:0:0:
351,227,57817,2,0,L|313:222,1,37.5000009834766,2|0,1:3|0:0,0:0:0:0:
114,296,57966,102,0,L|120:258,1,37.5000009834766,2|0,3:0|0:0,0:0:0:0:
278,6,58116,2,0,L|272:43,1,37.5000009834766,2|0,1:3|0:0,0:0:0:0:
200,141,58265,70,0,B|154:133|122:160|122:160|154:133|182:80|177:33|177:33|182:80|237:124|281:141|323:136|323:136|301:139|280:158,1,450.00001180172,6|0,1:3|0:0,0:0:0:0:
417,27,58862,102,0,B|406:10|410:-9|410:-9|406:10|391:24,1,75.0000019669533,10|0,1:3|0:0,0:0:0:0:
472,187,59011,6,0,P|464:162|447:144,1,49.9999994039535,2|0,1:3|0:0,0:0:0:0:
274,131,59310,102,0,P|297:138|322:136,1,50,2|0,1:3|0:0,0:0:0:0:
397,215,59608,102,0,L|395:202,2,12.4999998509884,2|0|0,0:1|0:0|0:0,0:0:0:0:
253,350,60205,102,0,L|251:362,2,12.4999998509884,2|0|0,0:0|0:0|0:0,0:0:0:0:
116,335,60653,38,0,B|67:343|40:383|40:383|98:297|172:262|270:268|270:268|216:264|190:294,1,450.00001180172,6|0,1:3|0:0,0:0:0:0:
335,202,61250,102,0,B|354:202|364:225|364:225|345:232|330:222,1,75.0000019669533,10|0,1:3|0:0,0:0:0:0:
195,91,61399,6,0,P|193:115|199:140,1,49.9999994039535,2|0,1:3|0:0,0:0:0:0:
190,293,61698,102,0,P|214:283|233:267,1,49.9999994039535,2|0,1:3|0:0,0:0:0:0:
199,140,61996,102,0,L|161:137,1,37.5000014305115,8|8,0:0|0:0,0:0:0:0:
168,19,62146,2,0,P|204:15|239:29,1,75.0000028610231,8|8,3:2|0:0,0:0:0:0:
290,92,62369,1,8,0:0:0:0:
290,92,62444,1,8,3:2:0:0:
433,8,62593,102,0,P|383:9|341:35,1,100,2|8,3:0|0:0,0:0:0:0:
420,134,63041,38,0,B|466:128|495:160|495:160|519:68|434:26|379:31|323:95|342:144|342:144|323:95|273:89,1,450.00001180172,6|0,1:3|0:0,0:0:0:0:
193,193,63638,102,0,P|163:187|179:214,1,75.0000019669533,10|0,1:3|0:0,0:0:0:0:
330,120,63787,6,0,P|312:102|290:92,1,49.9999994039535,2|0,1:3|0:0,0:0:0:0:
173,17,64086,102,0,P|167:41|170:66,1,49.9999994039535,2|0,1:3|0:0,0:0:0:0:
255,241,64384,102,0,L|304:233,1,49.9999994039535,2|2,0:0|0:1,0:0:0:0:
100,299,64981,102,0,L|104:324,1,24.9999997019767
62,135,65429,38,0,B|55:91|44:75|18:50|18:50|43:76|90:113|143:110|143:110|162:117|183:117|183:117|228:136|280:126|325:113|325:113|280:126|267:138|248:175,1,524.999998748302,6|0,1:3|0:0,0:0:0:0:
34,281,66026,102,0,B|34:266|25:250|25:250|37:250|50:242|50:242|51:260|61:267,1,87.4999997913836,10|0,1:3|0:0,0:0:0:0:
212,376,66175,6,0,B|212:361|221:345|221:345|209:345|196:337|196:337|195:355|185:362,1,87.4999997913836,2|0,1:3|0:0,0:0:0:0:
348,206,66325,85,2,3:0:0:0:
395,181,66399,1,0,3:0:0:0:
447,194,66475,1,0,3:0:0:0:
479,235,66549,1,0,3:0:0:0:
500,228,66624,6,0,B|463:234|463:234|440:251|440:251|407:257,1,99.999998807907,6|2,1:3|0:1,0:0:0:0:
285,317,67369,102,0,L|281:338,2,21.8749999478459
356,351,67519,6,0,P|378:341|403:339,1,49.9999994039535,8|0,1:0|0:0,0:0:0:0:
449,159,67817,38,0,P|430:143|406:134,1,49.9999994039535,6|0,1:3|0:0,0:0:0:0:
271,111,67966,2,0,P|295:106|320:111,1,49.9999994039535,0|0,1:0|0:0,0:0:0:0:
346,187,68116,21,10,1:0:0:0:
466,141,68265,70,0,P|444:130|419:129,1,49.9999994039535,0|0,1:3|0:0,0:0:0:0:
265,87,68414,2,0,P|289:88|311:100,1,49.9999994039535,2|0,1:3|0:0,0:0:0:0:
344,197,68563,21,2,0:1:0:0:
478,120,68713,6,0,P|453:115|429:120,1,49.9999994039535,10|0,1:3|0:0,0:0:0:0:
265,63,68862,2,0,P|288:70|306:87,1,49.9999994039535,0|0,1:0|0:0,0:0:0:0:
341,207,69011,85,2,1:0:0:0:
483,95,69160,6,0,P|458:96|436:108,1,49.9999994039535,0|0,1:3|0:0,0:0:0:0:
272,39,69310,2,0,P|292:52|305:73,1,49.9999994039535,10|0,1:3|0:0,0:0:0:0:
339,216,69459,85,2,0:1:0:0:
254,162,69608,70,0,L|259:142,1,12.5,2|0,1:3|0:0,0:0:0:0:
437,211,69757,2,0,L|442:191,1,12.5,0|0,1:0|0:0,0:0:0:0:
284,142,69907,102,0,L|280:154,1,12.5,10|0,1:3|0:0,0:0:0:0:
421,179,70056,2,0,L|417:191,1,12.5,0|0,1:0|0:0,0:0:0:0:
254,232,70205,70,0,P|228:228|204:231,1,49.9999994039535,2|0,1:3|0:0,0:0:0:0:
72,280,70354,2,0,P|92:263|114:254,1,49.9999994039535,0|0,1:0|0:0,0:0:0:0:
177,309,70504,21,10,1:0:0:0:
263,197,70653,70,0,P|238:205|220:221,1,49.9999994039535,0|0,1:0|0:0,0:0:0:0:
46,255,70802,2,0,P|71:249|94:254,1,49.9999994039535,2|0,1:3|0:0,0:0:0:0:
181,328,70951,21,2,0:1:0:0:
254,162,71101,6,0,P|236:181|229:203,1,49.9999994039535,10|0,1:3|0:0,0:0:0:0:
37,220,71250,2,0,P|61:228|79:243,1,49.9999994039535,0|0,1:0|0:0,0:0:0:0:
187,346,71399,85,2,1:0:0:0:
228,136,71548,6,0,P|222:161|227:184,1,49.9999994039535,0|0,1:0|0:0,0:0:0:0:
46,185,71698,2,0,P|63:204|70:226,1,49.9999994039535,10|0,1:3|0:0,0:0:0:0:
192,363,71847,85,2,0:1:0:0:
290,276,71996,70,0,L|283:265,1,12.5,2|0,1:3|0:0,0:0:0:0:
63,337,72146,2,0,L|63:324,1,12.5,0|0,1:0|0:0,0:0:0:0:
252,251,72295,102,0,L|258:261,1,12.5,10|0,1:3|0:0,0:0:0:0:
84,296,72444,2,0,L|84:308,1,12.5,0|0,1:0|0:0,0:0:0:0:
322,152,72593,70,0,P|303:168|279:177,1,49.9999994039535,6|0,1:3|0:0,0:0:0:0:
144,200,72743,2,0,P|168:205|193:200,1,49.9999994039535,0|0,1:0|0:0,0:0:0:0:
219,124,72892,21,10,1:0:0:0:
339,170,73041,70,0,P|317:181|292:182,1,49.9999994039535,0|0,1:0|0:0,0:0:0:0:
138,224,73190,2,0,P|162:223|184:211,1,49.9999994039535,2|0,1:3|0:0,0:0:0:0:
217,114,73339,21,2,0:1:0:0:
351,191,73488,6,0,P|326:196|302:191,1,49.9999994039535,10|0,1:3|0:0,0:0:0:0:
138,248,73638,2,0,P|161:241|179:224,1,49.9999994039535,0|0,1:0|0:0,0:0:0:0:
214,104,73787,85,2,1:0:0:0:
356,216,73936,6,0,P|331:215|309:203,1,49.9999994039535,0|0,1:0|0:0,0:0:0:0:
145,272,74086,2,0,P|165:259|178:238,1,49.9999994039535,10|0,1:3|0:0,0:0:0:0:
212,95,74235,85,2,0:1:0:0:
80,153,74384,70,0,L|88:161,1,12.5,2|0,1:3|0:0,0:0:0:0:
354,79,74534,2,0,L|350:91,1,12.5,0|0,1:0|0:0,0:0:0:0:
124,181,74683,102,0,L|115:172,1,12.5,10|0,1:3|0:0,0:0:0:0:
331,126,74832,2,0,L|334:113,1,12.5,0|0,1:0|0:0,0:0:0:0:
66,76,74981,22,0,P|101:41|150:34,1,99.999998807907,6|0,1:3|0:0,0:0:0:0:
212,95,75205,1,2,0:1:0:0:
212,95,75280,2,0,P|232:108|257:113,1,49.9999994039535,10|0,1:3|0:0,0:0:0:0:
332,126,75429,2,0,P|352:112|377:107,1,49.9999994039535,2|0,0:1|0:0,0:0:0:0:
66,308,75578,6,0,P|101:342|150:349,1,99.999998807907,6|0,1:3|0:0,0:0:0:0:
212,289,75802,1,2,0:1:0:0:
212,288,75877,2,0,P|232:275|257:270,1,49.9999994039535,10|0,1:3|0:0,0:0:0:0:
332,258,76026,2,0,P|352:271|377:276,1,49.9999994039535,2|0,0:1|0:0,0:0:0:0:
451,103,76175,86,0,P|448:127|438:150,1,49.9999994039535,6|0,1:3|0:0,0:0:0:0:
451,281,76325,2,0,P|448:256|438:233,1,49.9999994039535,2|0,1:3|0:0,0:0:0:0:
256,192,76474,1,10,1:3:0:0:
256,192,76549,1,2,1:3:0:0:
256,192,76623,2,0,L|181:192,1,75.0000019669533,2|2,1:3|0:1,0:0:0:0:
317,85,76922,102,0,P|305:100|298:117,1,37.5000009834766,2|0,1:3|0:0,0:0:0:0:
181,192,77071,2,0,P|187:209|191:227,1,37.5000009834766,10|0,1:3|0:0,0:0:0:0:
285,266,77220,2,0,P|282:284|284:303,1,37.5000009834766,2|0,1:3|0:0,0:0:0:0:
141,351,77369,22,0,P|177:349|211:318,1,75,8|0,0:1|0:0,0:0:0:0:
285,266,77668,6,0,B|286:236|286:236|279:236|279:236|286:236|286:236|288:205,1,75.0000028610231,14|0,1:3|0:0,0:0:0:0:
59,138,77817,6,0,B|81:126|81:126|106:125,1,50,0|0,1:0|0:0,0:0:0:0:
261,83,77966,2,0,B|236:83|236:83|214:95,1,50,2|0,1:3|0:0,0:0:0:0:
181,192,78116,21,2,0:1:0:0:
47,115,78265,6,0,B|72:110|72:110|96:115,1,50,10|0,1:3|0:0,0:0:0:0:
260,58,78414,2,0,B|236:65|236:65|218:82,1,50,0|0,1:0|0:0,0:0:0:0:
184,202,78563,85,2,1:0:0:0:
42,90,78713,6,0,B|67:91|67:91|89:103,1,50,0|0,1:0|0:0,0:0:0:0:
253,34,78862,2,0,B|232:47|232:47|219:68,1,50,10|0,1:3|0:0,0:0:0:0:
186,211,79011,85,2,0:1:0:0:
270,156,79160,70,0,L|265:135,1,12.5,2|0,1:3|0:0,0:0:0:0:
87,205,79309,2,0,L|82:184,1,12.5,0|0,1:0|0:0,0:0:0:0:
241,136,79459,102,0,L|245:147,1,12.5,10|0,1:3|0:0,0:0:0:0:
103,172,79608,2,0,L|107:183,1,12.5,0|0,1:0|0:0,0:0:0:0:
246,253,79757,70,0,B|272:249|272:249|296:252,1,50,2|0,1:3|0:0,0:0:0:0:
427,301,79906,2,0,B|406:284|406:284|384:275,1,50,0|0,1:0|0:0,0:0:0:0:
322,330,80056,21,10,1:0:0:0:
236,218,80205,70,0,B|261:226|261:226|278:242,1,50,0|0,1:0|0:0,0:0:0:0:
453,276,80354,2,0,B|427:270|427:270|404:275,1,50,2|0,1:3|0:0,0:0:0:0:
317,349,80504,21,2,0:1:0:0:
245,183,80653,6,0,B|262:202|262:202|269:224,1,50,10|0,1:3|0:0,0:0:0:0:
462,241,80802,2,0,B|437:249|437:249|420:265,1,50,0|0,1:0|0:0,0:0:0:0:
311,367,80951,85,2,1:0:0:0:
271,157,81100,6,0,B|276:182|276:182|271:205,1,50,0|0,1:0|0:0,0:0:0:0:
453,206,81250,2,0,B|435:225|435:225|428:247,1,50,10|0,1:3|0:0,0:0:0:0:
307,384,81399,85,2,0:1:0:0:
209,297,81549,70,0,L|216:286,1,12.5,2|0,1:3|0:0,0:0:0:0:
436,358,81698,2,0,L|436:345,1,12.5,0|0,1:0|0:0,0:0:0:0:
247,272,81847,102,0,L|241:282,1,12.5,10|0,1:3|0:0,0:0:0:0:
415,317,81996,2,0,L|415:329,1,12.5,0|0,1:0|0:0,0:0:0:0:
203,147,82146,70,0,B|222:163|222:163|246:172,1,50,6|0,1:3|0:0,0:0:0:0:
381,195,82295,2,0,B|357:200|357:200|332:195,1,50,0|0,1:0|0:0,0:0:0:0:
306,119,82445,21,10,1:0:0:0:
186,165,82593,70,0,B|208:176|208:176|233:177,1,50,0|0,1:0|0:0,0:0:0:0:
387,219,82743,2,0,B|363:218|363:218|341:206,1,50,2|0,1:3|0:0,0:0:0:0:
308,109,82892,21,2,0:1:0:0:
174,186,83041,6,0,B|199:191|199:191|223:186,1,50,10|0,1:3|0:0,0:0:0:0:
387,243,83190,2,0,B|363:235|363:235|345:218,1,50,0|0,1:0|0:0,0:0:0:0:
311,99,83340,85,2,1:0:0:0:
169,211,83489,6,0,B|194:210|194:210|216:198,1,50,0|0,1:0|0:0,0:0:0:0:
380,267,83638,2,0,B|359:253|359:253|346:232,1,50,10|0,1:3|0:0,0:0:0:0:
313,90,83788,85,2,0:1:0:0:
445,148,83937,70,0,L|437:156,1,12.5,2|0,1:3|0:0,0:0:0:0:
171,74,84086,2,0,L|175:86,1,12.5,0|0,1:0|0:0,0:0:0:0:
401,176,84235,102,0,L|410:167,1,12.5,10|0,1:3|0:0,0:0:0:0:
194,121,84384,2,0,L|191:108,1,12.5,0|0,1:0|0:0,0:0:0:0:
459,71,84534,22,0,P|424:36|375:29,1,99.999998807907,6|0,1:3|0:0,0:0:0:0:
313,90,84758,1,2,0:1:0:0:
313,90,84833,2,0,P|293:103|268:108,1,49.9999994039535
193,121,84982,2,0,P|173:107|148:102,1,49.9999994039535,2|0,0:1|0:0,0:0:0:0:
459,303,85131,6,0,P|424:337|375:344,1,99.999998807907,14|0,1:3|0:0,0:0:0:0:
313,284,85355,1,2,0:1:0:0:
313,283,85430,2,0,P|293:270|268:265,1,49.9999994039535,2|0,3:0|0:0,0:0:0:0:
193,253,85578,2,0,P|173:266|148:271,1,49.9999994039535,2|0,3:0|0:0,0:0:0:0:
75,113,85728,102,0,B|134:95|134:95|192:120,1,124.999998509884,6|0,1:3|0:0,0:0:0:0:
256,192,85951,1,2,3:0:0:0:
256,192,86026,2,0,L|318:185,1,62.4999992549419,10|0,1:3|0:0,0:0:0:0:
364,98,86175,2,0,L|426:103,1,62.4999992549419,2|0,1:3|0:0,0:0:0:0:
54,292,86325,6,0,B|127:317|127:317|193:286,1,150.000005722046,14|0,1:3|0:0,0:0:0:0:
256,192,86549,1,2,3:0:0:0:
256,192,86623,2,0,L|330:199,1,75.0000019669533,10|0,1:3|0:0,0:0:0:0:
384,311,86772,2,0,L|458:303,1,75.0000019669533,10|0,1:3|0:0,0:0:0:0:
484,101,86922,22,0,L|434:95,1,50,6|0,3:0|0:0,0:0:0:0:
468,118,87071,2,0,L|418:112,1,50,6|0,3:0|0:0,0:0:0:0:
452,135,87369,22,0,L|402:129,1,50,6|0,3:0|0:0,0:0:0:0:
256,32,87519,53,10,1:3:0:0:
436,152,87668,22,0,L|386:146,1,50,6|0,3:0|0:0,0:0:0:0:
420,169,87817,2,0,L|370:163,1,50,6|0,3:0|0:0,0:0:0:0:
36,154,88116,102,0,L|85:148,1,50,6|0,3:0|0:0,0:0:0:0:
52,171,88414,22,0,L|101:165,1,50,6|0,3:0|0:0,0:0:0:0:
68,188,88563,2,0,L|117:182,1,50,6|0,3:0|0:0,0:0:0:0:
256,101,88713,69,10,1:3:0:0:
84,205,88862,6,0,L|133:199,1,50,6|0,3:0|0:0,0:0:0:0:
100,222,89160,22,0,L|149:216,1,50,6|0,3:0|0:0,0:0:0:0:
116,239,89310,2,0,L|165:233,1,50,6|0,3:0|0:0,0:0:0:0:
469,252,89608,102,0,L|419:246,1,50,6|0,3:0|0:0,0:0:0:0:
256,169,89907,85,10,3:0:0:0:
453,269,90056,54,0,L|403:263,1,50,6|0,3:0|0:0,0:0:0:0:
437,286,90354,86,0,L|387:280,1,50,6|0,3:0|0:0,0:0:0:0:
421,303,90653,22,0,L|371:297,1,50,6|0,3:0|0:0,0:0:0:0:
405,320,90802,2,0,L|355:314,1,50,6|0,3:0|0:0,0:0:0:0:
256,237,91101,53,10,1:3:0:0:
51,316,91399,6,0,L|100:310,1,50,6|0,3:0|0:0,0:0:0:0:
67,333,91548,2,0,L|116:327,1,50,6|0,3:0|0:0,0:0:0:0:
256,237,91698,101,10,1:3:0:0:
83,350,91847,38,0,L|132:344,1,50,6|0,3:0|0:0,0:0:0:0:
256,237,91996,69,10,1:3:0:0:
99,367,92146,6,0,L|148:361,1,50,6|0,3:0|0:0,0:0:0:0:
115,384,92295,2,0,L|164:378,1,50,6|0,3:0|0:0,0:0:0:0:
331,248,92444,54,0,L|329:261,2,12.5
256,237,92593,6,0,L|243:238,2,12.5
172,253,92743,5,2,0:0:0:0:
382,153,92892,85,6,0:1:0:0:
431,164,93041,1,0,0:0:0:0:
470,132,93190,1,0,0:0:0:0:
470,82,93340,1,0,0:0:0:0:
361,107,93489,5,2,0:1:0:0:
382,62,93638,1,0,0:0:0:0:
431,51,93787,1,0,0:0:0:0:
229,180,93936,101,2,0:1:0:0:
180,191,94085,1,0,0:0:0:0:
141,159,94234,1,0,0:0:0:0:
141,109,94384,1,0,0:0:0:0:
276,113,94534,5,2,0:1:0:0:
280,83,94609,1,0,0:0:0:0:
253,72,94683,1,0,0:0:0:0:
235,48,94758,1,0,0:0:0:0:
206,57,94833,2,0,L|215:106,1,49.9999994039535
293,326,94981,101,2,0:1:0:0:
342,337,95130,1,0,0:0:0:0:
381,305,95279,1,0,0:0:0:0:
381,255,95429,1,0,0:0:0:0:
272,280,95578,5,2,0:1:0:0:
293,235,95727,1,0,0:0:0:0:
342,224,95876,1,0,0:0:0:0:
149,348,96026,101,2,0:1:0:0:
100,359,96175,1,0,0:0:0:0:
61,327,96324,1,0,0:0:0:0:
61,277,96474,1,0,0:0:0:0:
223,175,96623,53,2,0:1:0:0:
196,281,96772,69,0,0:0:0:0:
200,251,96855,1,0,0:0:0:0:
173,240,96938,101,0,0:0:0:0:
155,216,97023,1,0,0:0:0:0:
126,225,97109,5,0,0:0:0:0:
272,279,97302,37,2,0:1:0:0:
118,148,97508,21,2,0:1:0:0:
79,341,97743,21,2,0:1:0:0:
