osu file format v14

[General]
AudioFilename: audio.mp3
AudioLeadIn: 0
PreviewTime: 504
Countdown: 0
SampleSet: None
StackLeniency: 0.2
Mode: 0
LetterboxInBreaks: 0
WidescreenStoryboard: 1

[Editor]
DistanceSpacing: 0.5
BeatDivisor: 4
GridSize: 8
TimelineZoom: 3.399999

[Metadata]
Title:Chirality
TitleUnicode:Chirality
Artist:Camellia
ArtistUnicode:かめりあ
Creator:Rose Pacifica
Version:revia
Source:REFLEC BEAT groovin'!!
Tags:
BeatmapID:1440836
BeatmapSetID:671941

[Difficulty]
HPDrainRate:6
CircleSize:4.2
OverallDifficulty:8.7
ApproachRate:9.6
SliderMultiplier:1.93
SliderTickRate:1

[Events]
//Background and Video events
//Break Periods
//Storyboard Layer 0 (Background)
//Storyboard Layer 1 (Fail)
//Storyboard Layer 2 (Pass)
//Storyboard Layer 3 (Foreground)
//Storyboard Sound Samples

[TimingPoints]
952,298.507462686567,4,3,1,25,1,0
11474,-100,4,3,1,5,0,0
11549,-100,4,3,1,25,0,0
13862,-100,4,3,1,5,0,0
13937,-100,4,3,1,25,0,0
16250,-100,4,3,1,5,0,0
16325,-100,4,3,1,25,0,0
17071,-100,4,3,1,25,0,0
17668,-100,4,3,1,25,0,0
18862,-200,4,3,1,25,0,0
19086,-200,4,3,1,5,0,0
19160,-52.6315789473684,4,3,1,25,0,0
19384,-66.6666666666667,4,3,1,5,0,0
19459,-66.6666666666667,4,3,1,25,0,0
19907,-66.6666666666667,4,3,1,25,0,0
19944,-66.6666666666667,4,3,1,5,0,0
20056,-52.6315789473684,4,3,1,25,0,0
20504,-66.6666666666667,4,3,1,25,0,0
20653,-58.8235294117647,4,3,1,25,0,0
20802,-66.6666666666667,4,3,1,25,0,0
21474,-66.6666666666667,4,3,1,5,0,0
21549,-55.5555555555556,4,3,1,25,0,0
21772,-55.5555555555556,4,3,1,5,0,0
21847,-71.4285714285714,4,3,1,25,0,0
22146,-62.5,4,3,1,25,0,0
22444,-52.6315789473684,4,3,1,25,0,0
22743,-66.6666666666667,4,3,1,25,0,0
23041,-58.8235294117647,4,3,1,25,0,0
23190,-66.6666666666667,4,3,1,25,0,0
24459,-66.6666666666667,4,3,1,5,0,0
24534,-55.5555555555556,4,3,1,25,0,0
24757,-55.5555555555556,4,3,1,5,0,0
24832,-52.6315789473684,4,3,1,25,0,0
25280,-66.6666666666667,4,3,1,25,0,0
25429,-50,4,3,1,25,0,0
25578,-66.6666666666667,4,3,1,25,0,0
26623,-58.8235294117647,4,3,1,25,0,0
26922,-50,4,3,1,25,0,0
27146,-50,4,3,1,5,0,0
27220,-66.6666666666667,4,3,1,25,0,0
27519,-58.8235294117647,4,3,1,25,0,0
28713,-66.6666666666667,4,3,1,25,0,0
29310,-50,4,3,1,25,0,0
29608,-50,4,3,1,25,0,0
30056,-66.6666666666667,4,3,1,25,0,0
30205,-58.8235294117647,4,3,1,25,0,0
30354,-66.6666666666667,4,3,1,25,0,0

[Colours]
Combo1 : 183,68,174
Combo2 : 174,198,45
Combo3 : 63,91,192
Combo4 : 159,65,51

[HitObjects]
117,128,9011,5,0,0:0:0:0:
31,72,9160,2,0,L|22:5,2,48.25
70,206,9459,5,0,0:0:0:0:
117,217,9534,1,0,0:0:0:0:
163,204,9608,1,0,0:0:0:0:
197,170,9683,1,0,0:0:0:0:
205,122,9757,1,0,0:0:0:0:
184,77,9832,1,0,0:0:0:0:
196,30,9907,1,0,0:0:0:0:
236,4,9981,1,0,0:0:0:0:
284,4,10056,1,0,0:0:0:0:
320,36,10131,1,0,0:0:0:0:
325,83,10205,5,0,0:0:0:0:
117,128,10354,1,0,0:0:0:0:
289,336,10504,6,0,B|257:266|300:225|369:231|283:155|283:155|294:203|248:244,1,289.5
119,245,11101,1,0,0:0:0:0:
262,229,11250,2,0,L|110:245,1,144.75
101,262,11549,2,0,L|95:204,1,48.25
90,140,11698,5,0,0:0:0:0:
160,73,11847,1,0,0:0:0:0:
245,117,11996,1,0,0:0:0:0:
298,297,12146,5,0,0:0:0:0:
330,303,12220,1,0,0:0:0:0:
362,294,12295,1,0,0:0:0:0:
385,269,12369,1,0,0:0:0:0:
394,236,12444,1,0,0:0:0:0:
384,203,12519,1,0,0:0:0:0:
358,180,12593,1,0,0:0:0:0:
349,147,12668,1,0,0:0:0:0:
358,114,12743,1,0,0:0:0:0:
382,90,12817,1,0,0:0:0:0:
414,78,12892,6,0,B|442:65|466:45|466:45|471:104|471:104|442:131|442:131|475:165|475:165|448:209|469:255,1,289.5
307,337,13489,1,0,0:0:0:0:
449,336,13638,2,0,P|369:326|295:340,1,144.75
288,353,13937,2,0,L|282:295,1,48.25
277,231,14086,5,0,0:0:0:0:
140,227,14235,1,0,0:0:0:0:
314,92,14384,1,0,0:0:0:0:
371,314,14534,1,0,0:0:0:0:
371,314,14608,1,0,0:0:0:0:
371,314,14683,1,0,0:0:0:0:
92,292,14832,6,0,L|91:340,1,48.25
63,173,14981,2,0,L|62:221,1,48.25
144,85,15131,2,0,L|143:133,1,48.25
212,283,15280,2,0,B|154:249|126:360|237:339|268:303|268:303|321:322|321:322|353:304|400:320,1,289.5
344,174,15877,1,0,0:0:0:0:
356,29,16026,2,0,L|341:196,1,144.75
362,189,16325,2,0,L|303:183,1,48.25
150,335,16623,5,0,0:0:0:0:
141,238,16772,1,0,0:0:0:0:
132,141,16922,1,0,0:0:0:0:
156,350,17071,2,0,L|203:359,3,48.25
245,269,17369,2,0,L|292:260,3,48.25
369,353,17668,6,0,B|380:290|380:290|387:284|387:284|382:276|382:276|392:211,1,144.75
469,130,17966,2,0,L|478:72,3,48.25
392,215,18265,2,0,P|359:222|331:219,1,48.25
244,151,18414,2,0,L|237:88,1,48.25
223,282,18563,2,0,L|230:345,1,48.25
101,193,18713,1,0,0:0:0:0:
84,157,18788,1,0,0:0:0:0:
88,118,18862,6,0,P|122:93|151:97,1,72.375
186,115,19160,6,0,P|153:226|66:149,1,275.02499265604
108,9,19459,2,0,P|162:7|199:33,1,72.3750027608873
259,71,19608,2,0,P|300:80|347:67,1,72.3750027608873
412,21,19757,2,0,P|462:33|493:86,1,72.3750027608873
417,140,19907,6,0,L|412:76,1,36.1875013804436
255,154,20056,6,0,B|253:185|234:211|234:211|282:198|319:231|319:231|372:204|372:204|406:232|465:204,1,275.02499265604
265,287,20354,1,0,0:0:0:0:
265,287,20429,1,0,0:0:0:0:
265,287,20504,2,0,P|220:289|184:275,1,72.3750027608873
127,130,20653,2,0,L|127:281,1,82.0250015645027
32,319,20802,1,0,0:0:0:0:
32,319,20877,2,0,P|72:318|121:289,1,72.3750027608873
127,213,21026,1,0,0:0:0:0:
127,213,21101,2,0,P|166:204|218:219,1,72.3750027608873
328,362,21250,6,0,B|348:365|367:381|367:381|353:329|353:329|371:292|371:292|352:255|352:255|365:220,1,217.125008282662
414,171,21549,2,0,B|365:213|365:213|320:162|320:162|262:203|262:203|213:145,1,260.549992048645
97,62,21847,2,0,B|118:32|118:32|153:20,1,67.5499979385377
164,195,21996,2,0,B|127:191|127:191|99:166,1,67.5499979385377
254,71,22146,2,0,B|287:52|287:52|326:74|326:74|372:55|372:55|413:72|413:72|446:60|446:60|474:70,1,231.6
481,234,22444,6,0,B|468:254|474:288|474:288|434:273|399:297|399:297|355:269|355:269|313:295|265:276,1,275.02499265604
189,384,22743,1,0,0:0:0:0:
189,384,22817,1,0,0:0:0:0:
189,384,22892,2,0,P|176:344|189:305,1,72.3750027608873
278,201,23041,2,0,P|285:246|248:292,1,82.0250015645027
165,201,23190,1,0,0:0:0:0:
165,201,23265,2,0,P|127:199|75:204,1,72.3750027608873
5,74,23414,1,0,0:0:0:0:
5,74,23489,2,0,P|43:76|95:71,1,72.3750027608873
175,21,23638,6,0,B|195:15|211:-1|211:-1|212:120,1,144.750005521775
165,201,23899,2,0,L|128:200,3,36.1875013804436
240,275,24086,1,0,0:0:0:0:
240,275,24160,1,0,0:0:0:0:
240,275,24235,2,0,B|292:235|345:275|345:275|398:319|465:275,1,217.125008282662
469,267,24534,2,0,P|449:372|416:286,1,260.549992048645
404,198,24832,6,0,B|543:202|360:1|334:321|203:107,1,275.02499265604
126,90,25131,1,0,0:0:0:0:
126,90,25205,1,0,0:0:0:0:
126,90,25280,2,0,P|117:130|136:173,1,72.3750027608873
180,260,25429,2,0,L|290:262,1,96.5
331,115,25578,1,0,0:0:0:0:
330,115,25653,2,0,P|320:149|327:184,1,72.3750027608873
365,338,25802,1,0,0:0:0:0:
365,337,25877,2,0,P|374:302|367:267,1,72.3750027608873
448,217,26026,6,0,B|421:229|421:229|397:214|397:214|367:228|367:228|333:215|333:215|300:224|300:224|261:215|261:215|246:221,1,217.125008282662
188,370,26325,2,0,P|197:331|186:279,1,72.3750027608873
54,260,26474,2,0,P|81:288|139:301,1,72.3750027608873
246,221,26613,6,0,P|266:185|263:145,1,82.0250015645027
112,153,26762,2,0,P|115:193|141:224,1,82.0250015645027
245,221,26922,2,0,P|224:98|113:154,1,289.5
193,299,27220,6,0,B|259:327|304:291|304:291|352:253|432:299,1,217.125008282662
431,306,27519,2,0,P|361:220|452:265,1,246.075004693508
455,326,27817,5,0,0:0:0:0:
487,162,27966,1,0,0:0:0:0:
457,132,28041,1,0,0:0:0:0:
419,115,28116,6,0,B|393:107|393:107|374:121|374:121|343:108|343:108|313:122|313:122|277:108|277:108|239:121|239:121|209:108|209:108|171:122,1,246.075004693508
192,113,28414,1,0,0:0:0:0:
98,236,28563,5,0,0:0:0:0:
255,242,28713,2,0,B|225:181|225:181|227:169|216:162|216:162|190:109,1,144.750005521775
182,308,29011,2,0,P|278:346|353:255,1,217.125008282662
290,95,29310,2,0,B|281:61|213:85|273:139|273:139|299:175|299:175|283:221,1,193
255,242,29534,1,0,0:0:0:0:
155,232,29608,6,0,B|115:238|103:272|103:272|83:228|107:182|107:182|88:140|88:140|129:96|94:57,1,289.5
32,74,29907,1,0,0:0:0:0:
32,74,29981,1,0,0:0:0:0:
32,74,30056,2,0,P|81:76|118:49,1,72.3750027608873
193,0,30205,2,0,P|243:-5|289:23,1,82.0250015645027
211,178,30354,1,0,0:0:0:0:
211,178,30429,2,0,P|217:129|209:86,1,72.3750027608873
337,233,30578,1,0,0:0:0:0:
337,233,30653,2,0,P|331:282|339:325,1,72.3750027608873
