osu file format v14

[General]
AudioFilename: audio.mp3
AudioLeadIn: 0
PreviewTime: 31
Countdown: 0
SampleSet: None
StackLeniency: 0.2
Mode: 0
LetterboxInBreaks: 0
WidescreenStoryboard: 1

[Editor]
Bookmarks: 10504,18862,20056,27220,29608,30802,34384,35578,36772,39160,48116,48713,50951,53489,55280,55877,58265,65429,66623,67817,74384,74981,77369,84534,86922,91101,91698,92295,92892
DistanceSpacing: 0.3
BeatDivisor: 4
GridSize: 32
TimelineZoom: 2.1

[Metadata]
Title:Chirality
TitleUnicode:Chirality
Artist:Camellia
ArtistUnicode:かめりあ
Creator:Rose Pacifica
Version:lol
Source:REFLEC BEAT groovin'!!
Tags:
BeatmapID:1420545
BeatmapSetID:671941

[Difficulty]
HPDrainRate:3.5
CircleSize:4
OverallDifficulty:8
ApproachRate:10
SliderMultiplier:2.01
SliderTickRate:1

[Events]
//Background and Video events
0,0,"53CFD73E4D156D0012.jpg",0,0
//Break Periods
//Storyboard Layer 0 (Background)
//Storyboard Layer 1 (Fail)
//Storyboard Layer 2 (Pass)
//Storyboard Layer 3 (Foreground)
//Storyboard Sound Samples

[TimingPoints]
952,298.507462686567,4,3,1,25,1,0
9160,-100,4,3,1,10,0,0
10504,-400,4,3,1,10,0,0
11101,-66.6666666666667,4,3,1,10,0,0
11698,-200,4,3,1,10,0,0
12892,-400,4,3,1,10,0,0
13489,-66.6666666666667,4,3,1,10,0,0
14086,-200,4,3,1,10,0,0
15131,-100,4,3,1,10,0,0
15280,-400,4,3,1,10,0,0
15877,-66.6666666666667,4,3,1,10,0,0
16474,-200,4,3,1,10,0,0
18862,-200,4,3,1,10,0,0
19160,-50,4,3,1,10,0,0
19608,-25,4,3,1,10,0,0
19757,-66.6666666666667,4,3,1,10,0,0
20056,-50,4,3,1,10,0,0
20802,-57.1428571428571,4,3,1,10,0,0
21026,-66.6666666666667,4,3,1,10,0,0
21250,-25,4,3,1,10,0,0
21996,-50,4,3,1,10,0,0
22146,-100,4,3,1,10,0,0
22444,-50,4,3,1,10,0,0
22743,-50,4,3,1,10,0,0
23041,-66.6666666666667,4,3,1,10,0,0
23190,-57.1428571428571,4,3,1,10,0,0
23414,-50,4,3,1,10,0,0
23638,-50,4,3,1,10,0,0
24235,-66.6666666666667,4,3,1,10,0,0
24534,-100,4,3,1,10,0,0
24832,-50,4,3,1,10,0,0
25429,-66.6666666666667,4,3,1,10,0,0
25578,-57.1428571428571,4,3,1,10,0,0
25728,-50,4,3,1,10,0,0
26026,-25,4,3,1,10,0,0
26623,-50,4,3,1,10,0,0
26920,-150.01500150015,4,3,1,10,0,0
27220,-100,4,3,1,10,0,0
27966,-200,4,3,1,10,0,0
28116,-100,4,3,1,10,0,0
29011,-50,4,3,1,10,0,0
29160,-25,4,3,1,10,0,0
29310,-100,4,3,1,10,0,0
29459,-50,4,3,1,10,0,0
30504,-25,4,3,1,10,0,0
30802,-50,4,3,1,10,0,0
31101,-25,4,3,1,10,0,0
31549,-33.3333333333333,4,3,1,10,0,0
31698,-100,4,3,1,10,0,0
31996,-50,4,3,1,10,0,0
32817,-25,4,3,1,10,0,0
33116,-50,4,3,1,10,0,0
33340,-25,4,3,1,10,0,0
33787,-50,4,3,1,10,0,0
33937,-66.6666666666667,4,3,1,10,0,0
34086,-100,4,3,1,10,0,0
34235,-200,4,3,1,10,0,0
34384,-400,4,3,1,10,0,0
34683,-66.6666666666667,4,3,1,10,0,0
34907,-50,4,3,1,10,0,0
35280,-66.6666666666667,4,3,1,10,0,0
35578,-50,4,3,1,10,0,0
36772,-80,4,3,1,10,0,0
37071,-66.6666666666667,4,3,1,10,0,0
37369,-50,4,3,1,10,0,0
37369,-66.6666666666667,4,3,1,10,0,0
37966,-100,4,3,1,10,0,0
38265,-133.333333333333,4,3,1,10,0,0
38563,-200,4,3,1,10,0,0
39757,-80,4,3,1,10,0,0
40056,-200,4,3,1,10,0,0
40653,-80,4,3,1,10,0,0
40951,-50,4,3,1,10,0,0
41549,-200,4,3,1,10,0,0
42146,-66.6666666666667,4,3,1,10,0,0
42444,-133.333333333333,4,3,1,10,0,0
43638,-200,4,3,1,10,0,0
44534,-66.6666666666667,4,3,1,10,0,0
44832,-133.333333333333,4,3,1,10,0,0
45728,-66.6666666666667,4,3,1,10,0,0
46325,-200,4,3,1,10,0,0
48116,-300,4,3,1,10,0,0
48414,-25,4,3,1,10,0,0
48713,-100,4,3,1,10,0,0
48862,-200,4,3,1,10,0,0
49310,-66.6666666666667,4,3,1,10,0,0
50056,-50,4,3,1,10,0,0
50951,-66.6666666666667,4,3,1,10,0,0
51101,-200,4,3,1,10,0,0
51250,-80,4,3,1,10,0,0
51698,-133.333333333333,4,3,1,10,0,0
52146,-66.6666666666667,4,3,1,10,0,0
53041,-80,4,3,1,10,0,0
53190,-100,4,3,1,10,0,0
53340,-133.333333333333,4,3,1,10,0,0
53638,-66.6666666666667,4,3,1,10,0,0
54086,-200,4,3,1,10,0,0
54384,-80,4,3,1,10,0,0
54683,-66.6666666666667,4,3,1,10,0,0
54981,-200,4,3,1,10,0,0
58265,-400,4,3,1,10,0,0
58862,-66.6666666666667,4,3,1,10,0,0
59459,-200,4,3,1,10,0,0
60653,-400,4,3,1,10,0,0
61250,-66.6666666666667,4,3,1,10,0,0
61847,-200,4,3,1,10,0,0
62842,-100,4,3,1,10,0,0
63041,-400,4,3,1,10,0,0
63638,-66.6666666666667,4,3,1,10,0,0
64235,-200,4,3,1,10,0,0
66623,-100,4,3,1,10,0,0
66922,-400,4,3,1,10,0,0
67220,-33.3333333333333,4,3,1,10,0,0
67519,-66.6666666666667,4,3,1,10,0,0
67817,-66.6666666666667,4,3,1,10,0,1
69310,-50,4,3,1,10,0,1
69907,-200,4,3,1,10,0,1
70205,-66.6666666666667,4,3,1,10,0,1
71996,-100,4,3,1,10,0,1
72146,-133.333333333333,4,3,1,10,0,1
72295,-200,4,3,1,10,0,1
72593,-80,4,3,1,10,0,1
73041,-66.6666666666667,4,3,1,10,0,1
73489,-57.1428571428571,4,3,1,10,0,1
73937,-50,4,3,1,10,0,1
74384,-50,4,3,1,10,0,1
74683,-100,4,3,1,10,0,1
74832,-133.333333333333,4,3,1,10,0,0
74981,-66.6666666666667,4,3,1,10,0,0
76175,-50,4,3,1,10,0,0
76623,-153.846153846154,4,3,1,10,0,0
76922,-133.333333333333,4,3,1,10,0,0
77071,-50,4,3,1,10,0,0
77220,-50,4,3,1,10,0,0
77220,-50,4,3,1,10,0,0
77369,-25,4,3,1,10,0,0
77668,-66.6666666666667,4,3,1,10,0,1
78713,-57.1428571428571,4,3,1,10,0,1
79160,-50,4,3,1,10,0,1
79459,-200,4,3,1,10,0,1
79757,-100,4,3,1,10,0,1
80205,-66.6666666666667,4,3,1,10,0,1
80653,-80,4,3,1,10,0,1
81101,-50,4,3,1,10,0,1
81698,-100,4,3,1,10,0,1
82146,-133.333333333333,4,3,1,10,0,1
82593,-100,4,3,1,10,0,1
83041,-80,4,3,1,10,0,1
83489,-66.6666666666667,4,3,1,10,0,1
83937,-133.333333333333,4,3,1,10,0,1
84534,-33.3333333333333,4,3,1,10,0,0
85131,-100,4,3,1,10,0,0
85504,-66.6666666666667,4,3,1,10,0,0
85728,-50,4,3,1,10,0,0
86175,-200,4,3,1,10,0,0
86325,-50,4,3,1,10,0,0
86922,-133.333333333333,4,3,1,10,0,0
87519,-66.6666666666667,4,3,1,10,0,0
87668,-133.333333333333,4,3,1,10,0,0
88713,-66.6666666666667,4,3,1,10,0,0
88862,-133.333333333333,4,3,1,10,0,0
89907,-66.6666666666667,4,3,1,10,0,0
90056,-133.333333333333,4,3,1,10,0,0
91101,-66.6666666666667,4,3,1,10,0,0
91250,-133.333333333333,4,3,1,10,0,0
92593,-50,4,3,1,10,0,0

[Colours]
Combo1 : 128,0,255
Combo2 : 192,192,192
Combo3 : 128,128,128
Combo4 : 140,198,255
Combo5 : 0,128,255
Combo6 : 255,128,128
Combo7 : 255,0,0
Combo8 : 191,128,255

[HitObjects]
165,238,8713,5,0,0:0:0:0:
156,246,9011,1,0,0:0:0:0:
229,291,9160,2,0,P|239:284|249:277,4,25.125
211,180,9459,5,0,0:0:0:0:
213,172,9534,1,0,0:0:0:0:
209,157,9608,1,0,0:0:0:0:
233,174,9683,1,0,0:0:0:0:
289,182,9757,1,0,0:0:0:0:
339,235,9832,1,0,0:0:0:0:
359,321,9907,5,0,0:0:0:0:
410,266,9981,1,0,0:0:0:0:
403,190,10056,1,0,0:0:0:0:
453,134,10130,1,0,0:0:0:0:
384,66,10205,5,0,0:0:0:0:
305,38,10354,1,0,0:0:0:0:
305,38,10504,6,0,P|353:67|389:64,1,87.9375
498,58,11101,6,0,P|468:77|445:123,1,75.3750028753282
410,266,11250,1,0,0:0:0:0:
399,280,11549,2,0,P|397:244|369:201,1,75.3750028753282
258,151,11698,6,0,L|189:158,1,50.25
99,122,11996,1,0,0:0:0:0:
19,277,12146,1,0,0:0:0:0:
29,275,12220,1,0,0:0:0:0:
39,276,12295,1,0,0:0:0:0:
48,279,12369,1,0,0:0:0:0:
56,284,12444,2,0,P|75:293|88:295,2,25.125
184,248,12743,1,0,0:0:0:0:
184,248,12892,6,0,P|173:293|165:345,1,87.9375
267,288,13489,6,0,P|296:281|345:275,1,75.3750028753282
128,178,13638,1,0,0:0:0:0:
111,185,13937,2,0,P|74:193|36:197,1,75.3750028753282
78,284,14086,5,0,0:0:0:0:
151,101,14235,1,0,0:0:0:0:
258,199,14384,1,0,0:0:0:0:
364,122,14534,1,0,0:0:0:0:
376,119,14608,1,0,0:0:0:0:
387,118,14683,1,0,0:0:0:0:
427,321,14832,5,0,0:0:0:0:
417,318,14907,1,0,0:0:0:0:
410,315,14981,2,0,P|398:290|397:273,1,25.125
349,231,15131,2,0,P|391:199|401:197,1,50.25
465,96,15280,6,0,P|429:120|386:117,1,87.9375
256,65,15877,6,0,P|280:98|289:136,1,75.3750028753282
234,303,16026,1,0,0:0:0:0:
219,283,16325,2,4,P|195:316|186:354,1,75.3750028753282
20,304,16623,5,0,0:0:0:0:
30,311,16772,2,0,P|87:307|132:268,1,75.3750028753282
131,202,17071,1,0,0:0:0:0:
129,193,17146,1,0,0:0:0:0:
126,186,17220,1,0,0:0:0:0:
122,179,17295,1,0,0:0:0:0:
117,173,17369,1,0,0:0:0:0:
208,199,17519,1,0,0:0:0:0:
284,143,17668,6,0,L|295:51,1,75.375
387,155,17966,1,0,0:0:0:0:
411,160,18040,1,0,0:0:0:0:
436,157,18115,1,0,0:0:0:0:
458,146,18189,1,0,0:0:0:0:
475,128,18264,5,0,0:0:0:0:
464,172,18340,1,0,0:0:0:0:
437,208,18414,1,0,0:0:0:0:
451,251,18489,1,0,0:0:0:0:
479,285,18563,5,0,0:0:0:0:
410,255,18638,1,0,0:0:0:0:
348,305,18713,1,0,0:0:0:0:
274,274,18787,1,0,0:0:0:0:
183,309,18862,6,0,P|199:273|206:222,1,87.9375
205,225,19160,6,0,P|213:327|142:218,1,301.5
40,148,19459,6,0,P|85:161|148:136,1,100.5
148,133,19608,6,0,B|239:94|270:144|306:202|405:146,1,268
427,135,19757,6,0,L|413:217,1,75.3750028753282
508,68,19907,1,0,0:0:0:0:
418,327,20056,6,0,B|341:327|307:260|307:260|278:361|173:366,1,301.500011501313
72,272,20354,1,0,0:0:0:0:
63,232,20429,1,0,0:0:0:0:
54,192,20504,1,0,0:0:0:0:
45,152,20578,1,0,0:0:0:0:
102,38,20653,6,0,L|-22:15,1,100.5
218,129,20802,5,0,0:0:0:0:
234,116,20877,2,0,L|148:133,1,87.9375008386373
350,64,21026,5,0,0:0:0:0:
367,76,21101,2,0,L|293:61,1,75.3750028753282
456,103,21250,6,0,P|448:78|443:54,13,50.25
435,200,21549,2,0,B|359:350|309:223|326:346|313:374|329:380|383:393|414:386|488:283|360:273|324:258|320:184|320:184|276:280|172:256,1,603
8,328,21847,6,0,B|87:340|87:340|96:354|96:354|110:344|110:344|209:359,1,201
320,184,21996,2,0,P|260:126|217:140,1,100.5
109,252,22146,2,0,L|112:264,12,12.5625
11,114,22444,6,0,B|38:81|17:2|17:2|60:104|145:127,1,301.5
366,20,22743,1,0,0:0:0:0:
326,12,22817,1,0,0:0:0:0:
286,22,22892,1,0,0:0:0:0:
255,47,22966,1,0,0:0:0:0:
320,184,23041,6,0,L|332:90,1,75.3750028753282
438,297,23190,5,0,0:0:0:0:
408,290,23265,2,0,L|317:318,1,87.9375008386373
140,211,23414,5,0,0:0:0:0:
170,204,23489,2,0,L|286:246,1,100.5
96,354,23638,6,0,P|54:301|67:242,1,100.5
146,128,23787,2,0,L|181:122,14,25.125
95,194,24086,5,0,0:0:0:0:
83,194,24160,1,0,0:0:0:0:
72,194,24235,2,0,P|32:186|0:171,1,75.375
164,37,24384,2,0,P|198:21|235:14,1,75.375
53,105,24534,6,0,P|42:80|35:36,1,50.25
170,204,24683,2,0,P|163:228|153:251,1,50.25
132,378,24832,6,0,B|98:383|98:383|66:326|66:326|109:371|177:363|177:363|208:344|208:344|232:356|272:356,1,301.5
436,240,25131,1,0,0:0:0:0:
400,274,25205,1,0,0:0:0:0:
352,288,25280,1,0,0:0:0:0:
302,277,25354,1,0,0:0:0:0:
270,164,25429,6,0,L|345:175,1,75.3750028753282
482,34,25578,5,0,0:0:0:0:
492,23,25653,2,0,L|403:36,1,87.9375008386373
436,240,25802,5,0,0:0:0:0:
459,256,25877,2,0,L|441:144,1,100.5
274,62,26026,6,0,B|248:34|209:24|177:39|157:66|142:79|142:123|153:154|194:174|194:174|164:185|152:202|152:202|197:243|187:285|175:322|140:349|109:348|73:347|47:329|24:307|20:241,1,603
222,109,26325,6,0,B|271:124|271:124|301:121|301:121|326:151|326:151|353:147|353:147|442:174,1,201
512,314,26474,2,0,B|437:291|437:291|401:298|401:298|316:270,1,201
78,165,26623,6,0,P|83:215|103:261,1,100.5
222,109,26772,2,0,P|200:154|195:204,1,100.5
374,131,26922,6,0,P|333:159|303:200,1,100.489951413753
245,368,27220,6,0,B|187:235|65:226|65:226|46:279|74:343,1,351.75
153,376,27817,1,0,0:0:0:0:
280,64,27966,6,0,L|315:72,1,25.125
374,131,28116,6,0,B|432:120|432:120|472:102|472:102|439:181|439:181|462:249|462:249,1,251.25
494,324,28563,5,0,0:0:0:0:
501,328,28713,1,0,0:0:0:0:
508,331,28862,6,0,L|440:321,1,50.25
359,306,29011,6,0,L|459:323,1,100.5
508,331,29160,6,0,L|285:293,1,201
176,216,29310,6,0,L|199:292,1,50.25
231,356,29459,6,0,L|145:336,1,50.25
241,369,29534,2,0,L|155:349,1,50.25
101,383,29608,6,0,B|38:222|150:246|76:81,1,301.5
64,68,29907,5,0,0:0:0:0:
112,113,29981,1,0,0:0:0:0:
176,128,30056,1,0,0:0:0:0:
239,108,30130,1,0,0:0:0:0:
332,17,30205,6,0,P|332:116|400:187,1,201
492,284,30429,1,0,0:0:0:0:
506,194,30504,2,0,B|383:202|447:262|300:272,1,201
218,307,30653,2,0,L|242:71,1,201
504,32,30802,6,0,P|400:60|456:8,1,301.5
310,35,31101,6,0,B|296:122|366:184|366:184|283:141|245:225|191:240|148:200|148:200|194:229|253:210|298:195|346:310,1,603
326,359,31399,2,0,B|389:363|414:302|414:302|442:325|417:391,1,201
74,262,31549,2,0,B|56:200|56:200|61:172|61:172|46:158|46:158|35:122,1,150.750005750656
238,107,31698,2,0,L|235:125,12,12.5625
161,7,31996,6,0,B|147:44|122:57|88:65|53:50|53:50|101:67|142:127|80:158|90:169|148:233,1,301.5
252,274,32295,1,0,0:0:0:0:
185,272,32369,1,0,0:0:0:0:
121,290,32444,1,0,0:0:0:0:
65,326,32518,1,0,0:0:0:0:
114,204,32593,6,0,P|130:178|137:101,1,100.5
54,50,32743,5,0,0:0:0:0:
148,122,32817,2,0,P|220:188|366:150,1,201
451,248,32966,1,0,0:0:0:0:
395,196,33041,2,0,P|310:209|258:367,1,201
19,221,33190,6,0,P|78:223|120:197,1,100.5
168,358,33340,2,0,P|124:343|77:339,12,50.25
260,377,33638,1,0,0:0:0:0:
270,376,33713,1,0,0:0:0:0:
279,372,33787,2,0,P|327:356|384:354,1,100.5
177,273,33937,6,0,P|214:289|279:304,1,75.3750028753282
71,352,34086,6,0,P|110:343|140:340,1,50.25
0,282,34235,6,0,P|23:290|42:290,1,25.125
93,237,34384,5,0,0:0:0:0:
91,229,34459,2,0,L|83:196,1,25.125
106,124,34683,6,0,L|-1:98,1,75.3750028753282
160,192,34832,5,0,0:0:0:0:
171,190,34907,2,0,L|215:177,4,25.125
85,204,35056,5,0,0:0:0:0:
83,208,35131,1,0,0:0:0:0:
82,213,35205,1,0,0:0:0:0:
113,341,35280,6,0,L|123:304,1,37.6875014376641
134,336,35354,2,0,L|141:299,1,37.6875014376641
150,329,35429,2,0,L|157:292,1,37.6875014376641
166,322,35504,2,0,L|173:285,1,37.6875014376641
247,298,35578,6,0,L|257:347,1,50.25
281,357,35652,2,0,L|271:308,1,50.25
295,319,35727,2,0,L|305:368,1,50.25
329,378,35802,2,0,L|319:329,1,50.25
402,371,35877,5,0,0:0:0:0:
317,171,36026,1,0,0:0:0:0:
402,371,36175,6,0,P|400:342|424:268,1,100.5
272,72,36325,2,0,P|292:92|321:165,1,100.5
247,298,36474,6,0,B|305:175|432:175|432:175|456:223|416:317,1,351.75
230,313,36772,6,0,P|253:223|211:141,1,188.4375
91,59,37071,6,0,B|57:45|57:45|42:33|42:33|17:49|-18:37,2,100.500003833771
172,211,37369,6,0,B|174:275|230:312|230:312|181:289|114:278|142:335|75:334|30:311,1,301.500011501313
36,313,37668,2,0,P|60:347|70:384,1,75.3750028753282
78,223,37817,2,0,P|89:187|111:156,1,75.3750028753282
225,18,37966,6,0,P|164:61|90:58,1,150.75
170,102,38265,2,0,P|139:73|89:62,1,75.3750028753282
175,211,38563,1,0,0:0:0:0:
322,91,38713,1,0,0:0:0:0:
106,298,38862,5,0,0:0:0:0:
102,290,38937,1,0,0:0:0:0:
101,282,39011,1,0,0:0:0:0:
103,274,39086,1,0,0:0:0:0:
109,269,39160,5,0,0:0:0:0:
293,351,39310,2,0,L|350:340,1,50.25
496,220,39608,5,0,0:0:0:0:
342,341,39757,2,0,B|255:323|255:323|291:383,1,125.625
274,355,40056,5,0,0:0:0:0:
385,191,40205,2,0,L|374:135,1,50.25
211,16,40504,5,0,0:0:0:0:
372,130,40653,2,0,B|351:213|351:213|401:180,1,125.625
384,190,40951,6,0,P|328:175|253:168,1,100.5
145,344,41101,6,0,P|185:303|229:241,1,100.5
131,60,41250,6,0,P|146:115|177:184,1,100.5
224,267,41399,1,0,0:0:0:0:
236,265,41474,1,0,0:0:0:0:
248,263,41549,5,0,0:0:0:0:
342,341,41698,2,0,L|402:345,1,50.25
145,344,41996,5,0,0:0:0:0:
376,269,42146,2,0,B|424:250|424:250|392:344,1,150.750005750656
265,147,42444,5,0,0:0:0:0:
392,344,42593,2,0,L|377:270,1,75.375
454,65,42892,5,0,0:0:0:0:
380,190,43041,2,0,L|365:263,1,75.375
301,317,43265,1,0,0:0:0:0:
287,332,43340,5,0,0:0:0:0:
264,342,43414,1,0,0:0:0:0:
239,344,43489,1,0,0:0:0:0:
215,337,43563,1,0,0:0:0:0:
143,358,43638,5,0,0:0:0:0:
126,347,43712,1,0,0:0:0:0:
109,339,43787,1,0,0:0:0:0:
91,334,43861,1,0,0:0:0:0:
25,362,43937,5,0,0:0:0:0:
87,205,44086,2,0,L|72:132,1,75.375
53,49,44384,5,0,0:0:0:0:
244,215,44534,2,0,P|296:214|242:164,1,150.75
215,337,44832,5,0,0:0:0:0:
425,205,44981,2,0,L|440:132,1,75.375
295,48,45279,5,0,0:0:0:0:
452,286,45429,2,0,L|437:212,1,75.375
445,43,45728,6,0,P|401:49|365:92,1,75.3750028753282
316,265,45877,6,0,P|332:223|313:171,1,75.3750028753282
188,42,46026,6,0,P|215:77|270:86,1,75.3750028753282
383,59,46175,1,0,0:0:0:0:
387,50,46250,1,0,0:0:0:0:
389,40,46325,5,0,0:0:0:0:
249,167,46474,2,0,P|251:205|263:229,1,50.25
316,265,46772,5,0,0:0:0:0:
163,176,46922,2,0,P|129:158|102:157,1,50.25
376,313,47220,5,0,0:0:0:0:
110,241,47369,2,0,P|73:252|53:270,1,50.25
388,238,47668,5,0,0:0:0:0:
118,324,47817,2,0,P|100:357|99:384,1,50.25
249,167,48116,6,0,P|243:142|230:121,1,50.25
221,109,48414,6,0,B|353:84|334:166|474:137|474:137|353:160|331:253|345:306|396:335|434:327|468:296|468:253|452:232,1,603
454,237,48713,5,0,0:0:0:0:
192,333,48862,2,0,P|154:331|99:317,1,75.375
103,317,49160,1,0,0:0:0:0:
12,124,49310,6,0,B|20:184|90:225|90:225|40:230|18:278,1,226.125008625984
13,295,49608,5,0,0:0:0:0:
188,124,49757,2,0,P|119:134|173:44,1,226.125008625984
179,49,50056,5,0,0:0:0:0:
467,223,50205,2,0,B|390:212|390:212|383:218|383:218|378:210|378:210|334:204|334:204|285:174|285:174|253:227|194:232,1,301.5,8|0,0:0|0:0,0:0:0:0:
90,225,50504,5,0,0:0:0:0:
363,328,50653,1,0,0:0:0:0:
378,322,50728,1,0,0:0:0:0:
389,312,50802,2,0,P|401:264|367:203,1,100.5
325,82,50951,2,0,P|382:107|437:91,1,75.3750028753282
477,57,51101,5,0,0:0:0:0:
285,174,51250,2,0,B|204:231|204:231|296:273,1,201
324,82,51549,6,0,P|282:72|236:87,1,62.8125,0|0,3:0|3:0,3:0:0:0:
120,132,51698,6,0,P|151:113|131:25,1,113.062504312992
137,30,51996,5,0,0:0:0:0:
5,158,52146,2,0,B|12:198|39:221|39:221|66:245|56:285|56:285|108:314|97:384,1,226.125008625984
96,372,52444,5,0,0:0:0:0:
331,220,52593,2,0,P|293:158|198:189,1,150.750005750656
201,173,52817,1,0,0:0:0:0:
179,186,52892,6,0,L|226:267,1,75.3750028753282
235,375,53041,2,0,L|302:312,1,62.8125
331,220,53190,2,0,L|408:250,1,50.25
421,320,53340,2,0,L|482:306,1,37.6875014376641
512,258,53489,5,0,0:0:0:0:
408,55,53638,2,0,B|329:62|329:62|321:68|321:68|303:60|303:60|233:66|233:66|293:101,1,226.125008625984
359,144,53937,5,0,0:0:0:0:
38,224,54086,2,0,L|57:144,1,75.375
60,130,54384,5,0,0:0:0:0:
240,304,54534,2,0,P|348:301|377:230,1,188.4375
345,153,54832,5,0,0:0:0:0:
42,56,54981,2,0,L|59:129,1,75.375
116,309,55280,6,0,B|137:211|137:211|145:245|169:262,1,150.75
230,193,55877,5,0,0:0:0:0:
181,376,56025,1,0,0:0:0:0:
226,175,56325,5,0,0:0:0:0:
295,331,56474,1,0,0:0:0:0:
222,157,56772,5,0,0:0:0:0:
349,222,56922,1,0,0:0:0:0:
355,235,57220,5,0,0:0:0:0:
273,44,57369,1,0,0:0:0:0:
444,176,57668,5,0,0:0:0:0:
465,182,57743,5,0,0:0:0:0:
490,201,57817,5,0,0:0:0:0:
508,238,57892,5,0,0:0:0:0:
506,292,57966,5,0,0:0:0:0:
468,335,58041,5,0,0:0:0:0:
400,338,58116,5,0,0:0:0:0:
355,282,58190,5,0,0:0:0:0:
368,204,58265,6,0,P|323:229|279:230,1,87.9375
177,291,58862,2,0,L|190:195,1,75.3750028753282
207,51,59011,1,0,0:0:0:0:
197,41,59310,2,0,L|207:115,1,75.3750028753282
108,192,59459,6,0,P|73:183|55:169,1,50.25
1,89,59757,1,0,0:0:0:0:
19,277,59907,1,0,0:0:0:0:
29,275,59981,1,0,0:0:0:0:
39,276,60056,1,0,0:0:0:0:
48,279,60130,1,0,0:0:0:0:
56,284,60205,2,0,P|75:293|88:295,2,25.125
184,248,60504,1,0,0:0:0:0:
184,248,60653,6,0,P|173:293|165:345,1,87.9375
267,288,61250,6,0,P|296:281|345:275,1,75.3750028753282
128,178,61399,1,0,0:0:0:0:
111,185,61698,2,0,P|74:193|36:197,1,75.3750028753282
78,284,61847,5,0,0:0:0:0:
151,101,61996,1,0,0:0:0:0:
258,199,62145,1,0,0:0:0:0:
349,123,62295,1,0,0:0:0:0:
361,120,62369,2,0,P|382:116|394:117,1,25.125
427,321,62544,5,0,0:0:0:0:
410,315,62643,2,0,P|398:290|397:273,1,33.5
349,231,62842,2,0,P|394:196|405:194,1,67
465,96,63041,6,0,P|429:120|386:117,1,87.9375
256,65,63638,6,0,P|280:98|289:136,1,75.3750028753282
234,303,63787,1,0,0:0:0:0:
219,283,64086,2,4,P|195:316|186:354,1,75.3750028753282
20,304,64384,5,0,0:0:0:0:
30,311,64533,2,0,P|87:307|132:268,1,75.3750028753282
131,202,64832,1,0,0:0:0:0:
129,193,64907,1,0,0:0:0:0:
126,186,64981,1,0,0:0:0:0:
122,179,65056,1,0,0:0:0:0:
117,173,65130,1,0,0:0:0:0:
208,199,65280,1,0,0:0:0:0:
284,143,65429,6,0,L|295:51,1,75.375
387,155,65727,1,0,0:0:0:0:
411,160,65801,1,0,0:0:0:0:
436,157,65876,1,0,0:0:0:0:
458,146,65950,1,0,0:0:0:0:
475,128,66025,5,0,0:0:0:0:
464,172,66101,1,0,0:0:0:0:
437,208,66175,1,0,0:0:0:0:
451,251,66250,1,0,0:0:0:0:
479,285,66324,5,0,0:0:0:0:
410,255,66399,1,0,0:0:0:0:
348,305,66474,1,0,0:0:0:0:
274,274,66548,1,0,0:0:0:0:
183,309,66623,6,0,P|199:273|206:222,1,87.9375
205,212,66772,6,0,L|203:195,6,12.5625
205,212,66922,6,0,L|200:168,1,37.6875
121,91,67220,6,0,B|108:3|108:3|86:28|86:28|78:37|78:37|56:63|56:63|61:99|61:99|66:104|66:104|63:112|63:112|67:133|67:133|85:158|85:158|91:208|91:208|81:241|81:241|85:269|85:269|93:282|93:282|89:296|89:296|95:337,1,452.250017251969
235,376,67519,5,0,0:0:0:0:
248,368,67668,1,0,0:0:0:0:
261,360,67817,5,0,0:0:0:0:
11,222,67966,2,0,B|27:177|27:177|135:160,1,150.750005750656
23,366,68265,5,0,0:0:0:0:
191,109,68414,2,0,B|161:71|161:71|53:88,1,150.750005750656
93,281,68713,5,0,0:0:0:0:
281,155,68862,2,0,B|309:105|309:105|257:21,1,150.750005750656
60,87,69160,5,0,0:0:0:0:
252,268,69310,2,0,B|314:260|314:260|332:253|332:253|366:259|366:259|386:252|386:252|457:242,1,201,0|0,2:0|2:0,2:0:0:0:
173,191,69608,1,0,0:0:0:0:
339,355,69757,1,0,0:0:0:0:
421,100,69907,1,0,0:0:0:0:
421,100,69956,1,0,0:0:0:0:
421,100,70006,1,0,0:0:0:0:
421,100,70056,2,0,L|432:58,1,25.125
259,25,70205,5,0,0:0:0:0:
366,260,70354,2,0,B|436:228|436:228|373:160,1,150.750005750656
250,13,70653,5,0,0:0:0:0:
170,242,70802,2,0,B|119:296|119:296|189:328,1,150.750005750656
407,351,71101,5,0,0:0:0:0:
194,146,71250,2,0,B|136:134|136:134|49:221,1,150.750005750656
264,343,71549,5,0,0:0:0:0:
287,150,71698,2,0,L|273:-10,1,150.750005750656
391,125,71996,2,0,L|386:175,1,50.25
228,240,72146,2,0,L|232:290,1,37.6875014376641
256,352,72295,1,0,0:0:0:0:
256,352,72345,1,0,0:0:0:0:
256,353,72394,1,0,0:0:0:0:
256,353,72444,6,0,L|303:357,1,25.125
401,362,72593,5,0,0:0:0:0:
194,146,72743,2,0,B|143:136|124:100|124:100|146:158|111:214,1,188.4375
45,324,73041,5,0,0:0:0:0:
206,55,73190,2,0,B|257:41|279:-1|279:-1|254:63|294:134,1,226.125008625984
392,281,73489,5,0,0:0:0:0:
467,23,73638,2,0,P|373:8|437:109,1,263.812502515912
194,148,73937,5,0,0:0:0:0:
495,197,74086,2,0,B|448:233|390:218|390:218|362:252|362:252|272:224|204:317,1,301.5
45,324,74384,6,0,P|59:279|51:215,1,100.5
144,252,74534,6,0,P|137:209|118:171,2,67
191,137,74683,6,0,P|171:121|132:100,1,50.25
174,39,74832,6,0,P|147:33|118:36,1,37.6875014376641,0|0,0:3|0:3,0:3:0:0:
298,109,74981,6,0,P|395:93|406:1,1,150.750005750656
426,233,75205,1,0,0:0:0:0:
495,197,75280,2,0,P|443:157|386:169,1,75.3750028753282
358,271,75429,2,0,P|410:311|467:299,1,75.3750028753282
214,109,75578,6,0,P|117:93|106:1,1,150.750005750656
86,233,75802,1,0,0:0:0:0:
17,197,75877,2,0,P|69:157|126:169,1,75.3750028753282
154,271,76026,2,0,P|102:311|45:299,1,75.3750028753282
167,180,76175,6,0,P|216:202|242:246,1,100.5
342,364,76325,2,0,P|336:310|361:266,1,100.5
261,100,76475,1,0,0:0:0:0:
344,69,76550,1,0,0:0:0:0:
413,121,76623,6,0,P|375:150|327:154,1,97.9874955144884
316,151,76922,6,0,B|326:178|326:178|330:211,1,37.6875014376641
409,111,77071,6,0,P|400:174|395:235,1,100.5
493,44,77220,6,0,L|512:278,1,201
127,346,77444,6,0,B|100:308|55:287|55:287|201:320|182:219|371:274,1,402
473,318,77668,5,0,0:0:0:0:
272,369,77817,1,0,0:0:0:0:
115,199,77966,2,0,B|157:170|157:114|157:114|164:155|226:184,1,150.750005750656
332,109,78265,6,0,P|281:84|236:96,1,75.3750028753282
355,269,78414,2,0,P|414:278|450:174,1,150.750005750656
273,171,78713,5,0,0:0:0:0:
127,346,78862,2,0,B|83:375|83:375|104:218,1,175.875001677275
41,93,79160,1,0,0:0:0:0:
210,269,79310,1,0,0:0:0:0:
332,109,79459,1,0,0:0:0:0:
332,109,79509,1,0,0:0:0:0:
332,109,79558,1,0,0:0:0:0:
332,109,79608,2,0,L|374:102,1,25.125
448,87,79757,5,0,0:0:0:0:
183,25,79907,2,0,L|203:138,1,100.5
272,369,80205,5,0,0:0:0:0:
30,213,80354,2,0,B|79:155|79:155|174:199,1,150.750005750656
295,38,80653,5,0,0:0:0:0:
158,280,80802,2,0,B|116:327|116:327|13:286,1,125.625
99,38,81101,5,0,0:0:0:0:
252,268,81250,2,0,B|314:260|314:260|332:253|332:253|366:259|366:259|386:252|386:252|457:242,1,201,0|0,2:0|2:0,2:0:0:0:
415,78,81549,2,0,P|410:122|397:176,1,100.5
295,38,81698,2,0,P|302:84|313:126,1,67
366,259,81847,1,0,0:0:0:0:
366,259,81897,1,0,0:0:0:0:
366,259,81947,1,0,0:0:0:0:
366,259,81996,2,0,P|365:286|361:311,1,50.25
299,382,82146,5,0,0:0:0:0:
142,186,82295,2,0,P|154:148|158:103,1,75.3750028753282
185,363,82593,5,0,0:0:0:0:
293,121,82743,2,0,P|287:67|265:13,1,100.5
68,52,83041,5,0,0:0:0:0:
396,176,83190,2,0,P|394:234|371:331,1,125.625
185,363,83489,6,0,P|148:374|79:375,1,75.3750028753282
0,182,83638,2,0,P|102:175|141:282,1,226.125008625984
138,295,83937,5,0,0:0:0:0:
291,202,84011,2,0,P|247:191|223:155,1,75.3750028753282
318,332,84235,2,0,P|344:305|380:299,1,75.3750028753282
390,308,84459,1,0,0:0:0:0:
400,316,84534,6,0,B|401:208|368:148|368:148|405:198|479:213|546:170|546:108|508:85|492:60|437:75|410:117,1,452.250017251969
348,60,84832,6,0,B|338:109|368:148|368:148|270:137|257:67|257:67|183:164|134:77|94:104|28:144,1,452.250017251969
148,277,85131,6,0,P|168:210|71:237,1,201
135,287,85504,5,0,0:0:0:0:
235,277,85578,5,0,0:0:0:0:
335,268,85653,5,0,0:0:0:0:
435,259,85728,6,0,B|414:184|414:184|419:137|419:137|396:41,1,201
397,49,85951,1,0,0:0:0:0:
327,140,86026,2,0,L|211:118,1,100.5
154,54,86175,2,0,L|107:59,1,25.125
397,49,86325,6,0,B|376:124|376:124|381:171|381:171|358:267,1,201
348,260,86549,1,0,0:0:0:0:
406,359,86623,5,0,0:0:0:0:
306,344,86697,5,0,0:0:0:0:
235,277,86772,5,0,0:0:0:0:
135,287,86846,5,0,0:0:0:0:
53,338,86922,6,0,L|43:301,1,37.6875014376641
157,210,87071,2,0,L|166:173,1,37.6875014376641
170,203,87369,2,0,L|179:166,1,37.6875014376641
288,270,87519,6,0,L|310:364,1,75.3750028753282
183,196,87668,6,0,L|192:159,1,37.6875014376641
61,103,87817,2,0,L|51:66,1,37.6875014376641
48,96,88116,2,0,L|38:59,1,37.6875014376641
227,42,88414,6,0,L|217:78,1,37.6875014376641
331,170,88563,2,0,L|340:206,1,37.6875014376641
462,110,88713,6,0,L|484:16,1,75.3750028753282
344,177,88862,6,0,L|353:213,1,37.6875014376641
357,184,89160,6,0,L|366:220,1,37.6875014376641
235,277,89309,2,0,L|225:313,1,37.6875014376641
222,284,89608,2,0,L|212:320,1,37.6875014376641
346,315,89907,6,0,L|439:290,1,75.3750028753282
475,195,90056,6,0,L|412:179,3,37.6875014376641
372,87,90354,2,0,L|309:103,3,37.6875014376641
453,196,90653,2,0,L|490:206,1,37.6875014376641
350,78,90802,2,0,L|287:94,3,37.6875014376641
201,59,91101,6,0,L|225:152,1,75.3750028753282
312,192,91250,6,0,L|302:228,1,37.6875014376641
221,356,91399,2,0,L|211:319,1,37.6875014376641
114,226,91549,1,0,0:0:0:0:
106,237,91623,1,0,0:0:0:0:
97,243,91698,5,0,0:0:0:0:
142,240,91772,1,0,0:0:0:0:
167,202,91847,1,0,0:0:0:0:
153,159,91921,1,0,0:0:0:0:
109,145,91996,5,0,0:0:0:0:
57,110,92070,1,0,0:0:0:0:
54,46,92145,1,0,0:0:0:0:
104,6,92219,1,0,0:0:0:0:
165,22,92294,1,0,0:0:0:0:
175,36,92444,6,0,P|208:48|237:45,1,37.6875014376641
302,104,92593,6,0,B|252:168|183:150|183:150|224:181|230:213|230:213|179:252|193:322,1,301.5
283,297,92892,5,0,0:0:0:0:
