osu file format v14

[General]
AudioFilename: audio.mp3
AudioLeadIn: 0
PreviewTime: 67501
Countdown: 0
SampleSet: Soft
StackLeniency: 0.7
Mode: 3
LetterboxInBreaks: 0
SpecialStyle: 0
WidescreenStoryboard: 0

[Editor]
DistanceSpacing: 0.5
BeatDivisor: 4
GridSize: 4
TimelineZoom: 2

[Metadata]
Title:Chirality
TitleUnicode:Chirality
Artist:Camellia
ArtistUnicode:かめりあ
Creator:Fresh Chicken
Version:SPECIAL
Source:REFLEC BEAT groovin'!!
Tags:
BeatmapID:998445
BeatmapSetID:466552

[Difficulty]
HPDrainRate:8
CircleSize:4
OverallDifficulty:8
ApproachRate:5
SliderMultiplier:1.4
SliderTickRate:1

[Events]
//Background and Video events
0,0,"313.png",0,0
//Break Periods
//Storyboard Layer 0 (Background)
//Storyboard Layer 1 (Fail)
//Storyboard Layer 2 (Pass)
//Storyboard Layer 3 (Foreground)
//Storyboard Sound Samples

[TimingPoints]
934,298.507462686567,4,2,0,35,1,0
67799,-100,4,2,0,35,0,1
77351,-100,4,2,0,35,0,0
77650,-100,4,2,0,35,0,1
86904,-100,4,2,0,35,0,0

[HitObjects]
64,192,934,5,0,0:0:0:40:BaSS.wav
448,192,934,1,0,0:0:0:0:
320,192,1083,1,0,0:0:0:0:
192,192,1232,1,0,0:0:0:0:
448,192,1381,1,0,0:0:0:0:
64,192,1531,1,0,0:0:0:0:
192,192,1680,1,0,0:0:0:0:
448,192,1829,1,0,0:0:0:0:
320,192,1978,1,0,0:0:0:0:
64,192,2128,1,0,0:0:0:0:
192,192,2277,1,0,0:0:0:0:
320,192,2426,1,0,0:0:0:0:
448,192,2575,1,0,0:0:0:0:
320,192,2650,1,0,0:0:0:0:
192,192,2725,1,0,0:0:0:0:
64,192,2799,1,0,0:0:0:0:
448,192,2874,1,0,0:0:0:0:
320,192,2948,1,0,0:0:0:0:
192,192,3023,1,0,0:0:0:0:
64,192,3172,1,0,0:0:0:0:
192,192,3322,1,0,0:0:0:0:
320,192,3471,1,0,0:0:0:0:
448,192,3620,1,0,0:0:0:0:
320,192,3769,1,0,0:0:0:0:
192,192,3919,1,0,0:0:0:0:
64,192,4068,1,0,0:0:0:0:
192,192,4142,1,0,0:0:0:0:
320,192,4217,1,0,0:0:0:0:
64,192,4366,1,0,0:0:0:0:
448,192,4516,1,0,0:0:0:0:
64,192,4665,1,0,0:0:0:0:
448,192,4814,1,0,0:0:0:0:
320,192,4889,1,0,0:0:0:0:
192,192,4963,1,0,0:0:0:0:
64,192,5038,1,0,0:0:0:0:
448,192,5113,1,0,0:0:0:0:
320,192,5187,1,0,0:0:0:0:
64,192,5262,1,0,0:0:0:0:
192,192,5411,1,0,0:0:0:0:
192,192,5560,1,0,0:0:0:0:
448,192,5710,1,0,0:0:0:0:
320,192,5859,1,0,0:0:0:0:
192,192,6008,1,0,0:0:0:0:
64,192,6157,1,0,0:0:0:0:
64,192,6307,1,0,0:0:0:0:
192,192,6456,1,0,0:0:0:0:
320,192,6605,1,0,0:0:0:0:
448,192,6754,1,0,0:0:0:0:
320,192,6904,1,0,0:0:0:0:
192,192,7053,1,0,0:0:0:0:
64,192,7202,1,0,0:0:0:0:
320,192,7351,1,0,0:0:0:0:
192,192,7426,1,0,0:0:0:0:
64,192,7501,1,0,0:0:0:0:
448,192,7575,1,0,0:0:0:0:
320,192,7650,1,0,0:0:0:0:
192,192,7725,1,0,0:0:0:0:
64,192,7799,1,0,0:0:0:0:
192,192,7948,1,0,0:0:0:0:
320,192,8098,1,0,0:0:0:0:
448,192,8247,1,0,0:0:0:0:
448,192,8396,1,0,0:0:0:0:
320,192,8545,1,0,0:0:0:0:
192,192,8695,1,0,0:0:0:0:
448,192,8844,1,0,0:0:0:0:
320,192,8919,1,0,0:0:0:0:
192,192,8993,1,0,0:0:0:0:
64,192,9142,1,0,0:0:0:0:
448,192,9292,1,0,0:0:0:0:
192,192,9441,1,0,0:0:0:0:
64,192,9441,1,0,0:0:0:0:
448,192,9516,1,0,0:0:0:0:
320,192,9590,1,0,0:0:0:0:
192,192,9590,1,0,0:0:0:0:
64,192,9665,1,0,0:0:0:0:
320,192,9739,1,0,0:0:0:0:
448,192,9739,1,0,0:0:0:0:
192,192,9814,1,0,0:0:0:0:
64,192,9814,1,0,0:0:0:0:
320,192,9889,1,0,0:0:0:0:
192,192,9963,1,0,0:0:0:0:
320,192,10038,1,0,0:0:0:0:
448,192,10038,1,0,0:0:0:0:
192,192,10113,1,0,0:0:0:0:
64,192,10113,1,0,0:0:0:0:
448,192,10187,1,0,0:0:0:0:
320,192,10336,1,0,0:0:0:0:
192,192,10486,1,0,0:0:0:40:BaSS.wav
64,192,10486,1,0,0:0:0:0:
448,192,10486,1,0,0:0:0:0:
320,192,10635,1,0,0:0:0:0:
64,192,10784,1,0,0:0:0:0:
448,192,10933,1,0,0:0:0:0:
192,192,11083,1,0,0:0:0:40:Snare.wav
64,192,11083,1,0,0:0:0:0:
320,192,11232,1,0,0:0:0:40:BaSS.wav
448,192,11232,1,0,0:0:0:0:
64,192,11232,1,0,0:0:0:0:
192,192,11381,1,0,0:0:0:0:
320,192,11531,1,0,0:0:0:40:BaSS.wav
448,192,11531,1,0,0:0:0:0:
64,192,11531,1,0,0:0:0:0:
192,192,11680,1,0,0:0:0:0:
448,192,11829,1,0,0:0:0:0:
64,192,11978,1,0,0:0:0:0:
448,192,12128,1,0,0:0:0:0:
320,192,12202,1,0,0:0:0:0:
192,192,12277,1,0,0:0:0:0:
64,192,12351,1,0,0:0:0:0:
320,192,12426,1,0,0:0:0:0:
448,192,12501,1,0,0:0:0:0:
192,192,12575,1,0,0:0:0:0:
320,192,12725,1,0,0:0:0:0:
448,192,12874,1,0,0:0:0:0:
192,192,12874,1,0,0:0:0:40:BaSS.wav
64,192,12874,1,0,0:0:0:0:
320,192,13023,1,0,0:0:0:0:
64,192,13172,1,0,0:0:0:0:
192,192,13322,1,0,0:0:0:0:
320,192,13471,1,0,0:0:0:40:Snare.wav
448,192,13471,1,0,0:0:0:0:
448,192,13620,1,0,0:0:0:0:
320,192,13620,1,0,0:0:0:40:BaSS.wav
192,192,13620,1,0,0:0:0:0:
64,192,13769,1,0,0:0:0:0:
448,192,13919,1,0,0:0:0:0:
64,192,13919,1,0,0:0:0:0:
192,192,13919,1,0,0:0:0:40:BaSS.wav
320,192,14068,1,0,0:0:0:0:
192,192,14217,1,0,0:0:0:0:
64,192,14366,1,0,0:0:0:0:
320,192,14366,1,0,0:0:0:0:
192,192,14516,1,0,0:0:0:0:
320,192,14590,1,0,0:0:0:0:
448,192,14665,1,0,0:0:0:0:
192,192,14665,1,0,0:0:0:0:
64,192,14814,128,0,15262:0:0:0:0:
448,192,14963,1,0,0:0:0:0:
320,192,15038,1,0,0:0:0:0:
192,192,15113,1,0,0:0:0:0:
320,192,15187,1,0,0:0:0:0:
192,192,15262,1,0,0:0:0:0:
448,192,15262,1,0,0:0:0:40:BaSS.wav
320,192,15411,1,0,0:0:0:0:
448,192,15560,1,0,0:0:0:0:
64,192,15710,1,0,0:0:0:0:
320,192,15859,1,0,0:0:0:40:Snare.wav
448,192,15859,1,0,0:0:0:0:
320,192,16008,1,0,0:0:0:40:BaSS.wav
448,192,16008,1,0,0:0:0:0:
64,192,16008,1,0,0:0:0:0:
192,192,16157,1,0,0:0:0:0:
320,192,16307,1,0,0:0:0:40:BaSS.wav
448,192,16307,1,0,0:0:0:0:
64,192,16307,1,0,0:0:0:0:
192,192,16456,1,0,0:0:0:0:
448,192,16605,1,0,0:0:0:0:
320,192,16754,1,0,0:0:0:0:
192,192,16904,1,0,0:0:0:0:
448,192,17053,1,0,0:0:0:0:
320,192,17128,1,0,0:0:0:0:
192,192,17202,1,0,0:0:0:0:
64,192,17277,1,0,0:0:0:0:
448,192,17351,1,0,0:0:0:0:
320,192,17501,1,0,0:0:0:0:
192,192,17650,1,0,0:0:0:40:BaSS.wav
64,192,17650,1,0,0:0:0:0:
448,192,17650,1,0,0:0:0:0:
320,192,17725,1,0,0:0:0:0:
64,192,17799,1,0,0:0:0:0:
448,192,17874,1,0,0:0:0:0:
192,192,17948,1,0,0:0:0:0:
320,192,18023,1,0,0:0:0:0:
64,192,18098,1,0,0:0:0:0:
448,192,18172,1,0,0:0:0:0:
192,192,18247,1,0,0:0:0:40:BaSS.wav
64,192,18247,1,0,0:0:0:0:
320,192,18322,1,0,0:0:0:40:BaSS.wav
448,192,18322,1,0,0:0:0:0:
192,192,18396,1,0,0:0:0:40:BaSS.wav
64,192,18396,1,0,0:0:0:0:
320,192,18471,1,0,0:0:0:40:BaSS.wav
448,192,18471,1,0,0:0:0:0:
64,192,18545,1,0,0:0:0:0:
192,192,18545,1,0,0:0:0:40:BaSS.wav
320,192,18620,1,0,0:0:0:40:BaSS.wav
448,192,18620,1,0,0:0:0:0:
64,192,18695,1,0,0:0:0:0:
192,192,18695,1,0,0:0:0:40:BaSS.wav
320,192,18769,1,0,0:0:0:40:BaSS.wav
448,192,18769,1,0,0:0:0:0:
64,192,18844,128,0,19142:0:0:0:0:
192,192,18844,1,0,0:0:0:40:BaSS.wav
448,192,19068,128,0,19142:0:0:0:0:
320,192,19590,128,0,19739:0:0:0:0:
192,192,19739,128,0,19814:0:0:0:0:
448,192,19889,1,0,0:0:0:0:
320,192,20038,1,0,0:0:0:40:BaSS.wav
192,192,20038,1,0,0:0:0:0:
64,192,20038,128,0,20336:0:0:0:0:
192,192,20336,1,0,0:0:0:0:
320,192,20411,1,0,0:0:0:0:
192,192,20486,1,0,0:0:0:0:
320,192,20560,1,0,0:0:0:0:
192,192,20635,1,0,0:0:0:40:Snare.wav
64,192,20635,1,0,0:0:0:0:
448,192,20635,1,0,0:0:0:0:
320,192,20784,1,0,0:0:0:0:
448,192,20784,1,0,0:0:0:0:
192,192,20859,1,0,0:0:0:0:
64,192,20859,1,0,0:0:0:0:
320,192,21008,1,0,0:0:0:0:
448,192,21008,1,0,0:0:0:0:
192,192,21083,1,0,0:0:0:0:
64,192,21083,1,0,0:0:0:0:
192,192,21232,1,0,0:0:0:0:
448,192,21232,1,0,0:0:0:40:BaSS.wav
64,192,21232,128,0,21531:0:0:0:0:
320,192,21381,1,0,0:0:0:0:
320,192,21531,128,0,21829:0:0:0:0:
192,192,21531,1,0,0:0:0:0:
64,192,21680,1,0,0:0:0:0:
64,192,21829,1,0,0:0:0:40:Snare.wav
192,192,21829,1,0,0:0:0:0:
448,192,21904,128,0,21978:0:0:0:0:
448,192,22053,128,0,22128:0:0:0:0:
448,192,22202,128,0,22426:0:0:0:0:
192,192,22426,128,0,22725:0:0:0:0:
320,192,22426,128,0,22725:0:0:0:0:
64,192,22426,1,0,0:0:0:40:BaSS.wav
64,192,22725,1,0,0:0:0:0:
448,192,22799,1,0,0:0:0:0:
64,192,22874,1,0,0:0:0:0:
448,192,22948,1,0,0:0:0:0:
320,192,23023,1,0,0:0:0:40:Snare.wav
192,192,23023,1,0,0:0:0:0:
64,192,23023,1,0,0:0:0:0:
448,192,23172,1,0,0:0:0:0:
192,192,23172,1,0,0:0:0:0:
320,192,23247,1,0,0:0:0:0:
64,192,23247,1,0,0:0:0:0:
448,192,23396,1,0,0:0:0:0:
192,192,23396,1,0,0:0:0:0:
320,192,23471,1,0,0:0:0:0:
64,192,23471,1,0,0:0:0:0:
448,192,23620,1,0,0:0:0:40:BaSS.wav
64,192,23620,128,0,23769:0:0:0:0:
448,192,23769,1,0,0:0:0:0:
320,192,23844,1,0,0:0:0:0:
192,192,23919,1,0,0:0:0:0:
320,192,23993,1,0,0:0:0:0:
64,192,24068,1,0,0:0:0:0:
192,192,24118,1,0,0:0:0:0:
320,192,24167,1,0,0:0:0:0:
64,192,24217,1,0,0:0:0:0:
448,192,24217,1,0,0:0:0:40:Snare.wav
192,192,24217,1,0,0:0:0:0:
64,192,24366,128,0,24441:0:0:0:0:
320,192,24516,1,0,0:0:0:0:
448,192,24665,128,0,24739:0:0:0:0:
320,192,24814,1,0,0:0:0:40:BaSS.wav
192,192,24814,128,0,25113:0:0:0:0:
64,192,24814,128,0,25113:0:0:0:0:
448,192,25113,1,0,0:0:0:0:
192,192,25187,1,0,0:0:0:0:
448,192,25262,1,0,0:0:0:0:
192,192,25336,1,0,0:0:0:0:
320,192,25411,1,0,0:0:0:40:Snare.wav
448,192,25411,1,0,0:0:0:0:
64,192,25411,1,0,0:0:0:0:
192,192,25560,1,0,0:0:0:0:
64,192,25560,1,0,0:0:0:0:
320,192,25635,1,0,0:0:0:0:
448,192,25635,1,0,0:0:0:0:
192,192,25784,1,0,0:0:0:0:
64,192,25784,1,0,0:0:0:0:
320,192,25859,1,0,0:0:0:0:
448,192,25859,1,0,0:0:0:0:
320,192,26008,128,0,26307:0:0:0:0:
448,192,26008,128,0,26307:0:0:0:0:
64,192,26008,1,0,0:0:0:40:BaSS.wav
192,192,26307,128,0,26381:0:0:0:0:
192,192,26456,128,0,26531:0:0:0:0:
64,192,26605,1,0,0:0:0:0:
448,192,26605,1,0,0:0:0:40:Snare.wav
320,192,26605,128,0,26680:0:0:0:0:
320,192,26754,128,0,26829:0:0:0:0:
320,192,26904,128,0,27202:0:0:0:0:
192,192,27202,1,0,0:0:0:40:BaSS.wav
64,192,27202,1,0,0:0:0:0:
448,192,27202,128,0,27799:0:0:0:0:
320,192,27799,1,0,0:0:0:0:
192,192,27799,1,0,0:0:0:40:Snare.wav
64,192,27799,1,0,0:0:0:0:
64,192,27899,1,0,0:0:0:0:
64,192,27998,1,0,0:0:0:0:
448,192,28098,128,0,28545:0:0:0:0:
320,192,28098,128,0,28545:0:0:0:0:
192,192,28098,1,0,0:0:0:40:BaSS.wav
64,192,28545,1,0,0:0:0:0:
192,192,28545,1,0,0:0:0:40:BaSS.wav
192,192,28695,1,0,0:0:0:40:BaSS.wav
64,192,28695,1,0,0:0:0:0:
64,192,28844,128,0,28993:0:0:0:0:
192,192,28993,1,0,0:0:0:0:
320,192,28993,128,0,29292:0:0:0:0:
448,192,28993,128,0,29292:0:0:0:40:BaSS.wav
192,192,29292,128,0,29441:0:0:0:0:
320,192,29441,1,0,0:0:0:0:
320,192,29516,1,0,0:0:0:0:
192,192,29590,1,0,0:0:0:40:BaSS.wav
64,192,29590,1,0,0:0:0:0:
448,192,29590,128,0,29889:0:0:0:0:
64,192,29889,1,0,0:0:0:0:
192,192,29963,1,0,0:0:0:0:
64,192,30038,1,0,0:0:0:0:
192,192,30113,1,0,0:0:0:0:
64,192,30187,1,0,0:0:0:0:
320,192,30187,1,0,0:0:0:40:Snare.wav
448,192,30187,1,0,0:0:0:0:
192,192,30336,1,0,0:0:0:0:
64,192,30336,1,0,0:0:0:0:
320,192,30411,1,0,0:0:0:0:
448,192,30411,1,0,0:0:0:0:
192,192,30560,1,0,0:0:0:0:
64,192,30560,1,0,0:0:0:0:
320,192,30635,1,0,0:0:0:0:
448,192,30635,1,0,0:0:0:0:
448,192,30784,1,0,0:0:0:40:BaSS.wav
192,192,30784,1,0,0:0:0:0:
64,192,30784,128,0,31083:0:0:0:0:
320,192,30933,1,0,0:0:0:0:
192,192,31083,128,0,31381:0:0:0:0:
448,192,31232,1,0,0:0:0:0:
320,192,31381,1,0,0:0:0:40:Snare.wav
448,192,31381,1,0,0:0:0:0:
64,192,31456,128,0,31531:0:0:0:0:
64,192,31605,128,0,31680:0:0:0:0:
64,192,31754,128,0,31978:0:0:0:0:
192,192,31978,128,0,32277:0:0:0:0:
320,192,31978,128,0,32277:0:0:0:0:
448,192,31978,1,0,0:0:0:40:BaSS.wav
448,192,32277,1,0,0:0:0:0:
192,192,32351,1,0,0:0:0:0:
448,192,32426,1,0,0:0:0:0:
192,192,32501,1,0,0:0:0:0:
448,192,32575,1,0,0:0:0:0:
64,192,32575,1,0,0:0:0:40:Snare.wav
320,192,32575,1,0,0:0:0:0:
192,192,32725,1,0,0:0:0:0:
448,192,32725,1,0,0:0:0:0:
64,192,32799,1,0,0:0:0:0:
320,192,32799,1,0,0:0:0:0:
192,192,32948,1,0,0:0:0:0:
448,192,32948,1,0,0:0:0:0:
64,192,33023,1,0,0:0:0:0:
320,192,33023,1,0,0:0:0:0:
192,192,33172,1,0,0:0:0:40:BaSS.wav
448,192,33172,128,0,33471:0:0:0:0:
320,192,33322,128,0,33471:0:0:0:0:
64,192,33471,1,0,0:0:0:0:
448,192,33545,1,0,0:0:0:0:
64,192,33620,1,0,0:0:0:0:
192,192,33670,1,0,0:0:0:0:
320,192,33720,1,0,0:0:0:0:
448,192,33769,1,0,0:0:0:0:
64,192,33769,1,0,0:0:0:40:Snare.wav
192,192,33769,1,0,0:0:0:0:
320,192,33919,128,0,33993:0:0:0:0:
192,192,34068,1,0,0:0:0:0:
64,192,34217,128,0,34292:0:0:0:0:
320,192,34366,1,0,0:0:0:40:BaSS.wav
448,192,34366,1,0,0:0:0:0:
64,192,34441,128,0,34516:0:0:0:0:
192,192,34516,1,0,0:0:0:0:
448,192,34565,128,0,34665:0:0:0:0:
192,192,34665,128,0,34764:0:0:0:0:
64,192,34764,1,0,0:0:0:0:
320,192,34864,1,0,0:0:0:0:
64,192,34963,128,0,35063:0:0:0:0:
320,192,35063,1,0,0:0:0:40:BaSS.wav
448,192,35063,1,0,0:0:0:0:
192,192,35113,1,0,0:0:0:40:BaSS.wav
64,192,35113,1,0,0:0:0:0:
320,192,35187,1,0,0:0:0:40:BaSS.wav
448,192,35187,1,0,0:0:0:0:
192,192,35262,1,0,0:0:0:40:Snare.wav
64,192,35262,1,0,0:0:0:0:
448,192,35336,1,0,0:0:0:0:
320,192,35411,1,0,0:0:0:0:
192,192,35486,1,0,0:0:0:0:
64,192,35560,1,0,0:0:0:0:
448,192,35560,1,0,0:0:0:40:BaSS.wav
320,192,35635,1,0,0:0:0:40:BaSS.wav
192,192,35635,1,0,0:0:0:0:
448,192,35710,1,0,0:0:0:40:BaSS.wav
64,192,35710,1,0,0:0:0:0:
320,192,35784,1,0,0:0:0:40:BaSS.wav
192,192,35784,1,0,0:0:0:0:
64,192,35859,1,0,0:0:0:0:
192,192,35933,1,0,0:0:0:0:
448,192,36008,1,0,0:0:0:0:
320,192,36008,1,0,0:0:0:40:BaSS.wav
64,192,36083,1,0,0:0:0:0:
192,192,36157,1,0,0:0:0:0:
320,192,36157,1,0,0:0:0:40:Snare.wav
448,192,36157,1,0,0:0:0:0:
64,192,36232,128,0,36307:0:0:0:0:
448,192,36307,1,0,0:0:0:0:
64,192,36381,128,0,36456:0:0:0:0:
320,192,36456,1,0,0:0:0:0:
64,192,36531,128,0,36754:0:0:0:0:
320,192,36754,1,0,0:0:0:40:BaSS.wav
448,192,36754,128,0,37053:0:0:0:0:
192,192,37053,1,0,0:0:0:40:Snare.wav
64,192,37053,1,0,0:0:0:0:
320,192,37053,1,0,0:0:0:0:
448,192,37128,1,0,0:0:0:0:
320,192,37202,1,0,0:0:0:0:
448,192,37277,1,0,0:0:0:0:
64,192,37351,1,0,0:0:0:40:BaSS.wav
192,192,37351,1,0,0:0:0:0:
192,192,37550,1,0,0:0:0:0:
320,192,37650,1,0,0:0:0:0:
64,192,37650,1,0,0:0:0:40:Snare.wav
448,192,37650,1,0,0:0:0:0:
192,192,37749,1,0,0:0:0:0:
448,192,37948,1,0,0:0:0:0:
320,192,37948,128,0,38247:0:0:0:40:BaSS.wav
64,192,38247,1,0,0:0:0:40:Snare.wav
192,192,38247,1,0,0:0:0:0:
448,192,38247,1,0,0:0:0:0:
320,192,38545,1,0,0:0:0:40:BaSS.wav
448,192,38545,1,0,0:0:0:0:
448,192,38695,1,0,0:0:0:0:
320,192,38695,1,0,0:0:0:40:BaSS.wav
64,192,38844,1,0,0:0:0:0:
192,192,38844,1,0,0:0:0:40:BaSS.wav
448,192,38919,1,0,0:0:0:0:
320,192,38993,1,0,0:0:0:0:
192,192,38993,1,0,0:0:0:40:BaSS.wav
64,192,39068,1,0,0:0:0:40:BaSS.wav
448,192,39068,1,0,0:0:0:0:
320,192,39142,1,0,0:0:0:0:
192,192,39142,1,0,0:0:0:40:BaSS.wav
192,192,39292,1,0,0:0:0:40:BaSS.wav
64,192,39292,1,0,0:0:0:0:
192,192,39590,1,0,0:0:0:40:BaSS.wav
320,192,39590,1,0,0:0:0:0:
320,192,39739,1,0,0:0:0:40:Snare.wav
448,192,39739,1,0,0:0:0:0:
64,192,39739,1,0,0:0:0:0:
192,192,39889,1,0,0:0:0:0:
448,192,40038,1,0,0:0:0:40:BaSS.wav
64,192,40038,1,0,0:0:0:0:
320,192,40187,1,0,0:0:0:40:BaSS.wav
448,192,40187,1,0,0:0:0:0:
192,192,40486,1,0,0:0:0:40:BaSS.wav
64,192,40486,1,0,0:0:0:0:
192,192,40635,1,0,0:0:0:40:BaSS.wav
320,192,40635,1,0,0:0:0:0:
448,192,40784,1,0,0:0:0:0:
192,192,40933,1,0,0:0:0:0:
64,192,40933,1,0,0:0:0:0:
448,192,40933,128,0,41008:0:0:0:40:Snare.wav
448,192,41083,128,0,41157:0:0:0:0:
64,192,41083,1,0,0:0:0:0:
448,192,41232,128,0,41381:0:0:0:0:
192,192,41381,1,0,0:0:0:40:BaSS.wav
64,192,41381,1,0,0:0:0:0:
320,192,41456,1,0,0:0:0:40:BaSS.wav
448,192,41456,1,0,0:0:0:0:
192,192,41531,1,0,0:0:0:40:BaSS.wav
64,192,41531,1,0,0:0:0:0:
320,192,41680,1,0,0:0:0:40:BaSS.wav
448,192,41680,1,0,0:0:0:0:
320,192,41978,1,0,0:0:0:0:
192,192,41978,1,0,0:0:0:40:BaSS.wav
192,192,42128,1,0,0:0:0:0:
64,192,42128,1,0,0:0:0:40:Snare.wav
448,192,42128,1,0,0:0:0:0:
320,192,42277,1,0,0:0:0:0:
192,192,42426,1,0,0:0:0:40:BaSS.wav
448,192,42426,1,0,0:0:0:0:
320,192,42575,1,0,0:0:0:40:BaSS.wav
64,192,42575,1,0,0:0:0:0:
192,192,42874,1,0,0:0:0:0:
448,192,42874,1,0,0:0:0:40:BaSS.wav
320,192,43023,1,0,0:0:0:0:
448,192,43023,1,0,0:0:0:40:BaSS.wav
192,192,43172,1,0,0:0:0:0:
320,192,43247,1,0,0:0:0:0:
448,192,43322,1,0,0:0:0:0:
192,192,43322,1,0,0:0:0:0:
64,192,43322,1,0,0:0:0:40:Snare.wav
320,192,43396,1,0,0:0:0:0:
192,192,43471,1,0,0:0:0:0:
64,192,43545,1,0,0:0:0:0:
448,192,43620,1,0,0:0:0:0:
320,192,43769,1,0,0:0:0:0:
192,192,43919,1,0,0:0:0:40:BaSS.wav
64,192,43919,1,0,0:0:0:0:
320,192,44068,1,0,0:0:0:40:BaSS.wav
448,192,44068,1,0,0:0:0:0:
320,192,44366,1,0,0:0:0:0:
192,192,44366,1,0,0:0:0:40:BaSS.wav
192,192,44516,1,0,0:0:0:0:
64,192,44516,1,0,0:0:0:0:
448,192,44516,1,0,0:0:0:40:Snare.wav
320,192,44665,1,0,0:0:0:0:
448,192,44814,1,0,0:0:0:0:
192,192,44814,1,0,0:0:0:40:BaSS.wav
320,192,44963,1,0,0:0:0:0:
64,192,44963,1,0,0:0:0:40:BaSS.wav
192,192,45262,1,0,0:0:0:40:BaSS.wav
320,192,45262,1,0,0:0:0:0:
320,192,45411,1,0,0:0:0:0:
448,192,45411,1,0,0:0:0:40:BaSS.wav
64,192,45560,1,0,0:0:0:0:
320,192,45710,1,0,0:0:0:40:Snare.wav
448,192,45710,1,0,0:0:0:0:
64,192,45710,128,0,45784:0:0:0:0:
64,192,45859,128,0,45933:0:0:0:0:
64,192,46008,128,0,46157:0:0:0:0:
448,192,46157,1,0,0:0:0:0:
320,192,46157,1,0,0:0:0:40:BaSS.wav
192,192,46232,1,0,0:0:0:40:BaSS.wav
64,192,46232,1,0,0:0:0:0:
320,192,46307,1,0,0:0:0:40:BaSS.wav
448,192,46307,1,0,0:0:0:0:
192,192,46456,1,0,0:0:0:40:BaSS.wav
64,192,46456,1,0,0:0:0:0:
320,192,46754,1,0,0:0:0:0:
192,192,46754,1,0,0:0:0:40:BaSS.wav
320,192,46904,1,0,0:0:0:0:
448,192,46904,1,0,0:0:0:40:Snare.wav
64,192,46904,1,0,0:0:0:0:
192,192,47053,1,0,0:0:0:0:
320,192,47202,1,0,0:0:0:40:BaSS.wav
64,192,47202,1,0,0:0:0:0:
192,192,47351,1,0,0:0:0:0:
320,192,47351,1,0,0:0:0:40:BaSS.wav
320,192,47650,1,0,0:0:0:0:
192,192,47650,1,0,0:0:0:40:BaSS.wav
192,192,47799,1,0,0:0:0:40:BaSS.wav
448,192,47799,1,0,0:0:0:0:
64,192,47948,1,0,0:0:0:0:
192,192,48098,1,0,0:0:0:0:
320,192,48098,1,0,0:0:0:40:Snare.wav
448,192,48098,1,0,0:0:0:0:
64,192,48396,128,0,48695:0:0:0:0:
320,192,48695,1,0,0:0:0:40:BaSS.wav
448,192,48695,1,0,0:0:0:0:
64,192,48844,1,0,0:0:0:0:
192,192,48844,1,0,0:0:0:40:BaSS.wav
320,192,49142,1,0,0:0:0:40:BaSS.wav
192,192,49142,1,0,0:0:0:0:
192,192,49292,1,0,0:0:0:40:Snare.wav
64,192,49292,1,0,0:0:0:0:
448,192,49292,1,0,0:0:0:0:
320,192,49441,1,0,0:0:0:0:
192,192,49590,1,0,0:0:0:0:
448,192,49590,1,0,0:0:0:40:BaSS.wav
448,192,49739,1,0,0:0:0:40:BaSS.wav
320,192,49739,1,0,0:0:0:0:
192,192,50038,1,0,0:0:0:0:
64,192,50038,1,0,0:0:0:40:BaSS.wav
64,192,50187,1,0,0:0:0:40:BaSS.wav
320,192,50187,1,0,0:0:0:0:
448,192,50336,1,0,0:0:0:0:
320,192,50486,1,0,0:0:0:40:Snare.wav
448,192,50486,1,0,0:0:0:0:
64,192,50486,1,0,0:0:0:0:
192,192,50560,1,0,0:0:0:0:
320,192,50635,1,0,0:0:0:0:
192,192,50710,1,0,0:0:0:0:
320,192,50784,1,0,0:0:0:0:
320,192,50933,1,0,0:0:0:0:
192,192,51083,1,0,0:0:0:40:BaSS.wav
448,192,51083,1,0,0:0:0:0:
320,192,51232,1,0,0:0:0:0:
64,192,51232,1,0,0:0:0:40:BaSS.wav
320,192,51531,1,0,0:0:0:40:BaSS.wav
64,192,51531,1,0,0:0:0:0:
192,192,51680,1,0,0:0:0:40:Snare.wav
64,192,51680,1,0,0:0:0:0:
448,192,51680,1,0,0:0:0:0:
320,192,51829,1,0,0:0:0:0:
192,192,51978,1,0,0:0:0:40:BaSS.wav
448,192,51978,1,0,0:0:0:0:
320,192,52128,1,0,0:0:0:0:
192,192,52128,1,0,0:0:0:40:BaSS.wav
320,192,52426,1,0,0:0:0:40:BaSS.wav
192,192,52426,1,0,0:0:0:0:
320,192,52575,1,0,0:0:0:40:BaSS.wav
64,192,52575,1,0,0:0:0:0:
192,192,52725,1,0,0:0:0:0:
320,192,52799,1,0,0:0:0:0:
448,192,52874,1,0,0:0:0:0:
64,192,52874,1,0,0:0:0:40:BaSS.wav
320,192,52948,1,0,0:0:0:0:
192,192,53023,1,0,0:0:0:0:
64,192,53098,1,0,0:0:0:0:
448,192,53172,1,0,0:0:0:0:
64,192,53322,1,0,0:0:0:0:
320,192,53471,1,0,0:0:0:40:BaSS.wav
448,192,53471,1,0,0:0:0:0:
192,192,53620,1,0,0:0:0:40:BaSS.wav
64,192,53620,1,0,0:0:0:0:
320,192,53919,1,0,0:0:0:40:BaSS.wav
448,192,53919,1,0,0:0:0:0:
192,192,54068,1,0,0:0:0:0:
320,192,54068,1,0,0:0:0:40:Snare.wav
448,192,54068,1,0,0:0:0:0:
64,192,54217,1,0,0:0:0:0:
192,192,54366,1,0,0:0:0:40:BaSS.wav
320,192,54366,1,0,0:0:0:0:
192,192,54516,1,0,0:0:0:40:BaSS.wav
64,192,54516,1,0,0:0:0:0:
192,192,54814,1,0,0:0:0:0:
320,192,54814,1,0,0:0:0:40:BaSS.wav
320,192,54963,1,0,0:0:0:40:BaSS.wav
448,192,54963,1,0,0:0:0:0:
192,192,55113,1,0,0:0:0:0:
64,192,55262,1,0,0:0:0:40:BaSS.wav
448,192,55262,1,0,0:0:0:0:
192,192,55336,1,0,0:0:0:0:
320,192,55411,128,0,55710:0:0:0:0:
448,192,55710,1,0,0:0:0:0:
192,192,55859,1,0,0:0:0:40:BaSS.wav
64,192,55859,1,0,0:0:0:0:
320,192,56008,1,0,0:0:0:40:BaSS.wav
448,192,56008,1,0,0:0:0:0:
320,192,56307,1,0,0:0:0:40:BaSS.wav
448,192,56307,1,0,0:0:0:0:
192,192,56456,1,0,0:0:0:40:BaSS.wav
64,192,56456,1,0,0:0:0:0:
192,192,56754,1,0,0:0:0:40:BaSS.wav
448,192,56754,1,0,0:0:0:0:
320,192,56904,1,0,0:0:0:0:
64,192,56904,1,0,0:0:0:40:BaSS.wav
64,192,57202,1,0,0:0:0:0:
320,192,57202,1,0,0:0:0:40:BaSS.wav
192,192,57351,1,0,0:0:0:0:
448,192,57351,1,0,0:0:0:40:BaSS.wav
448,192,57650,1,0,0:0:0:0:
320,192,57650,1,0,0:0:0:0:
64,192,57725,1,0,0:0:0:0:
448,192,57799,1,0,0:0:0:0:
192,192,57799,1,0,0:0:0:40:BaSS.wav
320,192,57874,1,0,0:0:0:40:BaSS.wav
192,192,57948,1,0,0:0:0:40:BaSS.wav
64,192,57948,1,0,0:0:0:0:
448,192,58023,1,0,0:0:0:40:BaSS.wav
320,192,58098,1,0,0:0:0:0:
64,192,58098,1,0,0:0:0:40:BaSS.wav
192,192,58172,1,0,0:0:0:40:BaSS.wav
320,192,58247,1,0,0:0:0:40:BaSS.wav
64,192,58247,1,0,0:0:0:0:
448,192,58247,128,0,59292:0:0:0:0:
192,192,58844,1,0,0:0:0:0:
64,192,58844,1,0,0:0:0:0:
320,192,58844,1,0,0:0:0:40:Snare.wav
192,192,58993,1,0,0:0:0:40:BaSS.wav
64,192,58993,1,0,0:0:0:0:
64,192,59292,1,0,0:0:0:0:
192,192,59292,1,0,0:0:0:40:BaSS.wav
320,192,59292,1,0,0:0:0:0:
448,192,59590,1,0,0:0:0:0:
320,192,59739,1,0,0:0:0:0:
192,192,59889,1,0,0:0:0:0:
64,192,59963,1,0,0:0:0:0:
448,192,60038,1,0,0:0:0:0:
320,192,60113,1,0,0:0:0:0:
192,192,60187,1,0,0:0:0:0:
64,192,60262,1,0,0:0:0:0:
448,192,60336,1,0,0:0:0:0:
320,192,60486,1,0,0:0:0:0:
192,192,60635,128,0,60933:0:0:0:40:BaSS.wav
64,192,60635,1,0,0:0:0:0:
64,192,61232,1,0,0:0:0:0:
448,192,61232,1,0,0:0:0:0:
320,192,61232,1,0,0:0:0:40:Snare.wav
192,192,61381,1,0,0:0:0:40:BaSS.wav
448,192,61381,1,0,0:0:0:0:
320,192,61680,1,0,0:0:0:40:BaSS.wav
448,192,61680,1,0,0:0:0:0:
64,192,61680,1,0,0:0:0:0:
64,192,61978,1,0,0:0:0:0:
192,192,62053,1,0,0:0:0:0:
320,192,62128,1,0,0:0:0:0:
448,192,62128,1,0,0:0:0:0:
192,192,62277,1,0,0:0:0:0:
64,192,62277,1,0,0:0:0:0:
448,192,62351,1,0,0:0:0:0:
192,192,62426,1,0,0:0:0:0:
320,192,62426,1,0,0:0:0:0:
448,192,62501,1,0,0:0:0:0:
64,192,62501,1,0,0:0:0:0:
192,192,62575,128,0,63023:0:0:0:0:
64,192,62725,128,0,63023:0:0:0:0:
320,192,63023,128,0,63322:0:0:0:40:BaSS.wav
448,192,63023,1,0,0:0:0:0:
64,192,63620,1,0,0:0:0:0:
448,192,63620,1,0,0:0:0:0:
320,192,63620,1,0,0:0:0:40:Snare.wav
192,192,63769,1,0,0:0:0:40:BaSS.wav
64,192,63769,1,0,0:0:0:0:
64,192,64068,1,0,0:0:0:0:
192,192,64068,1,0,0:0:0:40:BaSS.wav
448,192,64068,1,0,0:0:0:0:
64,192,64366,1,0,0:0:0:0:
192,192,64516,1,0,0:0:0:0:
320,192,64665,1,0,0:0:0:0:
448,192,64739,1,0,0:0:0:0:
64,192,64814,1,0,0:0:0:0:
192,192,64889,1,0,0:0:0:0:
320,192,64963,1,0,0:0:0:0:
448,192,65038,1,0,0:0:0:0:
64,192,65113,1,0,0:0:0:0:
192,192,65262,1,0,0:0:0:0:
448,192,65411,1,0,0:0:0:0:
64,192,65411,1,0,0:0:0:40:BaSS.wav
320,192,65486,1,0,0:0:0:0:
192,192,65560,1,0,0:0:0:0:
448,192,65635,1,0,0:0:0:0:
192,192,65710,1,0,0:0:0:0:
320,192,65784,1,0,0:0:0:0:
64,192,65859,1,0,0:0:0:0:
192,192,65933,1,0,0:0:0:0:
64,192,66008,1,0,0:0:0:0:
448,192,66008,1,0,0:0:0:40:Snare.wav
320,192,66083,1,0,0:0:0:0:
192,192,66157,1,0,0:0:0:40:BaSS.wav
64,192,66157,1,0,0:0:0:0:
448,192,66232,1,0,0:0:0:40:BaSS.wav
320,192,66232,1,0,0:0:0:0:
64,192,66307,1,0,0:0:0:40:BaSS.wav
192,192,66307,1,0,0:0:0:0:
448,192,66381,1,0,0:0:0:40:BaSS.wav
320,192,66381,1,0,0:0:0:0:
64,192,66456,1,0,0:0:0:40:BaSS.wav
192,192,66456,1,0,0:0:0:0:
320,192,66531,1,0,0:0:0:0:
448,192,66531,1,0,0:0:0:40:BaSS.wav
192,192,66605,1,0,0:0:0:40:BaSS.wav
64,192,66605,128,0,66904:0:0:0:0:
448,192,66829,128,0,66904:0:0:0:0:
192,192,67351,128,0,67501:0:0:0:0:
320,192,67501,1,0,0:0:0:0:
192,192,67650,1,0,0:0:0:0:
64,192,67799,128,0,67948:0:0:0:40:Crash.wav
448,192,67799,1,0,0:0:0:40:BaSS.wav
320,192,67948,1,0,0:0:0:0:
192,192,67948,128,0,68098:0:0:0:0:
448,192,68098,1,0,0:0:0:40:Snare.wav
64,192,68098,1,0,0:0:0:0:
320,192,68247,128,0,68396:0:0:0:0:
192,192,68247,1,0,0:0:0:0:
64,192,68396,1,0,0:0:0:40:BaSS.wav
448,192,68396,128,0,68545:0:0:0:0:
192,192,68471,1,0,0:0:0:0:
320,192,68545,1,0,0:0:0:0:
448,192,68620,1,0,0:0:0:0:
64,192,68695,128,0,68844:0:0:0:0:
192,192,68695,1,0,0:0:0:40:Snare.wav
320,192,68769,1,0,0:0:0:0:
192,192,68844,128,0,68993:0:0:0:0:
448,192,68844,1,0,0:0:0:0:
64,192,68919,1,0,0:0:0:0:
320,192,68993,1,0,0:0:0:0:
448,192,68993,1,0,0:0:0:40:BaSS.wav
320,192,69142,128,0,69292:0:0:0:0:
192,192,69142,1,0,0:0:0:0:
192,192,69292,128,0,69441:0:0:0:0:
64,192,69292,1,0,0:0:0:0:
448,192,69292,1,0,0:0:0:40:Snare.wav
320,192,69441,1,0,0:0:0:0:
64,192,69590,128,0,69739:0:0:0:0:
448,192,69590,1,0,0:0:0:40:BaSS.wav
320,192,69739,1,0,0:0:0:0:
192,192,69739,128,0,69889:0:0:0:0:
64,192,69889,1,0,0:0:0:0:
448,192,69889,1,0,0:0:0:40:Snare.wav
320,192,69938,1,0,0:0:0:0:
192,192,69988,1,0,0:0:0:0:
64,192,70038,128,0,70187:0:0:0:0:
192,192,70187,1,0,0:0:0:40:BaSS.wav
448,192,70187,128,0,70336:0:0:0:0:
320,192,70336,128,0,70486:0:0:0:0:
64,192,70336,1,0,0:0:0:0:
64,192,70486,1,0,0:0:0:0:
448,192,70486,1,0,0:0:0:40:Snare.wav
192,192,70635,128,0,70784:0:0:0:0:
320,192,70635,1,0,0:0:0:0:
448,192,70784,1,0,0:0:0:40:BaSS.wav
64,192,70784,128,0,70933:0:0:0:0:
320,192,70859,1,0,0:0:0:0:
192,192,70933,1,0,0:0:0:0:
64,192,71008,1,0,0:0:0:0:
320,192,71083,1,0,0:0:0:40:Snare.wav
448,192,71083,128,0,71232:0:0:0:0:
192,192,71157,1,0,0:0:0:0:
64,192,71232,1,0,0:0:0:0:
320,192,71232,128,0,71381:0:0:0:0:
448,192,71307,1,0,0:0:0:0:
64,192,71381,1,0,0:0:0:0:
192,192,71381,1,0,0:0:0:40:BaSS.wav
192,192,71531,128,0,71680:0:0:0:0:
448,192,71531,1,0,0:0:0:0:
64,192,71680,1,0,0:0:0:0:
320,192,71680,128,0,71829:0:0:0:0:
448,192,71680,1,0,0:0:0:40:Snare.wav
192,192,71829,1,0,0:0:0:0:
448,192,71978,1,0,0:0:0:40:BaSS.wav
192,192,71978,128,0,72128:0:0:0:0:
320,192,72128,128,0,72277:0:0:0:0:
64,192,72128,1,0,0:0:0:0:
64,192,72277,1,0,0:0:0:40:Snare.wav
448,192,72277,1,0,0:0:0:0:
192,192,72327,1,0,0:0:0:0:
320,192,72376,1,0,0:0:0:0:
448,192,72426,128,0,72575:0:0:0:0:
192,192,72575,1,0,0:0:0:40:BaSS.wav
64,192,72575,128,0,72725:0:0:0:0:
320,192,72725,128,0,72874:0:0:0:0:
448,192,72725,1,0,0:0:0:0:
192,192,72874,1,0,0:0:0:40:Snare.wav
64,192,72874,1,0,0:0:0:0:
448,192,73023,128,0,73172:0:0:0:0:
320,192,73023,1,0,0:0:0:0:
192,192,73172,128,0,73322:0:0:0:40:BaSS.wav
64,192,73172,1,0,0:0:0:0:
320,192,73247,1,0,0:0:0:0:
448,192,73322,1,0,0:0:0:0:
320,192,73396,1,0,0:0:0:0:
448,192,73471,1,0,0:0:0:40:Snare.wav
192,192,73471,128,0,73620:0:0:0:0:
64,192,73545,1,0,0:0:0:0:
320,192,73620,128,0,73769:0:0:0:0:
448,192,73620,1,0,0:0:0:0:
64,192,73695,1,0,0:0:0:0:
192,192,73769,1,0,0:0:0:40:BaSS.wav
192,192,73919,128,0,74068:0:0:0:0:
320,192,73919,1,0,0:0:0:0:
448,192,74068,128,0,74217:0:0:0:0:
64,192,74068,1,0,0:0:0:40:Snare.wav
320,192,74068,1,0,0:0:0:0:
192,192,74217,1,0,0:0:0:0:
64,192,74366,128,0,74516:0:0:0:0:
320,192,74366,1,0,0:0:0:40:BaSS.wav
448,192,74516,1,0,0:0:0:0:
320,192,74565,1,0,0:0:0:0:
192,192,74615,1,0,0:0:0:0:
64,192,74665,1,0,0:0:0:40:Snare.wav
448,192,74665,128,0,74814:0:0:0:0:
320,192,74814,128,0,74963:0:0:0:0:
64,192,74963,128,0,75113:0:0:0:0:
192,192,74963,1,0,0:0:0:40:BaSS.wav
448,192,75113,1,0,0:0:0:0:
192,192,75187,128,0,75336:0:0:0:0:
320,192,75262,1,0,0:0:0:40:Snare.wav
448,192,75262,1,0,0:0:0:0:
64,192,75411,128,0,75560:0:0:0:0:
320,192,75411,1,0,0:0:0:0:
448,192,75560,128,0,75710:0:0:0:0:
192,192,75560,1,0,0:0:0:40:BaSS.wav
64,192,75710,1,0,0:0:0:0:
320,192,75784,128,0,75933:0:0:0:0:
192,192,75859,1,0,0:0:0:40:Snare.wav
64,192,75859,1,0,0:0:0:0:
448,192,76008,128,0,76157:0:0:0:0:
192,192,76008,1,0,0:0:0:0:
320,192,76157,1,0,0:0:0:40:Crash.wav
192,192,76157,1,0,0:0:0:0:
64,192,76157,1,0,0:0:0:40:BaSS.wav
448,192,76307,1,0,0:0:0:0:
320,192,76456,1,0,0:0:0:0:
192,192,76456,1,0,0:0:0:40:BaSS.wav
448,192,76531,1,0,0:0:0:0:
64,192,76531,1,0,0:0:0:40:BaSS.wav
320,192,76605,1,0,0:0:0:0:
192,192,76605,1,0,0:0:0:40:BaSS.wav
192,192,76904,1,0,0:0:0:0:
320,192,76904,1,0,0:0:0:40:BaSS.wav
320,192,77053,1,0,0:0:0:40:BaSS.wav
192,192,77053,1,0,0:0:0:0:
448,192,77202,1,0,0:0:0:40:BaSS.wav
64,192,77202,1,0,0:0:0:0:
192,192,77351,128,0,77575:0:0:0:0:
320,192,77351,128,0,77575:0:0:0:0:
448,192,77650,1,0,0:0:0:40:Crash.wav
320,192,77650,1,0,0:0:0:40:Snare.wav
192,192,77650,1,0,0:0:0:0:
64,192,77650,1,0,0:0:0:0:
192,192,77799,1,0,0:0:0:0:
64,192,77799,1,0,0:0:0:0:
320,192,77948,1,0,0:0:0:40:BaSS.wav
448,192,77948,1,0,0:0:0:0:
64,192,77948,1,0,0:0:0:0:
192,192,78023,1,0,0:0:0:0:
448,192,78098,1,0,0:0:0:0:
320,192,78172,1,0,0:0:0:0:
448,192,78247,1,0,0:0:0:0:
64,192,78247,1,0,0:0:0:0:
192,192,78247,1,0,0:0:0:40:Snare.wav
320,192,78322,1,0,0:0:0:0:
64,192,78396,1,0,0:0:0:0:
192,192,78396,1,0,0:0:0:0:
448,192,78471,1,0,0:0:0:0:
64,192,78545,1,0,0:0:0:0:
320,192,78545,1,0,0:0:0:40:BaSS.wav
192,192,78695,1,0,0:0:0:0:
448,192,78695,1,0,0:0:0:0:
64,192,78769,1,0,0:0:0:0:
320,192,78844,1,0,0:0:0:40:Snare.wav
448,192,78844,1,0,0:0:0:0:
192,192,78844,1,0,0:0:0:0:
64,192,78919,1,0,0:0:0:0:
448,192,78993,1,0,0:0:0:0:
192,192,79068,1,0,0:0:0:0:
320,192,79142,1,0,0:0:0:40:BaSS.wav
448,192,79142,1,0,0:0:0:0:
64,192,79217,1,0,0:0:0:0:
448,192,79292,1,0,0:0:0:0:
192,192,79292,1,0,0:0:0:0:
320,192,79366,1,0,0:0:0:0:
64,192,79441,1,0,0:0:0:40:Snare.wav
448,192,79441,1,0,0:0:0:0:
320,192,79491,1,0,0:0:0:0:
192,192,79540,1,0,0:0:0:0:
64,192,79590,128,0,79739:0:0:0:0:
320,192,79739,1,0,0:0:0:40:BaSS.wav
448,192,79739,1,0,0:0:0:0:
192,192,79889,1,0,0:0:0:0:
64,192,79889,1,0,0:0:0:0:
64,192,80038,1,0,0:0:0:0:
448,192,80038,1,0,0:0:0:0:
192,192,80038,1,0,0:0:0:40:Snare.wav
448,192,80187,1,0,0:0:0:0:
320,192,80187,1,0,0:0:0:0:
64,192,80336,1,0,0:0:0:0:
192,192,80336,1,0,0:0:0:40:BaSS.wav
448,192,80411,1,0,0:0:0:0:
64,192,80486,1,0,0:0:0:0:
320,192,80560,1,0,0:0:0:0:
448,192,80635,1,0,0:0:0:40:Snare.wav
192,192,80635,1,0,0:0:0:0:
64,192,80635,1,0,0:0:0:0:
320,192,80710,1,0,0:0:0:0:
448,192,80784,1,0,0:0:0:0:
192,192,80784,1,0,0:0:0:0:
320,192,80859,1,0,0:0:0:0:
64,192,80933,1,0,0:0:0:0:
192,192,80933,1,0,0:0:0:40:BaSS.wav
448,192,81083,1,0,0:0:0:0:
64,192,81083,1,0,0:0:0:0:
192,192,81157,1,0,0:0:0:0:
320,192,81232,1,0,0:0:0:40:Snare.wav
64,192,81232,1,0,0:0:0:0:
448,192,81232,1,0,0:0:0:0:
192,192,81381,1,0,0:0:0:0:
448,192,81531,1,0,0:0:0:40:BaSS.wav
64,192,81531,128,0,81680:0:0:0:0:
192,192,81680,128,0,81829:0:0:0:0:
64,192,81829,1,0,0:0:0:0:
448,192,81829,1,0,0:0:0:40:Snare.wav
320,192,81879,1,0,0:0:0:0:
192,192,81929,1,0,0:0:0:0:
64,192,81978,128,0,82128:0:0:0:0:
192,192,82128,1,0,0:0:0:40:BaSS.wav
448,192,82128,1,0,0:0:0:0:
320,192,82277,128,0,82426:0:0:0:0:
64,192,82277,1,0,0:0:0:0:
64,192,82426,1,0,0:0:0:0:
192,192,82426,1,0,0:0:0:40:Snare.wav
448,192,82426,1,0,0:0:0:0:
192,192,82575,128,0,82725:0:0:0:0:
320,192,82575,1,0,0:0:0:0:
448,192,82725,1,0,0:0:0:40:BaSS.wav
64,192,82725,1,0,0:0:0:0:
448,192,82874,128,0,83023:0:0:0:0:
320,192,82874,1,0,0:0:0:0:
320,192,83023,1,0,0:0:0:0:
192,192,83023,1,0,0:0:0:40:Snare.wav
64,192,83023,1,0,0:0:0:0:
64,192,83172,128,0,83322:0:0:0:0:
192,192,83172,1,0,0:0:0:0:
320,192,83322,1,0,0:0:0:40:BaSS.wav
448,192,83322,1,0,0:0:0:0:
320,192,83471,128,0,83620:0:0:0:0:
64,192,83471,1,0,0:0:0:0:
192,192,83620,1,0,0:0:0:40:Snare.wav
448,192,83620,1,0,0:0:0:0:
64,192,83620,1,0,0:0:0:0:
64,192,83769,128,0,83919:0:0:0:0:
320,192,83769,1,0,0:0:0:0:
448,192,83919,1,0,0:0:0:0:
192,192,83919,1,0,0:0:0:40:BaSS.wav
320,192,83993,1,0,0:0:0:0:
64,192,83993,1,0,0:0:0:40:BaSS.wav
448,192,84068,128,0,84217:0:0:0:0:
320,192,84217,1,0,0:0:0:0:
192,192,84217,1,0,0:0:0:40:Snare.wav
64,192,84217,1,0,0:0:0:0:
448,192,84366,1,0,0:0:0:0:
320,192,84366,1,0,0:0:0:40:BaSS.wav
192,192,84441,1,0,0:0:0:40:BaSS.wav
64,192,84441,1,0,0:0:0:0:
448,192,84516,1,0,0:0:0:40:BaSS.wav
320,192,84516,128,0,84665:0:0:0:40:Crash.wav
64,192,84665,1,0,0:0:0:0:
320,192,84739,128,0,84889:0:0:0:0:
64,192,84963,1,0,0:0:0:0:
192,192,85113,1,0,0:0:0:40:Snare.wav
320,192,85113,1,0,0:0:0:0:
448,192,85113,1,0,0:0:0:40:Crash.wav
64,192,85262,1,0,0:0:0:0:
320,192,85336,1,0,0:0:0:0:
192,192,85486,1,0,0:0:0:40:BaSS.wav
64,192,85486,1,0,0:0:0:0:
320,192,85560,1,0,0:0:0:40:BaSS.wav
448,192,85560,1,0,0:0:0:0:
192,192,85635,1,0,0:0:0:40:BaSS.wav
64,192,85635,1,0,0:0:0:0:
320,192,85710,1,0,0:0:0:40:BaSS.wav
448,192,85710,128,0,85933:0:0:0:40:Crash.wav
64,192,85859,1,0,0:0:0:0:
320,192,85933,128,0,86157:0:0:0:0:
192,192,85933,1,0,0:0:0:40:BaSS.wav
64,192,86008,1,0,0:0:0:40:Snare.wav
448,192,86008,1,0,0:0:0:0:
192,192,86157,128,0,86307:0:0:0:0:
448,192,86157,1,0,0:0:0:40:BaSS.wav
64,192,86307,128,0,86531:0:0:0:0:
320,192,86307,1,0,0:0:0:40:BaSS.wav
448,192,86456,1,0,0:0:0:0:
320,192,86531,1,0,0:0:0:0:
192,192,86531,1,0,0:0:0:40:BaSS.wav
448,192,86605,1,0,0:0:0:0:
64,192,86605,1,0,0:0:0:40:BaSS.wav
320,192,86680,1,0,0:0:0:40:BaSS.wav
192,192,86680,1,0,0:0:0:0:
448,192,86754,1,0,0:0:0:40:BaSS.wav
64,192,86754,1,0,0:0:0:0:
320,192,86829,1,0,0:0:0:0:
192,192,86829,1,0,0:0:0:40:BaSS.wav
64,192,86904,1,0,0:0:0:40:BaSS.wav
448,192,86904,1,0,0:0:0:40:Crash.wav
64,192,87053,1,0,0:0:0:40:BaSS.wav
448,192,87053,1,0,0:0:0:0:
320,192,87351,1,0,0:0:0:0:
448,192,87351,1,0,0:0:0:40:BaSS.wav
448,192,87501,1,0,0:0:0:0:
320,192,87501,1,0,0:0:0:0:
64,192,87501,1,0,0:0:0:40:Snare.wav
192,192,87501,1,0,0:0:0:0:
320,192,87650,1,0,0:0:0:0:
448,192,87650,1,0,0:0:0:40:BaSS.wav
448,192,87799,1,0,0:0:0:40:BaSS.wav
320,192,87799,1,0,0:0:0:0:
192,192,88098,1,0,0:0:0:40:BaSS.wav
64,192,88098,1,0,0:0:0:0:
192,192,88396,1,0,0:0:0:40:BaSS.wav
64,192,88396,1,0,0:0:0:0:
192,192,88545,1,0,0:0:0:40:BaSS.wav
64,192,88545,1,0,0:0:0:0:
448,192,88695,1,0,0:0:0:0:
192,192,88695,1,0,0:0:0:0:
64,192,88695,1,0,0:0:0:40:Snare.wav
320,192,88695,1,0,0:0:0:0:
192,192,88844,1,0,0:0:0:40:BaSS.wav
64,192,88844,1,0,0:0:0:0:
192,192,89142,1,0,0:0:0:40:BaSS.wav
64,192,89142,1,0,0:0:0:0:
192,192,89292,1,0,0:0:0:40:BaSS.wav
64,192,89292,1,0,0:0:0:0:
192,192,89590,1,0,0:0:0:40:BaSS.wav
64,192,89590,1,0,0:0:0:0:
320,192,89889,1,0,0:0:0:0:
448,192,89889,1,0,0:0:0:40:Snare.wav
64,192,89889,1,0,0:0:0:0:
192,192,89889,1,0,0:0:0:0:
320,192,90038,1,0,0:0:0:0:
448,192,90038,1,0,0:0:0:40:BaSS.wav
192,192,90113,1,0,0:0:0:0:
64,192,90187,1,0,0:0:0:0:
192,192,90262,1,0,0:0:0:0:
320,192,90336,1,0,0:0:0:0:
448,192,90336,1,0,0:0:0:40:BaSS.wav
64,192,90411,1,0,0:0:0:0:
192,192,90486,1,0,0:0:0:0:
448,192,90560,1,0,0:0:0:0:
320,192,90635,1,0,0:0:0:0:
192,192,90635,1,0,0:0:0:40:BaSS.wav
64,192,90710,1,0,0:0:0:0:
320,192,90784,1,0,0:0:0:40:BaSS.wav
448,192,90784,1,0,0:0:0:0:
192,192,90859,1,0,0:0:0:0:
64,192,90933,1,0,0:0:0:0:
448,192,91008,1,0,0:0:0:0:
320,192,91083,1,0,0:0:0:0:
192,192,91083,1,0,0:0:0:40:Snare.wav
64,192,91083,1,0,0:0:0:0:
448,192,91157,1,0,0:0:0:0:
192,192,91232,1,0,0:0:0:0:
64,192,91307,1,0,0:0:0:0:
320,192,91381,1,0,0:0:0:40:BaSS.wav
448,192,91381,1,0,0:0:0:0:
64,192,91456,1,0,0:0:0:0:
448,192,91531,1,0,0:0:0:0:
192,192,91531,1,0,0:0:0:40:BaSS.wav
320,192,91605,1,0,0:0:0:0:
192,192,91680,1,0,0:0:0:40:Snare.wav
64,192,91680,1,0,0:0:0:0:
448,192,91680,1,0,0:0:0:0:
320,192,91754,1,0,0:0:0:0:
192,192,91829,1,0,0:0:0:40:BaSS.wav
64,192,91829,1,0,0:0:0:0:
448,192,91904,1,0,0:0:0:0:
320,192,91978,1,0,0:0:0:40:Snare.wav
192,192,91978,1,0,0:0:0:0:
64,192,91978,1,0,0:0:0:0:
448,192,92053,1,0,0:0:0:0:
320,192,92128,1,0,0:0:0:40:BaSS.wav
64,192,92128,1,0,0:0:0:0:
192,192,92202,1,0,0:0:0:0:
448,192,92277,128,0,92426:0:0:0:40:BaSS.wav
192,192,92426,128,0,92575:0:0:0:0:
320,192,92575,1,0,0:0:0:0:
192,192,92725,1,0,0:0:0:0:
64,192,92874,5,0,0:0:0:40:BaSS.wav
448,192,92874,1,0,0:0:0:40:Crash.wav
320,192,93023,1,0,0:0:0:0:
192,192,93172,1,0,0:0:0:0:
448,192,93322,1,0,0:0:0:0:
64,192,93471,1,0,0:0:0:0:
192,192,93620,1,0,0:0:0:0:
448,192,93769,1,0,0:0:0:0:
320,192,93919,1,0,0:0:0:0:
64,192,94068,1,0,0:0:0:0:
192,192,94217,1,0,0:0:0:0:
320,192,94366,1,0,0:0:0:0:
448,192,94516,1,0,0:0:0:0:
320,192,94590,1,0,0:0:0:0:
192,192,94665,1,0,0:0:0:0:
64,192,94739,1,0,0:0:0:0:
448,192,94814,1,0,0:0:0:0:
320,192,94889,1,0,0:0:0:0:
192,192,94963,1,0,0:0:0:0:
64,192,95113,1,0,0:0:0:0:
192,192,95262,1,0,0:0:0:0:
320,192,95411,1,0,0:0:0:0:
448,192,95560,1,0,0:0:0:0:
320,192,95710,1,0,0:0:0:0:
192,192,95859,1,0,0:0:0:0:
64,192,96008,1,0,0:0:0:0:
320,192,96157,1,0,0:0:0:0:
64,192,96307,1,0,0:0:0:0:
448,192,96456,1,0,0:0:0:0:
320,192,96605,1,0,0:0:0:0:
64,192,96754,1,0,0:0:0:0:
192,192,96829,1,0,0:0:0:0:
448,192,96904,1,0,0:0:0:0:
320,192,97003,1,0,0:0:0:0:
192,192,97078,1,0,0:0:0:0:
64,192,97277,1,0,0:0:0:0:
448,192,97476,1,0,0:0:0:0:
320,192,97706,1,0,0:0:0:0:
