osu file format v14

[General]
AudioFilename: audio.mp3
AudioLeadIn: 0
PreviewTime: 67501
Countdown: 0
SampleSet: Soft
StackLeniency: 0.7
Mode: 3
LetterboxInBreaks: 0
SpecialStyle: 0
WidescreenStoryboard: 1

[Editor]
DistanceSpacing: 0.5
BeatDivisor: 4
GridSize: 4
TimelineZoom: 1.5

[Metadata]
Title:Chirality
TitleUnicode:Chirality
Artist:Camellia
ArtistUnicode:かめりあ
Creator:Fresh Chicken
Version:MEDIUM
Source:REFLEC BEAT groovin'!!
Tags:
BeatmapID:998444
BeatmapSetID:466552

[Difficulty]
HPDrainRate:7
CircleSize:4
OverallDifficulty:7
ApproachRate:5
SliderMultiplier:1.4
SliderTickRate:1

[Events]
//Background and Video events
0,0,"313.png",0,0
//Break Periods
//Storyboard Layer 0 (Background)
//Storyboard Layer 1 (Fail)
//Storyboard Layer 2 (Pass)
//Storyboard Layer 3 (Foreground)
//Storyboard Sound Samples
Sample,18322,0,"BaSS.wav",40
Sample,18471,0,"BaSS.wav",40
Sample,18620,0,"BaSS.wav",40
Sample,18769,0,"BaSS.wav",40
Sample,35063,0,"BaSS.wav",40
Sample,35113,0,"BaSS.wav",40
Sample,35187,0,"BaSS.wav",40
Sample,35635,0,"BaSS.wav",40
Sample,35784,0,"BaSS.wav",40
Sample,39068,0,"BaSS.wav",40
Sample,41456,0,"BaSS.wav",40
Sample,46232,0,"BaSS.wav",40
Sample,57874,0,"BaSS.wav",40
Sample,58023,0,"BaSS.wav",40
Sample,58172,0,"BaSS.wav",40
Sample,66232,0,"BaSS.wav",40
Sample,66381,0,"BaSS.wav",40
Sample,66531,0,"BaSS.wav",40
Sample,84516,0,"Crash.wav",40
Sample,85486,0,"BaSS.wav",40
Sample,85635,0,"BaSS.wav",40
Sample,86008,0,"Snare.wav",40
Sample,86680,0,"BaSS.wav",40
Sample,86829,0,"BaSS.wav",40
Sample,86904,0,"Crash.wav",40

[TimingPoints]
934,298.507462686567,4,2,0,35,1,0
67799,-100,4,2,0,35,0,1
77351,-100,4,2,0,35,0,0
77650,-100,4,2,0,35,0,1
86904,-100,4,2,0,35,0,0

[HitObjects]
448,192,934,5,0,0:0:0:40:BaSS.wav
64,192,934,1,0,0:0:0:0:
192,192,1083,1,0,0:0:0:0:
320,192,1232,1,0,0:0:0:0:
448,192,1381,1,0,0:0:0:0:
64,192,1531,1,0,0:0:0:0:
448,192,1680,1,0,0:0:0:0:
192,192,1829,1,0,0:0:0:0:
320,192,1978,1,0,0:0:0:0:
448,192,2128,1,0,0:0:0:0:
320,192,2277,1,0,0:0:0:0:
192,192,2426,1,0,0:0:0:0:
64,192,2575,1,0,0:0:0:0:
448,192,2725,1,0,0:0:0:0:
320,192,2874,1,0,0:0:0:0:
192,192,3023,1,0,0:0:0:0:
448,192,3172,1,0,0:0:0:0:
64,192,3322,1,0,0:0:0:0:
320,192,3471,1,0,0:0:0:0:
192,192,3620,1,0,0:0:0:0:
448,192,3769,1,0,0:0:0:0:
64,192,3919,1,0,0:0:0:0:
320,192,4068,1,0,0:0:0:0:
192,192,4217,1,0,0:0:0:0:
64,192,4366,1,0,0:0:0:0:
320,192,4516,1,0,0:0:0:0:
192,192,4665,1,0,0:0:0:0:
448,192,4814,1,0,0:0:0:0:
320,192,4963,1,0,0:0:0:0:
64,192,5113,1,0,0:0:0:0:
192,192,5262,1,0,0:0:0:0:
320,192,5411,1,0,0:0:0:0:
448,192,5560,1,0,0:0:0:0:
64,192,5710,1,0,0:0:0:0:
320,192,5859,1,0,0:0:0:0:
192,192,6008,1,0,0:0:0:0:
448,192,6157,1,0,0:0:0:0:
320,192,6307,1,0,0:0:0:0:
192,192,6456,1,0,0:0:0:0:
64,192,6605,1,0,0:0:0:0:
448,192,6754,1,0,0:0:0:0:
192,192,6904,1,0,0:0:0:0:
320,192,7053,1,0,0:0:0:0:
64,192,7202,1,0,0:0:0:0:
448,192,7351,1,0,0:0:0:0:
320,192,7501,1,0,0:0:0:0:
192,192,7650,1,0,0:0:0:0:
64,192,7799,1,0,0:0:0:0:
320,192,7948,1,0,0:0:0:0:
192,192,8098,1,0,0:0:0:0:
448,192,8247,1,0,0:0:0:0:
320,192,8396,1,0,0:0:0:0:
192,192,8545,1,0,0:0:0:0:
64,192,8695,1,0,0:0:0:0:
448,192,8844,1,0,0:0:0:0:
192,192,8993,1,0,0:0:0:0:
320,192,9142,1,0,0:0:0:0:
64,192,9292,1,0,0:0:0:0:
448,192,9441,1,0,0:0:0:0:
320,192,9590,1,0,0:0:0:0:
192,192,9739,1,0,0:0:0:0:
64,192,9889,1,0,0:0:0:0:
448,192,10038,1,0,0:0:0:0:
320,192,10187,128,0,10486:0:0:0:0:
192,192,10486,1,0,0:0:0:40:BaSS.wav
64,192,10486,1,0,0:0:0:0:
320,192,11083,1,0,0:0:0:40:Snare.wav
448,192,11083,1,0,0:0:0:0:
192,192,11232,1,0,0:0:0:40:BaSS.wav
64,192,11232,1,0,0:0:0:0:
320,192,11531,1,0,0:0:0:40:BaSS.wav
448,192,11531,1,0,0:0:0:0:
320,192,12874,1,0,0:0:0:40:BaSS.wav
192,192,12874,1,0,0:0:0:0:
448,192,13471,1,0,0:0:0:40:Snare.wav
64,192,13471,1,0,0:0:0:0:
320,192,13620,1,0,0:0:0:40:BaSS.wav
192,192,13620,1,0,0:0:0:0:
448,192,13919,1,0,0:0:0:40:BaSS.wav
64,192,13919,1,0,0:0:0:0:
64,192,15262,1,0,0:0:0:40:BaSS.wav
320,192,15262,1,0,0:0:0:0:
192,192,15859,1,0,0:0:0:40:Snare.wav
448,192,15859,1,0,0:0:0:0:
320,192,16008,1,0,0:0:0:40:BaSS.wav
64,192,16008,1,0,0:0:0:0:
192,192,16307,1,0,0:0:0:40:BaSS.wav
448,192,16307,1,0,0:0:0:0:
448,192,17650,1,0,0:0:0:40:BaSS.wav
64,192,17650,1,0,0:0:0:0:
320,192,17799,1,0,0:0:0:0:
192,192,17948,1,0,0:0:0:0:
64,192,18098,1,0,0:0:0:0:
448,192,18247,1,0,0:0:0:40:BaSS.wav
320,192,18247,1,0,0:0:0:0:
192,192,18396,1,0,0:0:0:40:BaSS.wav
64,192,18396,1,0,0:0:0:0:
448,192,18545,1,0,0:0:0:40:BaSS.wav
320,192,18695,1,0,0:0:0:40:BaSS.wav
192,192,18695,1,0,0:0:0:0:
64,192,18844,1,0,0:0:0:40:BaSS.wav
448,192,18844,1,0,0:0:0:0:
192,192,19590,128,0,19739:0:0:0:0:
64,192,19889,1,0,0:0:0:0:
320,192,20038,1,0,0:0:0:40:BaSS.wav
448,192,20038,128,0,20336:0:0:0:0:
64,192,20336,1,0,0:0:0:0:
64,192,20486,1,0,0:0:0:0:
320,192,20635,1,0,0:0:0:40:Snare.wav
448,192,20635,1,0,0:0:0:0:
192,192,20859,1,0,0:0:0:0:
64,192,21083,1,0,0:0:0:0:
448,192,21232,1,0,0:0:0:40:BaSS.wav
320,192,21232,128,0,21531:0:0:0:0:
192,192,21531,128,0,21829:0:0:0:0:
448,192,21829,1,0,0:0:0:40:Snare.wav
320,192,21829,128,0,22202:0:0:0:0:
64,192,22202,128,0,22426:0:0:0:0:
448,192,22426,1,0,0:0:0:40:BaSS.wav
320,192,22426,128,0,22725:0:0:0:0:
192,192,22725,1,0,0:0:0:0:
192,192,22874,1,0,0:0:0:0:
448,192,23023,1,0,0:0:0:40:Snare.wav
64,192,23023,1,0,0:0:0:0:
192,192,23247,1,0,0:0:0:0:
320,192,23471,1,0,0:0:0:0:
64,192,23620,128,0,24068:0:0:0:40:BaSS.wav
192,192,23620,128,0,24068:0:0:0:0:
448,192,24068,1,0,0:0:0:0:
320,192,24217,1,0,0:0:0:40:Snare.wav
192,192,24217,1,0,0:0:0:0:
64,192,24516,1,0,0:0:0:0:
320,192,24814,1,0,0:0:0:40:BaSS.wav
448,192,24814,128,0,25113:0:0:0:0:
192,192,25113,1,0,0:0:0:0:
192,192,25262,1,0,0:0:0:0:
448,192,25411,1,0,0:0:0:40:Snare.wav
64,192,25411,1,0,0:0:0:0:
320,192,25635,1,0,0:0:0:0:
192,192,25859,1,0,0:0:0:0:
64,192,26008,128,0,26307:0:0:0:40:BaSS.wav
448,192,26008,1,0,0:0:0:0:
320,192,26307,1,0,0:0:0:0:
192,192,26456,1,0,0:0:0:0:
448,192,26605,1,0,0:0:0:40:Snare.wav
64,192,26605,128,0,26754:0:0:0:0:
192,192,26754,128,0,26904:0:0:0:0:
320,192,26904,128,0,27202:0:0:0:0:
64,192,27202,1,0,0:0:0:40:BaSS.wav
448,192,27202,128,0,27799:0:0:0:0:
320,192,27799,1,0,0:0:0:40:Snare.wav
192,192,27799,1,0,0:0:0:0:
448,192,28098,1,0,0:0:0:40:BaSS.wav
64,192,28098,128,0,28545:0:0:0:0:
320,192,28545,1,0,0:0:0:40:BaSS.wav
448,192,28545,1,0,0:0:0:0:
192,192,28695,1,0,0:0:0:40:BaSS.wav
64,192,28695,1,0,0:0:0:0:
448,192,28993,1,0,0:0:0:40:BaSS.wav
320,192,28993,128,0,29292:0:0:0:0:
64,192,29292,128,0,29441:0:0:0:0:
192,192,29590,1,0,0:0:0:40:BaSS.wav
448,192,29590,128,0,29889:0:0:0:0:
320,192,29889,1,0,0:0:0:0:
320,192,30038,1,0,0:0:0:0:
192,192,30187,1,0,0:0:0:40:Snare.wav
64,192,30187,1,0,0:0:0:0:
320,192,30411,1,0,0:0:0:0:
448,192,30635,1,0,0:0:0:0:
320,192,30784,1,0,0:0:0:40:BaSS.wav
64,192,30784,128,0,31083:0:0:0:0:
192,192,31083,128,0,31381:0:0:0:0:
320,192,31381,1,0,0:0:0:40:Snare.wav
448,192,31381,128,0,31754:0:0:0:0:
192,192,31754,128,0,31978:0:0:0:0:
320,192,31978,1,0,0:0:0:40:BaSS.wav
64,192,31978,128,0,32277:0:0:0:0:
448,192,32277,1,0,0:0:0:0:
448,192,32426,1,0,0:0:0:0:
320,192,32575,1,0,0:0:0:40:Snare.wav
192,192,32575,1,0,0:0:0:0:
64,192,32799,1,0,0:0:0:0:
448,192,33023,1,0,0:0:0:0:
320,192,33172,128,0,33620:0:0:0:40:BaSS.wav
192,192,33172,128,0,33620:0:0:0:0:
64,192,33620,1,0,0:0:0:0:
448,192,33769,1,0,0:0:0:40:Snare.wav
320,192,33769,1,0,0:0:0:0:
192,192,34068,1,0,0:0:0:0:
64,192,34366,1,0,0:0:0:40:BaSS.wav
320,192,34366,1,0,0:0:0:0:
64,192,34963,128,0,35262:0:0:0:0:
192,192,34963,128,0,35262:0:0:0:0:
320,192,35262,1,0,0:0:0:40:Snare.wav
448,192,35262,1,0,0:0:0:0:
192,192,35411,1,0,0:0:0:0:
448,192,35560,1,0,0:0:0:40:BaSS.wav
64,192,35560,1,0,0:0:0:0:
320,192,35710,1,0,0:0:0:40:BaSS.wav
192,192,35710,1,0,0:0:0:0:
64,192,35859,1,0,0:0:0:0:
448,192,36008,1,0,0:0:0:40:BaSS.wav
192,192,36157,1,0,0:0:0:40:Snare.wav
64,192,36157,1,0,0:0:0:0:
320,192,36307,1,0,0:0:0:0:
448,192,36456,128,0,36754:0:0:0:0:
320,192,36754,1,0,0:0:0:40:BaSS.wav
192,192,36754,128,0,37053:0:0:0:0:
448,192,37053,1,0,0:0:0:40:Snare.wav
64,192,37053,1,0,0:0:0:0:
448,192,37202,1,0,0:0:0:0:
320,192,37351,128,0,37650:0:0:0:40:BaSS.wav
192,192,37351,1,0,0:0:0:0:
64,192,37650,1,0,0:0:0:40:Snare.wav
192,192,37650,1,0,0:0:0:0:
448,192,37948,1,0,0:0:0:40:BaSS.wav
320,192,37948,1,0,0:0:0:0:
192,192,38247,1,0,0:0:0:40:Snare.wav
64,192,38247,1,0,0:0:0:0:
320,192,38545,1,0,0:0:0:40:BaSS.wav
448,192,38545,1,0,0:0:0:0:
192,192,38695,1,0,0:0:0:40:BaSS.wav
64,192,38695,1,0,0:0:0:0:
448,192,38844,1,0,0:0:0:40:BaSS.wav
320,192,38993,1,0,0:0:0:40:BaSS.wav
192,192,39142,1,0,0:0:0:40:BaSS.wav
64,192,39142,1,0,0:0:0:0:
64,192,39292,1,0,0:0:0:40:BaSS.wav
320,192,39590,1,0,0:0:0:40:BaSS.wav
448,192,39739,1,0,0:0:0:40:Snare.wav
64,192,39739,1,0,0:0:0:0:
192,192,40038,1,0,0:0:0:40:BaSS.wav
192,192,40187,1,0,0:0:0:40:BaSS.wav
320,192,40486,1,0,0:0:0:40:BaSS.wav
320,192,40635,1,0,0:0:0:40:BaSS.wav
64,192,40933,1,0,0:0:0:40:Snare.wav
192,192,40933,1,0,0:0:0:0:
448,192,41381,1,0,0:0:0:40:BaSS.wav
320,192,41531,1,0,0:0:0:40:BaSS.wav
320,192,41680,1,0,0:0:0:40:BaSS.wav
192,192,41978,1,0,0:0:0:40:BaSS.wav
320,192,42128,1,0,0:0:0:40:Snare.wav
448,192,42128,1,0,0:0:0:0:
64,192,42426,1,0,0:0:0:40:BaSS.wav
64,192,42575,1,0,0:0:0:40:BaSS.wav
448,192,42874,1,0,0:0:0:40:BaSS.wav
448,192,43023,1,0,0:0:0:40:BaSS.wav
320,192,43322,1,0,0:0:0:40:Snare.wav
192,192,43322,1,0,0:0:0:0:
64,192,43919,1,0,0:0:0:40:BaSS.wav
64,192,44068,1,0,0:0:0:40:BaSS.wav
320,192,44366,1,0,0:0:0:40:BaSS.wav
448,192,44516,1,0,0:0:0:40:Snare.wav
192,192,44516,1,0,0:0:0:0:
320,192,44814,1,0,0:0:0:40:BaSS.wav
320,192,44963,1,0,0:0:0:40:BaSS.wav
448,192,45262,1,0,0:0:0:40:BaSS.wav
448,192,45411,1,0,0:0:0:40:BaSS.wav
320,192,45710,1,0,0:0:0:40:Snare.wav
192,192,45710,1,0,0:0:0:0:
64,192,46157,1,0,0:0:0:40:BaSS.wav
192,192,46307,1,0,0:0:0:40:BaSS.wav
192,192,46456,1,0,0:0:0:40:BaSS.wav
320,192,46754,1,0,0:0:0:40:BaSS.wav
448,192,46904,1,0,0:0:0:40:Snare.wav
192,192,46904,1,0,0:0:0:0:
320,192,47202,1,0,0:0:0:40:BaSS.wav
320,192,47351,1,0,0:0:0:40:BaSS.wav
192,192,47650,1,0,0:0:0:40:BaSS.wav
192,192,47799,1,0,0:0:0:40:BaSS.wav
448,192,48098,1,0,0:0:0:40:Snare.wav
64,192,48098,128,0,48695:0:0:0:0:
192,192,48396,128,0,48695:0:0:0:0:
320,192,48695,1,0,0:0:0:40:BaSS.wav
448,192,48695,1,0,0:0:0:0:
448,192,48844,1,0,0:0:0:40:BaSS.wav
192,192,49142,1,0,0:0:0:40:BaSS.wav
64,192,49142,1,0,0:0:0:0:
64,192,49292,1,0,0:0:0:40:Snare.wav
192,192,49590,1,0,0:0:0:40:BaSS.wav
448,192,49590,1,0,0:0:0:0:
448,192,49739,1,0,0:0:0:40:BaSS.wav
320,192,50038,1,0,0:0:0:40:BaSS.wav
64,192,50038,1,0,0:0:0:0:
64,192,50187,1,0,0:0:0:40:BaSS.wav
192,192,50486,1,0,0:0:0:40:Snare.wav
320,192,50486,1,0,0:0:0:0:
320,192,50635,1,0,0:0:0:0:
192,192,50784,1,0,0:0:0:0:
192,192,50933,1,0,0:0:0:0:
320,192,51083,1,0,0:0:0:40:BaSS.wav
448,192,51083,1,0,0:0:0:0:
448,192,51232,1,0,0:0:0:40:BaSS.wav
192,192,51531,1,0,0:0:0:40:BaSS.wav
64,192,51531,1,0,0:0:0:0:
64,192,51680,1,0,0:0:0:40:Snare.wav
448,192,51978,1,0,0:0:0:40:BaSS.wav
192,192,51978,1,0,0:0:0:0:
448,192,52128,1,0,0:0:0:40:BaSS.wav
64,192,52426,1,0,0:0:0:40:BaSS.wav
320,192,52426,1,0,0:0:0:0:
64,192,52575,1,0,0:0:0:40:BaSS.wav
192,192,52874,1,0,0:0:0:40:BaSS.wav
448,192,53023,128,0,53172:0:0:0:0:
64,192,53471,1,0,0:0:0:40:BaSS.wav
192,192,53471,1,0,0:0:0:0:
64,192,53620,1,0,0:0:0:40:BaSS.wav
448,192,53919,1,0,0:0:0:40:BaSS.wav
320,192,53919,1,0,0:0:0:0:
448,192,54068,1,0,0:0:0:40:Snare.wav
320,192,54366,1,0,0:0:0:40:BaSS.wav
64,192,54366,1,0,0:0:0:0:
64,192,54516,1,0,0:0:0:40:BaSS.wav
192,192,54814,1,0,0:0:0:40:BaSS.wav
448,192,54814,1,0,0:0:0:0:
448,192,54963,1,0,0:0:0:40:BaSS.wav
320,192,55262,1,0,0:0:0:40:BaSS.wav
192,192,55262,128,0,55710:0:0:0:0:
320,192,55859,1,0,0:0:0:40:BaSS.wav
448,192,55859,1,0,0:0:0:0:
192,192,56008,1,0,0:0:0:40:BaSS.wav
64,192,56008,1,0,0:0:0:0:
192,192,56307,1,0,0:0:0:40:BaSS.wav
64,192,56307,1,0,0:0:0:0:
320,192,56456,1,0,0:0:0:40:BaSS.wav
448,192,56456,1,0,0:0:0:0:
320,192,56754,1,0,0:0:0:40:BaSS.wav
64,192,56754,1,0,0:0:0:0:
192,192,56904,1,0,0:0:0:40:BaSS.wav
448,192,56904,1,0,0:0:0:0:
448,192,57202,1,0,0:0:0:40:BaSS.wav
192,192,57202,1,0,0:0:0:0:
320,192,57351,1,0,0:0:0:40:BaSS.wav
64,192,57351,1,0,0:0:0:0:
192,192,57650,1,0,0:0:0:0:
320,192,57799,1,0,0:0:0:40:BaSS.wav
192,192,57948,1,0,0:0:0:40:BaSS.wav
320,192,58098,1,0,0:0:0:40:BaSS.wav
192,192,58247,128,0,58844:0:0:0:40:BaSS.wav
320,192,58844,1,0,0:0:0:40:Snare.wav
448,192,58844,1,0,0:0:0:0:
192,192,58993,1,0,0:0:0:40:BaSS.wav
64,192,58993,1,0,0:0:0:0:
320,192,59292,1,0,0:0:0:40:BaSS.wav
448,192,59292,1,0,0:0:0:0:
320,192,60635,128,0,60933:0:0:0:40:BaSS.wav
192,192,61232,1,0,0:0:0:40:Snare.wav
64,192,61232,1,0,0:0:0:0:
320,192,61381,1,0,0:0:0:40:BaSS.wav
448,192,61381,1,0,0:0:0:0:
192,192,61680,1,0,0:0:0:40:BaSS.wav
64,192,61680,1,0,0:0:0:0:
448,192,62575,128,0,63023:0:0:0:0:
320,192,63023,128,0,63322:0:0:0:40:BaSS.wav
64,192,63023,1,0,0:0:0:0:
192,192,63620,1,0,0:0:0:40:Snare.wav
64,192,63620,1,0,0:0:0:0:
320,192,63769,1,0,0:0:0:40:BaSS.wav
448,192,63769,1,0,0:0:0:0:
320,192,64068,1,0,0:0:0:40:BaSS.wav
192,192,64068,1,0,0:0:0:0:
448,192,65411,1,0,0:0:0:40:BaSS.wav
64,192,65411,1,0,0:0:0:0:
192,192,65560,1,0,0:0:0:0:
320,192,65710,1,0,0:0:0:0:
448,192,65859,1,0,0:0:0:0:
64,192,66008,1,0,0:0:0:40:Snare.wav
64,192,66157,1,0,0:0:0:40:BaSS.wav
448,192,66307,1,0,0:0:0:40:BaSS.wav
448,192,66456,1,0,0:0:0:40:BaSS.wav
192,192,66605,128,0,66904:0:0:0:40:BaSS.wav
64,192,67351,1,0,0:0:0:0:
448,192,67501,1,0,0:0:0:0:
320,192,67650,1,0,0:0:0:0:
192,192,67799,1,0,0:0:0:40:Crash.wav
64,192,67799,1,0,0:0:0:40:BaSS.wav
448,192,67948,1,0,0:0:0:0:
320,192,68098,1,0,0:0:0:40:Snare.wav
64,192,68098,1,0,0:0:0:0:
192,192,68247,1,0,0:0:0:0:
320,192,68396,1,0,0:0:0:40:BaSS.wav
64,192,68545,1,0,0:0:0:0:
192,192,68695,1,0,0:0:0:40:Snare.wav
448,192,68695,1,0,0:0:0:0:
320,192,68844,1,0,0:0:0:0:
448,192,68993,1,0,0:0:0:40:BaSS.wav
64,192,69142,1,0,0:0:0:0:
320,192,69292,1,0,0:0:0:40:Snare.wav
448,192,69292,1,0,0:0:0:0:
192,192,69441,1,0,0:0:0:0:
448,192,69590,1,0,0:0:0:40:BaSS.wav
320,192,69739,1,0,0:0:0:0:
448,192,69889,1,0,0:0:0:40:Snare.wav
64,192,69889,1,0,0:0:0:0:
192,192,70038,1,0,0:0:0:0:
320,192,70187,1,0,0:0:0:40:BaSS.wav
64,192,70336,1,0,0:0:0:0:
448,192,70486,1,0,0:0:0:40:Snare.wav
192,192,70486,1,0,0:0:0:0:
320,192,70635,1,0,0:0:0:0:
192,192,70784,1,0,0:0:0:40:BaSS.wav
448,192,70933,1,0,0:0:0:0:
320,192,71083,1,0,0:0:0:40:Snare.wav
64,192,71083,1,0,0:0:0:0:
192,192,71232,1,0,0:0:0:0:
64,192,71381,1,0,0:0:0:40:BaSS.wav
448,192,71531,1,0,0:0:0:0:
192,192,71680,1,0,0:0:0:40:Snare.wav
64,192,71680,1,0,0:0:0:0:
320,192,71829,1,0,0:0:0:0:
64,192,71978,1,0,0:0:0:40:BaSS.wav
192,192,72128,1,0,0:0:0:0:
64,192,72277,1,0,0:0:0:40:Snare.wav
448,192,72277,1,0,0:0:0:0:
320,192,72426,1,0,0:0:0:0:
192,192,72575,1,0,0:0:0:40:BaSS.wav
320,192,72725,1,0,0:0:0:0:
448,192,72874,1,0,0:0:0:40:Snare.wav
64,192,72874,1,0,0:0:0:0:
320,192,73023,1,0,0:0:0:0:
192,192,73172,1,0,0:0:0:40:BaSS.wav
448,192,73322,1,0,0:0:0:0:
64,192,73471,1,0,0:0:0:40:Snare.wav
192,192,73471,1,0,0:0:0:0:
448,192,73620,1,0,0:0:0:0:
320,192,73769,1,0,0:0:0:40:BaSS.wav
192,192,73919,1,0,0:0:0:0:
448,192,74068,1,0,0:0:0:40:Snare.wav
320,192,74068,1,0,0:0:0:0:
64,192,74217,1,0,0:0:0:0:
192,192,74366,1,0,0:0:0:40:BaSS.wav
320,192,74516,1,0,0:0:0:0:
64,192,74665,1,0,0:0:0:40:Snare.wav
448,192,74665,1,0,0:0:0:0:
192,192,74814,1,0,0:0:0:0:
320,192,74963,1,0,0:0:0:40:BaSS.wav
192,192,75187,1,0,0:0:0:0:
320,192,75262,1,0,0:0:0:40:Snare.wav
448,192,75262,1,0,0:0:0:0:
64,192,75411,1,0,0:0:0:0:
448,192,75560,1,0,0:0:0:40:BaSS.wav
320,192,75784,1,0,0:0:0:0:
64,192,75859,1,0,0:0:0:40:Snare.wav
192,192,75859,1,0,0:0:0:0:
448,192,76008,1,0,0:0:0:0:
320,192,76157,1,0,0:0:0:40:Crash.wav
192,192,76157,1,0,0:0:0:40:BaSS.wav
64,192,76456,1,0,0:0:0:40:BaSS.wav
192,192,76531,1,0,0:0:0:40:BaSS.wav
320,192,76605,1,0,0:0:0:40:BaSS.wav
448,192,76904,1,0,0:0:0:40:BaSS.wav
64,192,76904,1,0,0:0:0:0:
320,192,77053,1,0,0:0:0:40:BaSS.wav
192,192,77202,1,0,0:0:0:40:BaSS.wav
448,192,77202,1,0,0:0:0:0:
64,192,77426,128,0,77650:0:0:0:0:
320,192,77650,1,0,0:0:0:40:Crash.wav
448,192,77650,1,0,0:0:0:40:Snare.wav
192,192,77799,1,0,0:0:0:0:
64,192,77948,1,0,0:0:0:40:BaSS.wav
320,192,78098,1,0,0:0:0:0:
448,192,78247,1,0,0:0:0:40:Snare.wav
192,192,78247,1,0,0:0:0:0:
64,192,78396,1,0,0:0:0:0:
448,192,78545,1,0,0:0:0:40:BaSS.wav
192,192,78695,1,0,0:0:0:0:
320,192,78844,1,0,0:0:0:40:Snare.wav
64,192,78844,1,0,0:0:0:0:
448,192,78993,1,0,0:0:0:0:
192,192,79142,1,0,0:0:0:40:BaSS.wav
320,192,79292,1,0,0:0:0:0:
192,192,79441,1,0,0:0:0:40:Snare.wav
64,192,79441,1,0,0:0:0:0:
448,192,79590,1,0,0:0:0:0:
320,192,79739,1,0,0:0:0:40:BaSS.wav
64,192,79889,1,0,0:0:0:0:
192,192,80038,1,0,0:0:0:40:Snare.wav
448,192,80038,1,0,0:0:0:0:
320,192,80187,1,0,0:0:0:0:
64,192,80336,1,0,0:0:0:40:BaSS.wav
192,192,80486,1,0,0:0:0:0:
448,192,80635,1,0,0:0:0:40:Snare.wav
64,192,80635,1,0,0:0:0:0:
320,192,80784,1,0,0:0:0:0:
192,192,80933,1,0,0:0:0:40:BaSS.wav
448,192,81083,1,0,0:0:0:0:
320,192,81232,1,0,0:0:0:40:Snare.wav
64,192,81232,1,0,0:0:0:0:
192,192,81381,1,0,0:0:0:0:
448,192,81531,1,0,0:0:0:40:BaSS.wav
320,192,81680,1,0,0:0:0:0:
192,192,81829,1,0,0:0:0:40:Snare.wav
64,192,81829,1,0,0:0:0:0:
448,192,81978,1,0,0:0:0:0:
320,192,82128,1,0,0:0:0:40:BaSS.wav
64,192,82277,1,0,0:0:0:0:
192,192,82426,1,0,0:0:0:40:Snare.wav
448,192,82426,1,0,0:0:0:0:
320,192,82575,1,0,0:0:0:0:
64,192,82725,1,0,0:0:0:40:BaSS.wav
192,192,82874,1,0,0:0:0:0:
320,192,83023,1,0,0:0:0:40:Snare.wav
64,192,83023,1,0,0:0:0:0:
448,192,83172,1,0,0:0:0:0:
192,192,83322,1,0,0:0:0:40:BaSS.wav
320,192,83471,1,0,0:0:0:0:
448,192,83620,1,0,0:0:0:40:Snare.wav
64,192,83620,1,0,0:0:0:0:
192,192,83769,1,0,0:0:0:0:
320,192,83919,1,0,0:0:0:40:BaSS.wav
192,192,83993,1,0,0:0:0:40:BaSS.wav
448,192,84217,1,0,0:0:0:40:Snare.wav
64,192,84217,1,0,0:0:0:0:
320,192,84366,1,0,0:0:0:40:BaSS.wav
192,192,84441,1,0,0:0:0:40:BaSS.wav
64,192,84516,1,0,0:0:0:40:BaSS.wav
192,192,84739,1,0,0:0:0:0:
320,192,84963,1,0,0:0:0:0:
448,192,85113,1,0,0:0:0:40:Snare.wav
64,192,85113,1,0,0:0:0:40:Crash.wav
192,192,85336,1,0,0:0:0:0:
320,192,85560,1,0,0:0:0:40:BaSS.wav
64,192,85710,1,0,0:0:0:40:BaSS.wav
448,192,85710,1,0,0:0:0:40:Crash.wav
320,192,85933,1,0,0:0:0:40:BaSS.wav
192,192,86157,1,0,0:0:0:0:
448,192,86307,1,0,0:0:0:40:BaSS.wav
64,192,86307,1,0,0:0:0:0:
192,192,86531,1,0,0:0:0:40:BaSS.wav
64,192,86605,128,0,86904:0:0:0:40:BaSS.wav
320,192,86754,1,0,0:0:0:40:BaSS.wav
448,192,86904,1,0,0:0:0:40:BaSS.wav
448,192,87053,1,0,0:0:0:40:BaSS.wav
320,192,87351,1,0,0:0:0:40:BaSS.wav
448,192,87501,1,0,0:0:0:40:Snare.wav
64,192,87501,1,0,0:0:0:0:
320,192,87650,1,0,0:0:0:40:BaSS.wav
320,192,87799,1,0,0:0:0:40:BaSS.wav
192,192,88098,1,0,0:0:0:40:BaSS.wav
192,192,88396,1,0,0:0:0:40:BaSS.wav
192,192,88545,1,0,0:0:0:40:BaSS.wav
64,192,88695,1,0,0:0:0:40:Snare.wav
448,192,88695,1,0,0:0:0:0:
192,192,88844,1,0,0:0:0:40:BaSS.wav
320,192,89142,1,0,0:0:0:40:BaSS.wav
320,192,89292,1,0,0:0:0:40:BaSS.wav
448,192,89590,1,0,0:0:0:40:BaSS.wav
64,192,89889,1,0,0:0:0:40:Snare.wav
320,192,89889,1,0,0:0:0:0:
64,192,90038,1,0,0:0:0:40:BaSS.wav
192,192,90336,1,0,0:0:0:40:BaSS.wav
192,192,90635,1,0,0:0:0:40:BaSS.wav
192,192,90784,1,0,0:0:0:40:BaSS.wav
448,192,91083,1,0,0:0:0:40:Snare.wav
64,192,91083,1,0,0:0:0:0:
320,192,91381,1,0,0:0:0:40:BaSS.wav
320,192,91531,1,0,0:0:0:40:BaSS.wav
192,192,91680,1,0,0:0:0:40:Snare.wav
448,192,91680,1,0,0:0:0:0:
64,192,91829,1,0,0:0:0:40:BaSS.wav
192,192,91978,1,0,0:0:0:40:Snare.wav
320,192,91978,1,0,0:0:0:0:
448,192,92128,1,0,0:0:0:40:BaSS.wav
320,192,92277,1,0,0:0:0:40:BaSS.wav
64,192,92277,128,0,92575:0:0:0:0:
192,192,92874,1,0,0:0:0:40:BaSS.wav
320,192,92874,1,0,0:0:0:40:Crash.wav
64,192,93023,1,0,0:0:0:0:
448,192,93172,1,0,0:0:0:0:
320,192,93322,1,0,0:0:0:0:
64,192,93471,1,0,0:0:0:0:
192,192,93620,1,0,0:0:0:0:
448,192,93769,1,0,0:0:0:0:
320,192,93919,1,0,0:0:0:0:
192,192,94068,1,0,0:0:0:0:
64,192,94217,1,0,0:0:0:0:
448,192,94366,1,0,0:0:0:0:
192,192,94516,128,0,94963:0:0:0:0:
448,192,94665,1,0,0:0:0:0:
320,192,94814,1,0,0:0:0:0:
64,192,94963,1,0,0:0:0:0:
448,192,95113,1,0,0:0:0:0:
64,192,95262,1,0,0:0:0:0:
320,192,95411,1,0,0:0:0:0:
192,192,95560,1,0,0:0:0:0:
448,192,95710,1,0,0:0:0:0:
64,192,95859,1,0,0:0:0:0:
192,192,96008,1,0,0:0:0:0:
320,192,96157,1,0,0:0:0:0:
64,192,96307,1,0,0:0:0:0:
448,192,96456,1,0,0:0:0:0:
320,192,96605,1,0,0:0:0:0:
192,192,96754,128,0,97078:0:0:0:0:
64,192,97078,1,0,0:0:0:0:
448,192,97277,1,0,0:0:0:0:
192,192,97476,1,0,0:0:0:0:
320,192,97706,1,0,0:0:0:0:
