osu file format v14

[General]
AudioFilename: audio.mp3
AudioLeadIn: 0
PreviewTime: 67501
Countdown: 0
SampleSet: Soft
StackLeniency: 0.7
Mode: 2
LetterboxInBreaks: 0
WidescreenStoryboard: 1

[Editor]
Bookmarks: 24814,51232,72277
DistanceSpacing: 0.8
BeatDivisor: 8
GridSize: 4
TimelineZoom: 4.800003

[Metadata]
Title:Chirality
TitleUnicode:Chirality
Artist:Camellia
ArtistUnicode:かめりあ
Creator:Divine Cake
Version:Overdose
Source:REFLEC BEAT groovin'!!
Tags:Razor Sharp BennyBananas Benny- Benny CyCeph Mile Cametek Drumstep dubstep electronic dnb Konami
BeatmapID:1417990
BeatmapSetID:639598

[Difficulty]
HPDrainRate:7
CircleSize:4
OverallDifficulty:9.4
ApproachRate:9.4
SliderMultiplier:2
SliderTickRate:2

[Events]
//Background and Video events
0,0,"chiral_wallpaper_robert-seidel.jpg",0,0
//Break Periods
//Storyboard Layer 0 (Background)
//Storyboard Layer 1 (Fail)
//Storyboard Layer 2 (Pass)
//Storyboard Layer 3 (Foreground)
//Storyboard Sound Samples

[TimingPoints]
934,298.507462686567,4,2,0,20,1,0
5262,-100,4,2,0,20,0,0
5411,-100,4,2,0,20,0,0
5560,-100,4,2,0,20,0,0
5710,-100,4,2,0,20,0,0
8098,-100,4,2,1,20,0,0
9292,-100,4,2,1,70,0,0
10485,-100,4,2,1,70,0,0
14365,-100,4,2,1,40,0,0
14963,-100,4,2,1,70,0,0
15335,-100,4,2,1,70,0,0
20038,-100,4,2,1,70,0,0
20336,-100,4,2,1,70,0,0
20635,-100,4,2,1,70,0,0
21082,-100,4,2,1,70,0,0
21232,-100,4,2,1,70,0,0
22426,-100,4,2,1,70,0,0
22724,-100,4,2,1,70,0,0
23246,-100,4,2,1,70,0,0
23470,-100,4,2,1,70,0,0
23620,-100,4,2,1,70,0,0
23769,-100,4,2,1,70,0,0
24068,-66.6666666666667,4,2,1,70,0,0
24814,-100,4,2,1,70,0,0
25112,-100,4,2,1,70,0,0
26306,-100,4,2,0,70,0,0
26605,-100,4,2,1,70,0,0
27202,-100,4,2,1,70,0,0
30635,-100,4,2,1,70,0,0
30784,-100,4,2,1,70,0,0
31978,-100,4,2,1,70,0,0
32276,-100,4,2,1,70,0,0
32799,-100,4,2,1,70,0,0
33023,-100,4,2,1,70,0,0
33172,-100,4,2,1,70,0,0
33322,-100,4,2,1,70,0,0
33620,-66.6666666666667,4,2,1,70,0,0
34366,-100,4,2,1,70,0,0
36157,-100,4,2,1,70,0,0
36455,-100,4,2,1,70,0,0
36754,-100,4,2,1,70,0,0
39590,-100,4,2,1,70,0,0
40187,-100,4,2,1,70,0,0
41008,-100,4,2,2,70,0,0
41306,-100,4,2,1,70,0,0
41530,-100,4,2,1,70,0,0
42426,-100,4,2,1,70,0,0
43918,-100,4,2,1,70,0,0
44515,-100,4,2,1,70,0,0
44963,-100,4,2,1,70,0,0
46082,-100,4,2,1,70,0,0
48097,-100,4,2,1,70,0,0
48396,-100,4,2,1,70,0,0
48694,-100,4,2,1,70,0,0
51679,-100,4,2,1,70,0,0
52127,-100,4,2,1,70,0,0
52873,-100,4,2,1,70,0,0
58246,-100,4,2,1,70,0,0
58843,-100,4,2,1,70,0,0
59590,-100,4,2,1,70,0,0
60635,-100,4,2,1,70,0,0
61232,-100,4,2,1,70,0,0
61978,-100,4,2,1,40,0,0
63023,-100,4,2,1,70,0,0
63620,-100,4,2,1,70,0,0
65411,-100,4,2,1,70,0,0
66008,-100,4,2,1,70,0,0
66605,-100,4,2,1,70,0,0
67799,-100,4,2,1,70,0,1
73470,-100,4,1,1,70,0,1
73694,-100,4,2,1,70,0,1
77351,-100,4,1,2,70,0,0
77650,-83.3333333333333,4,2,1,70,0,1
84515,-100,4,2,2,70,0,1
85113,-100,4,2,1,70,0,1
85709,-100,4,2,1,70,0,1
86306,-100,4,2,1,70,0,1
86605,-100,4,2,1,70,0,1
86754,-100,4,2,1,70,0,1
86904,-100,4,2,1,70,0,0
89142,-100,4,2,1,70,0,0
89889,-100,4,2,1,70,0,0
90635,-100,4,2,1,70,0,0

[Colours]
Combo1 : 0,255,128
Combo2 : 128,0,0
Combo3 : 0,128,128
Combo4 : 255,130,130

[HitObjects]
80,264,934,6,0,L|163:208,1,100
264,200,1232,1,0,0:0:0:0:
308,180,1306,1,0,0:0:0:0:
319,133,1381,1,0,0:0:0:0:
288,96,1455,1,0,0:0:0:0:
228,84,1531,1,0,0:0:0:0:
128,84,1680,1,0,0:0:0:0:
228,84,1829,1,0,0:0:0:0:
80,264,1978,6,0,L|163:208,1,100
264,212,2276,2,0,L|312:184,2,50
176,164,2575,2,0,L|124:216,1,50
188,216,2725,2,0,L|232:260,1,50
223,251,2874,2,0,L|179:295,1,50
80,264,3023,6,0,L|163:208,1,100,0|0,0:0|0:0,0:0:0:0:
264,212,3322,1,0,0:0:0:0:
304,184,3396,1,0,0:0:0:0:
336,144,3471,1,0,0:0:0:0:
296,116,3545,1,0,0:0:0:0:
248,100,3620,1,0,0:0:0:0:
148,100,3769,1,0,0:0:0:0:
248,100,3919,1,0,0:0:0:0:
80,264,4068,6,0,L|163:208,1,100,0|0,0:0|0:0,0:0:0:0:
264,212,4366,2,0,L|324:212,2,50
160,88,4665,1,0,0:0:0:0:
114,108,4739,1,0,0:0:0:0:
91,152,4814,1,0,0:0:0:0:
99,200,4888,1,0,0:0:0:0:
148,200,4963,5,0,0:0:0:0:
103,217,5037,1,0,0:0:0:0:
99,265,5112,1,0,0:0:0:0:
139,290,5186,1,0,0:0:0:0:
216,292,5262,1,0,0:0:0:0:
64,296,5411,1,0,0:0:0:0:
216,292,5560,1,0,0:0:0:0:
80,264,5710,6,0,L|176:200,1,100,0|0,0:0|0:0,0:0:0:0:
264,204,6008,1,0,0:0:0:0:
308,184,6082,1,0,0:0:0:0:
328,136,6157,1,0,0:0:0:0:
288,108,6231,1,0,0:0:0:0:
236,108,6307,1,0,0:0:0:0:
336,108,6456,1,0,0:0:0:0:
236,108,6605,1,0,0:0:0:0:
80,264,6754,6,0,L|176:200,1,100,0|0,0:0|0:0,0:0:0:0:
258,193,7052,2,0,L|307:184,2,50
176,192,7351,2,0,L|112:192,1,50
192,164,7501,2,0,L|240:200,1,50
232,194,7650,2,0,L|184:230,1,50
80,264,7799,6,0,L|176:200,1,100,0|0,0:0|0:0,0:0:0:0:
284,212,8098,1,0,0:0:0:0:
344,212,8172,1,0,0:0:0:0:
384,212,8247,1,0,0:0:0:0:
324,212,8322,1,0,0:0:0:0:
220,208,8396,1,0,0:0:0:0:
68,212,8545,1,0,0:0:0:0:
187,212,8694,1,0,0:0:0:0:
104,268,8844,6,0,L|200:204,1,100,0|0,0:0|0:0,0:0:0:0:
304,188,9142,1,2,0:0:0:0:
364,176,9217,1,2,0:0:0:0:
408,136,9292,1,2,0:0:0:0:
248,196,9441,5,0,0:0:0:0:
188,200,9516,1,0,0:0:0:0:
156,200,9590,1,0,0:0:0:0:
216,200,9665,1,0,0:0:0:0:
272,200,9739,2,0,L|340:188,1,50
376,192,9889,2,0,L|308:180,1,50
256,208,10038,5,0,0:0:0:0:
368,208,10187,1,2,0:0:0:0:
472,208,10336,1,2,0:0:0:0:
142,202,10486,6,0,P|57:250|32:344,1,200,0|0,1:0|0:0,0:0:0:0:
31,343,10933,1,0,0:0:0:0:
280,332,11083,2,0,L|379:328,1,100,8|0,0:0|1:0,0:0:0:0:
328,272,11381,1,0,0:0:0:0:
112,268,11531,1,0,1:0:0:0:
212,268,11680,5,0,0:0:0:0:
328,272,11829,1,0,0:0:0:0:
212,268,11978,1,0,0:0:0:0:
304,144,12128,2,0,L|348:180,1,50,0|0,0:0|0:0,0:0:0:0:
372,224,12277,2,0,L|324:256,1,50,0|0,0:0|0:0,0:0:0:0:
288,240,12426,2,0,L|240:188,1,50,0|0,0:0|0:0,0:0:0:0:
200,196,12575,2,0,P|168:136|188:112,1,100,0|0,0:0|3:0,0:0:0:0:
464,272,12874,6,0,P|432:144|352:132,1,200,0|0,1:0|0:0,0:0:0:0:
440,120,13322,1,0,0:0:0:0:
140,104,13471,2,0,L|20:100,1,100,8|0,0:0|1:0,0:0:0:0:
96,152,13769,1,0,0:0:0:0:
304,164,13919,2,0,L|356:152,2,50,0|0|0,1:0|0:0|0:0,0:0:0:0:
200,104,14217,5,0,0:0:0:0:
138,177,14366,1,2,0:3:0:0:
203,246,14515,1,4,0:3:0:0:
252,256,14590,1,0,0:0:0:0:
300,267,14664,1,2,0:3:0:0:
392,234,14814,1,4,0:3:0:0:
420,142,14963,1,2,0:2:0:0:
363,65,15112,1,2,0:2:0:0:
52,264,15262,6,0,P|116:144|204:132,1,200,0|0,1:0|0:0,0:0:0:0:
112,128,15710,1,0,0:0:0:0:
404,104,15859,2,0,L|503:107,2,100,8|0|0,0:0|1:0|0:0,0:0:0:0:
80,92,16307,1,0,1:0:0:0:
176,104,16456,5,0,0:0:0:0:
92,160,16605,1,0,0:0:0:0:
176,104,16754,1,0,0:0:0:0:
276,124,16904,5,0,0:0:0:0:
320,144,16978,1,0,0:0:0:0:
360,176,17053,1,0,0:0:0:0:
328,216,17127,1,0,0:0:0:0:
276,240,17202,1,0,0:0:0:0:
221,214,17277,1,0,0:0:0:0:
198,170,17351,1,0,0:0:0:0:
197,120,17426,1,0,0:0:0:0:
230,84,17501,1,0,0:0:0:0:
469,246,17650,6,0,P|405:126|317:114,1,200,0|0,1:0|0:0,0:0:0:0:
404,108,18098,1,0,0:0:0:0:
104,120,18247,2,0,L|224:116,1,100,8|0,0:0|1:0,0:0:0:0:
312,112,18545,1,8,0:0:0:0:
76,120,18695,1,0,0:0:0:0:
351,110,18844,1,0,3:2:0:0:
48,120,20038,6,0,P|132:132|184:196,1,150,4|0,1:0|0:0,0:0:0:0:
228,168,20336,1,0,0:0:0:0:
277,175,20410,1,0,0:0:0:0:
307,213,20485,1,0,0:0:0:0:
302,262,20559,1,0,0:0:0:0:
266,294,20634,1,10,0:1:0:0:
128,104,20784,6,0,L|72:104,2,50,0|2|0,0:0|0:1|0:0,0:0:0:0:
264,96,21008,2,0,L|320:96,2,50,0|2|0,0:0|0:1|0:0,0:0:0:0:
408,96,21232,5,0,1:0:0:0:
455,95,21306,1,0,0:0:0:0:
471,139,21381,1,0,0:0:0:0:
434,167,21455,1,0,0:0:0:0:
167,111,21531,5,0,0:0:0:0:
120,110,21605,1,0,0:0:0:0:
104,154,21680,1,0,0:0:0:0:
141,182,21754,1,0,0:0:0:0:
352,204,21829,6,0,L|396:156,1,50,8|0,3:1|0:0,0:0:0:0:
228,200,21978,2,0,L|176:144,1,50,0|0,3:0|0:0,0:0:0:0:
352,204,22128,2,0,P|423:218|453:284,1,150,0|0,3:0|0:0,0:0:0:0:
232,144,22426,6,0,P|228:200|328:212,1,150,4|0,1:2|0:0,0:0:0:0:
376,216,22725,1,0,0:0:0:0:
432,228,22799,1,0,0:0:0:0:
464,264,22874,1,0,0:0:0:0:
436,304,22948,1,0,0:0:0:0:
380,304,23023,1,10,0:1:0:0:
208,156,23172,6,0,L|272:160,1,50,0|2,0:0|0:1,0:0:0:0:
361,163,23396,2,0,L|312:160,1,50,0|2,0:0|0:1,0:0:0:0:
404,144,23620,5,0,1:0:0:0:
448,144,23695,1,0,0:0:0:0:
480,144,23769,1,4,3:0:0:0:
432,144,23844,1,0,0:0:0:0:
288,144,23919,5,0,0:0:0:0:
244,144,23994,1,2,0:2:0:0:
212,144,24068,1,0,0:0:0:0:
260,144,24143,1,0,0:0:0:0:
368,144,24217,6,0,P|476:144|348:144,1,225.000008583069,10|0,3:2|0:0,0:0:0:0:
144,144,24516,6,0,P|36:144|164:144,1,225.000008583069,2|0,3:2|0:0,0:0:0:0:
408,144,24814,6,0,P|476:144|388:144,1,150,6|0,1:2|0:0,0:0:0:0:
324,140,25113,5,0,0:0:0:0:
274,139,25187,1,0,0:0:0:0:
235,168,25262,1,0,0:0:0:0:
221,215,25336,1,0,0:0:0:0:
238,261,25411,1,10,0:1:0:0:
380,148,25560,2,0,L|444:152,1,50,0|2,0:0|0:1,0:0:0:0:
289,144,25784,2,0,L|353:148,1,50,0|2,0:0|0:1,0:0:0:0:
236,148,26008,5,0,1:0:0:0:
187,153,26082,1,0,0:0:0:0:
153,189,26157,1,0,0:0:0:0:
150,238,26231,1,0,0:0:0:0:
364,296,26307,5,2,0:0:0:0:
394,281,26356,1,0,0:0:0:0:
417,258,26406,1,0,0:0:0:0:
430,227,26456,1,2,0:0:0:0:
432,194,26506,1,0,0:0:0:0:
96,112,26605,6,0,P|48:136|32:208,2,100,8|0|0,3:1|3:0|3:0,0:0:0:0:
316,104,27202,5,4,1:0:0:0:
364,113,27276,1,0,0:0:0:0:
387,155,27351,1,2,0:0:0:0:
407,200,27425,1,0,0:0:0:0:
390,247,27500,1,0,0:0:0:0:
354,281,27575,1,0,0:0:0:0:
311,306,27649,1,2,0:0:0:0:
265,289,27724,1,0,0:0:0:0:
225,259,27799,1,8,0:0:0:0:
60,200,27948,6,0,L|160:200,1,100,2|4,0:0|1:0,0:0:0:0:
304,192,28247,1,0,0:0:0:0:
392,158,28396,1,0,0:0:0:0:
136,48,28545,1,2,1:2:0:0:
228,52,28694,1,0,1:0:0:0:
136,48,28844,1,2,0:2:0:0:
464,136,28993,6,0,P|452:60|384:88,1,150,8|0,0:0|0:0,0:0:0:0:
192,144,29292,2,0,L|260:144,1,50,0|0,2:0|0:0,0:0:0:0:
456,144,29441,1,8,0:0:0:0:
292,144,29516,1,8,0:0:0:0:
152,120,29590,6,0,P|92:164|132:220,1,150,4|0,1:0|0:0,0:0:0:0:
180,232,29889,1,0,0:0:0:0:
228,235,29963,1,0,0:0:0:0:
284,212,30038,1,0,0:0:0:0:
308,152,30112,1,0,0:0:0:0:
284,92,30187,1,10,0:1:0:0:
72,112,30336,6,0,L|24:36,1,50,0|2,0:0|0:1,0:0:0:0:
440,112,30560,2,0,L|488:36,1,50,0|2,0:0|0:1,0:0:0:0:
168,136,30784,5,0,1:0:0:0:
123,154,30858,1,0,0:0:0:0:
119,201,30933,1,0,0:0:0:0:
158,227,31007,1,0,0:0:0:0:
344,136,31083,5,0,0:0:0:0:
388,154,31157,1,0,0:0:0:0:
392,201,31232,1,0,0:0:0:0:
353,227,31306,1,0,0:0:0:0:
136,232,31381,6,0,L|80:260,1,50,8|0,3:1|0:0,0:0:0:0:
376,232,31531,2,0,L|432:260,1,50,0|0,3:0|0:0,0:0:0:0:
256,216,31680,2,0,P|224:148|136:144,1,150,0|0,3:0|0:0,0:0:0:0:
344,68,31978,6,0,P|428:80|480:144,1,150,4|0,1:2|0:0,0:0:0:0:
288,208,32277,1,0,0:0:0:0:
243,226,32351,1,0,0:0:0:0:
204,198,32426,1,0,0:0:0:0:
207,150,32500,1,0,0:0:0:0:
248,126,32575,1,10,0:1:0:0:
404,92,32724,6,0,L|468:96,1,50,0|2,0:0|0:1,0:0:0:0:
108,92,32948,2,0,L|44:96,1,50,0|2,0:0|0:1,0:0:0:0:
416,112,33172,5,0,1:0:0:0:
368,107,33246,1,0,0:0:0:0:
338,144,33321,1,0,0:0:0:0:
352,189,33395,1,0,0:0:0:0:
436,200,33471,5,0,0:0:0:0:
475,226,33545,1,0,0:2:0:0:
475,273,33620,1,2,0:2:0:0:
434,299,33694,1,0,0:0:0:0:
152,204,33769,6,0,P|44:204|172:204,1,225.000008583069,10|0,3:2|0:0,0:0:0:0:
380,208,34068,2,0,P|488:208|360:208,1,225.000008583069,2|0,3:2|0:0,0:0:0:0:
160,200,34366,1,0,1:0:0:0:
256,192,34516,12,8,35262,0:0:0:0:
100,168,35560,6,0,L|36:168,2,50,0|0|0,1:0|1:0|1:0,0:0:0:0:
168,168,35784,2,0,P|212:208|152:252,1,150,0|0,1:0|1:0,0:0:0:0:
256,252,36157,1,8,3:1:0:0:
412,256,36307,1,0,3:1:0:0:
256,252,36456,1,0,3:0:0:0:
340,267,36754,5,4,1:0:0:0:
388,274,36828,1,0,0:0:0:0:
427,244,36903,1,0,0:0:0:0:
433,196,36977,1,0,0:0:0:0:
216,108,37053,2,0,L|132:108,1,50,8|0,0:0|0:0,0:0:0:0:
108,136,37202,1,0,0:0:0:0:
124,196,37276,1,0,0:0:0:0:
470,159,37351,5,0,1:0:0:0:
457,206,37425,1,0,0:0:0:0:
414,230,37500,1,0,0:0:0:0:
366,218,37575,1,0,0:0:0:0:
96,112,37650,5,8,0:0:0:0:
65,149,37724,1,0,0:0:0:0:
75,196,37799,1,0,0:0:0:0:
119,218,37873,1,0,0:0:0:0:
360,168,37948,6,0,L|424:168,1,50,2|0,1:2|0:0,0:0:0:0:
152,168,38098,2,0,L|88:168,1,50,0|0,0:0|0:0,0:0:0:0:
410,168,38247,2,0,L|480:168,1,50,10|0,0:2|0:0,0:0:0:0:
152,168,38396,6,0,L|80:168,1,50,0|0,0:0|0:0,0:0:0:0:
344,168,38545,1,2,1:2:0:0:
256,168,38695,1,0,1:0:0:0:
144,150,38844,6,0,L|144:100,1,50,10|2,1:2|1:2,0:0:0:0:
219,85,38993,2,0,L|275:45,1,50,2|2,1:2|1:2,0:0:0:0:
360,56,39142,2,0,L|256:56,1,100,4|0,1:0|1:0,0:0:0:0:
120,56,39441,1,0,0:0:0:0:
40,132,39590,1,0,1:0:0:0:
412,112,39739,1,8,0:0:0:0:
461,191,39888,1,0,0:0:0:0:
402,264,40037,1,0,1:0:0:0:
307,271,40187,5,0,1:0:0:0:
402,264,40336,1,0,0:0:0:0:
448,180,40485,1,0,1:0:0:0:
403,95,40634,1,0,1:0:0:0:
307,88,40784,1,0,0:0:0:0:
48,76,40933,1,10,0:0:0:0:
132,72,41082,1,10,0:0:0:0:
48,76,41231,1,10,0:0:0:0:
432,68,41381,6,0,L|488:68,2,50,0|0|0,1:0|1:0|1:0,0:0:0:0:
324,92,41680,1,0,1:0:0:0:
264,184,41829,1,0,0:0:0:0:
320,280,41978,1,0,1:0:0:0:
56,212,42128,5,8,0:0:0:0:
85,120,42277,1,0,0:0:0:0:
171,73,42426,1,0,1:0:0:0:
266,99,42575,1,0,1:0:0:0:
314,183,42725,1,0,0:0:0:0:
284,276,42874,1,0,1:0:0:0:
196,324,43023,1,0,1:0:0:0:
360,92,43172,5,2,0:0:0:0:
416,92,43246,1,2,0:0:0:0:
463,118,43321,1,10,0:0:0:0:
472,166,43395,1,2,0:0:0:0:
444,204,43470,1,2,0:0:0:0:
400,220,43545,1,2,0:0:0:0:
348,196,43619,1,2,0:0:0:0:
268,148,43769,1,2,0:0:0:0:
440,116,43919,5,0,1:0:0:0:
379,185,44068,1,0,1:0:0:0:
440,116,44217,1,0,0:0:0:0:
379,185,44366,1,0,1:0:0:0:
136,312,44516,5,8,0:0:0:0:
67,246,44665,1,0,0:0:0:0:
96,156,44814,1,0,1:0:0:0:
190,143,44963,1,0,1:0:0:0:
300,148,45113,5,0,0:0:0:0:
190,143,45262,1,0,1:0:0:0:
300,148,45411,1,0,1:0:0:0:
440,144,45560,1,0,0:0:0:0:
152,152,45710,1,10,0:0:0:0:
456,116,45859,6,0,L|496:180,1,50,2|0,0:1|0:0,0:0:0:0:
284,128,46008,2,0,L|244:192,1,50,2|0,0:1|0:0,0:0:0:0:
452,112,46157,6,0,L|508:112,2,50,0|0|0,1:0|1:0|1:0,0:0:0:0:
344,108,46456,1,0,1:0:0:0:
216,104,46605,1,0,0:0:0:0:
344,108,46754,1,0,1:0:0:0:
120,180,46903,5,8,0:0:0:0:
42,243,47053,1,0,0:0:0:0:
120,180,47202,1,0,1:0:0:0:
404,320,47351,1,0,1:0:0:0:
289,301,47500,1,0,0:0:0:0:
188,260,47650,2,0,L|76:208,2,100,0|0|0,1:0|1:0|0:0,0:0:0:0:
408,319,48098,1,8,0:0:0:0:
72,128,48695,5,2,1:2:0:0:
432,108,48844,2,0,L|432:316,1,200,6|2,1:2|1:2,0:0:0:0:
72,128,49292,2,0,L|72:336,1,200,12|0,0:0|1:0,0:0:0:0:
432,108,49739,2,0,L|432:316,1,200,6|2,1:2|1:2,0:0:0:0:
76,108,50187,1,4,1:2:0:0:
184,104,50336,1,2,0:2:0:0:
308,104,50486,5,8,0:0:0:0:
354,90,50560,1,0,0:0:0:0:
394,117,50635,1,2,0:1:0:0:
400,165,50709,1,0,0:0:0:0:
367,200,50784,1,0,0:0:0:0:
312,208,50933,1,2,0:1:0:0:
440,128,51083,5,2,1:2:0:0:
80,108,51232,2,0,L|80:316,1,200,6|2,1:2|1:2,0:0:0:0:
440,128,51680,2,0,L|440:336,1,200,12|0,0:2|1:0,0:0:0:0:
80,108,52127,2,0,L|80:316,1,200,6|0,1:2|1:0,0:0:0:0:
436,108,52575,1,4,1:2:0:0:
312,108,52725,5,2,0:2:0:0:
269,130,52799,1,2,0:2:0:0:
250,175,52874,1,10,0:0:0:0:
265,222,52948,1,2,0:0:0:0:
307,247,53023,1,2,0:0:0:0:
355,240,53098,1,2,0:0:0:0:
387,203,53172,1,2,0:0:0:0:
48,160,53322,1,2,0:0:0:0:
60,96,53471,5,2,1:2:0:0:
396,332,53620,2,0,L|484:136,1,200,6|2,1:2|1:2,0:0:0:0:
116,332,54068,2,0,L|28:136,1,200,12|0,0:0|1:0,0:0:0:0:
396,332,54516,2,0,L|484:136,1,200,6|2,1:2|1:2,0:0:0:0:
356,108,54963,1,4,1:2:0:0:
228,108,55113,1,0,0:0:0:0:
100,104,55262,5,8,0:0:0:0:
53,119,55336,1,0,0:0:0:0:
24,159,55411,1,0,0:0:0:0:
22,208,55485,1,0,0:0:0:0:
49,249,55560,1,0,0:0:0:0:
95,268,55635,1,0,0:0:0:0:
143,257,55709,1,2,0:2:0:0:
72,100,55859,5,2,1:2:0:0:
364,104,56008,2,0,L|140:104,1,200,2|2,1:2|1:2,0:0:0:0:
440,104,56456,2,0,L|440:312,1,200,2|2,1:2|1:2,0:0:0:0:
136,308,56904,2,0,L|336:308,1,200,2|2,1:2|1:2,0:0:0:0:
52,104,57351,2,0,L|52:312,1,200,2|0,1:2|3:0,0:0:0:0:
216,304,57799,1,0,3:0:0:0:
316,300,57948,1,0,3:0:0:0:
416,300,58098,1,0,3:0:0:0:
52,304,58247,6,0,P|146:164|200:161,1,200,4|0,3:1|0:0,0:0:0:0:
216,148,58694,1,0,3:0:0:0:
272,140,58769,1,0,0:0:0:0:
432,148,58844,2,0,L|320:148,2,100,8|0|0,0:0|1:0|0:0,0:0:0:0:
76,140,59292,1,0,1:0:0:0:
163,158,59441,1,0,0:0:0:0:
142,245,59590,1,0,0:0:0:0:
56,220,59739,1,0,0:0:0:0:
172,120,59889,5,0,0:0:0:0:
212,93,59963,1,0,0:0:0:0:
259,107,60038,1,0,0:0:0:0:
278,151,60112,1,0,0:0:0:0:
258,195,60187,1,0,0:0:0:0:
211,207,60262,1,0,0:0:0:0:
258,195,60336,2,0,L|158:195,1,100
448,272,60635,6,0,P|384:152|296:140,1,200,6|0,3:1|0:0,0:0:0:0:
244,136,61083,1,0,3:0:0:0:
28,136,61232,2,0,L|152:136,2,100,8|2|0,0:0|1:0|0:0,0:0:0:0:
296,144,61680,2,0,L|352:144,2,50,2|0|0,1:0|0:0|0:0,0:0:0:0:
192,112,61978,5,0,0:0:0:0:
265,46,62127,1,2,0:3:0:0:
362,33,62276,1,4,0:3:0:0:
450,79,62425,1,2,0:3:0:0:
480,168,62575,1,8,0:3:0:0:
448,264,62724,1,8,0:3:0:0:
356,304,62873,1,4,0:3:0:0:
44,132,63023,6,0,P|108:252|196:264,1,200,6|0,3:1|0:0,0:0:0:0:
220,240,63471,1,0,3:0:0:0:
280,200,63545,1,0,0:0:0:0:
472,192,63620,2,0,L|348:192,2,100,8|2|0,0:0|1:0|0:0,0:0:0:0:
48,192,64068,1,2,1:0:0:0:
172,88,64217,5,0,0:0:0:0:
233,150,64366,1,0,0:0:0:0:
161,201,64515,1,2,0:2:0:0:
280,252,64665,5,0,0:0:0:0:
327,237,64739,1,0,0:0:0:0:
366,206,64814,1,0,0:0:0:0:
397,167,64888,1,0,0:0:0:0:
415,121,64963,1,0,0:0:0:0:
404,73,65038,1,0,0:0:0:0:
363,45,65112,1,0,0:0:0:0:
315,31,65187,1,0,0:0:0:0:
266,25,65262,1,0,0:0:0:0:
56,176,65411,6,0,P|120:56|208:44,1,200,6|0,3:1|0:0,0:0:0:0:
284,44,65859,1,0,0:0:0:0:
73,40,66008,2,0,L|193:40,1,100,8|0,0:0|3:0,0:0:0:0:
432,44,66307,1,8,0:0:0:0:
173,40,66456,1,0,3:0:0:0:
432,44,66605,1,4,1:3:0:0:
208,220,67799,6,0,L|300:220,1,50,4|0,1:0|0:0,0:0:0:0:
80,216,67948,1,2,0:1:0:0:
40,184,68023,1,0,0:0:0:0:
24,132,68098,1,8,0:0:0:0:
56,92,68172,1,0,0:0:0:0:
240,92,68247,2,0,L|184:92,1,50,2|2,0:2|0:0,0:0:0:0:
12,112,68396,5,2,1:1:0:0:
40,160,68471,1,0,0:0:0:0:
96,176,68545,1,0,0:0:0:0:
152,176,68620,1,2,0:0:0:0:
312,176,68695,2,0,L|388:176,1,50,8|0,0:0|0:0,0:0:0:0:
188,256,68844,1,2,0:1:0:0:
112,256,68919,1,0,0:0:0:0:
64,224,68993,5,0,1:0:0:0:
52,184,69068,1,0,0:0:0:0:
228,112,69142,2,0,L|292:108,1,50,2|0,0:0|0:0,0:0:0:0:
440,112,69292,1,10,0:1:0:0:
452,156,69366,1,0,0:0:0:0:
432,192,69441,1,2,0:2:0:0:
392,216,69516,1,2,0:2:0:0:
200,228,69590,6,0,L|136:232,1,50,2|0,1:1|0:0,0:0:0:0:
332,224,69739,2,0,L|408:216,1,50,2|0,0:1|0:0,0:0:0:0:
176,172,69889,2,0,L|116:172,2,33.3333333333333,8|0|0,0:0|0:0|0:0,0:0:0:0:
324,160,70038,2,0,L|392:148,1,50,2|0,0:1|0:0,0:0:0:0:
84,76,70187,6,0,L|20:76,1,50,2|0,1:1|0:0,0:0:0:0:
276,68,70336,1,2,0:1:0:0:
323,81,70410,1,0,0:0:0:0:
349,122,70485,1,8,0:0:0:0:
342,170,70559,1,0,0:0:0:0:
176,172,70635,2,0,L|126:172,1,50,2|0,0:2|0:0,0:0:0:0:
314,240,70784,5,2,1:1:0:0:
358,211,70858,1,0,0:0:0:0:
344,163,70933,1,0,0:0:0:0:
299,145,71007,1,2,0:2:0:0:
102,92,71083,2,0,L|174:92,1,50,8|0,0:0|0:0,0:0:0:0:
360,88,71232,1,2,0:1:0:0:
410,90,71306,1,2,0:2:0:0:
446,122,71381,5,0,1:0:0:0:
428,172,71455,1,0,0:0:0:0:
284,184,71531,6,0,L|228:184,1,50,2|0,0:2|0:0,0:0:0:0:
72,196,71680,1,10,0:1:0:0:
34,168,71754,1,0,0:0:0:0:
52,125,71829,1,2,0:2:0:0:
98,131,71903,1,0,0:0:0:0:
388,140,71978,6,0,L|448:140,1,50,2|0,1:1|0:0,0:0:0:0:
206,144,72128,2,0,L|126:144,1,50,2|0,0:1|0:0,0:0:0:0:
388,140,72277,2,0,L|424:112,2,33.3333333333333,8|0|0,0:0|0:0|0:0,0:0:0:0:
136,144,72426,2,0,L|80:144,1,50,2|0,0:1|0:0,0:0:0:0:
416,192,72575,6,0,L|472:192,1,50,2|0,1:1|0:0,0:0:0:0:
268,216,72725,1,2,0:1:0:0:
220,207,72799,1,0,0:0:0:0:
184,239,72874,1,8,0:0:0:0:
186,287,72948,1,0,0:0:0:0:
356,280,73023,6,0,L|408:280,1,50,2|2,0:2|0:2,0:0:0:0:
216,128,73172,1,2,1:1:0:0:
169,123,73246,1,0,0:0:0:0:
158,78,73321,1,0,0:0:0:0:
197,52,73395,1,0,0:0:0:0:
384,56,73471,6,0,L|334:56,1,50,8|0,2:0|0:0,0:0:0:0:
152,80,73620,1,2,2:1:0:0:
104,91,73694,1,0,0:0:0:0:
72,129,73769,1,0,1:0:0:0:
96,180,73843,1,0,0:0:0:0:
256,176,73919,2,0,L|312:176,1,50,2|0,0:2|0:0,0:0:0:0:
476,170,74068,5,10,0:1:0:0:
452,213,74142,1,0,0:0:0:0:
407,232,74217,1,0,0:0:0:0:
359,219,74292,1,2,0:2:0:0:
80,140,74366,6,0,L|20:140,1,50,0|0,1:0|0:0,0:0:0:0:
308,132,74516,1,2,0:1:0:0:
360,132,74565,1,0,0:0:0:0:
360,132,74615,1,0,0:0:0:0:
312,132,74665,1,8,0:0:0:0:
172,132,74814,5,2,0:1:0:0:
464,160,74963,2,0,L|464:60,1,100,2|2,1:1|0:2,0:0:0:0:
296,156,75187,2,0,L|296:52,1,100,2|0,0:1|0:0,0:0:0:0:
456,152,75411,2,0,L|456:96,1,50,2|2,0:1|0:2,0:0:0:0:
216,156,75560,6,0,L|216:44,1,100,2|2,1:1|0:2,0:0:0:0:
388,156,75784,2,0,L|388:48,1,100,2|0,0:1|0:0,0:0:0:0:
48,88,76008,2,0,L|48:142,1,50,2|2,0:1|0:2,0:0:0:0:
280,140,76157,5,4,1:0:0:0:
180,140,76307,1,2,0:2:0:0:
392,128,76456,2,0,L|442:128,1,50,8|8,0:0|0:0,0:0:0:0:
392,128,76605,2,0,P|348:148|348:208,1,100,4|0,1:0|0:0,0:0:0:0:
341,195,76904,1,2,1:2:0:0:
72,136,77053,2,0,L|32:136,2,33.3333333333333,8|0|0,0:0|0:0|0:0,0:0:0:0:
116,136,77202,1,2,1:2:0:0:
376,220,77351,5,8,2:0:0:0:
400,221,77388,1,0,0:0:0:0:
421,208,77425,1,0,0:0:0:0:
433,186,77462,1,0,0:0:0:0:
430,162,77500,1,0,0:0:0:0:
415,143,77537,1,0,0:0:0:0:
391,135,77574,1,0,0:0:0:0:
236,92,77650,6,0,L|156:92,1,59.9999981689454,8|0,0:0|0:0,0:0:0:0:
408,84,77799,2,0,L|500:84,1,59.9999981689454,2|0,0:1|0:0,0:0:0:0:
128,196,77948,5,6,1:1:0:0:
83,161,78022,1,0,0:0:0:0:
95,106,78097,1,2,0:2:0:0:
150,95,78171,1,2,0:2:0:0:
368,104,78247,6,0,L|432:104,1,59.9999981689454,8|0,0:0|0:0,0:0:0:0:
200,92,78396,1,2,0:1:0:0:
140,94,78470,1,0,0:0:0:0:
92,128,78545,1,0,1:0:0:0:
68,182,78619,1,0,0:0:0:0:
252,204,78695,2,0,L|308:156,1,59.9999981689454,2|0,0:2|0:0,0:0:0:0:
472,208,78844,5,10,0:1:0:0:
458,150,78918,1,0,0:0:0:0:
421,104,78993,1,2,0:2:0:0:
367,78,79067,1,2,0:2:0:0:
148,116,79142,6,0,L|80:112,1,59.9999981689454,2|2,1:1|0:2,0:0:0:0:
329,110,79292,2,0,L|400:100,1,59.9999981689454,2|0,0:1|0:0,0:0:0:0:
148,116,79441,2,0,L|108:116,2,39.9999987792969,8|0|0,0:0|0:0|0:0,0:0:0:0:
329,110,79590,2,0,L|405:110,1,59.9999981689454,2|0,0:1|0:0,0:0:0:0:
80,160,79739,6,0,L|16:160,1,59.9999981689454,2|0,1:1|0:0,0:0:0:0:
232,204,79889,1,2,0:1:0:0:
288,236,79963,1,0,0:0:0:0:
352,224,80038,1,8,0:0:0:0:
372,160,80112,1,0,0:0:0:0:
168,96,80187,2,0,L|88:96,1,59.9999981689454,2|2,0:2|0:2,0:0:0:0:
300,128,80336,5,2,1:1:0:0:
357,115,80410,1,0,0:0:0:0:
409,143,80485,1,2,0:2:0:0:
428,198,80559,1,0,0:0:0:0:
284,88,80635,2,0,L|224:88,1,59.9999981689454,10|2,0:2|0:2,0:0:0:0:
36,112,80784,1,2,0:1:0:0:
50,168,80858,1,2,0:2:0:0:
100,200,80933,5,0,1:0:0:0:
157,188,81007,1,0,0:0:0:0:
344,184,81083,2,0,L|272:184,1,59.9999981689454,2|0,0:2|0:0,0:0:0:0:
48,208,81232,1,10,0:1:0:0:
79,258,81306,1,0,0:0:0:0:
132,284,81381,1,2,0:2:0:0:
191,277,81455,1,0,0:0:0:0:
388,136,81531,6,0,L|452:140,1,59.9999981689454,2|0,1:1|0:0,0:0:0:0:
216,120,81680,2,0,L|152:124,1,59.9999981689454,2|0,0:1|0:0,0:0:0:0:
352,100,81829,2,0,L|396:100,2,39.9999987792969,8|0|0,0:0|0:0|0:0,0:0:0:0:
180,104,81978,2,0,L|116:84,1,59.9999981689454,2|0,0:1|0:0,0:0:0:0:
424,128,82128,6,0,L|508:128,1,59.9999981689454,2|0,1:1|0:0,0:0:0:0:
256,132,82277,1,2,0:1:0:0:
198,141,82351,1,0,0:0:0:0:
161,187,82426,1,8,0:0:0:0:
166,245,82500,1,0,0:0:0:0:
352,256,82575,2,0,L|412:256,1,59.9999981689454,2|2,0:2|0:2,0:0:0:0:
184,268,82725,5,2,1:1:0:0:
120,252,82799,1,0,0:0:0:0:
76,204,82874,1,2,0:2:0:0:
56,140,82948,1,0,0:0:0:0:
224,84,83023,2,0,L|284:84,1,59.9999981689454,8|0,0:0|0:0,0:0:0:0:
456,96,83172,1,2,0:1:0:0:
461,154,83246,1,0,0:0:0:0:
431,204,83322,5,0,1:0:0:0:
376,226,83395,1,0,0:0:0:0:
184,208,83471,2,0,L|120:208,1,59.9999981689454,2|0,0:2|0:0,0:0:0:0:
328,212,83620,1,10,0:1:0:0:
386,219,83694,1,0,0:0:0:0:
431,258,83769,1,2,0:2:0:0:
446,315,83843,1,0,0:0:0:0:
148,152,83919,6,0,L|84:152,1,59.9999981689454,2|8,1:1|0:0,0:0:0:0:
288,164,84068,1,0,1:0:0:0:
327,173,84117,1,0,0:0:0:0:
363,159,84167,1,0,0:0:0:0:
372,116,84217,1,10,0:1:0:0:
256,88,84366,1,2,1:1:0:0:
356,84,84516,6,0,L|464:84,1,100,6|0,1:1|0:0,0:0:0:0:
156,84,84739,2,0,L|48:84,1,100,8|0,0:0|0:0,0:0:0:0:
256,88,84963,2,0,L|200:88,1,50,8|0,0:0|0:0,0:0:0:0:
56,84,85113,6,0,L|160:84,1,100,10|0,0:2|0:0,0:0:0:0:
356,84,85336,2,0,L|472:84,1,100,2|0,0:2|1:0,0:0:0:0:
256,88,85560,2,0,L|312:88,1,50,2|0,1:2|1:0,0:0:0:0:
456,84,85710,6,0,L|352:84,1,100,2|2,1:1|0:2,0:0:0:0:
56,84,85933,2,0,L|160:84,1,100,2|0,1:2|0:0,0:0:0:0:
356,84,86157,2,0,L|300:84,1,50,2|0,1:2|0:0,0:0:0:0:
124,96,86307,6,0,P|152:156|216:156,1,100,2|0,1:1|0:0,0:0:0:0:
356,132,86531,1,2,1:1:0:0:
408,128,86605,1,8,1:0:0:0:
124,168,86680,1,0,1:0:0:0:
70,166,86754,1,2,1:1:0:0:
288,164,86829,1,0,1:0:0:0:
468,188,86904,5,0,1:0:0:0:
388,188,87053,1,0,1:0:0:0:
228,192,87351,1,0,1:0:0:0:
468,188,87501,1,8,0:0:0:0:
388,188,87650,5,0,1:0:0:0:
468,188,87799,1,0,1:0:0:0:
268,192,88098,1,0,1:0:0:0:
108,192,88396,5,0,1:0:0:0:
188,192,88545,1,0,1:0:0:0:
444,192,88695,5,8,0:0:0:0:
364,192,88844,1,0,1:0:0:0:
204,188,89142,5,0,1:0:0:0:
284,188,89292,1,0,1:0:0:0:
84,188,89590,1,0,1:0:0:0:
472,196,89889,5,8,1:0:0:0:
392,196,90038,1,0,1:0:0:0:
232,196,90336,1,0,1:0:0:0:
392,196,90635,5,0,1:0:0:0:
472,196,90784,1,0,1:0:0:0:
64,192,91083,1,8,1:0:0:0:
128,216,91381,5,0,1:0:0:0:
36,220,91531,1,0,1:0:0:0:
384,216,91680,5,8,1:0:0:0:
476,220,91830,1,0,1:0:0:0:
180,216,91978,5,8,1:0:0:0:
272,220,92128,1,0,1:0:0:0:
44,216,92277,5,4,1:3:0:0:
256,192,92874,1,6,3:2:0:0:
256,192,93023,12,0,97725,0:0:0:0:
