osu file format v14

[General]
AudioFilename: audio.mp3
AudioLeadIn: 0
PreviewTime: 176936
Countdown: 0
SampleSet: Normal
StackLeniency: 0.7
Mode: 1
LetterboxInBreaks: 0
WidescreenStoryboard: 0

[Editor]
Bookmarks: 37533,86488,96041,115145,130966,134250,153354,158130,167682,196041,196339,215444,222608
DistanceSpacing: 0.8
BeatDivisor: 4
GridSize: 32
TimelineZoom: 3.199999

[Metadata]
Title:Chirality ("Dissymmetric" Long ver.)
TitleUnicode:Chirality ("Dissymmetric" Long ver.)
Artist:Camellia
ArtistUnicode:かめりあ
Creator:salchow
Version:"Absolute configuration" Havoc Oni.
Source:REFLEC BEAT groovin'!!
Tags:
BeatmapID:1957288
BeatmapSetID:936987

[Difficulty]
HPDrainRate:4
CircleSize:2
OverallDifficulty:8
ApproachRate:10
SliderMultiplier:1.4
SliderTickRate:1

[Events]
//Background and Video events
0,0,"954077-beautiful-fractal-wallpaper-1920x1080-ios.jpg",0,122
//Break Periods
2,158330,166038
//Storyboard Layer 0 (Background)
//Storyboard Layer 1 (Fail)
//Storyboard Layer 2 (Pass)
//Storyboard Layer 3 (Foreground)
//Storyboard Sound Samples

[TimingPoints]
10070.9892622397,298.507462686567,4,1,0,100,1,0
48279,-100,4,1,0,100,0,1
57533,-100,4,1,0,100,0,0
57832,-100,4,1,0,100,0,1
62608,-100,4,1,0,100,0,0
63503,-100,4,1,0,100,0,1
67384,-100,4,1,0,100,0,0
177235,-100,4,1,0,100,0,1
186787,-100,4,1,0,100,0,0
187085,-100,4,1,0,100,0,1
196041,-100,4,1,0,100,0,0
196339,-100,4,1,0,100,0,1
198727,-100,4,1,0,100,0,0
201115,-100,4,1,0,100,0,1
205891,-100,4,1,0,100,0,0
206190,-100,4,1,0,100,0,1
208279,-100,4,1,0,100,0,0
210668,-100,4,1,0,100,0,1
215145,-100,4,1,0,100,0,0
215444,-100,4,1,0,100,0,1
222608,-100,4,1,0,100,0,0
224996,-100,4,1,0,100,0,1
229772,-100,4,1,0,100,0,0

[HitObjects]
256,192,37533,5,8,0:0:0:0:
256,192,37682,1,0,0:0:0:0:
256,192,37757,1,0,0:0:0:0:
256,192,37832,1,8,0:0:0:0:
256,192,37906,1,8,0:0:0:0:
256,192,37981,1,0,0:0:0:0:
256,192,38056,1,8,0:0:0:0:
256,192,38130,1,0,0:0:0:0:
256,192,38205,1,0,0:0:0:0:
256,192,38279,1,8,0:0:0:0:
256,192,38354,1,0,0:0:0:0:
256,192,38429,1,8,0:0:0:0:
256,192,38578,1,8,0:0:0:0:
256,0,38727,1,4,0:0:0:0:
256,192,39026,1,8,0:0:0:0:
256,0,39324,1,4,0:0:0:0:
256,0,39473,1,4,0:0:0:0:
256,0,39772,1,4,0:0:0:0:
256,192,40220,5,8,0:0:0:0:
256,192,40294,1,8,0:0:0:0:
256,192,40369,1,8,0:0:0:0:
256,192,40444,1,8,0:0:0:0:
256,192,40518,1,0,0:0:0:0:
256,192,40668,1,8,0:0:0:0:
256,192,40817,1,0,0:0:0:0:
256,0,41115,1,4,0:0:0:0:
256,192,41414,1,8,0:0:0:0:
256,0,41712,1,4,0:0:0:0:
256,0,41861,1,4,0:0:0:0:
256,0,42160,1,4,0:0:0:0:
256,192,42459,1,0,0:0:0:0:
256,192,42533,1,8,0:0:0:0:
256,192,42608,1,0,0:0:0:0:
256,192,42757,1,8,0:0:0:0:
256,192,42832,1,8,0:0:0:0:
256,192,42906,1,0,0:0:0:0:
256,192,43056,1,8,0:0:0:0:
256,192,43130,1,8,0:0:0:0:
256,192,43205,1,0,0:0:0:0:
256,192,43279,1,0,0:0:0:0:
256,192,43354,1,8,0:0:0:0:
256,0,43503,1,4,0:0:0:0:
256,192,43802,1,8,0:0:0:0:
256,0,44100,1,4,0:0:0:0:
256,0,44250,1,4,0:0:0:0:
256,0,44548,1,4,0:0:0:0:
256,192,44996,1,8,0:0:0:0:
256,192,45070,1,8,0:0:0:0:
256,192,45145,1,8,0:0:0:0:
256,192,45294,1,0,0:0:0:0:
256,192,45444,1,0,0:0:0:0:
256,192,45593,1,8,0:0:0:0:
256,0,45891,1,4,0:0:0:0:
256,192,46190,1,0,0:0:0:0:
256,192,46265,1,0,0:0:0:0:
256,192,46339,1,0,0:0:0:0:
256,192,46414,1,0,0:0:0:0:
256,192,46488,1,8,0:0:0:0:
256,192,46563,1,8,0:0:0:0:
256,192,46638,1,8,0:0:0:0:
256,192,46712,1,0,0:0:0:0:
256,192,46787,1,8,0:0:0:0:
256,192,46862,1,0,0:0:0:0:
256,192,46936,1,8,0:0:0:0:
256,0,47085,1,4,0:0:0:0:
256,192,47832,1,8,0:0:0:0:
256,192,47881,1,8,0:0:0:0:
256,192,47931,1,8,0:0:0:0:
256,192,47981,1,8,0:0:0:0:
256,192,48130,1,0,0:0:0:0:
256,0,48279,1,12,0:0:0:0:
256,192,48429,1,0,0:0:0:0:
256,192,48578,1,8,0:0:0:0:
256,192,48653,1,0,0:0:0:0:
256,192,48727,1,0,0:0:0:0:
256,192,48802,1,0,0:0:0:0:
256,192,48876,1,8,0:0:0:0:
256,192,48951,1,0,0:0:0:0:
256,192,49026,1,8,0:0:0:0:
256,192,49100,1,8,0:0:0:0:
256,192,49175,1,0,0:0:0:0:
256,192,49250,1,8,0:0:0:0:
256,192,49324,1,8,0:0:0:0:
256,96,49473,2,4,L|257:317,1,210
256,0,50070,1,12,0:0:0:0:
256,0,50220,1,12,0:0:0:0:
256,0,50369,1,12,0:0:0:0:
256,192,50518,1,0,0:0:0:0:
256,0,50668,1,12,0:0:0:0:
256,192,50817,1,0,0:0:0:0:
256,192,50891,1,0,0:0:0:0:
256,192,50966,1,8,0:0:0:0:
256,192,51041,1,8,0:0:0:0:
256,192,51115,1,8,0:0:0:0:
256,192,51190,1,8,0:0:0:0:
256,192,51265,1,0,0:0:0:0:
256,192,51339,1,0,0:0:0:0:
256,192,51414,1,8,0:0:0:0:
256,192,51488,1,8,0:0:0:0:
256,192,51563,1,0,0:0:0:0:
256,192,51638,1,8,0:0:0:0:
256,192,51712,1,8,0:0:0:0:
256,192,51787,1,8,0:0:0:0:
256,0,51862,1,4,0:0:0:0:
256,192,52160,1,8,0:0:0:0:
256,192,52235,1,0,0:0:0:0:
256,192,52309,1,0,0:0:0:0:
256,0,52459,1,12,0:0:0:0:
256,192,52608,1,0,0:0:0:0:
256,0,52757,1,12,0:0:0:0:
256,192,52906,1,0,0:0:0:0:
256,0,53056,1,12,0:0:0:0:
256,192,53354,1,0,0:0:0:0:
256,192,53429,1,0,0:0:0:0:
256,192,53503,1,8,0:0:0:0:
256,192,53578,1,0,0:0:0:0:
256,192,53653,1,8,0:0:0:0:
256,192,53727,1,8,0:0:0:0:
256,192,53802,1,8,0:0:0:0:
256,192,53876,1,0,0:0:0:0:
256,192,53951,1,0,0:0:0:0:
256,192,54026,1,0,0:0:0:0:
256,192,54100,1,8,0:0:0:0:
256,96,54250,2,12,L|256:192,1,70
256,192,54548,1,8,0:0:0:0:
256,192,54585,1,8,0:0:0:0:
256,192,54697,1,8,0:0:0:0:
256,192,54735,1,8,0:0:0:0:
256,0,54847,1,4,0:0:0:0:
256,0,54996,1,4,0:0:0:0:
256,192,55145,1,8,0:0:0:0:
256,192,55195,1,8,0:0:0:0:
256,192,55245,1,0,0:0:0:0:
256,192,55294,1,0,0:0:0:0:
256,0,55444,5,12,0:0:0:0:
256,192,55742,1,0,0:0:0:0:
256,192,56041,1,8,0:0:0:0:
256,192,56115,1,8,0:0:0:0:
256,192,56190,1,0,0:0:0:0:
256,192,56265,1,0,0:0:0:0:
256,0,56339,1,12,0:0:0:0:
256,192,56638,1,8,0:0:0:0:
256,192,56787,1,0,0:0:0:0:
256,192,56936,1,0,0:0:0:0:
256,192,57011,1,8,0:0:0:0:
256,192,57085,1,0,0:0:0:0:
256,192,57160,1,0,0:0:0:0:
256,192,57235,1,8,0:0:0:0:
256,192,57309,1,8,0:0:0:0:
256,192,57384,1,8,0:0:0:0:
256,192,57459,1,8,0:0:0:0:
256,192,57533,1,0,0:0:0:0:
256,192,57682,1,0,0:0:0:0:
256,192,57757,1,0,0:0:0:0:
256,0,57832,1,12,0:0:0:0:
256,192,57982,1,0,0:0:0:0:
256,192,58131,1,8,0:0:0:0:
256,192,58206,1,0,0:0:0:0:
256,192,58280,1,0,0:0:0:0:
256,192,58355,1,0,0:0:0:0:
256,192,58429,1,8,0:0:0:0:
256,192,58504,1,0,0:0:0:0:
256,192,58579,1,8,0:0:0:0:
256,192,58653,1,8,0:0:0:0:
256,192,58728,1,0,0:0:0:0:
256,192,58803,1,8,0:0:0:0:
256,192,58877,1,8,0:0:0:0:
256,64,59026,2,4,L|256:288,1,210
256,0,59623,1,12,0:0:0:0:
256,0,59773,1,12,0:0:0:0:
256,0,59922,1,12,0:0:0:0:
256,192,60071,1,0,0:0:0:0:
256,0,60221,1,12,0:0:0:0:
256,192,60370,1,0,0:0:0:0:
256,192,60444,1,0,0:0:0:0:
256,192,60519,1,8,0:0:0:0:
256,192,60594,1,8,0:0:0:0:
256,192,60668,1,8,0:0:0:0:
256,192,60743,1,8,0:0:0:0:
256,192,60818,1,0,0:0:0:0:
256,192,60892,1,0,0:0:0:0:
256,192,60967,1,8,0:0:0:0:
256,192,61041,1,8,0:0:0:0:
256,192,61116,1,0,0:0:0:0:
256,192,61191,1,8,0:0:0:0:
256,192,61265,1,8,0:0:0:0:
256,192,61340,1,8,0:0:0:0:
256,0,61415,1,4,0:0:0:0:
256,192,61713,1,8,0:0:0:0:
256,192,61788,1,0,0:0:0:0:
256,192,61862,1,0,0:0:0:0:
256,0,62011,1,12,0:0:0:0:
256,192,62161,1,0,0:0:0:0:
256,0,62309,1,12,0:0:0:0:
256,192,62459,1,0,0:0:0:0:
256,0,62608,1,12,0:0:0:0:
256,192,62832,1,8,0:0:0:0:
256,192,62906,1,8,0:0:0:0:
256,192,62982,1,0,0:0:0:0:
256,192,63056,1,8,0:0:0:0:
256,192,63130,1,0,0:0:0:0:
256,192,63205,1,8,0:0:0:0:
256,192,63255,1,8,0:0:0:0:
256,192,63304,1,8,0:0:0:0:
256,192,63354,1,0,0:0:0:0:
256,192,63503,1,8,0:0:0:0:
256,192,63578,1,0,0:0:0:0:
256,192,63653,1,8,0:0:0:0:
256,192,63727,1,0,0:0:0:0:
256,192,63802,1,8,0:0:0:0:
256,192,63876,1,8,0:0:0:0:
256,192,63951,1,0,0:0:0:0:
256,192,64026,1,0,0:0:0:0:
256,0,64100,1,12,0:0:0:0:
256,0,64250,1,12,0:0:0:0:
256,0,64399,1,12,0:0:0:0:
256,192,64548,1,0,0:0:0:0:
256,192,64598,1,0,0:0:0:0:
256,192,64648,1,0,0:0:0:0:
256,192,64697,1,8,0:0:0:0:
256,192,64747,1,8,0:0:0:0:
256,192,64798,1,8,0:0:0:0:
256,192,64847,1,0,0:0:0:0:
256,0,64997,5,12,0:0:0:0:
256,192,65145,1,0,0:0:0:0:
256,192,65295,1,8,0:0:0:0:
256,192,65369,1,8,0:0:0:0:
256,192,65444,1,0,0:0:0:0:
256,192,65518,1,0,0:0:0:0:
256,192,65594,1,8,0:0:0:0:
256,192,65668,1,0,0:0:0:0:
256,192,65743,1,8,0:0:0:0:
256,192,65818,1,0,0:0:0:0:
256,192,65892,1,8,0:0:0:0:
256,192,65966,1,8,0:0:0:0:
256,192,66041,1,8,0:0:0:0:
256,192,66115,1,0,0:0:0:0:
256,192,66191,1,8,0:0:0:0:
256,192,66340,1,0,0:0:0:0:
256,192,66489,1,0,0:0:0:0:
256,192,66564,1,8,0:0:0:0:
256,192,66638,1,0,0:0:0:0:
256,192,66713,1,0,0:0:0:0:
256,192,66788,1,8,0:0:0:0:
256,192,66862,1,0,0:0:0:0:
256,192,66936,1,8,0:0:0:0:
256,192,67012,1,0,0:0:0:0:
256,192,67085,1,8,0:0:0:0:
256,192,67160,1,8,0:0:0:0:
256,192,67235,1,0,0:0:0:0:
256,192,67309,1,0,0:0:0:0:
256,0,67384,1,12,0:0:0:0:
256,192,67533,1,0,0:0:0:0:
256,192,67832,1,0,0:0:0:0:
256,192,67981,1,8,0:0:0:0:
256,192,68130,1,0,0:0:0:0:
256,192,68429,1,0,0:0:0:0:
256,192,68727,1,0,0:0:0:0:
256,192,68876,1,8,0:0:0:0:
256,192,69026,1,0,0:0:0:0:
256,192,69175,1,8,0:0:0:0:
256,192,69623,1,0,0:0:0:0:
256,192,69772,1,8,0:0:0:0:
256,192,69921,1,0,0:0:0:0:
256,192,70220,1,0,0:0:0:0:
256,192,70369,1,8,0:0:0:0:
256,192,70668,1,0,0:0:0:0:
256,192,70817,1,0,0:0:0:0:
256,192,71115,1,8,0:0:0:0:
256,192,71265,1,8,0:0:0:0:
256,192,71414,2,0,L|268:229,8,35
256,192,72160,5,0,0:0:0:0:
256,192,72309,1,0,0:0:0:0:
256,192,72608,1,0,0:0:0:0:
256,192,72757,1,8,0:0:0:0:
256,192,72906,1,0,0:0:0:0:
256,192,73205,1,0,0:0:0:0:
256,192,73503,1,0,0:0:0:0:
256,192,73653,1,8,0:0:0:0:
256,192,73802,1,0,0:0:0:0:
256,192,73951,1,8,0:0:0:0:
256,192,74548,1,8,0:0:0:0:
256,192,74697,1,0,0:0:0:0:
256,192,74996,1,0,0:0:0:0:
256,192,75145,1,8,0:0:0:0:
256,192,75444,1,8,0:0:0:0:
256,192,75593,1,0,0:0:0:0:
256,192,75891,1,8,0:0:0:0:
256,192,76041,1,8,0:0:0:0:
256,192,76190,1,8,0:0:0:0:
256,192,76339,2,14,B|255:209|256:192,18,11.6666666666667
256,0,76936,1,12,0:0:0:0:
256,0,77085,1,12,0:0:0:0:
256,192,77384,1,0,0:0:0:0:
256,192,77533,1,8,0:0:0:0:
256,192,77832,1,0,0:0:0:0:
256,192,77981,1,0,0:0:0:0:
256,192,78279,1,0,0:0:0:0:
256,192,78429,1,8,0:0:0:0:
254,184,78727,1,8,0:0:0:0:
256,192,78802,1,8,0:0:0:0:
256,192,78876,1,8,0:0:0:0:
256,192,78951,1,8,0:0:0:0:
256,192,79026,1,0,0:0:0:0:
256,192,79175,1,0,0:0:0:0:
256,192,79324,1,8,0:0:0:0:
254,184,79473,1,8,0:0:0:0:
256,192,79772,1,0,0:0:0:0:
256,192,79921,1,8,0:0:0:0:
256,192,80220,1,0,0:0:0:0:
254,192,80369,1,0,0:0:0:0:
256,192,80668,1,8,0:0:0:0:
256,192,80817,1,8,0:0:0:0:
256,192,80966,1,0,0:0:0:0:
256,192,81115,1,8,0:0:0:0:
254,192,81190,1,8,0:0:0:0:
256,192,81265,1,8,0:0:0:0:
256,192,81339,1,8,0:0:0:0:
256,192,81414,1,0,0:0:0:0:
256,192,81563,1,0,0:0:0:0:
256,192,81712,1,8,0:0:0:0:
256,192,81862,1,0,0:0:0:0:
254,192,82160,1,0,0:0:0:0:
256,192,82309,1,8,0:0:0:0:
256,192,82459,1,0,0:0:0:0:
256,192,82608,1,0,0:0:0:0:
256,192,82757,1,0,0:0:0:0:
254,192,83056,1,0,0:0:0:0:
256,192,83205,1,8,0:0:0:0:
256,192,83354,1,0,0:0:0:0:
256,192,83503,1,8,0:0:0:0:
256,192,83578,1,8,0:0:0:0:
256,192,83653,1,8,0:0:0:0:
254,192,83727,1,8,0:0:0:0:
254,192,83802,1,0,0:0:0:0:
254,192,83951,1,8,0:0:0:0:
256,192,84100,1,0,0:0:0:0:
256,192,84250,1,8,0:0:0:0:
256,192,84399,1,8,0:0:0:0:
256,192,84548,1,0,0:0:0:0:
254,192,84697,1,8,0:0:0:0:
254,192,84847,1,8,0:0:0:0:
256,192,84996,1,0,0:0:0:0:
256,192,85145,1,0,0:0:0:0:
256,192,85444,1,8,0:0:0:0:
254,192,85742,1,0,0:0:0:0:
256,192,86041,1,8,0:0:0:0:
256,192,86115,1,0,0:0:0:0:
256,192,86190,1,8,0:0:0:0:
256,192,86265,1,0,0:0:0:0:
256,192,86339,1,8,0:0:0:0:
256,192,86414,1,8,0:0:0:0:
256,0,86488,1,4,0:0:0:0:
256,192,86787,1,8,0:0:0:0:
256,0,87085,1,4,0:0:0:0:
256,0,87234,1,4,0:0:0:0:
256,0,87533,1,4,0:0:0:0:
256,192,87981,5,8,0:0:0:0:
256,192,88055,1,8,0:0:0:0:
256,192,88130,1,8,0:0:0:0:
256,192,88205,1,8,0:0:0:0:
256,192,88279,1,0,0:0:0:0:
256,192,88429,1,8,0:0:0:0:
256,192,88578,1,0,0:0:0:0:
256,0,88876,1,4,0:0:0:0:
256,192,89175,1,8,0:0:0:0:
256,0,89473,1,4,0:0:0:0:
256,0,89622,1,4,0:0:0:0:
256,0,89921,1,4,0:0:0:0:
256,192,90220,1,0,0:0:0:0:
256,192,90294,1,8,0:0:0:0:
256,192,90369,1,0,0:0:0:0:
256,192,90518,1,8,0:0:0:0:
256,192,90593,1,8,0:0:0:0:
256,192,90667,1,0,0:0:0:0:
256,192,90817,1,8,0:0:0:0:
256,192,90891,1,8,0:0:0:0:
256,192,90966,1,0,0:0:0:0:
256,192,91040,1,0,0:0:0:0:
256,192,91115,1,8,0:0:0:0:
256,0,91264,1,4,0:0:0:0:
256,192,91563,1,8,0:0:0:0:
256,0,91862,1,4,0:0:0:0:
256,0,92011,1,4,0:0:0:0:
256,0,92309,1,4,0:0:0:0:
256,192,92757,1,8,0:0:0:0:
256,192,92831,1,8,0:0:0:0:
256,192,92906,1,8,0:0:0:0:
256,192,93055,1,0,0:0:0:0:
256,192,93205,1,0,0:0:0:0:
256,192,93354,1,8,0:0:0:0:
256,192,93503,1,8,0:0:0:0:
256,0,93652,1,4,0:0:0:0:
256,192,93802,1,8,0:0:0:0:
256,192,93951,1,0,0:0:0:0:
256,192,94026,1,0,0:0:0:0:
256,192,94100,1,0,0:0:0:0:
256,192,94175,1,0,0:0:0:0:
256,192,94249,1,8,0:0:0:0:
256,192,94324,1,8,0:0:0:0:
256,192,94399,1,8,0:0:0:0:
256,192,94473,1,0,0:0:0:0:
256,192,94548,1,8,0:0:0:0:
256,192,94623,1,0,0:0:0:0:
256,192,94697,1,8,0:0:0:0:
256,0,94846,1,4,0:0:0:0:
256,0,96041,5,12,0:0:0:0:
256,192,96190,1,0,0:0:0:0:
256,192,96339,1,8,0:0:0:0:
256,192,96389,1,8,0:0:0:0:
256,192,96439,1,8,0:0:0:0:
256,192,96488,1,8,0:0:0:0:
256,192,96538,1,8,0:0:0:0:
256,0,96638,1,4,0:0:0:0:
256,0,96787,1,4,0:0:0:0:
256,0,96936,1,4,0:0:0:0:
256,192,97085,12,4,97757,0:0:0:0:
256,192,97832,5,0,0:0:0:0:
256,192,97906,1,0,0:0:0:0:
256,192,97981,1,8,0:0:0:0:
256,192,98056,1,8,0:0:0:0:
256,192,98130,1,0,0:0:0:0:
256,192,98205,1,0,0:0:0:0:
256,192,98279,1,8,0:0:0:0:
256,192,98354,1,0,0:0:0:0:
256,0,98429,1,12,0:0:0:0:
256,192,98727,1,8,0:0:0:0:
256,192,98777,1,8,0:0:0:0:
256,192,98827,1,8,0:0:0:0:
256,192,98876,1,0,0:0:0:0:
256,192,99026,1,8,0:0:0:0:
256,192,99051,1,8,0:0:0:0:
256,192,99175,1,8,0:0:0:0:
256,192,99200,1,8,0:0:0:0:
256,192,99324,1,8,0:0:0:0:
256,192,99349,1,8,0:0:0:0:
256,192,99473,1,4,0:0:0:0:
256,192,99623,1,8,0:0:0:0:
256,192,99772,1,0,0:0:0:0:
256,192,99921,1,8,0:0:0:0:
256,192,100070,1,0,0:0:0:0:
256,192,100220,1,8,0:0:0:0:
256,192,100369,1,0,0:0:0:0:
256,192,100518,1,8,0:0:0:0:
256,192,100667,1,0,0:0:0:0:
256,0,100817,1,12,0:0:0:0:
256,192,100966,1,0,0:0:0:0:
256,192,101115,1,8,0:0:0:0:
256,192,101165,1,8,0:0:0:0:
256,192,101215,1,8,0:0:0:0:
256,192,101264,1,8,0:0:0:0:
256,192,101314,1,8,0:0:0:0:
256,0,101414,1,4,0:0:0:0:
256,0,101563,1,4,0:0:0:0:
256,0,101712,1,4,0:0:0:0:
256,192,101862,12,4,102160,0:0:0:0:
256,192,102309,5,0,0:0:0:0:
256,192,102384,1,0,0:0:0:0:
256,192,102459,1,0,0:0:0:0:
256,192,102533,1,0,0:0:0:0:
256,192,102608,1,8,0:0:0:0:
256,192,102757,1,0,0:0:0:0:
256,192,102906,1,8,0:0:0:0:
256,192,102981,1,8,0:0:0:0:
256,192,103056,1,0,0:0:0:0:
256,192,103130,1,0,0:0:0:0:
256,0,103205,1,12,0:0:0:0:
256,192,103354,1,0,0:0:0:0:
256,192,103503,1,8,0:0:0:0:
256,192,103653,1,0,0:0:0:0:
256,192,103727,1,0,0:0:0:0:
256,192,103802,1,8,0:0:0:0:
256,192,103876,1,0,0:0:0:0:
256,192,103951,1,8,0:0:0:0:
256,192,104026,1,0,0:0:0:0:
256,192,104100,1,8,0:0:0:0:
256,192,104175,1,0,0:0:0:0:
256,192,104250,1,8,0:0:0:0:
256,192,104324,1,0,0:0:0:0:
256,192,104399,1,8,0:0:0:0:
256,192,104473,1,8,0:0:0:0:
256,192,104548,1,8,0:0:0:0:
256,192,104623,1,8,0:0:0:0:
256,192,104697,1,8,0:0:0:0:
256,192,104772,1,8,0:0:0:0:
256,192,104847,1,8,0:0:0:0:
256,192,104921,1,8,0:0:0:0:
256,192,104996,1,0,0:0:0:0:
256,192,105070,1,8,0:0:0:0:
256,192,105145,1,8,0:0:0:0:
256,192,105220,1,8,0:0:0:0:
256,192,105294,1,0,0:0:0:0:
256,192,105369,1,0,0:0:0:0:
256,192,105444,1,0,0:0:0:0:
256,192,105518,1,0,0:0:0:0:
256,0,105593,5,12,0:0:0:0:
256,192,105742,1,0,0:0:0:0:
256,192,105891,1,8,0:0:0:0:
256,192,105941,1,8,0:0:0:0:
256,192,105991,1,8,0:0:0:0:
256,192,106040,1,8,0:0:0:0:
256,192,106090,1,8,0:0:0:0:
256,0,106190,1,4,0:0:0:0:
256,0,106339,1,4,0:0:0:0:
256,0,106488,1,4,0:0:0:0:
256,192,106637,12,4,107309,0:0:0:0:
256,192,107384,5,0,0:0:0:0:
256,192,107458,1,0,0:0:0:0:
256,192,107533,1,8,0:0:0:0:
256,192,107608,1,8,0:0:0:0:
256,192,107682,1,0,0:0:0:0:
256,192,107757,1,0,0:0:0:0:
256,192,107831,1,8,0:0:0:0:
256,192,107906,1,0,0:0:0:0:
256,0,107981,1,12,0:0:0:0:
256,192,108279,1,8,0:0:0:0:
256,192,108329,1,8,0:0:0:0:
256,192,108379,1,8,0:0:0:0:
256,192,108428,1,0,0:0:0:0:
256,192,108578,1,8,0:0:0:0:
256,192,108603,1,8,0:0:0:0:
256,192,108727,1,8,0:0:0:0:
256,192,108752,1,8,0:0:0:0:
256,192,108876,1,8,0:0:0:0:
256,192,108901,1,8,0:0:0:0:
256,192,109025,1,4,0:0:0:0:
256,192,109175,1,8,0:0:0:0:
256,192,109324,1,0,0:0:0:0:
256,192,109473,1,8,0:0:0:0:
256,192,109622,1,0,0:0:0:0:
256,192,109772,1,8,0:0:0:0:
256,192,109847,1,8,0:0:0:0:
256,192,109921,1,0,0:0:0:0:
256,192,109996,1,0,0:0:0:0:
256,192,110070,1,8,0:0:0:0:
256,192,110145,1,0,0:0:0:0:
256,192,110219,1,8,0:0:0:0:
256,192,110294,1,0,0:0:0:0:
256,64,110369,2,12,L|256:288,1,210
256,192,110966,1,8,0:0:0:0:
256,192,111016,1,8,0:0:0:0:
256,192,111066,1,8,0:0:0:0:
256,192,111115,1,8,0:0:0:0:
256,192,111165,1,8,0:0:0:0:
256,192,111215,1,8,0:0:0:0:
256,192,111265,1,0,0:0:0:0:
256,192,111414,1,8,0:0:0:0:
256,192,111439,1,8,0:0:0:0:
256,192,111563,1,0,0:0:0:0:
256,192,111588,1,0,0:0:0:0:
256,192,111712,1,8,0:0:0:0:
256,192,111737,1,8,0:0:0:0:
256,192,111861,1,0,0:0:0:0:
256,192,111886,1,0,0:0:0:0:
256,192,112011,1,8,0:0:0:0:
256,192,112036,1,8,0:0:0:0:
256,192,112160,1,0,0:0:0:0:
256,192,112185,1,0,0:0:0:0:
256,192,112309,1,0,0:0:0:0:
256,192,112459,1,0,0:0:0:0:
256,192,112533,1,0,0:0:0:0:
256,192,112608,1,0,0:0:0:0:
256,192,112682,1,0,0:0:0:0:
256,192,112757,1,12,0:0:0:0:
256,192,112906,1,0,0:0:0:0:
256,192,112981,1,0,0:0:0:0:
256,192,113056,1,8,0:0:0:0:
256,192,113130,1,0,0:0:0:0:
256,192,113205,1,8,0:0:0:0:
256,192,113279,1,0,0:0:0:0:
256,192,113354,1,8,0:0:0:0:
256,192,113429,1,8,0:0:0:0:
256,192,113503,1,8,0:0:0:0:
256,192,113578,1,8,0:0:0:0:
256,192,113653,1,0,0:0:0:0:
256,192,113727,1,8,0:0:0:0:
256,192,113802,1,8,0:0:0:0:
256,192,113876,1,0,0:0:0:0:
256,192,113951,1,12,0:0:0:0:
256,192,114100,1,0,0:0:0:0:
256,192,114175,1,0,0:0:0:0:
256,192,114250,1,8,0:0:0:0:
256,192,114324,1,0,0:0:0:0:
256,192,114399,1,8,0:0:0:0:
256,192,114548,1,4,0:0:0:0:
256,192,114697,1,4,0:0:0:0:
256,192,114847,1,4,0:0:0:0:
256,192,114996,1,4,0:0:0:0:
256,192,115145,1,12,0:0:0:0:
256,192,115294,1,0,0:0:0:0:
256,192,115443,1,8,0:0:0:0:
256,192,115493,1,8,0:0:0:0:
256,192,115543,1,8,0:0:0:0:
256,192,115592,1,8,0:0:0:0:
256,192,115642,1,8,0:0:0:0:
256,0,115742,1,4,0:0:0:0:
256,0,115891,1,4,0:0:0:0:
256,0,116040,1,4,0:0:0:0:
256,192,116189,12,0,116488,0:0:0:0:
256,192,116638,5,8,0:0:0:0:
256,192,116712,1,0,0:0:0:0:
256,192,116787,1,8,0:0:0:0:
256,192,116862,1,8,0:0:0:0:
256,192,116936,5,0,0:0:0:0:
256,192,117010,1,0,0:0:0:0:
256,192,117085,1,8,0:0:0:0:
256,192,117160,1,8,0:0:0:0:
256,192,117234,1,0,0:0:0:0:
256,192,117309,1,0,0:0:0:0:
256,192,117383,1,8,0:0:0:0:
256,192,117458,1,0,0:0:0:0:
256,0,117533,1,12,0:0:0:0:
256,192,117682,1,0,0:0:0:0:
256,192,117831,1,8,0:0:0:0:
256,192,117881,1,8,0:0:0:0:
256,192,117931,1,8,0:0:0:0:
256,192,117980,1,0,0:0:0:0:
256,192,118130,1,8,0:0:0:0:
256,192,118155,1,8,0:0:0:0:
256,192,118279,1,8,0:0:0:0:
256,192,118304,1,8,0:0:0:0:
256,192,118428,1,8,0:0:0:0:
256,192,118453,1,8,0:0:0:0:
256,192,118577,1,4,0:0:0:0:
256,192,118727,1,8,0:0:0:0:
256,192,118876,1,0,0:0:0:0:
256,192,119025,1,8,0:0:0:0:
256,192,119174,1,0,0:0:0:0:
256,192,119324,1,8,0:0:0:0:
256,192,119473,1,0,0:0:0:0:
256,192,119622,1,8,0:0:0:0:
256,192,119771,1,0,0:0:0:0:
256,0,119921,1,12,0:0:0:0:
256,192,120070,1,0,0:0:0:0:
256,192,120219,1,8,0:0:0:0:
256,192,120269,1,8,0:0:0:0:
256,192,120319,1,8,0:0:0:0:
256,192,120368,1,8,0:0:0:0:
256,192,120418,1,8,0:0:0:0:
256,0,120518,1,4,0:0:0:0:
256,0,120667,1,4,0:0:0:0:
256,0,120816,1,4,0:0:0:0:
256,192,120966,12,0,121264,0:0:0:0:
256,192,121413,5,0,0:0:0:0:
256,192,121488,1,0,0:0:0:0:
256,192,121563,1,8,0:0:0:0:
256,192,121637,1,0,0:0:0:0:
256,192,121712,1,8,0:0:0:0:
256,192,121861,1,0,0:0:0:0:
256,192,122010,1,8,0:0:0:0:
256,192,122085,1,8,0:0:0:0:
256,192,122160,1,0,0:0:0:0:
256,192,122234,1,0,0:0:0:0:
256,0,122309,1,12,0:0:0:0:
256,192,122458,1,0,0:0:0:0:
256,192,122607,1,8,0:0:0:0:
256,192,122682,1,8,0:0:0:0:
256,192,122757,1,0,0:0:0:0:
256,192,122832,1,0,0:0:0:0:
256,192,122906,1,8,0:0:0:0:
256,192,122981,1,0,0:0:0:0:
256,192,123056,1,8,0:0:0:0:
256,192,123130,1,0,0:0:0:0:
256,192,123205,1,8,0:0:0:0:
256,192,123279,1,8,0:0:0:0:
256,192,123354,1,0,0:0:0:0:
256,192,123404,1,0,0:0:0:0:
256,192,123454,1,8,0:0:0:0:
256,192,123503,1,8,0:0:0:0:
256,192,123653,1,0,0:0:0:0:
256,192,123727,1,8,0:0:0:0:
256,192,123802,1,8,0:0:0:0:
256,192,123876,1,0,0:0:0:0:
256,192,123951,1,8,0:0:0:0:
256,192,124026,1,8,0:0:0:0:
256,192,124100,1,0,0:0:0:0:
256,192,124150,1,0,0:0:0:0:
256,192,124200,1,0,0:0:0:0:
256,192,124250,1,0,0:0:0:0:
256,192,124299,1,0,0:0:0:0:
256,192,124349,1,0,0:0:0:0:
256,192,124399,1,8,0:0:0:0:
256,192,124548,1,0,0:0:0:0:
256,0,124697,5,12,0:0:0:0:
256,192,124846,1,0,0:0:0:0:
256,192,124995,1,8,0:0:0:0:
256,192,125045,1,8,0:0:0:0:
256,192,125095,1,8,0:0:0:0:
256,192,125144,1,8,0:0:0:0:
256,192,125194,1,8,0:0:0:0:
256,0,125294,1,4,0:0:0:0:
256,0,125443,1,4,0:0:0:0:
256,0,125592,1,4,0:0:0:0:
256,192,125742,12,0,126042,0:0:0:0:
256,192,126190,5,8,0:0:0:0:
256,192,126265,1,0,0:0:0:0:
256,192,126339,1,8,0:0:0:0:
256,192,126414,1,8,0:0:0:0:
256,192,126488,5,0,0:0:0:0:
256,192,126562,1,0,0:0:0:0:
256,192,126637,1,8,0:0:0:0:
256,192,126712,1,8,0:0:0:0:
256,192,126786,1,0,0:0:0:0:
256,192,126861,1,0,0:0:0:0:
256,192,126935,1,8,0:0:0:0:
256,192,127010,1,0,0:0:0:0:
256,0,127085,1,12,0:0:0:0:
256,192,127235,1,0,0:0:0:0:
256,192,127383,1,8,0:0:0:0:
256,192,127433,1,8,0:0:0:0:
256,192,127483,1,8,0:0:0:0:
256,192,127532,1,0,0:0:0:0:
256,192,127682,1,8,0:0:0:0:
256,192,127707,1,8,0:0:0:0:
256,192,127831,1,8,0:0:0:0:
256,192,127856,1,8,0:0:0:0:
256,192,127980,1,8,0:0:0:0:
256,192,128005,1,8,0:0:0:0:
256,192,128129,1,4,0:0:0:0:
256,192,128279,1,8,0:0:0:0:
256,192,128428,1,0,0:0:0:0:
256,192,128577,1,8,0:0:0:0:
256,192,128726,1,0,0:0:0:0:
256,192,128876,1,8,0:0:0:0:
256,192,128951,1,8,0:0:0:0:
256,192,129025,1,0,0:0:0:0:
256,192,129100,1,0,0:0:0:0:
256,192,129174,1,8,0:0:0:0:
256,192,129249,1,0,0:0:0:0:
256,192,129323,1,8,0:0:0:0:
256,192,129398,1,0,0:0:0:0:
256,0,129473,1,12,0:0:0:0:
256,192,129623,1,0,0:0:0:0:
256,192,129772,1,0,0:0:0:0:
256,192,129822,1,8,0:0:0:0:
256,192,129871,1,8,0:0:0:0:
256,192,129921,1,0,0:0:0:0:
256,192,130070,1,8,0:0:0:0:
256,192,130095,1,8,0:0:0:0:
256,192,130220,1,8,0:0:0:0:
256,192,130245,1,8,0:0:0:0:
256,192,130369,1,8,0:0:0:0:
256,192,130394,1,8,0:0:0:0:
256,192,130518,1,8,0:0:0:0:
256,192,130593,12,0,130817,0:0:0:0:
256,192,130966,5,8,0:0:0:0:
256,192,131115,1,0,0:0:0:0:
256,192,131190,1,8,0:0:0:0:
256,192,131265,1,0,0:0:0:0:
256,192,131339,1,0,0:0:0:0:
256,192,131414,1,8,0:0:0:0:
256,192,131488,1,8,0:0:0:0:
256,192,131563,1,0,0:0:0:0:
256,192,131638,1,0,0:0:0:0:
256,192,131712,1,8,0:0:0:0:
256,192,131787,1,0,0:0:0:0:
256,192,131862,1,8,0:0:0:0:
256,192,131911,1,8,0:0:0:0:
256,192,131961,1,8,0:0:0:0:
256,192,132011,1,0,0:0:0:0:
256,192,132160,1,0,0:0:0:0:
256,192,132210,1,0,0:0:0:0:
256,192,132260,1,0,0:0:0:0:
256,192,132309,1,8,0:0:0:0:
256,192,132384,1,0,0:0:0:0:
256,192,132459,1,8,0:0:0:0:
256,192,132533,1,8,0:0:0:0:
256,192,132608,1,0,0:0:0:0:
256,192,132682,1,8,0:0:0:0:
256,192,132757,1,0,0:0:0:0:
256,192,132832,1,0,0:0:0:0:
256,192,132906,1,8,0:0:0:0:
256,192,132981,1,0,0:0:0:0:
256,192,133056,1,8,0:0:0:0:
256,192,133130,1,0,0:0:0:0:
256,0,133205,1,12,0:0:0:0:
256,192,133354,1,0,0:0:0:0:
256,192,133429,1,0,0:0:0:0:
256,192,133503,1,8,0:0:0:0:
256,192,133578,1,0,0:0:0:0:
256,192,133653,1,8,0:0:0:0:
256,192,133727,1,8,0:0:0:0:
256,192,133802,1,0,0:0:0:0:
256,192,133876,1,0,0:0:0:0:
256,192,133951,1,8,0:0:0:0:
256,192,134026,1,8,0:0:0:0:
256,192,134100,1,8,0:0:0:0:
256,192,134175,1,8,0:0:0:0:
256,0,134250,1,4,0:0:0:0:
256,0,134399,1,4,0:0:0:0:
256,192,134548,1,8,0:0:0:0:
256,192,134623,1,0,0:0:0:0:
256,192,134697,1,8,0:0:0:0:
256,192,134847,1,8,0:0:0:0:
256,192,134996,1,8,0:0:0:0:
256,0,135145,1,4,0:0:0:0:
256,0,135294,1,4,0:0:0:0:
256,192,135444,1,8,0:0:0:0:
256,192,135518,1,0,0:0:0:0:
256,192,135593,1,8,0:0:0:0:
256,192,135742,1,8,0:0:0:0:
256,192,135891,1,0,0:0:0:0:
256,192,135966,1,0,0:0:0:0:
256,192,136041,1,8,0:0:0:0:
256,192,136115,1,0,0:0:0:0:
256,192,136190,1,8,0:0:0:0:
256,192,136339,1,8,0:0:0:0:
256,192,136488,1,8,0:0:0:0:
256,0,136638,1,4,0:0:0:0:
256,0,136787,1,4,0:0:0:0:
256,192,136936,1,8,0:0:0:0:
256,192,137085,1,8,0:0:0:0:
256,192,137160,1,0,0:0:0:0:
256,192,137235,1,8,0:0:0:0:
256,192,137384,1,8,0:0:0:0:
256,0,137533,1,4,0:0:0:0:
256,0,137682,1,4,0:0:0:0:
256,192,137832,1,8,0:0:0:0:
256,192,137981,1,8,0:0:0:0:
256,192,138056,1,0,0:0:0:0:
256,192,138130,1,8,0:0:0:0:
256,192,138279,1,8,0:0:0:0:
256,192,138354,1,8,0:0:0:0:
256,192,138429,1,0,0:0:0:0:
256,192,138503,1,0,0:0:0:0:
256,192,138578,1,8,0:0:0:0:
256,192,138653,1,0,0:0:0:0:
256,192,138727,1,8,0:0:0:0:
256,192,138876,1,8,0:0:0:0:
256,0,139026,1,4,0:0:0:0:
256,0,139175,1,4,0:0:0:0:
256,192,139324,1,8,0:0:0:0:
256,192,139399,1,0,0:0:0:0:
256,192,139473,1,8,0:0:0:0:
256,192,139623,1,8,0:0:0:0:
256,192,139772,1,8,0:0:0:0:
256,0,139921,1,4,0:0:0:0:
256,0,140070,1,4,0:0:0:0:
256,192,140220,1,8,0:0:0:0:
256,192,140294,1,0,0:0:0:0:
256,192,140369,1,8,0:0:0:0:
256,192,140518,1,8,0:0:0:0:
256,192,140667,1,0,0:0:0:0:
256,192,140742,1,0,0:0:0:0:
256,192,140817,1,8,0:0:0:0:
256,192,140891,1,0,0:0:0:0:
256,192,140966,1,8,0:0:0:0:
256,192,141041,1,0,0:0:0:0:
256,192,141115,1,8,0:0:0:0:
256,192,141190,1,0,0:0:0:0:
256,192,141264,1,8,0:0:0:0:
256,0,141414,1,4,0:0:0:0:
256,0,141563,1,4,0:0:0:0:
256,192,141712,1,8,0:0:0:0:
256,192,141861,1,8,0:0:0:0:
256,192,141936,1,0,0:0:0:0:
256,192,142011,1,8,0:0:0:0:
256,192,142160,1,8,0:0:0:0:
256,0,142309,1,4,0:0:0:0:
256,0,142458,1,4,0:0:0:0:
256,192,142608,1,8,0:0:0:0:
256,192,142757,1,8,0:0:0:0:
256,192,142832,1,0,0:0:0:0:
256,192,142906,1,8,0:0:0:0:
256,192,143055,1,8,0:0:0:0:
256,192,143205,1,0,0:0:0:0:
256,192,143255,1,0,0:0:0:0:
256,192,143304,1,0,0:0:0:0:
256,192,143354,1,8,0:0:0:0:
256,192,143404,1,8,0:0:0:0:
256,192,143454,1,8,0:0:0:0:
256,192,143503,1,0,0:0:0:0:
256,192,143553,1,0,0:0:0:0:
256,192,143603,1,0,0:0:0:0:
256,192,143653,1,8,0:0:0:0:
256,0,143802,1,4,0:0:0:0:
256,0,143951,1,4,0:0:0:0:
256,192,144250,1,12,0:0:0:0:
256,192,144399,1,12,0:0:0:0:
256,0,144697,1,4,0:0:0:0:
256,0,144847,1,4,0:0:0:0:
256,192,145145,1,12,0:0:0:0:
256,192,145294,1,12,0:0:0:0:
256,192,145593,1,0,0:0:0:0:
256,192,145643,1,0,0:0:0:0:
256,192,145692,1,0,0:0:0:0:
256,192,145742,1,8,0:0:0:0:
256,192,145891,1,8,0:0:0:0:
256,192,146041,1,8,0:0:0:0:
256,0,146190,1,4,0:0:0:0:
256,0,146339,1,4,0:0:0:0:
256,192,146638,1,12,0:0:0:0:
256,192,146787,1,12,0:0:0:0:
256,0,147085,1,4,0:0:0:0:
256,0,147235,1,4,0:0:0:0:
256,192,147533,1,12,0:0:0:0:
256,192,147682,1,12,0:0:0:0:
256,192,147981,1,0,0:0:0:0:
256,192,148056,12,0,148429,0:0:0:0:
256,0,148578,5,4,0:0:0:0:
256,0,148727,1,4,0:0:0:0:
256,192,149026,1,12,0:0:0:0:
256,192,149175,1,12,0:0:0:0:
256,0,149473,1,4,0:0:0:0:
256,0,149623,1,4,0:0:0:0:
256,192,149921,1,12,0:0:0:0:
256,192,150070,1,12,0:0:0:0:
256,192,150369,1,0,0:0:0:0:
256,192,150419,1,8,0:0:0:0:
256,192,150468,1,8,0:0:0:0:
256,192,150518,1,8,0:0:0:0:
256,192,150568,1,8,0:0:0:0:
256,192,150618,1,8,0:0:0:0:
256,192,150668,1,0,0:0:0:0:
256,0,150966,1,12,0:0:0:0:
256,0,151115,1,4,0:0:0:0:
256,0,151414,1,12,0:0:0:0:
256,0,151563,1,4,0:0:0:0:
256,0,151862,1,12,0:0:0:0:
256,0,152011,1,4,0:0:0:0:
256,0,152309,1,12,0:0:0:0:
256,0,152458,1,12,0:0:0:0:
256,192,152757,1,8,0:0:0:0:
256,192,152832,1,8,0:0:0:0:
256,192,152906,1,0,0:0:0:0:
256,192,152981,1,0,0:0:0:0:
256,192,153056,1,8,0:0:0:0:
256,192,153130,1,0,0:0:0:0:
256,192,153205,1,8,0:0:0:0:
256,192,153279,1,0,0:0:0:0:
256,192,153354,12,0,158130,0:0:0:0:
256,192,166488,5,8,0:0:0:0:
256,192,166637,1,0,0:0:0:0:
256,192,166712,1,0,0:0:0:0:
256,192,166787,1,8,0:0:0:0:
256,192,166861,1,8,0:0:0:0:
256,192,166936,1,0,0:0:0:0:
256,192,167011,1,8,0:0:0:0:
256,192,167085,1,0,0:0:0:0:
256,192,167160,1,0,0:0:0:0:
256,192,167234,1,8,0:0:0:0:
256,192,167309,1,0,0:0:0:0:
256,192,167384,1,8,0:0:0:0:
256,192,167533,1,8,0:0:0:0:
256,0,167682,1,4,0:0:0:0:
256,192,167981,1,8,0:0:0:0:
256,0,168279,1,4,0:0:0:0:
256,0,168428,1,4,0:0:0:0:
256,0,168727,1,4,0:0:0:0:
256,192,169175,5,8,0:0:0:0:
256,192,169249,1,8,0:0:0:0:
256,192,169324,1,8,0:0:0:0:
256,192,169399,1,8,0:0:0:0:
256,192,169473,1,0,0:0:0:0:
256,192,169623,1,8,0:0:0:0:
256,192,169772,1,0,0:0:0:0:
256,0,170070,1,4,0:0:0:0:
256,192,170369,1,8,0:0:0:0:
256,0,170667,1,4,0:0:0:0:
256,0,170816,1,4,0:0:0:0:
256,0,171115,1,4,0:0:0:0:
256,192,171414,1,0,0:0:0:0:
256,192,171488,1,8,0:0:0:0:
256,192,171563,1,0,0:0:0:0:
256,192,171712,1,8,0:0:0:0:
256,192,171787,1,8,0:0:0:0:
256,192,171861,1,0,0:0:0:0:
256,192,172011,1,8,0:0:0:0:
256,192,172085,1,8,0:0:0:0:
256,192,172160,1,0,0:0:0:0:
256,192,172234,1,0,0:0:0:0:
256,192,172309,1,8,0:0:0:0:
256,0,172458,1,4,0:0:0:0:
256,192,172757,1,8,0:0:0:0:
256,0,173055,1,4,0:0:0:0:
256,0,173205,1,4,0:0:0:0:
256,0,173503,1,4,0:0:0:0:
256,192,173951,1,8,0:0:0:0:
256,192,174025,1,8,0:0:0:0:
256,192,174100,1,8,0:0:0:0:
256,192,174249,1,0,0:0:0:0:
256,192,174399,1,0,0:0:0:0:
256,192,174548,1,8,0:0:0:0:
256,0,174846,1,4,0:0:0:0:
256,192,175145,1,0,0:0:0:0:
256,192,175220,1,0,0:0:0:0:
256,192,175294,1,0,0:0:0:0:
256,192,175369,1,0,0:0:0:0:
256,192,175443,1,8,0:0:0:0:
256,192,175518,1,8,0:0:0:0:
256,192,175593,1,8,0:0:0:0:
256,192,175667,1,0,0:0:0:0:
256,192,175742,1,8,0:0:0:0:
256,192,175817,1,0,0:0:0:0:
256,192,175891,1,8,0:0:0:0:
256,0,176040,1,4,0:0:0:0:
256,192,176787,1,8,0:0:0:0:
256,192,176836,1,8,0:0:0:0:
256,192,176886,1,8,0:0:0:0:
256,192,176936,1,8,0:0:0:0:
256,192,177085,1,0,0:0:0:0:
256,0,177234,1,12,0:0:0:0:
256,192,177384,1,0,0:0:0:0:
256,192,177459,1,8,0:0:0:0:
256,192,177533,1,8,0:0:0:0:
256,192,177608,1,0,0:0:0:0:
256,192,177682,1,8,0:0:0:0:
256,192,177757,1,0,0:0:0:0:
256,192,177832,1,8,0:0:0:0:
256,192,177906,1,8,0:0:0:0:
256,192,177981,1,0,0:0:0:0:
256,192,178056,1,0,0:0:0:0:
256,192,178130,1,8,0:0:0:0:
256,192,178205,1,0,0:0:0:0:
256,192,178279,1,8,0:0:0:0:
256,192,178354,1,8,0:0:0:0:
256,192,178429,1,0,0:0:0:0:
256,192,178503,1,0,0:0:0:0:
256,192,178578,1,8,0:0:0:0:
256,192,178653,1,0,0:0:0:0:
256,192,178727,1,8,0:0:0:0:
256,192,178802,1,8,0:0:0:0:
256,192,178876,1,8,0:0:0:0:
256,192,178951,1,0,0:0:0:0:
256,0,179026,1,12,0:0:0:0:
256,192,179175,1,0,0:0:0:0:
256,0,179324,1,12,0:0:0:0:
256,192,179473,1,0,0:0:0:0:
256,0,179623,1,12,0:0:0:0:
256,192,179772,1,0,0:0:0:0:
256,192,179847,1,8,0:0:0:0:
256,192,179921,1,8,0:0:0:0:
256,192,179996,1,0,0:0:0:0:
256,192,180070,1,8,0:0:0:0:
256,192,180145,1,0,0:0:0:0:
256,192,180220,1,8,0:0:0:0:
256,192,180294,1,8,0:0:0:0:
256,192,180369,1,8,0:0:0:0:
256,192,180444,1,0,0:0:0:0:
256,192,180518,1,8,0:0:0:0:
256,192,180593,1,0,0:0:0:0:
256,192,180668,1,8,0:0:0:0:
256,192,180743,1,8,0:0:0:0:
256,192,180817,1,8,0:0:0:0:
256,192,180892,1,0,0:0:0:0:
256,192,180966,1,8,0:0:0:0:
256,192,181041,1,0,0:0:0:0:
256,192,181116,1,8,0:0:0:0:
256,192,181190,1,8,0:0:0:0:
256,192,181265,1,8,0:0:0:0:
256,192,181340,1,8,0:0:0:0:
256,0,181414,1,4,0:0:0:0:
256,192,181563,1,8,0:0:0:0:
256,0,181712,1,4,0:0:0:0:
256,192,181862,1,8,0:0:0:0:
256,0,182011,1,4,0:0:0:0:
256,192,182160,1,0,0:0:0:0:
256,192,182235,1,8,0:0:0:0:
256,192,182309,1,8,0:0:0:0:
256,192,182384,1,0,0:0:0:0:
256,192,182458,1,8,0:0:0:0:
256,192,182533,1,0,0:0:0:0:
256,192,182608,1,8,0:0:0:0:
256,192,182682,1,8,0:0:0:0:
256,192,182757,1,0,0:0:0:0:
256,192,182832,1,0,0:0:0:0:
256,192,182906,1,8,0:0:0:0:
256,192,182981,1,0,0:0:0:0:
256,192,183055,1,8,0:0:0:0:
256,192,183130,1,8,0:0:0:0:
256,192,183205,1,0,0:0:0:0:
256,192,183279,1,0,0:0:0:0:
256,192,183354,1,8,0:0:0:0:
256,192,183429,1,0,0:0:0:0:
256,192,183503,1,8,0:0:0:0:
256,192,183578,1,8,0:0:0:0:
256,192,183652,1,8,0:0:0:0:
256,192,183727,1,0,0:0:0:0:
256,0,183802,1,12,0:0:0:0:
256,192,183951,1,0,0:0:0:0:
256,192,184001,1,8,0:0:0:0:
256,192,184051,1,8,0:0:0:0:
256,192,184100,1,8,0:0:0:0:
256,192,184250,1,0,0:0:0:0:
256,0,184399,1,12,0:0:0:0:
256,192,184548,1,0,0:0:0:0:
256,192,184623,1,0,0:0:0:0:
256,192,184697,1,8,0:0:0:0:
256,192,184772,1,0,0:0:0:0:
256,192,184847,1,0,0:0:0:0:
256,0,184996,1,12,0:0:0:0:
256,192,185145,1,0,0:0:0:0:
256,192,185220,1,0,0:0:0:0:
256,192,185294,1,8,0:0:0:0:
256,192,185369,1,0,0:0:0:0:
256,192,185444,1,0,0:0:0:0:
256,0,185593,1,12,0:0:0:0:
256,192,185742,1,0,0:0:0:0:
256,192,185817,1,8,0:0:0:0:
256,192,185891,1,8,0:0:0:0:
256,192,185966,1,0,0:0:0:0:
256,192,186041,1,8,0:0:0:0:
256,192,186339,1,4,0:0:0:0:
256,192,186488,1,4,0:0:0:0:
256,192,186638,1,4,0:0:0:0:
256,64,186787,2,4,L|256:160,1,70
256,192,187085,1,12,0:0:0:0:
256,192,187235,1,0,0:0:0:0:
256,192,187310,1,0,0:0:0:0:
256,192,187385,1,8,0:0:0:0:
256,192,187459,1,8,0:0:0:0:
256,192,187534,1,0,0:0:0:0:
256,192,187609,1,0,0:0:0:0:
256,192,187683,1,8,0:0:0:0:
256,192,187758,1,0,0:0:0:0:
256,192,187832,1,8,0:0:0:0:
256,192,187907,1,8,0:0:0:0:
256,192,187982,1,0,0:0:0:0:
256,192,188056,1,0,0:0:0:0:
256,192,188131,1,8,0:0:0:0:
256,192,188206,1,0,0:0:0:0:
256,192,188280,1,8,0:0:0:0:
256,192,188355,1,8,0:0:0:0:
256,192,188429,1,8,0:0:0:0:
256,192,188504,1,0,0:0:0:0:
256,0,188579,1,12,0:0:0:0:
256,192,188728,1,0,0:0:0:0:
256,0,188877,1,12,0:0:0:0:
256,192,189026,1,0,0:0:0:0:
256,0,189176,1,12,0:0:0:0:
256,192,189325,1,0,0:0:0:0:
256,192,189400,1,8,0:0:0:0:
256,192,189474,1,8,0:0:0:0:
256,192,189549,1,0,0:0:0:0:
256,192,189623,1,8,0:0:0:0:
256,192,189698,1,0,0:0:0:0:
256,192,189773,1,8,0:0:0:0:
256,192,189847,1,8,0:0:0:0:
256,192,189922,1,8,0:0:0:0:
256,192,189997,1,0,0:0:0:0:
256,192,190071,1,8,0:0:0:0:
256,192,190146,1,0,0:0:0:0:
256,192,190221,1,8,0:0:0:0:
256,192,190294,1,8,0:0:0:0:
256,192,190369,1,8,0:0:0:0:
256,192,190444,1,0,0:0:0:0:
256,192,190518,1,8,0:0:0:0:
256,192,190593,1,0,0:0:0:0:
256,192,190668,1,8,0:0:0:0:
256,192,190742,1,8,0:0:0:0:
256,192,190817,1,8,0:0:0:0:
256,192,190891,1,8,0:0:0:0:
256,0,190966,1,4,0:0:0:0:
256,192,191116,1,8,0:0:0:0:
256,0,191265,1,4,0:0:0:0:
256,192,191415,1,8,0:0:0:0:
256,0,191564,1,4,0:0:0:0:
256,192,191713,1,0,0:0:0:0:
256,192,191788,1,8,0:0:0:0:
256,192,191862,1,8,0:0:0:0:
256,192,191937,1,0,0:0:0:0:
256,192,192011,1,8,0:0:0:0:
256,192,192086,1,0,0:0:0:0:
256,192,192161,1,8,0:0:0:0:
256,192,192235,1,8,0:0:0:0:
256,192,192310,1,0,0:0:0:0:
256,192,192385,1,0,0:0:0:0:
256,192,192459,1,8,0:0:0:0:
256,192,192534,1,0,0:0:0:0:
256,192,192608,1,8,0:0:0:0:
256,192,192683,1,8,0:0:0:0:
256,192,192758,1,0,0:0:0:0:
256,192,192832,1,0,0:0:0:0:
256,192,192907,1,8,0:0:0:0:
256,192,192982,1,0,0:0:0:0:
256,192,193056,1,8,0:0:0:0:
256,192,193131,1,8,0:0:0:0:
256,192,193205,1,8,0:0:0:0:
256,192,193280,1,0,0:0:0:0:
256,0,193355,1,12,0:0:0:0:
256,192,193504,1,0,0:0:0:0:
256,192,193554,1,8,0:0:0:0:
256,192,193604,1,8,0:0:0:0:
256,192,193653,1,8,0:0:0:0:
256,192,193803,1,0,0:0:0:0:
256,0,193952,1,12,0:0:0:0:
256,192,194101,1,0,0:0:0:0:
256,192,194176,1,0,0:0:0:0:
256,192,194250,1,12,0:0:0:0:
256,192,194399,1,0,0:0:0:0:
256,0,194549,1,12,0:0:0:0:
256,192,194698,1,0,0:0:0:0:
256,192,194773,1,0,0:0:0:0:
256,192,194847,1,12,0:0:0:0:
256,192,194997,1,0,0:0:0:0:
256,0,195146,1,12,0:0:0:0:
256,192,195294,1,0,0:0:0:0:
256,192,195369,1,8,0:0:0:0:
256,192,195444,1,0,0:0:0:0:
256,192,195593,1,8,0:0:0:0:
256,192,195668,1,8,0:0:0:0:
256,192,195742,1,0,0:0:0:0:
256,192,195891,1,0,0:0:0:0:
256,192,195966,1,8,0:0:0:0:
256,192,196041,1,8,0:0:0:0:
256,192,196115,1,0,0:0:0:0:
256,192,196190,1,8,0:0:0:0:
256,192,196265,1,0,0:0:0:0:
256,192,196339,1,12,0:0:0:0:
256,192,196488,1,12,0:0:0:0:
256,192,196638,1,12,0:0:0:0:
256,192,196787,1,0,0:0:0:0:
256,192,196862,1,0,0:0:0:0:
256,192,196936,1,8,0:0:0:0:
256,192,196986,1,8,0:0:0:0:
256,192,197036,1,8,0:0:0:0:
256,192,197085,1,0,0:0:0:0:
256,192,197160,1,8,0:0:0:0:
256,192,197235,1,8,0:0:0:0:
256,192,197309,1,0,0:0:0:0:
256,192,197384,1,8,0:0:0:0:
256,192,197533,1,8,0:0:0:0:
256,192,197608,1,8,0:0:0:0:
256,192,197682,1,0,0:0:0:0:
256,192,197757,1,0,0:0:0:0:
256,192,197832,1,8,0:0:0:0:
256,192,197906,1,0,0:0:0:0:
256,192,197981,1,0,0:0:0:0:
256,192,198056,1,0,0:0:0:0:
256,192,198130,1,8,0:0:0:0:
256,192,198205,1,8,0:0:0:0:
256,192,198279,1,8,0:0:0:0:
256,192,198354,1,0,0:0:0:0:
256,192,198429,1,8,0:0:0:0:
256,192,198478,1,0,0:0:0:0:
256,192,198528,1,0,0:0:0:0:
256,192,198578,1,8,0:0:0:0:
256,192,198653,1,0,0:0:0:0:
256,192,198727,1,8,0:0:0:0:
256,192,198876,1,8,0:0:0:0:
256,192,199026,1,0,0:0:0:0:
256,192,199100,1,0,0:0:0:0:
256,192,199175,1,0,0:0:0:0:
256,192,199324,1,8,0:0:0:0:
256,192,199399,1,8,0:0:0:0:
256,192,199473,1,8,0:0:0:0:
256,192,199623,1,0,0:0:0:0:
256,192,199772,1,8,0:0:0:0:
256,192,199921,1,0,0:0:0:0:
256,192,199996,1,0,0:0:0:0:
256,192,200070,1,8,0:0:0:0:
256,192,200220,1,8,0:0:0:0:
256,192,200294,1,8,0:0:0:0:
256,192,200369,1,0,0:0:0:0:
256,192,200518,1,8,0:0:0:0:
256,192,200668,1,0,0:0:0:0:
256,192,200742,1,0,0:0:0:0:
256,192,200817,1,8,0:0:0:0:
256,192,200966,1,0,0:0:0:0:
256,192,201115,1,12,0:0:0:0:
256,192,201264,1,12,0:0:0:0:
256,192,201414,1,12,0:0:0:0:
256,192,201563,1,0,0:0:0:0:
256,192,201638,1,0,0:0:0:0:
256,192,201712,1,8,0:0:0:0:
256,192,201762,1,8,0:0:0:0:
256,192,201812,1,8,0:0:0:0:
256,192,201861,1,0,0:0:0:0:
256,192,201936,1,8,0:0:0:0:
256,192,202011,1,8,0:0:0:0:
256,192,202085,1,0,0:0:0:0:
256,192,202160,1,8,0:0:0:0:
256,192,202309,1,8,0:0:0:0:
256,192,202384,1,8,0:0:0:0:
256,192,202458,1,0,0:0:0:0:
256,192,202533,1,0,0:0:0:0:
256,192,202608,1,8,0:0:0:0:
256,192,202682,1,0,0:0:0:0:
256,192,202757,1,0,0:0:0:0:
256,192,202832,1,0,0:0:0:0:
256,192,202906,1,8,0:0:0:0:
256,192,202981,1,8,0:0:0:0:
256,192,203055,1,8,0:0:0:0:
256,192,203130,1,0,0:0:0:0:
256,192,203205,1,8,0:0:0:0:
256,192,203254,1,0,0:0:0:0:
256,192,203304,1,0,0:0:0:0:
256,192,203354,1,8,0:0:0:0:
256,192,203429,1,0,0:0:0:0:
256,192,203503,1,8,0:0:0:0:
256,192,203578,1,0,0:0:0:0:
256,192,203653,1,0,0:0:0:0:
256,192,203727,1,0,0:0:0:0:
256,192,203802,1,8,0:0:0:0:
256,192,203876,1,8,0:0:0:0:
256,192,203951,1,0,0:0:0:0:
256,192,204026,1,0,0:0:0:0:
256,192,204100,1,8,0:0:0:0:
256,192,204175,1,0,0:0:0:0:
256,192,204250,1,0,0:0:0:0:
256,192,204324,1,0,0:0:0:0:
256,192,204399,1,8,0:0:0:0:
256,192,204473,1,8,0:0:0:0:
256,192,204548,1,0,0:0:0:0:
256,192,204623,1,0,0:0:0:0:
256,192,204697,1,8,0:0:0:0:
256,192,204772,1,8,0:0:0:0:
256,192,204847,1,8,0:0:0:0:
256,192,204921,1,8,0:0:0:0:
256,192,204996,1,0,0:0:0:0:
256,192,205070,1,0,0:0:0:0:
256,192,205145,1,8,0:0:0:0:
256,192,205220,1,8,0:0:0:0:
256,192,205294,1,0,0:0:0:0:
256,192,205369,1,0,0:0:0:0:
256,192,205444,1,0,0:0:0:0:
256,192,205518,1,0,0:0:0:0:
256,192,205593,1,8,0:0:0:0:
256,192,205742,1,8,0:0:0:0:
256,64,205891,2,4,L|256:160,1,70
256,192,206190,1,12,0:0:0:0:
256,192,206339,1,0,0:0:0:0:
256,192,206414,1,0,0:0:0:0:
256,192,206488,1,8,0:0:0:0:
256,192,206538,1,8,0:0:0:0:
256,192,206588,1,8,0:0:0:0:
256,192,206637,1,0,0:0:0:0:
256,192,206712,1,8,0:0:0:0:
256,192,206787,1,8,0:0:0:0:
256,192,206861,1,0,0:0:0:0:
256,192,206936,1,8,0:0:0:0:
256,192,207085,1,8,0:0:0:0:
256,192,207160,1,8,0:0:0:0:
256,192,207234,1,0,0:0:0:0:
256,192,207309,1,0,0:0:0:0:
256,192,207384,1,8,0:0:0:0:
256,192,207458,1,0,0:0:0:0:
256,192,207533,1,0,0:0:0:0:
256,192,207608,1,0,0:0:0:0:
256,192,207682,1,8,0:0:0:0:
256,192,207757,1,8,0:0:0:0:
256,192,207831,1,8,0:0:0:0:
256,192,207906,1,0,0:0:0:0:
256,192,207981,1,8,0:0:0:0:
256,192,208030,1,0,0:0:0:0:
256,192,208080,1,0,0:0:0:0:
256,192,208130,1,8,0:0:0:0:
256,192,208205,1,0,0:0:0:0:
256,192,208279,1,8,0:0:0:0:
256,192,208428,1,8,0:0:0:0:
256,192,208578,1,0,0:0:0:0:
256,192,208652,1,0,0:0:0:0:
256,192,208727,1,0,0:0:0:0:
256,192,208876,1,8,0:0:0:0:
256,192,208951,1,8,0:0:0:0:
256,192,209025,1,8,0:0:0:0:
256,192,209175,1,0,0:0:0:0:
256,192,209324,1,8,0:0:0:0:
256,192,209473,1,0,0:0:0:0:
256,192,209548,1,0,0:0:0:0:
256,192,209623,1,0,0:0:0:0:
256,192,209697,1,8,0:0:0:0:
256,192,209772,1,8,0:0:0:0:
256,192,209847,1,8,0:0:0:0:
256,192,209921,1,8,0:0:0:0:
256,192,209996,1,0,0:0:0:0:
256,192,210070,1,0,0:0:0:0:
256,192,210145,1,8,0:0:0:0:
256,192,210220,1,0,0:0:0:0:
256,192,210294,1,0,0:0:0:0:
256,192,210369,1,8,0:0:0:0:
256,192,210518,1,0,0:0:0:0:
256,192,210667,1,12,0:0:0:0:
256,192,210816,1,12,0:0:0:0:
256,192,210966,1,12,0:0:0:0:
256,192,211115,1,0,0:0:0:0:
256,192,211190,1,0,0:0:0:0:
256,192,211264,1,8,0:0:0:0:
256,192,211314,1,8,0:0:0:0:
256,192,211364,1,8,0:0:0:0:
256,192,211413,1,0,0:0:0:0:
256,192,211488,1,8,0:0:0:0:
256,192,211563,1,8,0:0:0:0:
256,192,211637,1,0,0:0:0:0:
256,192,211712,1,8,0:0:0:0:
256,192,211787,1,8,0:0:0:0:
256,192,211862,1,0,0:0:0:0:
256,192,211936,1,8,0:0:0:0:
256,192,212011,1,8,0:0:0:0:
256,192,212085,1,0,0:0:0:0:
256,192,212160,1,0,0:0:0:0:
256,192,212235,1,8,0:0:0:0:
256,192,212309,1,8,0:0:0:0:
256,192,212384,1,0,0:0:0:0:
256,192,212459,1,8,0:0:0:0:
256,192,212533,1,8,0:0:0:0:
256,192,212608,1,0,0:0:0:0:
256,192,212682,1,0,0:0:0:0:
256,192,212757,1,8,0:0:0:0:
256,192,212832,1,8,0:0:0:0:
256,192,212906,1,8,0:0:0:0:
256,192,212981,1,0,0:0:0:0:
256,192,213056,1,8,0:0:0:0:
256,192,213130,1,0,0:0:0:0:
256,192,213205,1,8,0:0:0:0:
256,192,213279,1,0,0:0:0:0:
256,192,213354,1,8,0:0:0:0:
256,192,213429,1,8,0:0:0:0:
256,192,213503,1,0,0:0:0:0:
256,192,213578,1,0,0:0:0:0:
256,192,213653,1,8,0:0:0:0:
256,192,213727,1,0,0:0:0:0:
256,192,213802,1,8,0:0:0:0:
256,192,213876,1,0,0:0:0:0:
256,192,213951,1,8,0:0:0:0:
256,192,214026,1,8,0:0:0:0:
256,192,214100,1,0,0:0:0:0:
256,192,214175,1,0,0:0:0:0:
256,192,214250,1,8,0:0:0:0:
256,192,214324,1,8,0:0:0:0:
256,192,214399,1,8,0:0:0:0:
256,192,214473,1,8,0:0:0:0:
256,192,214548,1,0,0:0:0:0:
256,192,214623,1,0,0:0:0:0:
256,192,214697,1,0,0:0:0:0:
256,192,214772,1,0,0:0:0:0:
256,192,214847,1,8,0:0:0:0:
256,192,214921,1,8,0:0:0:0:
256,192,214996,1,8,0:0:0:0:
256,192,215070,1,0,0:0:0:0:
256,192,215145,1,8,0:0:0:0:
256,192,215294,1,0,0:0:0:0:
256,0,215444,1,12,0:0:0:0:
256,192,215594,1,0,0:0:0:0:
256,192,215743,1,8,0:0:0:0:
256,192,215818,1,0,0:0:0:0:
256,192,215892,1,0,0:0:0:0:
256,192,215967,1,0,0:0:0:0:
256,192,216041,1,8,0:0:0:0:
256,192,216116,1,0,0:0:0:0:
256,192,216191,1,8,0:0:0:0:
256,192,216265,1,8,0:0:0:0:
256,192,216340,1,0,0:0:0:0:
256,192,216415,1,8,0:0:0:0:
256,192,216489,1,8,0:0:0:0:
255,122,216638,2,4,L|256:210,1,70
256,192,216936,1,0,0:0:0:0:
256,192,216986,1,0,0:0:0:0:
256,192,217036,1,0,0:0:0:0:
256,192,217085,1,8,0:0:0:0:
256,192,217135,1,8,0:0:0:0:
256,192,217185,1,8,0:0:0:0:
256,192,217235,1,0,0:0:0:0:
256,192,217309,1,8,0:0:0:0:
256,192,217384,1,8,0:0:0:0:
256,192,217459,1,0,0:0:0:0:
256,192,217533,1,8,0:0:0:0:
256,192,217608,1,8,0:0:0:0:
256,192,217683,1,0,0:0:0:0:
256,0,217833,1,12,0:0:0:0:
256,192,217982,1,0,0:0:0:0:
256,192,218056,1,0,0:0:0:0:
256,192,218131,1,8,0:0:0:0:
256,192,218206,1,8,0:0:0:0:
256,192,218280,1,8,0:0:0:0:
256,192,218355,1,8,0:0:0:0:
256,192,218430,1,0,0:0:0:0:
256,192,218504,1,0,0:0:0:0:
256,192,218579,1,8,0:0:0:0:
256,192,218653,1,8,0:0:0:0:
256,192,218728,1,0,0:0:0:0:
256,192,218803,1,8,0:0:0:0:
256,192,218877,1,8,0:0:0:0:
256,192,218952,1,8,0:0:0:0:
256,0,219027,1,4,0:0:0:0:
256,192,219175,1,0,0:0:0:0:
256,192,219250,1,8,0:0:0:0:
256,192,219325,1,8,0:0:0:0:
256,192,219399,1,8,0:0:0:0:
256,192,219474,1,0,0:0:0:0:
256,0,219624,1,12,0:0:0:0:
256,192,219773,1,0,0:0:0:0:
256,0,219922,1,12,0:0:0:0:
256,192,220071,1,0,0:0:0:0:
256,0,220221,1,12,0:0:0:0:
256,192,220369,1,0,0:0:0:0:
256,192,220444,1,0,0:0:0:0:
256,192,220519,1,8,0:0:0:0:
256,192,220594,1,0,0:0:0:0:
256,192,220668,1,8,0:0:0:0:
256,192,220743,1,0,0:0:0:0:
256,192,220818,1,8,0:0:0:0:
256,192,220892,1,8,0:0:0:0:
256,192,220967,1,8,0:0:0:0:
256,192,221041,1,0,0:0:0:0:
256,192,221116,1,0,0:0:0:0:
256,192,221191,1,0,0:0:0:0:
256,192,221265,1,8,0:0:0:0:
256,192,221339,1,0,0:0:0:0:
256,192,221414,1,8,0:0:0:0:
256,192,221464,1,0,0:0:0:0:
256,192,221513,1,0,0:0:0:0:
256,192,221563,1,0,0:0:0:0:
256,192,221713,1,8,0:0:0:0:
256,192,221750,1,8,0:0:0:0:
256,192,221862,1,8,0:0:0:0:
256,192,221900,1,8,0:0:0:0:
256,192,222011,1,0,0:0:0:0:
256,192,222160,1,0,0:0:0:0:
256,192,222210,1,0,0:0:0:0:
256,192,222260,1,0,0:0:0:0:
256,192,222309,1,8,0:0:0:0:
256,192,222360,1,8,0:0:0:0:
256,192,222410,1,8,0:0:0:0:
256,192,222459,1,0,0:0:0:0:
256,0,222609,5,12,0:0:0:0:
256,192,222907,1,0,0:0:0:0:
256,192,223206,1,0,0:0:0:0:
256,192,223280,1,0,0:0:0:0:
256,192,223354,1,8,0:0:0:0:
256,192,223430,1,0,0:0:0:0:
256,0,223504,1,12,0:0:0:0:
256,192,223802,1,0,0:0:0:0:
256,192,223952,1,8,0:0:0:0:
256,192,224101,1,0,0:0:0:0:
256,192,224176,1,8,0:0:0:0:
256,192,224250,1,0,0:0:0:0:
256,192,224325,1,0,0:0:0:0:
256,192,224400,1,8,0:0:0:0:
256,192,224474,1,8,0:0:0:0:
256,192,224549,1,8,0:0:0:0:
256,192,224624,1,8,0:0:0:0:
256,192,224698,1,0,0:0:0:0:
256,192,224847,1,0,0:0:0:0:
256,192,224922,1,0,0:0:0:0:
256,0,224996,1,12,0:0:0:0:
256,192,225146,1,0,0:0:0:0:
256,192,225295,1,8,0:0:0:0:
256,192,225370,1,0,0:0:0:0:
256,192,225444,1,0,0:0:0:0:
256,192,225519,1,0,0:0:0:0:
256,192,225593,1,8,0:0:0:0:
256,192,225668,1,0,0:0:0:0:
256,192,225743,1,8,0:0:0:0:
256,192,225817,1,8,0:0:0:0:
256,192,225892,1,0,0:0:0:0:
256,192,225967,1,8,0:0:0:0:
256,192,226041,1,8,0:0:0:0:
255,122,226190,2,4,L|256:210,1,70
256,192,226488,1,0,0:0:0:0:
256,192,226538,1,0,0:0:0:0:
256,192,226588,1,0,0:0:0:0:
256,192,226637,1,8,0:0:0:0:
256,192,226687,1,8,0:0:0:0:
256,192,226737,1,8,0:0:0:0:
256,192,226787,1,0,0:0:0:0:
256,192,226861,1,8,0:0:0:0:
256,192,226936,1,8,0:0:0:0:
256,192,227011,1,0,0:0:0:0:
256,192,227085,1,8,0:0:0:0:
256,192,227160,1,8,0:0:0:0:
256,192,227235,1,0,0:0:0:0:
256,0,227385,1,12,0:0:0:0:
256,192,227534,1,0,0:0:0:0:
256,192,227608,1,0,0:0:0:0:
256,192,227683,1,8,0:0:0:0:
256,192,227758,1,8,0:0:0:0:
256,192,227832,1,8,0:0:0:0:
256,192,227907,1,8,0:0:0:0:
256,192,227982,1,0,0:0:0:0:
256,192,228056,1,0,0:0:0:0:
256,192,228131,1,8,0:0:0:0:
256,192,228205,1,8,0:0:0:0:
256,192,228280,1,0,0:0:0:0:
256,192,228355,1,8,0:0:0:0:
256,192,228429,1,8,0:0:0:0:
256,192,228504,1,8,0:0:0:0:
256,0,228579,1,4,0:0:0:0:
256,192,228727,1,0,0:0:0:0:
256,192,228802,1,8,0:0:0:0:
256,192,228877,1,8,0:0:0:0:
256,192,228951,1,8,0:0:0:0:
256,192,229026,1,0,0:0:0:0:
256,0,229176,1,12,0:0:0:0:
256,192,229325,1,0,0:0:0:0:
256,0,229474,1,12,0:0:0:0:
256,192,229623,5,0,0:0:0:0:
256,0,229773,1,12,0:0:0:0:
256,192,229921,1,0,0:0:0:0:
256,192,229996,1,0,0:0:0:0:
256,192,230070,1,8,0:0:0:0:
256,192,230220,1,0,0:0:0:0:
256,192,230294,1,8,0:0:0:0:
256,192,230369,1,0,0:0:0:0:
256,192,230518,1,0,0:0:0:0:
256,192,230668,1,8,0:0:0:0:
256,192,230742,1,8,0:0:0:0:
256,192,230817,1,0,0:0:0:0:
256,192,230891,1,0,0:0:0:0:
256,192,230966,1,8,0:0:0:0:
256,192,231115,1,0,0:0:0:0:
256,192,231265,1,8,0:0:0:0:
256,192,231339,1,0,0:0:0:0:
256,192,231414,1,0,0:0:0:0:
256,192,231488,1,0,0:0:0:0:
256,192,231563,1,8,0:0:0:0:
256,192,231638,1,8,0:0:0:0:
256,192,231712,1,0,0:0:0:0:
256,192,231787,1,0,0:0:0:0:
256,192,231862,1,8,0:0:0:0:
256,192,231936,1,0,0:0:0:0:
256,192,232011,1,8,0:0:0:0:
256,192,232085,1,0,0:0:0:0:
256,192,232160,1,8,0:0:0:0:
256,192,232309,1,0,0:0:0:0:
256,192,232384,1,0,0:0:0:0:
256,192,232459,1,8,0:0:0:0:
256,192,232608,1,0,0:0:0:0:
256,192,232757,1,8,0:0:0:0:
256,192,232832,1,8,0:0:0:0:
256,192,232906,1,0,0:0:0:0:
256,192,233056,1,8,0:0:0:0:
256,192,233205,1,0,0:0:0:0:
256,192,233279,1,0,0:0:0:0:
256,192,233354,1,8,0:0:0:0:
256,192,233429,1,8,0:0:0:0:
256,192,233503,1,0,0:0:0:0:
256,192,233578,1,8,0:0:0:0:
256,192,233653,1,0,0:0:0:0:
256,192,233727,1,0,0:0:0:0:
256,192,233802,1,8,0:0:0:0:
256,192,233876,1,0,0:0:0:0:
256,192,233951,1,8,0:0:0:0:
256,192,234026,1,8,0:0:0:0:
256,192,234100,1,8,0:0:0:0:
256,192,234175,1,8,0:0:0:0:
256,192,234250,1,0,0:0:0:0:
256,192,234324,1,0,0:0:0:0:
256,192,234399,1,8,0:0:0:0:
256,192,234473,1,0,0:0:0:0:
256,192,234548,1,12,0:0:0:0:
