osu file format v14

[General]
AudioFilename: audio.mp3
AudioLeadIn: 0
PreviewTime:95933
Countdown: 0
SampleSet: Soft
StackLeniency: 0.5
Mode: 0
LetterboxInBreaks: 0
WidescreenStoryboard: 1

[Editor]
Bookmarks: 38699,48251,67356,76908,86460,96013,134222,153326,167654,177207,196311,215416,234520,245266
DistanceSpacing: 1
BeatDivisor: 4
GridSize: 32
TimelineZoom: 4.299999

[Metadata]
Title:Chirality ("Dissymmetric" Long ver.)
TitleUnicode:Chirality ("Dissymmetric" Long ver.)
Artist:Camellia
ArtistUnicode:かめりあ
Creator:Mir
Version:Insane
Source:REFLEC BEAT groovin'!!
Tags:cametek dnb wub dubstep electronic instrumental video game galaxy burst drum and bass
BeatmapID:2628237
BeatmapSetID:1262960

[Difficulty]
HPDrainRate:5
CircleSize:4
OverallDifficulty:8
ApproachRate:9
SliderMultiplier:1.6
SliderTickRate:0.5

[Events]
//Background and Video events
0,0,"asymmetry.png",0,0
//Break Periods
2,158097,166005
//Storyboard Layer 0 (Background)
//Storyboard Layer 1 (Fail)
//Storyboard Layer 2 (Pass)
//Storyboard Layer 3 (Foreground)
//Storyboard Layer 4 (Overlay)
//Storyboard Sound Samples

[TimingPoints]
10038,298.507462686567,4,2,1,60,1,0
38694,-133.333333333333,4,2,1,60,0,0
45784,-133.333333333333,4,2,1,5,0,0
45858,-133.333333333333,4,2,1,70,0,0
47052,-133.333333333333,4,2,1,60,0,0
47426,-133.333333333333,4,2,1,60,0,0
47500,-133.333333333333,4,2,1,60,0,0
48246,-83.3333333333333,4,2,1,60,0,0
48843,-83.3333333333333,4,2,1,80,0,0
55411,-100,4,2,1,80,0,0
56008,-133.333333333333,4,2,1,80,0,0
56306,-100,4,2,1,80,0,0
57500,-133.333333333333,4,2,1,80,0,0
57799,-83.3333333333333,4,2,1,80,0,0
67351,-133.333333333333,4,2,1,30,0,0
76306,-133.333333333333,4,2,1,60,0,0
76903,-100,4,2,1,60,0,0
78694,-133.333333333333,4,2,1,60,0,0
81679,-100,4,2,1,60,0,0
83470,-133.333333333333,4,2,1,60,0,0
93620,-133.333333333333,4,2,1,70,0,0
94366,-100,4,2,1,70,0,0
94814,-100,4,2,1,40,0,0
96008,-83.3333333333333,4,2,1,80,0,0
97052,-133.333333333333,4,2,1,80,0,0
98396,-83.3333333333333,4,2,1,80,0,0
99440,-133.333333333333,4,2,1,80,0,0
100784,-83.3333333333333,4,2,1,80,0,0
101828,-133.333333333333,4,2,1,80,0,0
103172,-83.3333333333333,4,2,1,80,0,0
104216,-133.333333333333,4,2,1,80,0,0
105560,-83.3333333333333,4,2,1,80,0,0
106604,-133.333333333333,4,2,1,80,0,0
107948,-83.3333333333333,4,2,1,80,0,0
108992,-133.333333333333,4,2,1,80,0,0
110336,-83.3333333333333,4,2,1,80,0,0
114963,-83.3333333333333,4,2,1,80,0,0
115112,-83.3333333333333,4,2,1,80,0,1
127052,-76.9230769230769,4,2,1,80,0,1
134217,-90.9090909090909,4,2,1,60,0,0
143172,-133.333333333333,4,2,1,60,0,0
143769,-90.9090909090909,4,2,1,60,0,0
153918,-90.9090909090909,4,2,1,5,0,0
153993,-90.9090909090909,4,2,1,60,0,0
166605,-100,4,2,1,60,0,0
167649,-133.333333333333,4,2,1,60,0,0
174739,-133.333333333333,4,2,1,5,0,0
174814,-133.333333333333,4,2,1,60,0,0
177202,-66.6666666666667,4,2,1,80,0,1
186754,-133.333333333333,4,2,1,80,0,1
187202,-66.6666666666667,4,2,1,80,0,1
196157,-66.6666666666667,4,2,1,80,0,0
196306,-66.6666666666667,4,2,1,80,0,1
205858,-133.333333333333,4,2,1,80,0,1
206157,-66.6666666666667,4,2,1,80,0,1
215261,-66.6666666666667,4,2,1,80,0,0
215411,-83.3333333333333,4,2,1,80,0,1
224664,-133.333333333333,4,2,1,80,0,1
224963,-83.3333333333333,4,2,1,80,0,1
229440,-100,4,2,1,80,0,1
229739,-83.3333333333333,4,2,1,80,0,1
244664,-83.3333333333333,4,2,1,80,0,0

[Colours]
Combo1 : 255,255,202
Combo2 : 255,202,176

[HitObjects]
192,250,37649,5,4,0:3:0:0:
192,250,37724,1,4,0:3:0:0:
192,250,37799,2,0,L|131:263,3,40,8|8|8|8,0:1|0:1|0:1|0:1,0:2:0:0:
78,287,38097,5,2,0:3:0:0:
78,287,38172,1,2,0:3:0:0:
78,287,38246,2,0,P|68:260|41:245,1,40,2|2,0:3|0:3,0:0:0:0:
0,299,38396,6,0,B|80:300|25:354|142:350,1,120,2|0,0:3|0:2,0:2:0:0:
206,362,38694,6,0,L|184:140,1,210.000008010865,6|0,3:2|0:2,0:2:0:0:
196,143,39291,1,8,0:2:0:0:
87,196,39440,6,0,L|149:209,1,60.0000022888184,2|0,3:2|0:0,0:2:0:0:
308,88,39739,2,0,L|246:75,1,60.0000022888184,2|0,3:2|0:0,0:2:0:0:
504,239,41082,6,0,B|447:250|447:250|424:324|424:324|341:347,1,210.000008010865,6|0,3:2|0:2,0:2:0:0:
342,332,41679,1,8,0:2:0:0:
374,207,41829,6,0,L|398:278,1,60.0000022888184,2|0,3:2|0:0,0:2:0:0:
267,384,42127,2,0,L|243:313,1,60.0000022888184,2|0,3:2|0:0,0:2:0:0:
47,257,42426,6,8,L|16:250,3,20.0000007629395,8|8|8|8,0:3|0:3|0:3|0:1,0:3:0:0:
119,329,42724,5,0,3:2:0:0:
119,329,42799,1,0,3:2:0:0:
119,329,42873,2,0,L|136:251,1,60.0000022888184,8|2,0:1|0:2,0:0:0:0:
144,262,43097,1,2,0:2:0:0:
155,252,43172,2,0,L|165:202,2,30.0000011444092,10|0|2,0:2|0:2|3:2,0:2:0:0:
266,278,43470,6,0,P|352:272|357:161,1,210.000008010865,6|0,3:2|0:2,0:2:0:0:
346,166,44067,1,8,0:2:0:0:
416,219,44217,6,0,P|451:214|480:204,1,60.0000022888184,2|0,3:2|0:0,0:2:0:0:
271,117,44515,2,0,P|235:112|207:102,1,60.0000022888184,2|0,3:2|0:0,0:2:0:0:
256,192,44739,12,0,45709,0:0:0:0:
76,132,45858,6,0,P|104:101|134:198,1,210.000008010865,6|0,3:2|0:2,0:2:0:0:
135,211,46455,1,8,0:2:0:0:
78,300,46605,6,0,L|70:249,3,30.0000011444092,0|0|0|0,3:2|3:2|3:2|3:2,0:0:0:0:
220,286,46903,5,0,3:2:0:0:
220,286,46978,1,0,3:2:0:0:
220,286,47052,6,0,B|266:292|266:292|279:303|279:303|343:310,1,120.000004577637,0|0,3:2|0:2,0:2:0:0:
485,192,47799,6,0,L|478:218,4,15.0000005722046,2|0|0|0|2,0:2|0:2|0:2|0:2|0:2,0:2:0:0:
512,108,48097,1,2,0:2:0:0:
512,108,48246,6,0,B|386:101|457:179|315:160,1,191.999994140625,4|2,3:2|0:2,0:2:0:0:
321,142,48620,1,2,0:2:0:0:
306,123,48694,1,2,0:2:0:0:
291,103,48769,1,2,0:2:0:0:
276,84,48843,6,0,L|290:-17,1,95.9999970703126,10|2,0:2|0:2,0:2:0:0:
269,2,49067,2,0,L|173:15,1,95.9999970703126,2|2,0:2|0:2,0:2:0:0:
150,20,49291,1,2,0:2:0:0:
36,97,49440,6,0,P|97:105|101:139,1,95.9999970703126,0|2,3:2|0:2,0:2:0:0:
22,212,49664,2,0,P|63:249|93:158,1,191.999994140625,0|0,0:2|0:2,0:0:0:0:
94,158,50037,6,0,L|146:165,1,47.9999985351563,10|0,0:2|0:2,0:2:0:0:
161,244,50187,2,0,L|212:237,1,47.9999985351563,2|0,0:2|0:2,0:2:0:0:
231,158,50336,2,0,B|305:168|305:168|296:248,1,143.999995605469,2|0,0:2|0:2,0:2:0:0:
259,364,50635,6,0,P|270:299|374:336,1,191.999994140625,0|2,3:2|0:2,0:2:0:0:
392,335,51008,1,2,0:2:0:0:
415,342,51082,1,2,0:2:0:0:
439,337,51157,1,2,0:2:0:0:
458,323,51232,6,0,L|485:206,1,95.9999970703126,10|2,0:2|0:2,0:2:0:0:
458,217,51455,2,0,L|436:123,1,95.9999970703126,2|2,0:2|0:2,0:2:0:0:
457,112,51679,1,2,0:2:0:0:
378,179,51829,6,0,B|325:180|325:180|294:150|294:150|229:155,1,143.999995605469,2|0,3:2|0:2,0:2:0:0:
262,44,52127,2,0,B|227:87|227:87|283:118|283:118|255:77,1,143.999995605469,2|0,0:2|0:2,0:2:0:0:
190,89,52426,6,0,L|132:97,1,47.9999985351563,10|0,0:2|0:2,0:2:0:0:
128,5,52575,2,0,L|175:11,1,47.9999985351563,2|0,0:2|0:2,0:2:0:0:
65,110,52724,2,0,L|51:5,1,95.9999970703126,2|0,0:2|0:0,0:2:0:0:
16,256,53023,6,0,B|127:260|61:170|193:178,1,191.999994140625,0|2,3:2|0:2,0:2:0:0:
193,196,53396,1,2,0:2:0:0:
206,215,53470,1,2,0:2:0:0:
220,234,53545,1,2,0:2:0:0:
233,253,53620,6,0,P|232:291|221:363,1,95.9999970703126,10|2,0:2|0:2,0:2:0:0:
214,370,53843,2,0,P|266:349|313:345,1,95.9999970703126,2|2,0:2|0:2,0:2:0:0:
325,357,54067,1,2,0:2:0:0:
478,225,54217,6,0,P|444:279|348:260,1,143.999995605469,2|0,3:2|0:2,0:2:0:0:
338,144,54515,2,2,B|370:125|383:108|383:108|356:143|348:208,1,143.999995605469,2|0,0:2|0:2,0:1:0:0:
280,247,54814,6,0,L|213:254,1,47.9999985351563,10|0,0:2|0:2,0:2:0:0:
255,171,54963,2,0,L|188:178,1,47.9999985351563,2|0,0:2|0:2,0:2:0:0:
231,93,55112,2,0,B|132:104|132:104|86:60,1,143.999995605469,2|0,0:2|0:2,0:2:0:0:
25,172,55411,6,0,B|96:129|96:129|62:284|62:284|46:226,1,280,6|0,3:2|0:0,0:2:0:0:
51,247,56008,2,0,L|0:259,2,40.000001525879,10|2|2,0:2|0:2|0:2,0:0:0:0:
88,362,56306,6,0,P|144:353|188:218,1,200,4|0,3:2|0:2,0:2:0:0:
194,232,56754,2,0,L|263:249,1,40,0|0,3:2|0:0,0:0:0:0:
221,319,56903,2,0,L|289:335,1,40,0|0,3:2|0:0,0:0:0:0:
313,260,57052,1,2,0:2:0:0:
463,352,57202,6,0,B|445:317|445:317|463:270|463:270|438:229,1,120,8|0,0:2|0:2,0:2:0:0:
447,244,57500,2,2,L|512:230,1,60.0000022888184,2|2,0:2|0:2,0:1:0:0:
502,147,57724,1,2,0:2:0:0:
502,147,57799,6,0,B|431:162|431:162|389:17,1,191.999994140625,4|2,3:2|0:2,0:2:0:0:
374,54,58172,1,2,0:2:0:0:
351,60,58246,1,2,0:2:0:0:
327,66,58321,1,2,0:2:0:0:
303,73,58396,6,0,B|231:92|231:92|236:121,1,95.9999970703126,10|2,0:2|0:2,0:2:0:0:
241,136,58620,2,0,B|244:157|244:157|172:176,1,95.9999970703126,2|2,0:2|0:2,0:2:0:0:
150,183,58843,1,2,0:2:0:0:
375,178,58993,6,0,L|361:261,1,47.9999985351563,0|0,3:2|0:0,0:2:0:0:
350,308,59142,2,0,L|300:60,1,239.999992675781,2|0,0:2|0:2,0:2:0:0:
302,72,59590,6,0,P|333:75|361:109,1,47.9999985351563,10|0,0:2|0:2,0:2:0:0:
419,51,59739,2,0,P|438:74|434:117,1,47.9999985351563,2|0,0:2|0:2,0:2:0:0:
512,125,59888,2,0,P|509:155|431:260,1,143.999995605469,2|0,0:2|0:2,0:2:0:0:
445,368,60187,6,0,P|419:286|320:260,1,191.999994140625,2|2,3:2|0:2,0:2:0:0:
311,278,60560,1,2,0:2:0:0:
297,298,60635,1,2,0:2:0:0:
284,318,60709,1,2,0:2:0:0:
271,338,60784,6,0,P|219:341|201:300,1,95.9999970703126,10|2,0:2|0:2,0:2:0:0:
178,297,61008,2,0,P|161:247|196:219,1,95.9999970703126,2|2,0:2|0:2,0:2:0:0:
197,203,61232,1,2,0:2:0:0:
199,374,61381,6,0,B|142:379|142:379|120:357|120:357|56:367,1,143.999995605469,0|0,3:2|0:2,0:2:0:0:
4,281,61679,2,0,P|17:335|84:295,1,143.999995605469,2|0,0:2|0:2,0:2:0:0:
83,309,61978,6,0,L|71:246,1,47.9999985351563,10|0,0:2|0:0,0:2:0:0:
34,195,62127,2,0,L|46:131,1,47.9999985351563,0|0,0:0|0:2,0:0:0:0:
125,190,62276,2,0,B|179:180|179:180|194:73,1,143.999995605469,2|0,0:2|0:2,0:2:0:0:
104,69,62575,6,0,L|242:48,1,127.99999609375,2|2,3:2|0:2,0:2:0:0:
305,16,62873,2,0,B|330:37|330:37|300:83,2,63.9999980468751,2|2|2,0:2|0:2|0:2,0:2:0:0:
262,128,63172,5,2,0:2:0:0:
283,139,63246,1,0,0:2:0:0:
304,149,63321,1,0,3:2:0:0:
325,159,63396,1,0,3:2:0:0:
346,170,63470,2,0,L|413:161,3,47.9999985351563,8|0|2|0,0:2|0:2|0:2|0:2,0:2:0:0:
304,240,63769,5,0,3:2:0:0:
302,263,63843,1,0,3:2:0:0:
300,287,63918,1,0,3:2:0:0:
299,311,63993,2,0,P|354:358|397:310,1,143.999995605469,0|0,3:2|3:2,0:0:0:0:
304,240,64366,6,0,L|239:251,1,47.9999985351563,10|0,0:2|0:2,0:2:0:0:
227,327,64515,2,0,L|162:316,1,47.9999985351563,2|0,0:2|0:2,0:2:0:0:
164,237,64664,2,0,L|130:397,1,143.999995605469,2|0,0:2|0:2,0:2:0:0:
52,347,64963,6,0,B|4:290|4:290|92:249,1,143.999995605469,4|0,3:2|0:2,0:2:0:0:
72,171,65261,2,0,L|-7:201,2,63.9999980468751,10|2|2,0:2|0:2|0:2,0:0:0:0:
164,237,65560,6,0,B|211:212|211:212|165:91,1,143.999995605469,2|0,3:2|0:2,0:2:0:0:
167,105,65858,2,0,L|317:140,1,143.999995605469,10|0,0:2|0:2,0:2:0:0:
426,15,66157,6,0,P|371:-12|338:69,1,143.999995605469,2|0,3:2|0:2,0:2:0:0:
334,68,66455,2,0,L|366:208,1,143.999995605469,10|0,0:2|0:2,0:2:0:0:
366,208,66754,5,2,3:2:0:0:
271,155,66903,1,2,3:2:0:0:
433,119,67052,1,10,0:2:0:0:
392,296,67202,1,0,3:2:0:0:
392,296,67276,1,0,3:2:0:0:
392,296,67351,6,0,L|375:378,1,60.0000022888184,2|2,3:2|0:2,0:0:0:0:
211,277,67799,2,0,L|227:359,1,60.0000022888184,2|10,0:2|0:2,0:0:0:0:
411,293,68246,6,0,L|394:375,1,60.0000022888184,2|2,0:2|0:2,0:0:0:0:
230,274,68694,2,0,L|246:356,1,60.0000022888184,2|2,3:2|3:2,0:0:0:0:
241,332,69142,1,10,0:2:0:0:
211,204,69739,6,0,P|178:197|141:194,1,60.0000022888184,2|2,3:2|0:2,0:0:0:0:
29,115,70187,2,0,P|62:108|99:105,1,60.0000022888184,2|10,0:2|0:2,0:0:0:0:
203,217,70635,6,0,P|170:210|133:207,1,60.0000022888184,2|2,0:2|0:2,0:0:0:0:
21,128,71083,2,0,P|54:121|91:118,1,60.0000022888184,2|2,3:2|3:2,0:0:0:0:
174,129,71381,1,2,0:2:0:0:
174,129,71455,1,0,0:2:0:0:
174,129,71530,6,0,L|185:78,3,30.0000011444092,10|0|2|2,0:2|0:2|3:2|0:2,0:2:0:0:
218,74,71829,2,0,L|207:23,3,30.0000011444092,2|2|2|0,0:2|0:2|0:2|0:2,0:0:0:0:
248,14,72127,6,0,L|320:6,1,60.0000022888184,2|2,3:2|0:2,0:0:0:0:
315,163,72575,2,0,L|255:156,1,60.0000022888184,2|10,0:2|0:2,0:0:0:0:
256,27,73023,6,0,L|328:19,1,60.0000022888184,2|2,0:2|0:2,0:0:0:0:
323,176,73471,2,0,L|263:169,1,60.0000022888184,2|2,3:2|3:2,0:0:0:0:
263,169,73918,1,10,0:2:0:0:
463,265,74515,6,0,P|482:217|491:198,1,60.0000022888184,2|2,3:2|0:2,0:0:0:0:
328,332,74963,2,0,P|309:284|300:265,1,60.0000022888184,2|10,0:2|0:2,0:0:0:0:
478,278,75411,6,0,P|497:230|506:211,1,60.0000022888184,2|2,3:2|0:2,0:0:0:0:
343,345,75859,2,0,P|324:297|315:278,1,60.0000022888184,2|2,3:2|3:2,0:0:0:0:
243,248,76157,1,2,0:2:0:0:
176,364,76306,6,0,P|127:357|131:304,1,90.0000034332277,8|0,0:2|0:2,0:2:0:0:
119,323,76605,2,0,L|16:309,1,90.0000034332277,2|0,0:2|0:2,0:2:0:0:
11,236,76903,5,2,3:2:0:0:
11,236,77052,2,0,P|42:262|12:320,1,80,2|0,0:2|0:2,0:2:0:0:
34,154,77351,5,2,0:2:0:0:
34,154,77500,2,0,P|74:150|94:212,1,80,10|0,0:2|0:2,0:2:0:0:
180,236,77799,5,2,0:2:0:0:
180,236,77948,2,0,P|211:210|181:152,1,80,2|0,0:2|0:2,0:2:0:0:
261,104,78247,5,2,0:2:0:0:
261,104,78396,2,0,P|264:63|202:43,1,80,0|0,3:2|0:2,0:2:0:0:
305,177,78694,6,0,B|347:185|347:185|345:190|345:190|416:201|416:201|411:206|411:206|465:216,1,180.000006866455,10|0,0:2|0:0,0:2:0:0:
499,312,79291,5,2,3:2:0:0:
499,312,79440,2,0,L|419:327,1,60.0000022888184,2|0,0:2|0:2,0:2:0:0:
370,375,79739,5,2,0:2:0:0:
370,375,79888,2,0,L|290:360,1,60.0000022888184,10|0,0:2|0:2,0:2:0:0:
312,266,80187,5,2,0:2:0:0:
312,266,80336,2,0,L|232:281,1,60.0000022888184,2|0,0:2|0:2,0:2:0:0:
183,329,80635,5,2,3:2:0:0:
183,329,80784,2,0,L|103:314,1,60.0000022888184,2|2,3:2|0:2,0:2:0:0:
120,303,81008,1,2,0:2:0:0:
116,288,81082,6,0,L|108:246,3,30.0000011444092,10|0|2|2,0:2|0:2|3:2|0:2,0:2:0:0:
147,229,81381,2,0,L|155:187,3,30.0000011444092,2|2|2|2,0:2|0:2|0:2|0:2,0:0:0:0:
96,155,81679,5,2,3:2:0:0:
96,155,81829,2,0,P|41:160|12:156,1,80,2|0,0:2|0:2,0:2:0:0:
95,70,82127,5,2,0:2:0:0:
95,70,82276,2,0,P|40:65|11:69,1,80,10|0,0:2|0:2,0:2:0:0:
183,186,82575,5,2,0:2:0:0:
183,186,82725,2,0,P|147:228|124:229,1,80,2|0,0:2|0:2,0:2:0:0:
177,42,83023,5,2,0:2:0:0:
177,42,83173,2,0,P|141:0|118:-1,1,80,2|0,3:2|0:2,0:2:0:0:
241,113,83470,2,0,B|286:100|286:100|316:115|316:115|426:84,1,180.000006866455,10|0,0:2|0:0,0:2:0:0:
491,137,84067,5,2,3:2:0:0:
383,191,84217,1,10,0:2:0:0:
493,223,84366,1,10,0:2:0:0:
400,269,84515,2,0,L|388:397,2,120.000004577637,0|10|2,3:2|0:2|3:2,0:2:0:0:
303,273,85411,5,10,0:2:0:0:
489,324,85709,1,2,3:2:0:0:
303,273,86008,5,8,0:2:0:0:
345,189,86157,1,8,0:2:0:0:
281,118,86306,1,0,3:2:0:0:
281,118,86381,1,0,3:2:0:0:
281,118,86455,6,0,P|216:128|176:7,1,210.000008010865,6|0,3:2|0:2,0:2:0:0:
186,13,87052,1,8,0:2:0:0:
129,73,87202,6,0,L|63:86,1,60.0000022888184,2|0,3:2|0:0,0:2:0:0:
151,153,87500,2,0,L|85:166,1,60.0000022888184,2|0,3:2|0:0,0:2:0:0:
24,332,88843,6,0,P|41:275|185:264,1,210.000008010865,6|0,3:2|0:2,0:2:0:0:
179,267,89440,1,8,0:2:0:0:
192,353,89590,6,0,P|231:340|251:313,1,60.0000022888184,2|0,3:2|0:0,0:2:0:0:
326,358,89888,2,0,P|334:317|320:286,1,60.0000022888184,2|0,3:2|0:0,0:2:0:0:
482,183,90187,6,8,P|472:176|449:174,3,20.0000007629395,8|8|8|8,0:3|0:3|0:3|0:1,0:3:0:0:
436,248,90485,5,0,3:2:0:0:
436,248,90560,1,0,3:2:0:0:
436,248,90635,2,0,L|362:226,1,60.0000022888184,8|0,0:1|3:2,0:2:0:0:
370,218,90858,1,0,0:2:0:0:
366,203,90933,2,0,L|352:148,2,30.0000011444092,8|8|4,0:1|0:1|0:3,0:0:0:0:
281,211,91232,6,0,B|257:178|257:178|288:44|288:44|337:25,1,210.000008010865,6|0,3:2|0:2,0:2:0:0:
331,28,91829,1,8,0:2:0:0:
243,105,91978,6,0,L|180:91,1,60.0000022888184,2|0,3:2|0:0,0:2:0:0:
105,73,92276,1,2,3:2:0:0:
137,171,92426,5,0,3:2:0:0:
137,171,92724,1,0,3:2:0:0:
137,171,93023,1,0,3:2:0:0:
137,171,93321,1,0,3:2:0:0:
77,240,93620,6,0,L|12:255,1,60.0000022888184,4|0,3:2|3:2,0:2:0:0:
76,325,93918,2,0,L|11:340,1,60.0000022888184,0|0,3:2|3:2,0:2:0:0:
150,283,94217,1,8,3:2:0:0:
216,333,94366,6,0,L|230:381,2,40,0|0|0,3:3|1:3|1:3,0:0:0:0:
285,286,94590,2,0,L|299:238,2,40,0|0|0,3:3|1:3|1:3,0:0:0:0:
351,338,94814,6,0,L|445:355,3,80,4|0|0|0,3:2|1:2|1:2|1:2,1:2:0:0:
427,251,95411,6,0,L|432:270,4,20,0|0|0|0|0,1:2|1:2|1:2|1:2|1:2,1:2:0:0:
507,265,95709,2,0,L|512:284,4,20,0|0|0|0|0,1:2|1:2|1:2|1:2|1:2,1:2:0:0:
498,79,96008,6,2,B|433:88|433:88|434:99|434:99|359:109,1,143.999995605469,6|0,3:2|0:2,0:1:0:0:
289,85,96306,2,0,L|296:46,5,31.9999990234375,2|2|2|2|2|2,0:2|0:2|0:2|0:2|0:2|0:2,0:2:0:0:
269,88,96605,6,0,L|277:41,1,47.9999985351563,10|0,0:2|0:2,0:2:0:0:
302,161,96754,2,0,L|340:191,1,47.9999985351563,2|0,0:2|0:2,0:2:0:0:
222,153,96903,2,0,L|177:170,1,47.9999985351563,2|0,0:2|0:2,0:2:0:0:
58,219,97052,6,0,B|44:179|44:179|149:202|149:202|148:238|148:238|202:249,1,240.000009155274,2|0,3:2|0:0,0:2:0:0:
252,379,97799,5,10,0:2:0:0:
252,379,97873,2,0,P|248:335|244:315,1,60.0000022888184,2|2,0:2|0:2,0:2:0:0:
244,319,98097,2,0,P|271:353|314:360,1,90.0000034332277,2|0,0:2|0:2,0:2:0:0:
320,270,98396,6,2,B|397:261|370:330|459:312,1,143.999995605469,4|0,3:2|0:2,0:1:0:0:
493,234,98694,2,0,P|501:218|501:198,5,31.9999990234375,2|2|2|2|2|2,0:2|0:2|0:2|0:2|0:2|0:2,0:2:0:0:
471,238,98993,6,0,P|482:214|482:180,1,47.9999985351563,10|0,0:2|0:2,0:2:0:0:
420,135,99142,2,0,P|410:110|386:86,1,47.9999985351563,2|0,0:2|0:2,0:2:0:0:
311,98,99291,2,0,P|287:87|253:87,1,47.9999985351563,2|0,0:2|0:2,0:2:0:0:
200,142,99440,5,2,3:2:0:0:
200,142,99739,2,0,L|130:128,1,60.0000022888184,2|0,0:2|0:2,0:2:0:0:
133,117,99963,2,0,L|63:131,1,60.0000022888184,2|0,0:2|0:2,0:2:0:0:
41,228,100187,2,0,L|111:214,1,60.0000022888184,10|0,0:2|0:2,0:2:0:0:
108,203,100411,2,0,L|178:217,1,60.0000022888184,2|0,0:2|0:2,0:2:0:0:
260,217,100635,1,2,0:2:0:0:
260,217,100709,1,2,0:2:0:0:
260,217,100784,6,2,B|295:236|295:236|258:377,1,143.999995605469,4|0,3:2|0:2,0:1:0:0:
330,278,101082,2,0,L|368:274,5,31.9999990234375,2|2|2|2|2|2,0:2|0:2|0:2|0:2|0:2|0:2,0:2:0:0:
324,297,101381,6,0,L|385:289,1,47.9999985351563,10|0,0:2|0:2,0:2:0:0:
413,214,101530,2,0,L|461:221,1,47.9999985351563,2|0,0:2|0:2,0:2:0:0:
465,305,101679,2,0,L|526:297,1,47.9999985351563,2|0,0:2|0:2,0:2:0:0:
483,117,101829,6,0,B|415:137|415:137|422:170|422:170|336:194,1,180.000006866455,2|2,3:2|0:2,0:2:0:0:
339,178,102351,1,2,0:2:0:0:
329,166,102426,1,2,0:2:0:0:
319,154,102500,1,2,0:2:0:0:
309,142,102575,2,0,L|319:69,1,60.0000022888184,10|2,0:2|0:2,0:2:0:0:
389,0,102873,2,0,L|397:59,1,60.0000022888184,2|2,0:2|0:2,0:0:0:0:
250,200,103172,6,0,P|184:182|207:-12,1,287.999991210938,6|0,3:2|3:2,0:2:0:0:
200,17,103694,1,0,3:2:0:0:
214,36,103769,1,10,0:2:0:0:
105,60,103918,1,2,0:2:0:0:
176,137,104067,1,2,0:2:0:0:
95,203,104217,6,0,B|29:252|62:340|62:340|132:328|133:275,1,240.000009155274,6|2,3:2|0:2,0:2:0:0:
130,293,104963,2,0,L|197:304,1,60.0000022888184,10|0,0:2|0:0,0:2:0:0:
350,347,105261,2,0,L|253:365,1,90.0000034332277,2|0,0:2|0:2,0:2:0:0:
291,274,105560,6,2,B|277:229|277:229|315:186|315:186|294:107,1,143.999995605469,6|0,3:2|0:2,0:1:0:0:
338,66,105858,2,0,L|297:60,5,31.9999990234375,2|2|2|2|2|2,0:2|0:2|0:2|0:2|0:2|0:2,0:2:0:0:
348,47,106157,6,0,L|300:39,1,47.9999985351563,10|0,0:2|0:2,0:2:0:0:
428,51,106306,2,0,L|458:13,1,47.9999985351563,2|0,0:2|0:2,0:2:0:0:
384,118,106455,2,0,L|401:162,1,47.9999985351563,2|0,0:2|0:2,0:2:0:0:
506,192,106605,6,0,P|450:188|406:347,1,240.000009155274,2|0,3:2|0:0,0:2:0:0:
482,369,107351,5,10,0:2:0:0:
482,369,107426,2,0,L|494:300,1,60.0000022888184,2|2,0:2|0:2,0:2:0:0:
462,287,107649,5,2,0:2:0:0:
462,287,107724,2,0,L|450:218,1,60.0000022888184,2|2,0:2|0:2,0:2:0:0:
345,263,107948,6,2,B|256:256|301:197|196:189,1,143.999995605469,6|0,3:2|0:2,0:1:0:0:
142,224,108246,2,0,L|133:268,5,31.9999990234375,2|2|2|2|2|2,0:2|0:2|0:2|0:2|0:2|0:2,0:2:0:0:
125,211,108545,6,0,L|109:279,1,47.9999985351563,10|0,0:2|0:2,0:2:0:0:
36,226,108694,2,0,L|20:294,1,47.9999985351563,2|0,0:2|0:2,0:2:0:0:
82,331,108843,2,0,L|66:399,1,47.9999985351563,2|0,0:2|0:2,0:2:0:0:
168,327,108993,5,2,3:2:0:0:
168,327,109291,2,0,L|240:317,1,60.0000022888184,2|0,0:2|0:2,0:2:0:0:
238,328,109515,2,0,L|310:318,1,60.0000022888184,2|0,0:2|0:2,0:2:0:0:
312,317,109739,5,10,0:2:0:0:
274,239,109888,1,2,3:2:0:0:
274,239,109963,1,10,0:2:0:0:
327,173,110112,1,2,3:2:0:0:
327,173,110187,1,10,0:2:0:0:
297,90,110336,6,0,P|230:113|294:18,1,287.999991210938,0|0,3:2|0:0,0:2:0:0:
372,44,110933,2,0,L|383:89,5,31.9999990234375,10|2|2|2|2|2,0:2|0:2|0:2|0:2|0:2|0:2,0:0:0:0:
382,16,111232,6,0,L|413:146,1,95.9999970703126,2|2,0:2|3:2,0:0:0:0:
501,165,111530,5,2,0:2:0:0:
420,199,111679,1,2,0:2:0:0:
331,261,111829,5,2,0:2:0:0:
412,295,111978,1,2,0:2:0:0:
508,356,112127,6,0,B|529:300|529:300|487:237,2,95.9999970703126,10|2|2,0:2|0:2|0:2,0:0:0:0:
349,142,112724,6,2,B|316:170|316:170|162:119,1,191.999994140625,6|10,3:2|0:2,0:1:0:0:
151,116,113097,1,2,0:2:0:0:
127,109,113172,1,2,0:2:0:0:
104,102,113246,1,2,0:2:0:0:
80,96,113321,2,0,B|69:47|69:47|121:2,2,95.9999970703126,2|2|10,3:2|0:2|0:2,0:2:0:0:
4,250,113918,6,0,P|59:214|171:216,1,143.999995605469,2|0,3:2|0:2,0:2:0:0:
153,222,114217,2,0,L|174:326,1,95.9999970703126,10|2,0:2|3:2,0:2:0:0:
295,365,114515,5,8,0:2:0:0:
267,250,114664,1,8,0:2:0:0:
394,323,114814,5,8,0:2:0:0:
422,208,114963,1,8,0:2:0:0:
495,364,115112,6,2,B|474:232|474:232|402:198,1,191.999994140625,6|8,3:2|0:2,0:1:0:0:
387,39,115560,2,0,L|398:-1,2,31.9999990234375,2|2|2,3:2|0:2|0:2,0:0:0:0:
398,121,115709,6,0,L|445:111,1,47.9999985351563,2|0,0:2|0:2,0:2:0:0:
321,88,115858,2,0,L|289:51,1,47.9999985351563,2|0,0:2|0:2,0:2:0:0:
331,170,116008,2,0,L|315:215,1,47.9999985351563,10|0,0:2|0:2,0:2:0:0:
251,300,116157,6,0,B|223:238|223:238|404:284,1,239.999992675781,2|0,3:2|0:2,0:2:0:0:
392,307,116605,1,8,0:2:0:0:
317,359,116754,1,0,3:2:0:0:
199,231,116903,5,2,0:2:0:0:
199,231,116978,2,0,L|91:247,1,95.9999970703126,2|2,0:2|0:2,0:2:0:0:
57,184,117202,1,10,0:2:0:0:
168,319,117351,1,2,3:2:0:0:
231,137,117500,6,2,B|283:156|289:209|289:209|319:153|401:158,1,191.999994140625,6|8,3:2|0:2,0:1:0:0:
503,256,117948,2,0,L|492:286,2,31.9999990234375,2|2|2,3:2|0:2|0:2,0:0:0:0:
484,240,118097,6,0,L|463:305,1,47.9999985351563,2|0,0:2|0:2,0:2:0:0:
418,376,118246,2,0,L|397:311,1,47.9999985351563,2|0,0:2|0:2,0:2:0:0:
328,286,118396,2,0,L|307:351,1,47.9999985351563,10|0,0:2|0:2,0:2:0:0:
239,373,118545,5,0,3:2:0:0:
239,373,118843,2,0,B|213:343|213:343|136:358,1,95.9999970703126,2|8,0:2|0:2,0:2:0:0:
133,355,119067,2,0,B|77:365|77:365|51:335,1,95.9999970703126,2|0,0:2|0:2,0:0:0:0:
6,270,119291,2,0,B|52:295|52:295|93:243,1,95.9999970703126,2|0,0:2|3:2,0:2:0:0:
139,189,119590,1,10,0:2:0:0:
234,224,119739,5,2,0:2:0:0:
234,224,119814,1,2,0:2:0:0:
234,224,119888,2,2,P|254:158|232:28,1,191.999994140625,6|8,3:2|0:2,0:1:0:0:
46,37,120336,2,0,L|78:32,2,31.9999990234375,2|2|2,3:2|0:2|0:2,0:0:0:0:
39,63,120485,6,0,L|114:50,1,47.9999985351563,2|0,0:2|0:2,0:2:0:0:
117,128,120635,2,0,L|179:171,1,47.9999985351563,2|0,0:2|0:2,0:2:0:0:
87,211,120784,2,0,L|100:286,1,47.9999985351563,10|0,0:2|0:2,0:2:0:0:
53,362,120933,6,0,P|80:306|253:288,1,239.999992675781,0|0,3:2|0:2,0:2:0:0:
254,299,121381,1,8,0:2:0:0:
397,361,121530,2,0,P|458:345|474:289,2,95.9999970703126,2|2|2,3:2|0:2|0:2,0:2:0:0:
344,294,121978,1,8,0:2:0:0:
344,294,122127,1,2,3:2:0:0:
234,162,122276,6,0,B|310:149|277:228|408:192,1,143.999995605469,4|0,3:2|0:2,0:2:0:0:
391,201,122575,2,0,P|405:177|404:127,1,47.9999985351563,10|0,0:2|0:2,0:2:0:0:
468,106,122724,2,0,P|462:82|450:62,1,47.9999985351563,2|0,3:2|0:2,0:2:0:0:
381,14,122873,5,2,0:2:0:0:
357,19,122948,1,2,0:2:0:0:
333,24,123023,1,2,0:2:0:0:
309,29,123097,1,2,0:2:0:0:
285,34,123172,2,0,L|187:51,1,95.9999970703126,10|2,0:2|3:2,0:2:0:0:
60,155,123470,6,0,P|93:105|100:8,2,143.999995605469,2|10|2,3:2|0:2|3:2,0:2:0:0:
126,108,124067,2,0,B|204:136|128:185|246:228,1,143.999995605469,2|0,3:2|0:2,0:2:0:0:
293,207,124366,5,2,0:2:0:0:
293,207,124515,1,2,0:2:0:0:
352,377,124664,6,2,P|340:320|214:324,1,191.999994140625,6|8,3:2|0:2,0:1:0:0:
34,348,125112,2,0,P|28:333|27:318,2,31.9999990234375,2|2|2,3:0|0:2|0:2,0:0:0:0:
59,358,125261,6,0,P|48:343|45:287,1,47.9999985351563,2|0,0:2|0:2,0:2:0:0:
41,234,125411,2,0,P|43:215|81:173,1,47.9999985351563,2|0,0:2|0:2,0:2:0:0:
113,132,125560,2,0,P|127:121|183:117,1,47.9999985351563,10|0,0:2|0:2,0:2:0:0:
283,191,125709,6,0,P|204:190|137:328,1,239.999992675781,2|0,3:2|0:2,0:2:0:0:
147,338,126157,1,8,0:2:0:0:
234,384,126306,1,0,3:2:0:0:
239,287,126455,5,2,0:2:0:0:
239,287,126530,2,0,P|316:305|339:312,1,95.9999970703126,2|2,0:2|0:2,0:2:0:0:
343,331,126754,1,10,0:2:0:0:
505,258,126903,1,2,3:2:0:0:
442,376,127052,6,2,B|446:314|446:314|395:252|395:252|407:166,1,207.999990478516,6|8,3:2|0:2,0:1:0:0:
444,55,127500,2,0,L|411:65,2,34.6666650797527,2|2|2,3:2|0:2|0:2,0:0:0:0:
448,37,127649,6,0,L|377:58,1,51.999997619629,2|0,0:2|0:2,0:2:0:0:
332,164,127799,2,0,L|348:91,1,51.999997619629,2|0,0:2|0:2,0:2:0:0:
280,0,127948,2,0,L|334:50,1,51.999997619629,10|0,0:2|0:2,0:2:0:0:
255,99,128097,5,2,3:2:0:0:
255,99,128396,2,0,L|151:84,1,103.999995239258,2|8,0:2|0:2,0:2:0:0:
138,62,128620,2,0,P|126:114|113:170,1,103.999995239258,2|2,0:2|0:2,0:2:0:0:
70,226,128843,2,0,L|174:211,1,103.999995239258,2|0,0:2|3:2,0:2:0:0:
268,248,129142,1,10,0:2:0:0:
342,192,129291,5,2,0:2:0:0:
342,192,129366,1,2,0:2:0:0:
342,192,129440,2,2,P|378:244|301:368,1,207.999990478516,6|10,3:2|0:2,0:1:0:0:
211,230,129888,2,0,L|221:264,2,34.6666650797527,2|2|2,3:2|0:2|0:2,0:0:0:0:
228,221,130037,6,0,L|249:301,1,51.999997619629,2|0,0:2|0:2,0:2:0:0:
154,375,130187,2,0,L|175:295,1,51.999997619629,2|0,0:2|0:2,0:2:0:0:
65,260,130336,2,0,L|86:340,1,51.999997619629,10|0,0:2|0:2,0:2:0:0:
133,207,130485,6,0,B|102:86|102:86|220:29|220:29|199:118,1,311.999985717774,2|8,3:2|0:2,0:2:0:0:
139,21,131082,1,0,3:2:0:0:
207,83,131232,6,0,B|268:72|268:72|284:83|284:83|376:67,1,155.999992858887,2|0,0:2|0:2,0:2:0:0:
440,38,131530,2,0,B|464:51|464:51|420:112,1,51.999997619629,10|0,0:2|0:2,0:2:0:0:
400,135,131679,2,0,B|407:161|407:161|333:173,1,51.999997619629,2|0,3:2|0:2,0:2:0:0:
247,187,131829,6,2,L|285:350,1,155.999992858887,6|0,3:2|0:2,0:1:0:0:
365,365,132127,2,0,L|371:321,5,34.6666650797527,10|2|2|2|0|0,0:2|0:2|0:2|0:2|0:0|0:0,0:0:0:0:
374,312,132426,5,2,3:2:0:0:
282,338,132575,1,2,3:2:0:0:
190,364,132724,1,10,0:2:0:0:
190,364,132873,1,2,3:2:0:0:
190,364,133023,1,0,3:2:0:0:
20,346,133172,6,0,P|92:337|110:243,1,155.999992858887,14|0,0:2|0:2,0:2:0:0:
99,248,133470,1,2,3:2:0:0:
161,185,133620,5,8,0:2:0:0:
161,185,133694,1,8,0:2:0:0:
161,185,133769,2,0,L|173:124,1,51.999997619629,0|0,3:2|3:2,0:0:0:0:
98,95,133918,5,8,0:2:0:0:
98,95,133992,1,8,0:2:0:0:
98,95,134067,2,0,L|86:34,1,51.999997619629,0|0,3:2|3:2,0:0:0:0:
170,14,134217,5,6,3:2:0:0:
170,14,134366,2,0,P|225:25|284:44,1,88.000002685547,0|0,3:2|0:0,0:2:0:0:
426,58,134664,5,0,3:2:0:0:
426,58,134813,2,0,P|371:69|312:88,1,88.000002685547,8|0,0:2|0:0,0:2:0:0:
269,132,135112,5,0,3:2:0:0:
269,132,135261,2,0,P|280:187|299:246,1,88.000002685547,0|0,3:2|0:0,0:2:0:0:
466,148,135560,5,0,3:2:0:0:
466,148,135709,2,0,P|455:203|436:262,1,88.000002685547,0|0,3:2|0:0,0:2:0:0:
327,352,136008,5,10,0:2:0:0:
368,278,136157,1,2,0:2:0:0:
409,351,136306,1,2,0:2:0:0:
242,314,136455,1,0,3:2:0:0:
242,314,136530,1,0,3:2:0:0:
242,314,136605,5,0,3:2:0:0:
170,359,136754,2,0,P|152:299|140:248,1,88.000002685547,0|0,3:2|0:0,0:2:0:0:
14,164,137052,5,0,3:2:0:0:
14,164,137202,2,0,P|69:163|122:174,1,88.000002685547,8|0,0:2|0:0,0:2:0:0:
316,203,137500,5,0,3:2:0:0:
316,203,137650,2,0,P|261:204|208:193,1,88.000002685547,0|0,3:2|0:0,0:2:0:0:
215,11,137948,5,0,3:2:0:0:
215,11,138097,2,0,P|202:61|187:111,1,88.000002685547,0|0,3:2|0:0,0:2:0:0:
44,288,138396,6,0,P|110:304|128:221,1,132.00000402832,10|2,0:2|0:2,0:0:0:0:
140,257,138694,2,0,P|159:292|153:317,1,44.0000013427735,2|0,0:2|0:2,0:2:0:0:
239,314,138843,2,0,P|227:352|205:365,1,44.0000013427735,2|0,0:2|0:2,0:2:0:0:
241,217,138993,5,6,3:2:0:0:
241,217,139142,2,0,P|296:201|366:186,1,88.000002685547,0|0,3:2|0:0,0:2:0:0:
391,90,139440,5,0,3:2:0:0:
391,90,139589,2,0,P|446:106|516:121,1,88.000002685547,8|0,0:2|0:0,0:2:0:0:
291,6,139888,5,0,3:2:0:0:
291,6,140037,2,0,P|282:53|277:126,1,88.000002685547,0|0,3:2|0:0,0:2:0:0:
141,258,140336,5,0,3:2:0:0:
141,258,140485,2,0,P|132:210|127:137,1,88.000002685547,0|0,3:2|0:0,0:2:0:0:
21,17,140784,6,0,L|54:64,1,44.0000013427735,10|0,0:2|0:2,0:2:0:0:
136,72,140933,2,0,L|78:77,1,44.0000013427735,2|0,0:2|0:2,0:2:0:0:
30,143,141082,2,0,L|54:90,1,44.0000013427735,2|0,0:2|0:2,0:2:0:0:
126,155,141232,1,0,3:2:0:0:
126,155,141306,1,0,3:2:0:0:
126,155,141381,5,0,3:2:0:0:
217,123,141530,2,0,L|325:144,1,88.000002685547,0|0,3:2|0:0,0:2:0:0:
503,185,141829,5,0,3:2:0:0:
503,185,141978,2,0,L|393:201,1,88.000002685547,8|0,0:2|0:0,0:2:0:0:
264,363,142276,5,0,3:2:0:0:
264,363,142426,2,0,P|245:311|288:271,1,88.000002685547,0|0,3:2|0:0,0:2:0:0:
401,288,142724,5,0,3:2:0:0:
401,288,142874,2,0,P|420:340|377:380,1,88.000002685547,0|0,3:2|0:0,0:2:0:0:
272,276,143172,6,0,B|270:232|270:232|262:227|262:227|258:161|258:161|250:154|250:154|248:86,1,180.000006866455,10|0,0:2|0:2,0:2:0:0:
179,30,143769,5,4,3:2:0:0:
130,93,143918,2,0,P|70:63|32:46,1,88.000002685547,0|0,3:2|0:0,0:2:0:0:
14,157,144217,5,0,3:2:0:0:
63,220,144366,2,0,P|123:190|161:173,1,88.000002685547,8|0,0:2|0:0,0:2:0:0:
224,129,144664,5,0,3:2:0:0:
295,182,144814,2,0,L|276:293,1,88.000002685547,0|0,3:2|0:0,0:2:0:0:
340,343,145112,5,0,3:2:0:0:
411,290,145262,2,0,L|392:179,1,88.000002685547,0|0,3:2|0:0,0:2:0:0:
447,127,145560,6,0,L|503:117,3,44.0000013427735,8|0|2|2,0:2|0:0|0:2|0:2,0:0:0:0:
500,107,145858,2,0,L|509:36,1,44.0000013427735,2|0,0:2|0:2,0:2:0:0:
426,54,146008,2,0,L|417:-17,1,44.0000013427735,2|0,0:2|0:2,0:2:0:0:
337,70,146157,5,0,3:2:0:0:
271,20,146306,2,0,P|216:32|173:35,1,88.000002685547,0|0,3:2|0:0,0:2:0:0:
74,83,146605,5,0,3:2:0:0:
140,133,146754,2,0,P|195:121|238:118,1,88.000002685547,8|0,0:2|0:0,0:2:0:0:
302,157,147052,5,0,3:2:0:0:
370,211,147202,2,0,P|360:262|353:314,1,88.000002685547,0|0,3:2|0:0,0:2:0:0:
271,241,147500,5,0,3:2:0:0:
203,295,147650,2,0,P|213:346|220:398,1,88.000002685547,0|0,3:2|0:0,0:2:0:0:
9,292,147948,6,0,B|86:305|44:353|127:358,1,132.00000402832,10|0,0:2|0:2,0:2:0:0:
117,357,148246,2,0,L|110:299,1,44.0000013427735,2|0,0:2|0:2,0:2:0:0:
101,233,148396,2,0,L|93:174,1,44.0000013427735,2|0,0:2|0:2,0:2:0:0:
71,20,148545,5,0,3:2:0:0:
121,85,148694,2,0,L|217:103,1,88.000002685547,0|0,3:2|0:0,0:2:0:0:
240,223,148993,5,0,3:2:0:0:
290,158,149142,2,0,L|386:140,1,88.000002685547,8|0,0:2|0:0,0:2:0:0:
460,182,149440,5,0,3:2:0:0:
505,259,149590,2,0,B|519:291|519:291|479:362,1,88.000002685547,0|0,3:2|0:0,0:2:0:0:
403,326,149888,5,0,3:2:0:0:
326,371,150038,2,0,B|294:384|294:384|223:344,1,88.000002685547,0|0,3:2|0:0,0:2:0:0:
350,252,150336,6,0,B|261:264|261:264|246:339|246:339|122:360,1,264.000008056641,8|2,0:2|0:2,0:2:0:0:
16,283,150933,5,0,3:2:0:0:
63,360,151082,2,0,P|56:306|12:277,1,88.000002685547,0|0,3:2|0:0,0:2:0:0:
62,209,151381,5,0,3:2:0:0:
149,231,151530,2,0,P|105:197|54:208,1,88.000002685547,0|0,3:2|0:0,0:2:0:0:
42,125,151829,5,0,3:2:0:0:
119,79,151978,2,0,P|65:86|35:130,1,88.000002685547,0|0,3:2|0:0,0:2:0:0:
199,133,152276,5,0,3:2:0:0:
266,87,152426,2,0,L|279:-12,1,88.000002685547,0|0,3:2|0:0,0:2:0:0:
365,88,152724,5,2,0:2:0:0:
365,88,152873,1,0,0:2:0:0:
485,165,153023,5,0,0:0:0:0:
485,165,153172,2,0,P|491:192|488:224,1,44.0000013427735,2|0,0:2|0:2,0:2:0:0:
467,322,153321,6,0,B|269:318|392:122|156:132,1,352.000010742188,6|0,3:2|0:2,0:2:0:0:
166,305,166605,5,0,3:2:0:0:
166,305,166679,1,0,3:2:0:0:
166,305,166754,2,0,L|154:240,3,40,8|8|8|8,0:1|0:1|0:1|0:1,0:0:0:0:
151,193,167052,5,4,0:3:0:0:
151,193,167127,1,4,0:3:0:0:
151,193,167202,2,0,L|92:207,1,40,8|8,0:3|0:3,0:0:0:0:
40,243,167351,6,0,L|184:270,1,120,0|0,3:2|0:2,0:2:0:0:
271,376,167649,6,0,B|255:318|255:318|286:302|286:302|251:182,1,210.000008010865,6|0,3:2|0:2,0:2:0:0:
249,180,168246,1,8,0:2:0:0:
313,255,168396,6,0,L|385:267,1,60.0000022888184,2|0,3:2|0:0,0:2:0:0:
496,322,168694,2,0,L|424:334,1,60.0000022888184,2|0,3:2|0:0,0:2:0:0:
500,109,170037,6,0,P|450:128|400:-1,1,210.000008010865,6|0,3:2|0:2,0:2:0:0:
401,19,170635,1,8,0:2:0:0:
350,91,170784,6,0,L|283:79,1,60.0000022888184,2|0,3:2|0:0,0:2:0:0:
206,64,171082,2,0,L|139:52,1,60.0000022888184,2|0,3:2|0:0,0:2:0:0:
40,148,171381,6,0,L|32:178,3,20.0000007629395,0|0|0|8,3:2|3:2|3:2|0:2,3:2:0:0:
125,174,171679,5,0,3:2:0:0:
125,174,171754,1,0,3:2:0:0:
125,174,171829,2,0,L|132:216,1,40.000001525879,8|8,0:1|0:1,0:0:0:0:
221,210,172028,5,8,0:1:0:0:
233,232,172127,2,0,L|226:274,1,40.000001525879,4|4,0:3|0:3,0:0:0:0:
287,337,172326,1,4,0:3:0:0:
306,361,172426,6,0,P|364:357|377:221,1,210.000008010865,6|0,3:2|0:2,0:2:0:0:
372,233,173023,1,8,0:2:0:0:
475,206,173172,6,0,L|460:277,1,60.0000022888184,2|0,3:2|0:0,0:2:0:0:
320,63,173470,2,0,L|335:134,1,60.0000022888184,2|0,3:2|0:0,0:2:0:0:
256,192,173694,12,0,174664,0:0:0:0:
0,187,174814,6,0,B|62:170|62:170|122:207|122:207|206:182,1,210.000008010865,6|0,3:2|0:2,0:2:0:0:
195,170,175411,1,8,0:2:0:0:
303,220,175560,6,0,L|299:263,3,30.0000011444092,0|0|0|0,3:2|3:2|3:2|3:2,0:0:0:0:
370,168,175858,1,0,3:2:0:0:
370,168,175933,1,0,3:2:0:0:
370,168,176008,6,0,B|407:163|407:163|390:67,1,120.000004577637,0|2,3:2|0:2,0:2:0:0:
503,293,176754,6,0,L|455:306,1,30.0000011444092,2|0,0:2|0:2,0:2:0:0:
396,321,176903,1,2,0:2:0:0:
396,321,177052,1,2,0:2:0:0:
282,363,177202,5,6,3:2:0:0:
311,279,177351,2,0,P|294:202|281:151,1,120.000004577637,2|8,0:2|0:2,0:2:0:0:
263,80,177649,1,2,0:2:0:0:
381,137,177799,2,0,P|398:60|411:9,1,120.000004577637,0|0,3:2|0:0,0:2:0:0:
498,138,178097,5,10,3:2:0:0:
427,252,178246,2,0,P|331:272|270:292,1,120.000004577637,2|0,0:2|3:2,0:2:0:0:
314,363,178545,1,2,0:2:0:0:
191,303,178694,2,0,P|177:235|158:163,1,120.000004577637,10|0,3:2|0:0,0:2:0:0:
202,77,178993,5,2,3:2:0:0:
63,154,179142,1,2,0:2:0:0:
93,43,179291,2,0,L|85:-2,3,40.000001525879,10|2|2|2,3:2|0:2|0:2|0:2,0:0:0:0:
164,185,179590,5,2,3:2:0:0:
265,154,179739,2,0,L|409:120,1,120.000004577637,2|8,0:2|3:2,0:2:0:0:
477,173,180037,1,2,0:2:0:0:
432,355,180187,2,0,P|409:248|407:203,1,120.000004577637,2|0,3:2|0:0,0:2:0:0:
488,193,180485,5,10,3:2:0:0:
381,126,180634,2,0,L|237:92,1,120.000004577637,2|0,0:2|3:2,0:2:0:0:
101,19,180933,1,2,0:2:0:0:
159,142,181083,2,0,P|182:35|184:-10,1,120.000004577637,10|0,3:2|0:0,0:2:0:0:
64,173,181381,5,2,3:2:0:0:
211,225,181530,1,2,0:2:0:0:
113,255,181679,2,0,L|102:308,3,40.000001525879,10|2|2|2,3:2|0:2|0:2|0:2,0:0:0:0:
211,225,181978,5,2,3:2:0:0:
273,283,182127,2,0,B|332:298|310:333|379:351,1,120.000004577637,2|8,0:2|3:2,0:2:0:0:
452,372,182426,1,2,0:2:0:0:
483,198,182575,2,0,B|424:213|446:248|377:266,1,120.000004577637,2|0,3:2|0:0,0:2:0:0:
323,212,182873,5,10,3:2:0:0:
369,34,183023,2,0,P|374:98|389:168,1,120.000004577637,2|0,0:2|3:2,0:2:0:0:
312,196,183321,1,2,0:2:0:0:
150,129,183470,2,0,P|217:122|279:104,1,120.000004577637,10|0,3:2|0:2,0:2:0:0:
271,16,183769,5,2,3:2:0:0:
113,46,183918,2,0,P|87:54|64:68,3,40.000001525879,2|2|2|10,0:2|0:2|0:2|3:2,0:0:0:0:
221,166,184217,1,2,0:2:0:0:
175,264,184366,6,0,P|106:254|85:167,1,120.000004577637,2|2,3:2|0:2,0:2:0:0:
80,185,184590,2,0,P|104:265|92:313,1,120.000004577637,2|2,0:2|0:2,0:2:0:0:
83,325,184814,1,2,0:2:0:0:
244,321,184963,6,0,P|313:311|334:224,1,120.000004577637,2|2,3:2|0:2,0:2:0:0:
339,242,185187,2,0,P|315:322|327:370,1,120.000004577637,2|2,0:2|0:2,0:2:0:0:
336,382,185411,1,2,0:2:0:0:
255,231,185560,6,0,P|243:163|237:98,1,120.000004577637,2|2,3:2|0:2,0:2:0:0:
488,35,185858,5,10,3:2:0:0:
488,35,185933,1,2,3:2:0:0:
488,35,186008,2,0,P|405:20|368:135,1,180.000006866455,2|0,3:2|0:0,0:0:0:0:
376,112,186306,6,0,L|456:127,1,60.0000022888184,2|0,3:2|0:2,0:2:0:0:
373,230,186455,2,0,L|440:184,1,60.0000022888184,10|0,3:2|0:2,0:2:0:0:
497,273,186605,2,0,L|512:192,1,60.0000022888184,2|0,3:2|0:2,0:2:0:0:
421,314,186754,6,0,B|342:314|391:366|302:367,1,120.000004577637,2|14,0:2|3:2,0:0:0:0:
237,321,187202,1,2,0:2:0:0:
85,367,187351,2,0,P|66:308|31:235,1,120.000004577637,2|0,3:2|0:2,0:2:0:0:
11,181,187649,1,10,3:2:0:0:
151,237,187799,6,0,P|231:222|243:163,1,120.000004577637,2|0,0:2|3:2,0:2:0:0:
256,109,188097,1,2,0:2:0:0:
105,137,188246,2,0,P|25:122|13:63,1,120.000004577637,10|0,3:2|0:2,0:2:0:0:
38,12,188544,5,2,3:2:0:0:
168,58,188694,1,2,0:2:0:0:
309,35,188843,2,0,L|321:-12,3,40.000001525879,10|2|2|2,3:2|0:2|0:2|0:2,0:0:0:0:
357,106,189142,5,2,3:2:0:0:
509,62,189291,2,0,P|499:130|492:192,1,120.000004577637,2|8,0:2|3:2,0:2:0:0:
459,253,189590,1,2,0:2:0:0:
307,209,189739,2,0,P|317:277|324:339,1,120.000004577637,2|0,3:2|0:0,0:2:0:0:
394,380,190037,5,10,3:2:0:0:
203,295,190187,2,0,P|140:311|81:335,1,120.000004577637,2|0,0:2|3:2,0:2:0:0:
226,213,190485,1,2,0:2:0:0:
114,132,190635,2,0,P|51:116|-8:92,1,120.000004577637,10|0,3:2|0:2,0:2:0:0:
7,190,190933,5,2,3:2:0:0:
139,267,191082,1,2,0:2:0:0:
271,344,191232,2,0,L|321:337,3,40.000001525879,10|2|2|2,3:2|0:2|0:2|0:2,0:0:0:0:
226,213,191530,5,2,3:2:0:0:
265,94,191679,2,0,P|315:167|360:191,1,120.000004577637,2|8,0:2|3:2,0:2:0:0:
434,190,191978,1,2,0:2:0:0:
433,0,192127,2,0,P|405:62|393:133,1,120.000004577637,2|0,3:2|0:2,0:2:0:0:
434,190,192426,5,10,3:2:0:0:
491,319,192575,2,0,P|437:360|382:333,1,120.000004577637,2|0,0:2|3:2,0:2:0:0:
334,293,192873,1,2,0:2:0:0:
226,213,193023,2,0,P|151:241|105:259,1,120.000004577637,10|0,3:2|0:2,0:2:0:0:
185,23,193321,5,2,3:2:0:0:
185,23,193396,2,0,P|214:74|153:145,1,120.000004577637,2|0,0:2|0:2,0:2:0:0:
164,136,193620,1,10,3:2:0:0:
330,47,193769,5,2,0:2:0:0:
330,47,193843,1,0,0:2:0:0:
330,47,193918,2,0,B|401:73|401:73|417:58|417:58|507:85,1,180.000006866455,2|0,3:2|0:2,0:2:0:0:
495,81,194217,2,0,B|416:104|416:104|400:89|400:89|329:115,1,180.000006866455,2|0,0:2|0:2,0:2:0:0:
298,197,194515,6,0,B|276:241|276:241|327:301|327:301|391:275|391:275|419:206,1,240.000009155274,10|0,0:2|0:2,0:2:0:0:
419,208,194888,1,0,3:2:0:0:
440,186,194963,1,0,3:2:0:0:
469,179,195037,1,0,3:2:0:0:
497,188,195112,6,0,B|517:224|517:224|481:321,1,120.000004577637,2|0,3:2|3:2,0:2:0:0:
478,325,195336,2,0,B|442:345|442:345|345:309,1,120.000004577637,10|0,3:2|3:2,0:2:0:0:
353,286,195560,1,0,3:2:0:0:
185,136,195709,5,2,3:2:0:0:
185,136,195784,1,0,0:2:0:0:
185,136,195858,2,0,L|114:126,1,60.0000022888184,0|10,3:2|0:2,0:0:0:0:
141,212,196008,5,0,3:2:0:0:
141,212,196083,1,0,3:2:0:0:
141,212,196157,2,0,L|70:222,1,60.0000022888184,10|0,0:2|3:2,0:2:0:0:
26,299,196306,6,0,B|-19:245|-19:245|158:302,1,240.000009155274,4|8,3:2|3:2,0:2:0:0:
252,384,196754,1,0,0:2:0:0:
252,384,196829,1,2,0:2:0:0:
252,384,196903,2,0,P|262:319|282:255,1,120.000004577637,2|2,3:2|0:2,0:2:0:0:
329,198,197202,1,10,3:2:0:0:
430,108,197351,6,0,P|499:127|510:182,2,120.000004577637,2|0|0,0:2|3:2|0:2,0:2:0:0:
251,13,197799,2,0,P|266:94|273:152,1,120.000004577637,8|0,3:2|0:2,0:0:0:0:
194,266,198097,5,2,3:2:0:0:
93,255,198246,1,2,0:2:0:0:
38,177,198396,2,2,L|24:115,3,40.000001525879,10|0|0|2,3:2|0:0|0:0|0:2,0:2:0:0:
38,364,198694,6,0,P|74:320|154:334,1,120.000004577637,0|0,3:2|0:2,0:0:0:0:
157,302,198918,2,0,P|215:302|252:346,1,120.000004577637,2|0,0:2|0:2,0:2:0:0:
256,377,199142,2,0,P|264:307|272:259,1,120.000004577637,2|0,0:2|3:2,0:2:0:0:
279,225,199366,2,0,P|315:269|395:255,1,120.000004577637,2|0,0:2|0:2,0:2:0:0:
400,255,199590,1,10,3:2:0:0:
341,356,199739,1,2,0:2:0:0:
190,221,199888,6,0,P|180:164|175:81,1,120.000004577637,2|0,3:2|0:2,0:2:0:0:
276,116,200112,2,0,P|219:107|138:87,1,120.000004577637,2|0,0:2|0:2,0:2:0:0:
202,1,200336,2,0,P|176:52|131:123,1,120.000004577637,2|0,0:2|3:2,0:2:0:0:
69,35,200560,2,0,P|109:75|163:139,1,120.000004577637,2|0,0:2|0:2,0:2:0:0:
60,171,200784,2,0,P|110:144|188:113,1,120.000004577637,10|2,3:2|0:2,0:2:0:0:
333,252,201082,6,0,P|315:189|319:-11,1,240.000009155274,6|8,3:2|3:2,0:2:0:0:
512,98,201530,1,0,0:2:0:0:
512,98,201605,1,2,0:2:0:0:
512,98,201679,2,0,P|482:132|368:122,1,120.000004577637,2|2,3:2|0:2,0:2:0:0:
327,102,201978,1,10,3:2:0:0:
225,216,202127,6,0,P|205:285|194:345,2,120.000004577637,2|0|0,0:2|3:2|0:2,0:2:0:0:
125,192,202575,2,0,L|-24:218,1,120.000004577637,8|0,3:2|0:2,0:0:0:0:
50,120,202873,5,2,3:2:0:0:
127,217,203023,1,2,0:2:0:0:
209,136,203172,1,10,3:2:0:0:
312,257,203321,1,2,0:2:0:0:
436,199,203470,6,0,P|451:139|470:60,1,120.000004577637,2|2,3:2|0:2,0:0:0:0:
304,7,203769,2,0,P|318:65|333:124,1,120.000004577637,10|2,3:2|0:2,0:0:0:0:
256,201,204067,5,2,3:2:0:0:
171,52,204217,1,2,0:2:0:0:
169,231,204366,2,0,P|166:302|165:372,1,120.000004577637,10|2,3:2|0:2,0:0:0:0:
248,366,204664,5,2,3:2:0:0:
84,276,204814,1,2,3:2:0:0:
256,201,204963,1,10,0:2:0:0:
309,287,205112,2,0,P|393:307|455:323,1,120.000004577637,2|2,3:2|0:2,0:0:0:0:
491,372,205411,1,2,3:2:0:0:
500,155,205560,6,0,P|451:113|416:211,1,180.000006866455,10|0,0:2|0:0,0:0:0:0:
412,190,205858,6,0,B|418:231|418:231|412:245|412:245|421:296,1,90.0000034332277,2|0,3:2|0:2,0:2:0:0:
512,293,206157,6,0,B|427:263|436:370|325:314,1,180.000006866455,10|2,3:2|0:2,0:2:0:0:
327,301,206455,1,2,3:2:0:0:
250,216,206605,1,2,0:2:0:0:
288,114,206754,1,10,3:2:0:0:
221,17,206903,6,0,P|136:6|77:-6,2,120.000004577637,2|0|0,0:2|3:2|0:2,0:2:0:0:
288,114,207351,2,0,P|228:120|169:131,1,120.000004577637,8|0,3:2|0:2,0:0:0:0:
36,181,207649,5,2,3:2:0:0:
191,258,207799,1,2,0:2:0:0:
47,344,207948,2,2,P|31:359|-5:374,3,40.000001525879,10|0|0|2,3:2|0:0|0:0|0:2,0:2:0:0:
206,267,208246,6,0,P|275:286|342:309,1,120.000004577637,0|0,3:2|0:2,0:0:0:0:
336,343,208470,2,0,P|340:263|348:202,1,120.000004577637,2|0,0:2|0:2,0:2:0:0:
349,201,208694,2,0,P|418:182|485:159,1,120.000004577637,2|0,0:2|3:2,0:2:0:0:
479,125,208918,2,0,P|483:205|491:266,1,120.000004577637,2|0,0:2|0:2,0:2:0:0:
464,273,209142,1,10,3:2:0:0:
371,112,209291,1,2,0:2:0:0:
247,178,209440,6,0,P|181:168|135:122,1,120.000004577637,2|0,3:2|0:2,0:2:0:0:
133,105,209664,1,2,3:2:0:0:
129,75,209739,2,0,P|170:32|213:81,1,120.000004577637,8|2,0:2|3:2,0:0:0:0:
219,90,209963,1,8,0:2:0:0:
162,211,210112,5,2,3:2:0:0:
133,220,210187,1,0,3:2:0:0:
104,229,210261,1,0,3:2:0:0:
75,238,210336,1,10,0:2:0:0:
221,285,210485,1,10,0:2:0:0:
87,375,210635,6,0,B|101:299|101:299|115:305|115:305|139:181,1,180.000006866455,6|0,3:2|0:2,0:2:0:0:
46,177,210933,2,0,B|2:195|2:195|166:225,1,180.000006866455,2|0,0:2|0:2,0:2:0:0:
162,224,211232,5,10,0:2:0:0:
242,179,211381,1,2,0:2:0:0:
298,344,211530,1,2,0:2:0:0:
367,283,211679,2,0,P|449:263|477:320,1,120.000004577637,2|0,3:2|0:0,0:0:0:0:
477,309,211903,2,0,P|462:350|442:365,2,60.0000022888184,2|0|0,3:2|3:2|3:2,0:0:0:0:
496,196,212202,1,2,3:2:0:0:
496,196,212276,1,0,3:2:0:0:
357,152,212426,6,0,P|293:176|217:174,1,120.000004577637,8|0,0:2|3:2,0:0:0:0:
222,155,212649,1,0,3:2:0:0:
208,128,212724,1,8,0:2:0:0:
189,257,212873,1,8,0:2:0:0:
26,165,213023,1,2,3:2:0:0:
26,262,213172,5,2,3:2:0:0:
26,262,213246,1,0,3:2:0:0:
26,262,213321,2,0,L|88:244,1,60.0000022888184,10|0,0:2|0:0,0:0:0:0:
92,287,213470,2,0,L|78:352,2,60.0000022888184,2|0|10,3:2|3:2|0:2,0:0:0:0:
222,258,213769,5,2,3:2:0:0:
222,258,213843,1,0,3:2:0:0:
222,258,213918,2,0,L|350:298,1,120.000004577637,10|2,0:2|3:2,0:0:0:0:
405,216,214217,5,10,0:2:0:0:
401,187,214291,1,8,0:2:0:0:
398,157,214366,1,2,3:2:0:0:
395,128,214440,1,0,3:2:0:0:
392,98,214515,6,0,L|379:21,3,60.0000022888184,10|8|2|0,0:2|0:2|3:2|3:2,0:0:0:0:
472,119,214814,2,0,L|517:55,3,60.0000022888184,10|8|2|0,0:2|0:2|3:2|3:2,0:0:0:0:
508,198,215112,1,10,0:2:0:0:
337,335,215411,6,2,P|247:330|258:228,1,191.999994140625,4|10,3:2|3:2,0:1:0:0:
255,225,215784,1,2,0:2:0:0:
269,205,215858,1,2,0:2:0:0:
283,185,215933,1,2,0:2:0:0:
297,165,216008,6,0,L|278:65,1,95.9999970703126,2|2,3:2|0:2,0:2:0:0:
277,46,216232,2,2,P|203:49|175:22,1,95.9999970703126,0|2,0:2|0:2,0:2:0:0:
175,18,216455,1,2,0:2:0:0:
23,97,216605,6,0,P|87:90|110:183,1,143.999995605469,2|0,3:2|0:2,0:2:0:0:
120,176,216903,2,0,B|79:208|79:208|92:313,1,143.999995605469,10|0,3:2|0:2,0:2:0:0:
94,323,217202,6,0,L|157:346,1,47.9999985351563,2|0,3:2|0:2,0:2:0:0:
214,278,217351,2,0,L|225:344,1,47.9999985351563,2|0,0:2|0:2,0:2:0:0:
349,303,217500,2,0,B|304:341|304:341|201:321,1,143.999995605469,10|0,3:2|0:2,0:2:0:0:
296,244,217799,6,2,B|367:257|367:257|398:221|398:221|476:234,1,191.999994140625,2|10,3:2|3:2,0:1:0:0:
463,209,218172,1,2,0:2:0:0:
457,185,218246,1,2,0:2:0:0:
451,161,218321,1,2,0:2:0:0:
446,137,218396,6,0,P|470:93|429:54,1,95.9999970703126,2|2,3:2|0:2,0:2:0:0:
438,36,218620,2,0,P|392:70|340:43,1,95.9999970703126,2|2,0:2|0:2,0:2:0:0:
343,42,218843,1,2,0:2:0:0:
205,18,218993,6,0,P|253:50|215:140,1,143.999995605469,2|0,3:2|0:2,0:2:0:0:
216,117,219291,2,0,B|164:109|164:109|141:141|141:141|71:128,1,143.999995605469,10|0,3:2|0:2,0:2:0:0:
65,129,219590,6,0,L|91:203,1,47.9999985351563,2|0,3:2|0:2,0:2:0:0:
207,191,219739,2,0,L|181:265,1,47.9999985351563,2|0,0:2|0:2,0:2:0:0:
40,311,219888,2,0,B|92:257|92:257|161:317,1,143.999995605469,10|0,3:2|0:2,0:2:0:0:
242,379,220187,6,2,B|228:268|228:268|326:231,1,191.999994140625,2|10,3:2|3:2,0:1:0:0:
328,238,220560,1,2,0:2:0:0:
352,238,220635,1,2,0:2:0:0:
375,238,220709,1,2,0:2:0:0:
399,238,220784,6,0,B|410:197|410:197|327:172,1,95.9999970703126,2|2,3:2|0:2,0:2:0:0:
339,167,221008,2,0,B|328:126|328:126|411:101,1,95.9999970703126,2|0,0:2|0:2,0:2:0:0:
402,105,221232,1,2,3:2:0:0:
425,99,221306,1,2,3:2:0:0:
448,93,221381,1,2,3:2:0:0:
263,22,221605,5,2,3:2:0:0:
238,22,221679,2,0,B|211:27|211:27|242:125,2,95.9999970703126,10|2|2,0:2|3:2|3:2,0:2:0:0:
3,165,222575,6,0,B|223:178|25:334|289:351,1,335.999989746094,6|0,3:2|0:2,0:2:0:0:
338,373,223172,2,0,P|334:339|349:300,2,63.9999980468751,10|2|2,0:2|0:2|0:2,0:0:0:0:
254,263,223470,6,0,P|340:279|331:146,1,239.999992675781,6|0,3:2|0:2,0:2:0:0:
327,152,223918,1,2,3:2:0:0:
406,241,224067,2,0,P|460:258|501:258,1,95.9999970703126,2|2,3:2|0:2,0:0:0:0:
485,34,224366,5,10,0:2:0:0:
469,119,224515,1,0,3:2:0:0:
469,119,224590,1,0,3:2:0:0:
469,119,224664,2,0,P|404:73|402:55,1,90.0000034332277,10|0,0:2|0:2,0:2:0:0:
376,0,224963,6,2,B|249:-3|317:65|180:50,1,191.999994140625,6|10,3:2|3:2,0:1:0:0:
170,49,225336,1,2,0:2:0:0:
145,47,225411,1,2,0:2:0:0:
121,45,225485,1,2,0:2:0:0:
96,42,225560,6,0,L|133:163,1,95.9999970703126,2|2,3:2|0:2,0:2:0:0:
105,163,225784,2,0,L|226:200,1,95.9999970703126,2|2,0:2|0:2,0:2:0:0:
214,175,226008,1,2,0:2:0:0:
323,146,226157,6,0,B|359:184|359:184|316:310,1,143.999995605469,2|0,3:2|0:2,0:2:0:0:
305,269,226455,2,0,B|370:257|370:257|404:300|404:300|373:345,1,143.999995605469,10|0,3:2|0:2,0:2:0:0:
385,342,226754,6,0,L|321:355,1,47.9999985351563,2|0,3:2|0:2,0:2:0:0:
259,371,226903,2,0,L|193:366,1,47.9999985351563,2|0,0:2|0:2,0:2:0:0:
132,383,227052,2,0,B|74:363|74:363|95:273,1,143.999995605469,10|0,3:2|0:2,0:2:0:0:
6,224,227351,6,2,B|69:245|69:245|109:202|109:202|195:227,1,191.999994140625,2|10,3:2|3:2,0:1:0:0:
172,196,227724,1,2,0:2:0:0:
172,171,227799,1,2,0:2:0:0:
172,147,227873,1,2,0:2:0:0:
172,122,227948,6,0,L|69:97,1,95.9999970703126,2|2,3:2|0:2,0:2:0:0:
79,75,228172,2,0,L|182:50,1,95.9999970703126,2|2,0:2|0:2,0:2:0:0:
175,28,228396,1,2,0:2:0:0:
309,12,228545,6,0,B|293:56|293:56|401:78,1,143.999995605469,2|0,3:2|0:2,0:2:0:0:
399,54,228843,2,0,L|430:215,1,143.999995605469,10|0,3:2|0:2,0:2:0:0:
469,311,229142,6,0,P|424:248|353:260,1,143.999995605469,2|0,3:2|0:2,0:2:0:0:
345,244,229440,2,0,P|373:280|331:363,1,120,10|0,3:2|0:2,0:2:0:0:
332,354,229739,5,2,3:2:0:0:
263,300,229888,2,0,P|195:290|158:283,1,95.9999970703126,2|8,0:2|3:2,0:2:0:0:
42,351,230187,1,2,0:2:0:0:
42,351,230336,2,0,P|54:286|70:239,1,95.9999970703126,2|0,3:2|2:2,2:2:0:0:
201,201,230635,5,10,3:2:0:0:
201,201,230784,2,0,P|189:136|173:89,1,95.9999970703126,2|0,0:2|3:2,0:2:0:0:
28,88,231082,1,2,0:2:0:0:
0,183,231232,2,0,P|49:167|112:147,1,95.9999970703126,10|0,3:2|0:2,0:2:0:0:
215,25,231530,5,2,3:2:0:0:
298,50,231679,2,2,L|340:43,3,31.9999990234375,2|2|2|10,0:2|0:2|0:2|3:2,0:2:0:0:
233,109,231978,1,2,0:2:0:0:
294,169,232127,6,0,P|357:162|401:172,1,95.9999970703126,10|0,3:2|0:2,0:2:0:0:
413,154,232351,2,0,L|400:265,1,95.9999970703126,2|2,0:2|0:2,0:2:0:0:
400,273,232575,1,2,0:2:0:0:
312,377,232724,6,0,P|297:319|253:293,1,95.9999970703126,10|0,3:2|0:2,0:2:0:0:
263,268,232948,2,0,P|205:283|179:327,1,95.9999970703126,2|2,0:2|0:2,0:2:0:0:
185,334,233172,1,2,0:2:0:0:
37,349,233321,5,10,3:2:0:0:
100,281,233470,1,0,0:2:0:0:
100,281,233545,1,2,0:2:0:0:
34,217,233694,1,2,0:2:0:0:
34,217,233769,2,0,L|26:144,1,47.9999985351563,2|0,0:2|0:2,0:2:0:0:
15,86,233918,6,0,B|93:107|93:107|94:153,1,95.9999970703126,10|2,3:2|3:2,0:0:0:0:
155,194,234142,2,0,B|233:173|233:173|234:127,1,95.9999970703126,10|2,0:2|3:2,0:2:0:0:
240,70,234366,1,10,0:2:0:0:
424,42,234515,5,2,3:2:0:0:
341,9,234664,2,0,L|326:186,1,143.999995605469,2|0,0:2|0:2,0:2:0:0:
342,172,234963,1,2,0:2:0:0:
502,178,235112,6,0,B|437:200|437:200|427:240|427:240|341:263,1,191.999994140625,10|2,0:2|0:2,0:2:0:0:
266,281,235560,1,2,0:2:0:0:
81,327,235709,1,2,3:2:0:0:
163,362,235858,5,2,0:2:0:0:
163,362,236008,2,0,L|185:203,1,143.999995605469,2|0,0:2|0:2,0:2:0:0:
187,195,236306,6,0,L|82:218,1,95.9999970703126,10|2,0:2|3:2,0:2:0:0:
78,196,236530,2,0,L|101:91,1,95.9999970703126,10|2,0:2|3:2,0:2:0:0:
103,78,236754,1,10,0:2:0:0:
222,103,236903,6,0,B|329:82|329:82|302:43,1,143.999995605469,2|0,3:2|0:2,0:2:0:0:
309,53,237202,2,0,B|289:24|289:24|396:3,1,143.999995605469,2|0,0:2|0:2,0:2:0:0:
491,5,237500,2,0,B|505:57|505:57|407:75|407:75|402:27,1,191.999994140625,10|0,0:2|0:2,0:2:0:0:
368,159,237948,5,2,3:2:0:0:
368,159,238023,1,2,3:2:0:0:
368,159,238097,2,0,B|351:192|351:192|275:179,1,95.9999970703126,2|0,3:2|0:2,0:2:0:0:
279,202,238321,1,2,3:2:0:0:
268,223,238396,2,0,L|163:204,1,95.9999970703126,10|2,0:2|0:2,0:2:0:0:
134,377,238694,6,0,L|120:267,1,95.9999970703126,10|0,0:2|0:0,0:2:0:0:
31,251,238993,1,10,0:2:0:0:
35,227,239067,1,8,0:2:0:0:
39,203,239142,1,8,0:2:0:0:
43,179,239217,1,8,0:2:0:0:
48,155,239291,5,6,3:2:0:0:
72,37,239440,2,0,L|88:145,1,95.9999970703126,2|0,3:2|0:2,0:2:0:0:
88,26,239739,2,0,L|104:134,1,95.9999970703126,2|8,3:2|0:2,0:2:0:0:
249,179,240037,5,2,3:2:0:0:
225,61,240186,2,0,L|209:169,1,95.9999970703126,2|0,3:2|0:2,0:2:0:0:
209,50,240485,2,0,L|193:158,1,95.9999970703126,2|0,3:2|0:2,0:2:0:0:
347,152,240784,5,2,3:2:0:0:
465,128,240933,2,0,L|357:112,1,95.9999970703126,2|8,3:2|0:2,0:2:0:0:
476,112,241232,2,0,L|368:96,1,95.9999970703126,2|0,3:2|0:2,0:2:0:0:
389,256,241530,5,2,3:2:0:0:
271,232,241679,2,0,L|379:216,1,95.9999970703126,2|0,3:2|0:2,0:2:0:0:
260,216,241978,2,0,L|368:200,1,95.9999970703126,2|0,3:2|0:2,0:2:0:0:
177,255,242276,5,10,0:2:0:0:
153,373,242425,2,0,L|137:265,1,95.9999970703126,2|0,3:2|0:2,0:2:0:0:
137,384,242724,2,0,L|121:276,1,95.9999970703126,2|0,3:2|0:2,0:2:0:0:
15,96,243023,5,2,3:2:0:0:
39,214,243172,2,0,L|55:106,1,95.9999970703126,2|0,3:2|0:2,0:2:0:0:
55,225,243471,2,0,L|71:117,1,95.9999970703126,10|0,0:2|0:2,0:2:0:0:
241,66,243769,5,2,3:2:0:0:
166,122,243918,1,2,3:2:0:0:
252,157,244067,2,0,L|235:212,3,47.9999985351563,8|8|2|0,0:2|0:2|3:2|3:2,0:0:0:0:
333,125,244366,2,0,L|350:180,3,47.9999985351563,8|8|2|0,0:2|0:2|3:2|3:2,0:0:0:0:
408,86,244664,6,0,L|511:104,2,95.9999970703126,2|2|2,3:2|0:2|0:2,0:2:0:0:
331,41,245112,1,2,0:2:0:0:
331,41,245261,1,6,3:2:0:0:
