osu file format v14

[General]
AudioFilename: audio.mp3
AudioLeadIn: 0
PreviewTime:95933
Countdown: 0
SampleSet: Soft
StackLeniency: 0.5
Mode: 0
LetterboxInBreaks: 0
WidescreenStoryboard: 1

[Editor]
Bookmarks: 38699,48251,67356,76908,86460,96013,134222,153326,167654,177207,196311,215416,234520,245266
DistanceSpacing: 1.1
BeatDivisor: 4
GridSize: 32
TimelineZoom: 2.100001

[Metadata]
Title:Chirality ("Dissymmetric" Long ver.)
TitleUnicode:Chirality ("Dissymmetric" Long ver.)
Artist:Camellia
ArtistUnicode:かめりあ
Creator:Mir
Version:Easy
Source:REFLEC BEAT groovin'!!
Tags:cametek dnb wub dubstep electronic instrumental video game galaxy burst drum and bass
BeatmapID:2801535
BeatmapSetID:1262960

[Difficulty]
HPDrainRate:2
CircleSize:3
OverallDifficulty:3
ApproachRate:4
SliderMultiplier:0.899999999999999
SliderTickRate:1

[Events]
//Background and Video events
0,0,"asymmetry.png",0,0
//Break Periods
2,67551,74986
2,158097,165434
//Storyboard Layer 0 (Background)
//Storyboard Layer 1 (Fail)
//Storyboard Layer 2 (Pass)
//Storyboard Layer 3 (Foreground)
//Storyboard Layer 4 (Overlay)
//Storyboard Sound Samples

[TimingPoints]
10038,298.507462686567,4,2,1,60,1,0
45784,-100,4,2,1,5,0,0
45858,-100,4,2,1,70,0,0
47052,-100,4,2,1,60,0,0
48843,-100,4,2,1,80,0,0
67351,-100,4,2,1,30,0,0
76306,-100,4,2,1,60,0,0
93620,-100,4,2,1,70,0,0
94814,-100,4,2,1,40,0,0
96008,-100,4,2,1,80,0,0
115112,-100,4,2,1,80,0,1
134217,-100,4,2,1,60,0,0
153918,-100,4,2,1,5,0,0
153993,-100,4,2,1,60,0,0
154515,-100,4,2,1,60,0,0
154590,-100,4,2,1,60,0,0
174739,-100,4,2,1,5,0,0
174814,-100,4,2,1,60,0,0
177202,-90.9090909090909,4,2,1,80,0,1
177276,-90.9090909090909,4,2,1,5,0,1
177351,-90.9090909090909,4,2,1,80,0,1
177724,-90.9090909090909,4,2,1,5,0,1
177799,-90.9090909090909,4,2,1,80,0,1
178172,-90.9090909090909,4,2,1,5,0,1
178247,-90.9090909090909,4,2,1,80,0,1
178620,-90.9090909090909,4,2,1,5,0,1
178695,-90.9090909090909,4,2,1,80,0,1
179664,-90.9090909090909,4,2,1,5,0,1
179739,-90.9090909090909,4,2,1,80,0,1
180112,-90.9090909090909,4,2,1,5,0,1
180187,-90.9090909090909,4,2,1,80,0,1
180560,-90.9090909090909,4,2,1,5,0,1
180635,-90.9090909090909,4,2,1,80,0,1
181008,-90.9090909090909,4,2,1,5,0,1
181083,-90.9090909090909,4,2,1,80,0,1
182052,-90.9090909090909,4,2,1,5,0,1
182127,-90.9090909090909,4,2,1,80,0,1
182500,-90.9090909090909,4,2,1,5,0,1
182575,-90.9090909090909,4,2,1,80,0,1
182948,-90.9090909090909,4,2,1,5,0,1
183023,-90.9090909090909,4,2,1,80,0,1
183396,-90.9090909090909,4,2,1,5,0,1
183471,-90.9090909090909,4,2,1,80,0,1
187724,-90.9090909090909,4,2,1,5,0,1
187799,-90.9090909090909,4,2,1,80,0,1
188172,-90.9090909090909,4,2,1,5,0,1
188247,-90.9090909090909,4,2,1,80,0,1
189217,-90.9090909090909,4,2,1,5,0,1
189292,-90.9090909090909,4,2,1,80,0,1
189664,-90.9090909090909,4,2,1,5,0,1
189739,-90.9090909090909,4,2,1,80,0,1
190112,-90.9090909090909,4,2,1,5,0,1
190187,-90.9090909090909,4,2,1,80,0,1
190560,-90.9090909090909,4,2,1,5,0,1
190635,-90.9090909090909,4,2,1,80,0,1
191605,-90.9090909090909,4,2,1,5,0,1
191680,-90.9090909090909,4,2,1,80,0,1
192052,-90.9090909090909,4,2,1,5,0,1
192127,-90.9090909090909,4,2,1,80,0,1
192500,-90.9090909090909,4,2,1,5,0,1
192575,-90.9090909090909,4,2,1,80,0,1
192948,-90.9090909090909,4,2,1,5,0,1
193023,-90.9090909090909,4,2,1,80,0,1
196157,-90.9090909090909,4,2,1,80,0,0
196306,-90.9090909090909,4,2,1,80,0,1
215336,-90.9090909090909,4,2,1,80,0,0
215411,-90.9090909090909,4,2,1,80,0,1
245261,-90.9090909090909,4,2,1,80,0,0

[Colours]
Combo1 : 255,255,202
Combo2 : 255,202,176

[HitObjects]
0,287,37799,6,0,B|51:279|51:279|58:269|58:269|103:283|103:283|110:272|110:272|178:261,1,180,8|2,0:1|0:3,0:2:0:0:
259,293,38694,6,0,L|292:60,1,225,6|2,3:2|3:2,0:2:0:0:
378,24,39739,1,2,3:2:0:0:
485,314,41082,6,0,B|391:320|391:320|366:280|366:280|276:287,1,225,6|2,3:2|3:2,0:2:0:0:
223,366,42127,1,2,3:2:0:0:
96,287,42575,2,0,B|52:293|52:293|58:353,2,89.9999999999999,8|8|10,0:1|0:1|0:2,0:0:0:0:
154,207,43470,6,0,P|176:152|81:33,1,225,6|2,3:2|3:2,0:2:0:0:
15,105,44515,1,2,3:2:0:0:
371,372,45858,6,0,L|395:132,1,225,6|0,3:2|3:2,0:2:0:0:
454,12,47052,5,0,3:2:0:0:
356,30,47351,1,0,0:2:0:0:
59,42,48246,6,0,P|146:58|161:152,1,180,4|10,3:2|0:2,0:2:0:0:
53,299,49440,2,0,B|121:316|121:316|124:327|124:327|228:351,1,180,0|10,3:2|0:2,0:2:0:0:
288,276,50336,1,2,0:2:0:0:
359,344,50635,6,0,P|419:300|529:280,1,180,0|10,3:2|0:2,0:2:0:0:
455,92,51829,2,0,P|358:86|318:3,1,180,2|10,3:2|0:2,0:2:0:0:
220,31,52724,1,2,0:2:0:0:
247,126,53023,6,0,B|290:170|290:170|270:293,1,180,0|10,3:2|0:2,0:2:0:0:
94,376,54217,2,0,B|51:332|51:332|71:209,1,180,2|10,3:2|0:2,0:2:0:0:
89,118,55112,1,2,0:2:0:0:
65,21,55411,6,0,P|147:41|245:5,1,180,6|10,3:2|0:2,0:2:0:0:
334,20,56306,2,0,P|368:47|372:190,1,180,4|0,3:2|3:2,0:2:0:0:
318,250,57202,1,8,0:2:0:0:
348,344,57500,1,2,0:2:0:0:
445,359,57799,6,0,P|500:335|456:244,1,180,4|10,3:2|0:2,0:2:0:0:
265,272,58993,2,0,B|161:279|214:352|106:358,1,180,0|10,3:2|0:2,0:2:0:0:
47,286,59888,1,2,0:2:0:0:
56,187,60187,6,0,B|68:109|68:109|176:124,1,180,2|10,3:2|0:2,0:2:0:0:
359,173,61381,2,0,B|371:251|371:251|479:236,1,180,0|10,3:2|0:2,0:2:0:0:
494,141,62276,1,2,0:2:0:0:
512,41,62575,1,2,3:2:0:0:
315,17,63172,5,2,0:2:0:0:
231,69,63470,2,0,L|90:96,1,135,8|0,0:2|3:2,0:2:0:0:
42,232,64366,1,10,0:2:0:0:
46,330,64664,1,2,0:2:0:0:
141,356,64963,6,0,P|169:319|223:305,1,89.9999999999999,4|10,3:2|0:2,0:2:0:0:
249,214,65560,2,0,P|290:229|316:265,1,89.9999999999999,2|10,3:2|0:2,0:2:0:0:
365,351,66157,1,2,3:2:0:0:
461,331,66455,1,10,0:2:0:0:
500,240,66754,1,2,3:2:0:0:
463,147,67052,1,10,0:2:0:0:
366,122,67351,1,2,3:2:0:0:
138,336,76306,6,0,B|65:328|65:328|69:293,1,89.9999999999999,8|2,0:2|0:2,0:2:0:0:
74,212,76903,6,0,L|103:29,2,180,2|10|0,3:2|0:2|0:2,0:0:0:0:
167,244,78396,1,0,3:2:0:0:
242,179,78694,2,0,B|277:159|277:159|338:174,1,89.9999999999999,10|0,0:2|0:0,0:2:0:0:
418,204,79291,6,0,P|477:162|443:57,2,180,2|10|0,3:2|0:2|0:2,0:0:0:0:
357,282,80784,1,2,3:2:0:0:
314,371,81082,1,10,0:2:0:0:
159,246,81679,6,0,P|98:268|14:361,2,180,2|10|0,3:2|0:2|0:2,0:0:0:0:
238,186,83172,1,2,3:2:0:0:
204,93,83470,2,0,B|164:86|164:86|154:90|154:90|103:82,1,89.9999999999999,10|0,0:2|0:0,0:2:0:0:
39,20,84067,5,2,3:2:0:0:
51,168,84515,2,0,L|62:265,1,89.9999999999999,0|10,3:2|0:2,0:2:0:0:
160,251,85112,2,0,L|149:348,2,89.9999999999999,2|10|2,3:2|0:2|3:2,0:2:0:0:
246,203,86008,1,8,0:2:0:0:
360,297,86455,6,0,P|440:304|481:181,1,225,6|2,3:2|3:2,0:2:0:0:
488,86,87500,1,2,3:2:0:0:
152,297,88843,6,0,P|72:304|31:181,1,225,6|2,3:2|3:2,0:2:0:0:
24,86,89888,1,2,3:2:0:0:
168,50,90336,1,8,0:1:0:0:
266,59,90635,1,8,0:1:0:0:
289,154,90933,1,8,0:1:0:0:
230,234,91232,6,0,P|227:283|377:323,1,225,6|2,3:2|3:2,0:2:0:0:
437,265,92276,1,2,3:2:0:0:
337,130,93620,6,0,L|186:148,1,135,4|0,3:2|3:2,0:2:0:0:
129,79,94366,2,0,P|129:18|133:-2,2,67.4999999999999,0|0|4,3:3|3:3|3:2,0:0:0:0:
42,351,96008,6,2,P|109:311|129:207,1,180,6|10,3:2|0:2,0:1:0:0:
273,174,97052,2,0,B|435:194|435:194|469:260,1,225,2|10,3:2|0:2,0:2:0:0:
455,347,98097,1,2,0:2:0:0:
355,341,98396,6,2,L|163:321,1,180,4|10,3:2|0:2,0:1:0:0:
27,314,99440,1,2,3:2:0:0:
72,225,99739,2,0,P|83:179|107:78,1,135,2|10,0:2|0:2,0:2:0:0:
185,38,100485,1,0,0:0:0:0:
277,73,100784,6,2,B|337:77|337:77|378:38|378:38|441:44,1,180,4|10,3:2|0:2,0:1:0:0:
507,176,101829,2,0,P|450:244|332:188,1,225,2|10,3:2|0:2,0:2:0:0:
244,165,102873,1,2,0:2:0:0:
145,175,103172,6,0,P|80:209|75:323,1,180,6|10,3:2|0:2,0:2:0:0:
203,364,104217,2,0,B|340:347|234:256|393:251,1,225,6|10,3:2|0:2,0:2:0:0:
443,327,105261,1,2,0:2:0:0:
506,250,105560,6,2,P|504:190|466:68,1,180,6|10,3:2|0:2,0:1:0:0:
325,39,106605,2,0,B|230:26|230:26|219:30|219:30|95:12,1,225,2|10,3:2|0:2,0:2:0:0:
27,77,107649,1,2,0:2:0:0:
117,117,107948,6,2,B|154:149|154:149|123:289,1,180,6|10,3:2|0:2,0:1:0:0:
248,359,108993,1,2,3:2:0:0:
302,276,109291,1,2,0:2:0:0:
445,236,109739,2,0,L|515:258,2,67.4999999999999,10|10|10,0:2|0:2|0:2,0:2:0:0:
234,366,110933,6,0,L|223:263,1,89.9999999999999,10|2,0:2|0:2,0:0:0:0:
154,206,111530,1,2,0:2:0:0:
214,127,111829,1,2,0:2:0:0:
183,33,112127,2,0,L|92:19,1,89.9999999999999,10|2,0:2|0:2,0:0:0:0:
30,95,112724,6,2,B|11:221|11:221|64:267,1,180,6|2,3:2|3:2,0:1:0:0:
126,319,113620,1,10,0:2:0:0:
184,239,113918,1,2,3:2:0:0:
283,209,114217,1,10,0:2:0:0:
376,229,114515,1,8,0:2:0:0:
439,305,114814,1,8,0:2:0:0:
372,378,115112,6,2,P|302:356|293:329,1,89.9999999999999,6|8,3:2|0:2,0:1:0:0:
204,382,115709,2,0,P|188:310|206:289,1,89.9999999999999,2|10,0:2|0:2,0:2:0:0:
230,268,116157,2,0,L|248:130,1,135,2|8,3:2|0:2,0:2:0:0:
222,38,116903,1,2,0:2:0:0:
126,12,117202,1,10,0:2:0:0:
49,74,117500,6,2,L|60:176,1,89.9999999999999,6|8,3:2|0:2,0:1:0:0:
135,226,118097,2,0,L|124:328,1,89.9999999999999,2|10,0:2|0:2,0:2:0:0:
151,357,118545,1,0,3:2:0:0:
236,307,118843,2,0,P|294:296|373:333,1,135,2|2,0:2|0:2,0:2:0:0:
444,379,119590,1,8,0:2:0:0:
492,292,119888,6,2,P|488:223|472:200,1,89.9999999999999,6|8,3:2|0:2,0:1:0:0:
379,214,120485,2,0,P|361:173|364:128,1,89.9999999999999,2|10,0:2|0:2,0:2:0:0:
407,102,120933,2,0,P|395:39|322:18,1,135,0|8,3:2|0:2,0:2:0:0:
263,84,121679,1,2,0:2:0:0:
176,35,121978,1,8,0:2:0:0:
102,101,122276,6,0,B|113:151|113:151|165:143,1,89.9999999999999,4|10,3:2|0:2,0:2:0:0:
238,192,122873,2,0,B|276:186|276:186|287:236,1,89.9999999999999,2|10,0:2|0:2,0:0:0:0:
309,332,123470,2,0,L|405:354,1,89.9999999999999,2|0,3:2|0:0,0:2:0:0:
484,306,124067,1,2,3:2:0:0:
297,238,124664,6,2,L|202:258,1,89.9999999999999,6|8,3:2|0:2,0:1:0:0:
171,348,125261,2,0,L|82:329,1,89.9999999999999,2|10,0:2|0:2,0:2:0:0:
48,364,125709,2,0,L|24:213,1,135,2|8,3:2|0:2,0:2:0:0:
61,137,126455,1,2,0:2:0:0:
154,168,126754,1,10,0:2:0:0:
208,85,127052,6,2,P|249:47|296:42,1,89.9999999999999,6|8,3:2|0:2,0:1:0:0:
376,14,127649,2,0,P|418:25|449:58,1,89.9999999999999,2|10,0:2|0:2,0:2:0:0:
470,103,128097,1,2,3:2:0:0:
375,132,128396,2,0,P|373:167|395:267,1,135,2|2,0:2|0:2,0:2:0:0:
455,341,129142,1,8,0:2:0:0:
364,379,129440,6,2,B|306:364|306:364|294:368|294:368|258:357,1,89.9999999999999,6|10,3:2|0:2,0:1:0:0:
183,329,130037,2,0,L|209:235,1,89.9999999999999,2|10,0:2|0:2,0:2:0:0:
255,231,130485,2,0,B|278:189|278:189|241:91,1,135,2|8,3:2|0:2,0:2:0:0:
215,13,131232,1,2,0:2:0:0:
116,4,131530,1,10,0:2:0:0:
41,69,131829,6,2,L|59:165,1,89.9999999999999,6|10,3:2|0:2,0:1:0:0:
86,252,132426,2,0,L|68:348,2,89.9999999999999,2|10|0,3:2|0:2|3:2,0:2:0:0:
132,233,133172,2,0,P|196:221|246:286,1,135,14|8,0:2|0:2,0:2:0:0:
276,359,133918,1,8,0:2:0:0:
372,338,134217,6,0,L|381:285,1,45,6|0,3:2|3:2,0:0:0:0:
398,196,134664,1,0,3:2:0:0:
417,98,134963,1,0,0:0:0:0:
347,28,135261,5,0,3:2:0:0:
250,48,135560,1,0,3:2:0:0:
149,69,135858,1,0,0:0:0:0:
51,88,136157,2,0,L|69:229,1,135,2|0,0:2|3:2,0:2:0:0:
112,244,136754,5,0,3:2:0:0:
193,187,137052,1,0,3:2:0:0:
286,221,137351,1,0,0:0:0:0:
333,134,137649,5,0,3:2:0:0:
431,151,137947,1,0,3:2:0:0:
473,241,138246,1,0,0:0:0:0:
257,363,138993,6,0,L|249:315,1,45,6|0,3:2|3:2,0:0:0:0:
161,274,139440,1,0,3:2:0:0:
201,185,139739,1,0,0:0:0:0:
147,101,140037,5,0,3:2:0:0:
245,88,140336,1,0,3:2:0:0:
340,75,140635,1,0,0:0:0:0:
438,62,140933,2,0,P|486:79|490:155,1,135,2|0,0:2|3:2,0:2:0:0:
481,203,141530,5,0,3:2:0:0:
385,230,141829,1,0,3:2:0:0:
288,251,142127,1,0,0:0:0:0:
231,332,142426,2,0,L|133:314,2,89.9999999999999,0|0|0,3:2|3:2|0:0,0:2:0:0:
257,373,143172,1,10,0:2:0:0:
450,328,143769,6,0,L|459:273,1,45,4|0,3:2|3:2,0:0:0:0:
409,196,144217,2,0,L|418:141,1,45,0|8,3:2|0:2,0:0:0:0:
320,175,144664,2,0,L|327:130,1,45,0|0,3:2|3:2,0:0:0:0:
279,43,145112,2,0,L|286:-1,1,45,0|0,3:2|3:2,0:0:0:0:
187,2,145560,1,8,0:2:0:0:
34,128,146157,6,0,P|79:132|91:138,1,45,0|0,3:2|3:2,0:0:0:0:
176,116,146605,2,0,P|204:150|209:163,1,45,0|8,3:2|0:2,0:0:0:0:
241,241,147052,2,0,P|286:237|298:231,1,45,0|0,3:2|3:2,0:0:0:0:
383,253,147500,2,0,P|411:218|416:205,1,45,0|0,3:2|3:2,0:0:0:0:
456,130,147948,2,0,P|491:137|519:197,1,89.9999999999999,10|2,0:2|0:2,0:2:0:0:
506,278,148545,6,0,L|496:342,1,45,0|0,3:2|3:2,0:0:0:0:
402,300,148993,2,0,L|392:364,1,45,0|8,3:2|0:2,0:0:0:0:
299,317,149440,2,0,L|289:381,1,45,0|0,3:2|3:2,0:0:0:0:
195,339,149888,2,0,L|185:403,1,45,0|0,3:2|3:2,0:0:0:0:
91,362,150336,1,8,0:2:0:0:
35,171,150933,6,0,L|18:107,1,45,0|0,3:2|3:2,0:0:0:0:
116,93,151381,2,0,L|149:35,1,45,0|0,3:2|3:2,0:0:0:0:
229,95,151829,2,0,L|293:78,1,45,0|0,3:2|3:2,0:0:0:0:
307,176,152276,2,0,L|364:209,1,45,0|0,3:2|3:2,0:0:0:0:
285,277,152724,2,0,L|267:373,1,89.9999999999999,2|0,0:2|0:0,0:2:0:0:
169,370,153321,1,6,3:2:0:0:
100,114,166754,6,0,L|-4:98,2,89.9999999999999,8|4|0,0:1|0:3|3:2,0:0:0:0:
151,198,167649,6,0,P|181:142|329:113,1,225,6|2,3:2|3:2,0:2:0:0:
417,156,168694,1,2,3:2:0:0:
18,355,170037,6,0,L|50:122,1,225,6|2,3:2|3:2,0:2:0:0:
61,33,171082,1,2,3:2:0:0:
202,78,171530,1,8,0:2:0:0:
285,24,171829,1,8,0:1:0:0:
378,57,172127,1,4,0:3:0:0:
469,18,172426,6,0,P|471:141|375:172,1,225,6|2,3:2|3:2,0:2:0:0:
308,229,173470,1,2,3:2:0:0:
68,193,174814,6,0,P|19:255|151:319,1,270,6|0,3:2|3:2,0:2:0:0:
243,342,176008,1,0,3:2:0:0:
477,222,177202,6,0,L|464:122,1,99.0000030212402,6|8,3:2|0:2,0:2:0:0:
358,97,177799,2,0,L|371:-3,1,99.0000030212402,0|10,3:2|3:2,0:2:0:0:
264,22,178396,1,0,3:2:0:0:
156,35,178694,1,10,3:2:0:0:
47,49,178993,2,0,B|23:98|23:98|69:135,1,99.0000030212402,2|10,3:2|3:2,0:2:0:0:
166,129,179590,6,0,L|183:237,1,99.0000030212402,2|8,3:2|3:2,0:2:0:0:
290,232,180187,2,0,L|273:340,1,99.0000030212402,2|10,3:2|3:2,0:2:0:0:
178,380,180784,1,0,3:2:0:0:
69,382,181082,1,10,3:2:0:0:
0,301,181381,2,0,L|110:277,1,99.0000030212402,2|10,3:2|3:2,0:2:0:0:
167,197,181978,6,0,P|167:151|192:91,1,99.0000030212402,2|8,3:2|3:2,0:2:0:0:
266,29,182575,2,0,L|381:16,1,99.0000030212402,2|10,3:2|3:2,0:2:0:0:
469,46,183172,1,0,3:2:0:0:
400,130,183470,1,10,3:2:0:0:
481,202,183769,2,0,B|511:244|511:244|490:304,1,99.0000030212402,2|10,3:2|3:2,0:2:0:0:
397,336,184366,6,0,L|313:314,1,74.2500022659302,2|2,3:2|0:2,0:2:0:0:
193,354,184963,2,0,L|109:332,1,74.2500022659302,2|2,3:2|0:2,0:2:0:0:
38,226,185560,2,0,P|63:184|162:166,1,148.50000453186,2|2,3:2|3:2,0:2:0:0:
308,220,186455,1,10,3:2:0:0:
396,156,186754,5,2,0:2:0:0:
503,169,187052,2,0,L|483:58,1,99.0000030212402,14|2,3:2|3:2,0:2:0:0:
383,32,187649,2,0,L|280:8,1,99.0000030212402,10|0,3:2|3:2,0:2:0:0:
196,71,188246,1,10,3:2:0:0:
97,23,188545,2,0,B|60:56|60:56|74:117,1,99.0000030212402,2|10,3:2|3:2,0:2:0:0:
148,180,189142,6,0,P|205:182|254:220,1,99.0000030212402,2|8,3:2|3:2,0:2:0:0:
302,292,189739,2,0,P|345:316|394:315,1,99.0000030212402,2|10,3:2|3:2,0:2:0:0:
492,267,190336,1,0,3:2:0:0:
484,158,190635,1,10,3:2:0:0:
472,49,190933,2,0,B|422:44|422:44|379:98,1,99.0000030212402,2|10,3:2|3:2,0:2:0:0:
322,166,191530,6,0,L|212:147,1,99.0000030212402,2|8,3:2|3:2,0:2:0:0:
195,254,192127,2,0,L|97:271,1,99.0000030212402,2|10,3:2|3:2,0:2:0:0:
22,191,192724,1,0,3:2:0:0:
37,83,193023,1,10,3:2:0:0:
126,20,193321,2,0,B|173:3|173:3|238:20,1,99.0000030212402,2|10,3:2|3:2,0:0:0:0:
322,54,193918,6,0,L|434:32,2,99.0000030212402,2|2|10,3:2|0:2|0:2,0:2:0:0:
165,205,195112,2,0,P|166:283|188:319,1,99.0000030212402,2|0,3:2|0:2,0:2:0:0:
266,358,195709,2,0,P|299:319|393:284,1,148.50000453186,2|10,3:2|0:2,0:2:0:0:
423,325,196306,6,0,L|470:121,1,198.00000604248,4|2,3:2|3:2,0:2:0:0:
409,39,197202,1,10,3:2:0:0:
315,94,197500,2,0,P|253:96|220:66,1,99.0000030212402,0|8,3:2|3:2,0:0:0:0:
145,0,198097,1,2,3:2:0:0:
54,60,198396,1,10,3:2:0:0:
123,143,198694,6,0,P|132:183|179:343,1,198.00000604248,0|0,3:2|3:2,0:0:0:0:
282,354,199590,1,10,3:2:0:0:
389,371,199888,2,0,P|428:347|475:318,1,99.0000030212402,2|8,3:2|3:2,0:2:0:0:
501,213,200485,2,0,P|462:189|415:160,1,99.0000030212402,0|10,3:2|3:2,0:0:0:0:
353,249,201082,6,0,P|266:260|146:291,1,198.00000604248,6|2,3:2|3:2,0:2:0:0:
94,374,201978,1,10,3:2:0:0:
17,296,202276,2,0,P|17:216|23:90,1,198.00000604248,0|2,3:2|3:2,0:0:0:0:
109,32,203172,1,10,3:2:0:0:
217,28,203470,5,2,3:2:0:0:
240,134,203769,1,10,3:2:0:0:
344,103,204067,5,2,3:2:0:0:
431,168,204366,1,10,3:2:0:0:
350,240,204664,5,2,3:2:0:0:
373,346,204963,1,10,0:2:0:0:
271,384,205261,1,2,0:2:0:0:
247,274,205560,1,10,0:2:0:0:
90,122,206157,5,10,3:2:0:0:
9,195,206455,2,0,P|10:247|49:292,1,99.0000030212402,2|10,3:2|3:2,0:2:0:0:
90,367,207052,2,0,P|139:318|264:285,1,198.00000604248,0|2,3:2|3:2,0:0:0:0:
345,353,207948,1,10,3:2:0:0:
440,300,208246,6,0,L|466:93,1,198.00000604248,0|0,3:2|3:2,0:0:0:0:
382,31,209142,1,10,3:2:0:0:
286,82,209440,2,0,P|238:68|141:32,1,148.50000453186,2|2,3:2|3:2,0:2:0:0:
37,50,210187,2,0,L|48:115,1,49.5000015106201,0|10,3:2|0:2,0:0:0:0:
43,207,210635,6,0,P|150:206|241:257,1,198.00000604248,6|10,3:2|0:2,0:2:0:0:
363,339,211679,2,0,L|383:236,1,99.0000030212402,2|0,3:2|3:2,0:0:0:0:
502,130,212426,2,0,P|452:113|406:95,1,99.0000030212402,8|8,0:2|0:2,0:0:0:0:
370,7,213023,5,2,3:2:0:0:
263,30,213321,1,10,0:2:0:0:
233,134,213620,5,10,0:2:0:0:
340,157,213918,1,10,0:2:0:0:
293,255,214217,5,10,0:2:0:0:
186,278,214515,1,10,0:2:0:0:
208,384,214814,1,10,0:2:0:0:
315,366,215112,1,10,0:2:0:0:
423,354,215411,6,2,L|437:245,1,99.0000030212402,4|10,3:2|3:2,0:1:0:0:
415,148,216008,2,0,L|401:39,1,99.0000030212402,2|8,3:2|3:2,0:2:0:0:
298,18,216605,1,2,3:2:0:0:
213,85,216903,1,10,3:2:0:0:
110,47,217202,2,0,B|57:38|57:38|43:98,1,99.0000030212402,2|10,3:2|3:2,0:2:0:0:
68,189,217799,6,2,L|176:202,1,99.0000030212402,2|10,3:2|3:2,0:1:0:0:
263,150,218396,2,0,L|361:138,1,99.0000030212402,2|8,3:2|3:2,0:2:0:0:
468,159,218993,1,2,3:2:0:0:
498,263,219291,1,10,3:2:0:0:
436,353,219590,2,0,B|390:376|390:376|354:333,1,99.0000030212402,2|10,3:2|3:2,0:2:0:0:
254,309,220187,6,2,L|269:197,1,99.0000030212402,2|10,3:2|3:2,0:1:0:0:
316,113,220784,1,2,3:2:0:0:
247,28,221082,1,0,0:0:0:0:
138,35,221381,2,0,B|97:54|97:54|92:79|92:79|50:100,2,99.0000030212402,2|10|2,3:2|0:2|3:2,0:2:0:0:
334,129,222575,6,0,P|458:162|498:225,1,198.00000604248,6|10,3:2|0:2,0:2:0:0:
396,262,223470,2,0,P|272:295|232:358,1,198.00000604248,6|2,3:2|3:2,0:2:0:0:
131,380,224366,1,10,0:2:0:0:
56,300,224664,1,10,0:2:0:0:
120,211,224963,6,2,L|132:95,1,99.0000030212402,6|10,3:2|3:2,0:1:0:0:
54,33,225560,2,0,L|155:17,1,99.0000030212402,2|8,3:2|3:2,0:2:0:0:
241,79,226157,1,2,3:2:0:0:
339,33,226455,1,10,3:2:0:0:
432,89,226754,2,0,B|448:141|448:141|407:193,1,99.0000030212402,2|10,3:2|3:2,0:2:0:0:
446,281,227351,6,2,L|349:257,1,99.0000030212402,2|10,3:2|3:2,0:1:0:0:
256,314,227948,2,0,L|159:338,1,99.0000030212402,2|8,3:2|3:2,0:2:0:0:
55,369,228545,1,2,3:2:0:0:
85,264,228843,1,10,3:2:0:0:
45,162,229142,1,2,3:2:0:0:
136,103,229440,1,10,3:2:0:0:
210,182,229739,6,0,P|302:204|418:235,1,198.00000604248,2|2,3:2|3:2,0:0:0:0:
500,183,230635,1,10,3:2:0:0:
490,74,230933,2,0,P|457:48|400:23,1,99.0000030212402,0|10,3:2|3:2,0:0:0:0:
298,2,231530,2,0,P|253:22|213:51,1,99.0000030212402,2|10,3:2|3:2,0:2:0:0:
104,40,232127,5,10,3:2:0:0:
149,139,232426,1,8,3:2:0:0:
44,168,232724,1,10,3:2:0:0:
76,272,233023,1,8,3:2:0:0:
116,373,233321,2,0,P|168:338|217:323,1,99.0000030212402,10|8,3:2|3:2,0:2:0:0:
265,237,233918,2,0,P|307:288|389:319,1,148.50000453186,10|10,3:2|0:2,0:0:0:0:
415,361,234515,6,0,P|429:285|470:158,1,198.00000604248,2|10,3:2|0:2,0:2:0:0:
498,67,235411,1,2,0:2:0:0:
395,29,235709,2,0,B|354:43|354:43|350:53|350:53|289:73,1,99.0000030212402,2|2,3:2|0:2,0:2:0:0:
240,153,236306,2,0,B|181:137|181:137|204:49,1,148.50000453186,10|10,0:2|0:2,0:2:0:0:
158,20,236903,5,2,3:2:0:0:
70,85,237202,1,2,0:2:0:0:
97,190,237500,2,0,L|114:300,1,99.0000030212402,10|0,0:2|0:2,0:2:0:0:
192,361,238097,2,0,P|249:328|280:287,1,99.0000030212402,2|10,3:2|0:2,0:2:0:0:
379,305,238694,2,0,P|396:241|389:190,1,99.0000030212402,10|10,0:2|0:2,0:2:0:0:
485,150,239291,5,6,3:2:0:0:
333,88,239739,1,2,3:2:0:0:
179,31,240187,2,0,L|154:141,1,99.0000030212402,2|2,3:2|3:2,0:2:0:0:
161,236,240784,5,2,3:2:0:0:
313,174,241232,1,2,3:2:0:0:
469,129,241679,2,0,L|482:25,1,99.0000030212402,2|2,3:2|3:2,0:2:0:0:
372,27,242276,5,10,0:2:0:0:
350,189,242724,1,2,3:2:0:0:
333,351,243172,2,0,L|217:368,1,99.0000030212402,2|10,3:2|0:2,0:2:0:0:
125,364,243769,5,2,3:2:0:0:
103,202,244217,1,2,3:2:0:0:
89,40,244664,2,0,P|116:45|201:66,2,99.0000030212402,2|2|6,3:2|0:2|3:2,0:2:0:0:
