osu file format v14

[General]
AudioFilename: audio.mp3
AudioLeadIn: 0
PreviewTime: 95933
Countdown: 0
SampleSet: Soft
StackLeniency: 0.5
Mode: 0
LetterboxInBreaks: 0
WidescreenStoryboard: 0

[Editor]
Bookmarks: 38699,48251,67356,76908,86460,96013,134222,153326,167654,177207,196311,215416,234520,245266
DistanceSpacing: 0.3
BeatDivisor: 12
GridSize: 32
TimelineZoom: 4.899999

[Metadata]
Title:Chirality ("Dissymmetric" Long ver.)
TitleUnicode:Chirality ("Dissymmetric" Long ver.)
Artist:Camellia
ArtistUnicode:かめりあ
Creator:Mir
Version:Asymmetry
Source:REFLEC BEAT groovin'!!
Tags:cametek dnb wub dubstep electronic instrumental video game galaxy burst drum and bass
BeatmapID:2625175
BeatmapSetID:1262960

[Difficulty]
HPDrainRate:5
CircleSize:4
OverallDifficulty:9.2
ApproachRate:9.7
SliderMultiplier:2
SliderTickRate:0.5

[Events]
//Background and Video events
0,0,"asymmetry.png",0,0
//Break Periods
2,158097,166110
//Storyboard Layer 0 (Background)
//Storyboard Layer 1 (Fail)
//Storyboard Layer 2 (Pass)
//Storyboard Layer 3 (Foreground)
//Storyboard Layer 4 (Overlay)
//Storyboard Sound Samples

[TimingPoints]
10038,298.507462686567,4,2,1,60,1,0
38396,-200,4,2,1,60,0,0
38694,-133.333333333333,4,2,1,60,0,0
39440,-50,4,2,1,60,0,0
41082,-133.333333333333,4,2,1,60,0,0
41828,-50,4,2,1,60,0,0
42426,-133.333333333333,4,2,1,60,0,0
43470,-133.333333333333,4,2,1,60,0,0
44216,-50,4,2,1,60,0,0
45784,-50,4,2,1,5,0,0
45858,-133.333333333333,4,2,1,70,0,0
46604,-50,4,2,1,70,0,0
47052,-200,4,2,1,60,0,0
47799,-66.6666666666667,4,2,1,60,0,0
48843,-100,4,2,1,80,0,0
49440,-66.6666666666667,4,2,1,80,0,0
49590,-33.3333333333333,4,2,1,80,0,0
50037,-50,4,2,1,80,0,0
50336,-100,4,2,1,80,0,0
50635,-66.6666666666667,4,2,1,80,0,0
51232,-100,4,2,1,80,0,0
52426,-66.6666666666667,4,2,1,80,0,0
52724,-133.333333333333,4,2,1,80,0,0
53023,-66.6666666666667,4,2,1,80,0,0
53620,-100,4,2,1,80,0,0
54217,-133.333333333333,4,2,1,80,0,0
54515,-50,4,2,1,80,0,0
54814,-66.6666666666667,4,2,1,80,0,0
55411,-100,4,2,1,80,0,0
56306,-80,4,2,1,80,0,0
57202,-133.333333333333,4,2,1,80,0,0
57500,-66.6666666666667,4,2,1,80,0,0
57799,-66.6666666666667,4,2,1,80,0,0
58396,-100,4,2,1,80,0,0
58993,-66.6666666666667,4,2,1,80,0,0
59142,-33.3333333333333,4,2,1,80,0,0
59590,-66.6666666666667,4,2,1,80,0,0
59888,-133.333333333333,4,2,1,80,0,0
60187,-66.6666666666667,4,2,1,80,0,0
60784,-100,4,2,1,80,0,0
61381,-133.333333333333,4,2,1,80,0,0
61679,-66.6666666666667,4,2,1,80,0,0
62276,-133.333333333333,4,2,1,80,0,0
63172,-33.3333333333333,4,2,1,80,0,0
63321,-133.333333333333,4,2,1,80,0,0
63769,-66.6666666666667,4,2,1,80,0,0
64664,-133.333333333333,4,2,1,80,0,0
64963,-66.6666666666667,4,2,1,80,0,0
66157,-133.333333333333,4,2,1,80,0,0
66754,-66.6666666666667,4,2,1,80,0,0
67351,-133.333333333333,4,2,1,30,0,0
76306,-66.6666666666667,4,2,1,60,0,0
76903,-100,4,2,1,60,0,0
78694,-200,4,2,1,60,0,0
79291,-100,4,2,1,60,0,0
83470,-200,4,2,1,60,0,0
84067,-100,4,2,1,60,0,0
86455,-133.333333333333,4,2,1,60,0,0
87202,-50,4,2,1,60,0,0
88843,-133.333333333333,4,2,1,60,0,0
89590,-50,4,2,1,60,0,0
90187,-133.333333333333,4,2,1,60,0,0
91232,-133.333333333333,4,2,1,60,0,0
91978,-50,4,2,1,60,0,0
93620,-133.333333333333,4,2,1,70,0,0
94367,-50,4,2,1,70,0,0
94814,-333.333333333333,4,2,1,40,0,0
95411,-66.6666666666667,4,2,1,40,0,0
96008,-50,4,2,1,80,0,0
96306,-25,4,2,1,80,0,0
96605,-50,4,2,1,80,0,0
97052,-100,4,2,1,80,0,0
97799,-200,4,2,1,80,0,0
98097,-100,4,2,1,80,0,0
98396,-50,4,2,1,80,0,0
98694,-25,4,2,1,80,0,0
98993,-50,4,2,1,80,0,0
99440,-400,4,2,1,80,0,0
99739,-200,4,2,1,80,0,0
99963,-133.333333333333,4,2,1,80,0,0
100187,-100,4,2,1,80,0,0
100411,-66.6666666666667,4,2,1,80,0,0
100784,-50,4,2,1,80,0,0
101082,-25,4,2,1,80,0,0
101381,-50,4,2,1,80,0,0
101828,-133.333333333333,4,2,1,80,0,0
104963,-66.6666666666667,4,2,1,80,0,0
105261,-200,4,2,1,80,0,0
105560,-50,4,2,1,80,0,0
105858,-25,4,2,1,80,0,0
106157,-50,4,2,1,80,0,0
106604,-133.333333333333,4,2,1,80,0,0
107948,-50,4,2,1,80,0,0
108246,-25,4,2,1,80,0,0
108545,-50,4,2,1,80,0,0
108993,-400,4,2,1,80,0,0
109291,-400,4,2,1,80,0,0
109515,-200,4,2,1,80,0,0
109739,-133.333333333333,4,2,1,80,0,0
109963,-100,4,2,1,80,0,0
110187,-66.6666666666667,4,2,1,80,0,0
112276,-133.333333333333,4,2,1,80,0,0
112724,-50,4,2,1,80,0,0
113022,-25,4,2,1,80,0,0
113321,-133.333333333333,4,2,1,80,0,0
113918,-50,4,2,1,80,0,0
114217,-100,4,2,1,80,0,0
115112,-50,4,2,1,80,0,1
116157,-133.333333333333,4,2,1,80,0,1
117127,-66.6666666666667,4,2,1,80,0,1
117500,-50,4,2,1,80,0,1
118545,-400,4,2,1,80,0,1
118843,-200,4,2,1,80,0,1
119067,-133.333333333333,4,2,1,80,0,1
119291,-100,4,2,1,80,0,1
119515,-66.6666666666667,4,2,1,80,0,1
119888,-50,4,2,1,80,0,1
120933,-133.333333333333,4,2,1,80,0,1
121381,-66.6666666666667,4,2,1,80,0,1
121530,-133.333333333333,4,2,1,80,0,1
122276,-50,4,2,1,80,0,1
122575,-100,4,2,1,80,0,1
123172,-66.6666666666667,4,2,1,80,0,1
123470,-50,4,2,1,80,0,1
124067,-33.3333333333333,4,2,1,80,0,1
124366,-200,4,2,1,80,0,1
124664,-50,4,2,1,80,0,1
124963,-66.6666666666667,4,2,1,80,0,1
125709,-133.333333333333,4,2,1,80,0,1
126679,-66.6666666666667,4,2,1,80,0,1
127052,-40,4,2,1,80,0,1
128097,-200,4,2,1,80,0,1
128396,-50,4,2,1,80,0,1
129440,-33.3333333333333,4,2,1,80,0,1
130037,-50,4,2,1,80,0,1
130485,-100,4,2,1,80,0,1
131232,-66.6666666666667,4,2,1,80,0,1
131829,-50,4,2,1,80,0,1
134217,-100,4,2,1,60,0,0
140784,-66.6666666666667,4,2,1,60,0,0
141381,-100,4,2,1,60,0,0
143172,-133.333333333333,4,2,1,60,0,0
143470,-33.3333333333333,4,2,1,60,0,0
143769,-100,4,2,1,60,0,0
147948,-50,4,2,1,60,0,0
148246,-133.333333333333,4,2,1,60,0,0
148545,-100,4,2,1,60,0,0
150336,-33.3333333333333,4,2,1,60,0,0
150933,-66.6666666666667,4,2,1,60,0,0
151381,-100,4,2,1,60,0,0
151829,-133.333333333333,4,2,1,60,0,0
152276,-111.111111111111,4,2,1,60,0,0
152724,-66.6666666666667,4,2,1,60,0,0
153321,-100,4,2,1,60,0,0
153918,-100,4,2,1,5,0,0
153993,-100,4,2,1,60,0,0
167649,-133.333333333333,4,2,1,60,0,0
168396,-50,4,2,1,60,0,0
170037,-133.333333333333,4,2,1,60,0,0
170784,-50,4,2,1,60,0,0
171381,-133.333333333333,4,2,1,60,0,0
172426,-133.333333333333,4,2,1,60,0,0
173172,-50,4,2,1,60,0,0
174739,-50,4,2,1,5,0,0
174814,-133.333333333333,4,2,1,60,0,0
175560,-100,4,2,1,60,0,0
176008,-200,4,2,1,60,0,0
176754,-33.3333333333333,4,2,1,60,0,0
177202,-66.6666666666667,4,2,1,80,0,1
177276,-66.6666666666667,4,2,1,5,0,1
177351,-66.6666666666667,4,2,1,80,0,1
177724,-66.6666666666667,4,2,1,5,0,1
177799,-66.6666666666667,4,2,1,80,0,1
178172,-66.6666666666667,4,2,1,5,0,1
178247,-66.6666666666667,4,2,1,80,0,1
178620,-66.6666666666667,4,2,1,5,0,1
178695,-66.6666666666667,4,2,1,80,0,1
179664,-66.6666666666667,4,2,1,5,0,1
179739,-66.6666666666667,4,2,1,80,0,1
180112,-66.6666666666667,4,2,1,5,0,1
180187,-66.6666666666667,4,2,1,80,0,1
180560,-66.6666666666667,4,2,1,5,0,1
180635,-66.6666666666667,4,2,1,80,0,1
181008,-66.6666666666667,4,2,1,5,0,1
181083,-66.6666666666667,4,2,1,80,0,1
182052,-66.6666666666667,4,2,1,5,0,1
182127,-66.6666666666667,4,2,1,80,0,1
182500,-66.6666666666667,4,2,1,5,0,1
182575,-66.6666666666667,4,2,1,80,0,1
182948,-66.6666666666667,4,2,1,5,0,1
183023,-66.6666666666667,4,2,1,80,0,1
183396,-66.6666666666667,4,2,1,5,0,1
183471,-66.6666666666667,4,2,1,80,0,1
184366,-50,4,2,1,80,0,1
186306,-66.6666666666667,4,2,1,80,0,1
186829,-200,4,2,1,80,0,0
187052,-66.6666666666667,4,2,1,80,0,1
187724,-66.6666666666667,4,2,1,5,0,1
187799,-66.6666666666667,4,2,1,80,0,1
188172,-66.6666666666667,4,2,1,5,0,1
188247,-66.6666666666667,4,2,1,80,0,1
189217,-66.6666666666667,4,2,1,5,0,1
189292,-66.6666666666667,4,2,1,80,0,1
189664,-66.6666666666667,4,2,1,5,0,1
189739,-66.6666666666667,4,2,1,80,0,1
190112,-66.6666666666667,4,2,1,5,0,1
190187,-66.6666666666667,4,2,1,80,0,1
190560,-66.6666666666667,4,2,1,5,0,1
190635,-66.6666666666667,4,2,1,80,0,1
191605,-66.6666666666667,4,2,1,5,0,1
191680,-66.6666666666667,4,2,1,80,0,1
192052,-66.6666666666667,4,2,1,5,0,1
192127,-66.6666666666667,4,2,1,80,0,1
192500,-66.6666666666667,4,2,1,5,0,1
192575,-66.6666666666667,4,2,1,80,0,1
192948,-66.6666666666667,4,2,1,5,0,1
193023,-66.6666666666667,4,2,1,80,0,1
193918,-33.3333333333333,4,2,1,80,0,1
194515,-25,4,2,1,80,0,1
194888,-50,4,2,1,80,0,1
196157,-50,4,2,1,80,0,0
196306,-50,4,2,1,80,0,1
198545,-66.6666666666667,4,2,1,80,0,1
201082,-50,4,2,1,80,0,1
205858,-33.3333333333333,4,2,1,80,0,0
206157,-50,4,2,1,80,0,1
208097,-66.6666666666667,4,2,1,80,0,1
210635,-40,4,2,1,80,0,1
210858,-100,4,2,1,80,0,1
215112,-200,4,2,1,80,0,0
215411,-40,4,2,1,80,0,1
216008,-66.6666666666667,4,2,1,80,0,1
216903,-33.3333333333333,4,2,1,80,0,1
217202,-50,4,2,1,80,0,1
217799,-40,4,2,1,80,0,1
218396,-50,4,2,1,80,0,1
218993,-100,4,2,1,80,0,1
219590,-66.6666666666667,4,2,1,80,0,1
220187,-40,4,2,1,80,0,1
220784,-50,4,2,1,80,0,1
221978,-100,4,2,1,80,0,1
222276,-33.3333333333333,4,2,1,80,0,1
222575,-66.6666666666667,4,2,1,80,0,1
223470,-50,4,2,1,80,0,1
223918,-66.6666666666667,4,2,1,80,0,1
224664,-200,4,2,1,80,0,1
224963,-40,4,2,1,80,0,1
225560,-50,4,2,1,80,0,1
226455,-33.3333333333333,4,2,1,80,0,1
226754,-50,4,2,1,80,0,1
227351,-40,4,2,1,80,0,1
227948,-50,4,2,1,80,0,1
229440,-133.333333333333,4,2,1,80,0,1
229739,-100,4,2,1,80,0,1
233321,-66.6666666666667,4,2,1,80,0,1
234664,-133.333333333333,4,2,1,80,0,1
235709,-66.6666666666667,4,2,1,80,0,1
236903,-33.3333333333333,4,2,1,80,0,1
238097,-66.6666666666667,4,2,1,80,0,1
244814,-133.333333333333,4,2,1,80,0,1
245261,-133.333333333333,4,2,1,80,0,0

[Colours]
Combo1 : 255,255,202
Combo2 : 255,202,176

[HitObjects]
33,290,37649,5,4,0:3:0:0:
57,284,37724,1,4,0:3:0:0:
81,277,37799,2,0,L|63:349,1,50,8|8,0:1|0:1,0:2:0:0:
141,377,37948,2,0,L|159:305,1,50,8|8,0:1|0:1,0:2:0:0:
160,196,38097,5,2,0:3:0:0:
135,191,38172,1,2,0:3:0:0:
110,186,38246,1,2,0:3:0:0:
85,181,38321,1,2,0:3:0:0:
60,176,38396,2,0,B|10:169|10:169|37:199,1,75,2|0,0:3|0:2,0:2:0:0:
253,278,38694,6,0,L|229:16,1,262.500010013581,6|0,3:2|0:2,0:2:0:0:
274,301,39291,1,8,0:2:0:0:
52,93,39440,6,0,B|96:101|96:101|104:108|104:108|190:124,1,100,2|0,3:2|0:2,0:2:0:0:
439,259,39739,2,0,B|395:250|395:250|387:243|387:243|343:235,1,100,2|0,3:2|0:2,0:2:0:0:
20,119,41082,6,0,P|111:104|246:-8,1,262.500010013581,6|0,3:2|0:2,0:2:0:0:
20,106,41679,1,8,0:2:0:0:
373,78,41829,6,0,B|403:39|403:39|337:-43,1,100,2|0,3:2|0:2,0:2:0:0:
24,216,42127,2,0,B|-7:255|-7:255|22:294,1,100,2|0,3:2|0:2,0:2:0:0:
22,294,42426,6,8,L|19:328,2,25.0000009536744,8|8|8,0:3|0:3|0:3,0:3:0:0:
100,280,42575,5,8,0:1:0:0:
117,274,42649,1,8,0:1:0:0:
135,268,42724,2,0,L|118:326,1,37.5000014305115,0|0,3:2|3:2,0:2:0:0:
112,382,42873,1,8,0:1:0:0:
127,172,43023,5,2,0:2:0:0:
110,166,43097,1,2,0:2:0:0:
92,160,43172,2,0,L|109:218,1,37.5000014305115,10|0,0:2|0:2,0:2:0:0:
13,180,43321,2,0,L|30:238,1,37.5000014305115,2|0,3:2|0:2,0:2:0:0:
427,331,43470,6,0,L|470:42,1,262.500010013581,6|0,3:2|0:2,0:2:0:0:
401,347,44067,1,8,0:2:0:0:
174,2,44217,6,0,B|252:18|252:18|214:69,1,100,2|0,3:2|0:2,0:2:0:0:
172,375,44515,2,0,B|94:359|94:359|132:308,1,100,2|0,3:2|0:2,0:2:0:0:
256,192,44664,12,0,45784,0:2:0:0:
502,80,45858,6,0,B|408:113|408:113|411:166|411:166|295:202,1,262.500010013581,6|0,3:2|0:2,0:2:0:0:
509,53,46455,1,8,0:2:0:0:
214,144,46605,5,0,3:2:0:0:
165,132,46679,1,0,3:2:0:0:
115,122,46754,2,0,B|74:156|74:156|137:232,1,100,0|0,3:2|3:2,0:2:0:0:
196,362,46903,6,0,L|179:231,1,100,0|0,3:2|3:2,0:2:0:0:
196,244,47052,6,0,L|213:375,1,100,0|0,3:2|0:2,0:2:0:0:
423,42,47799,6,0,L|375:50,3,37.5000014305115,2|0|0|0,0:2|0:2|0:2|0:2,0:2:0:0:
366,64,47948,2,0,L|458:48,1,75.0000028610231,2|0,0:2|0:2,0:2:0:0:
512,40,48097,1,2,0:2:0:0:
471,372,48246,6,0,B|390:355|390:355|356:289|356:289|236:262,1,225.000008583069,4|0,3:2|0:2,0:2:0:0:
195,184,48545,5,2,0:2:0:0:
198,206,48620,1,2,0:2:0:0:
201,227,48694,1,2,0:2:0:0:
205,249,48769,1,2,0:2:0:0:
216,327,48843,6,0,L|225:411,1,50,10|0,0:2|0:2,0:2:0:0:
122,251,48993,5,2,0:2:0:0:
114,238,49067,2,0,L|30:247,1,50,2|0,0:2|0:2,0:2:0:0:
274,188,49217,5,2,0:2:0:0:
282,175,49291,2,0,L|366:184,1,50,2|0,0:2|0:2,0:2:0:0:
74,153,49440,6,0,B|44:139|44:139|67:44,1,112.500004291535,0|0,3:2|0:2,0:2:0:0:
62,61,49590,2,0,B|116:46|116:46|137:88,10,75.0000028610231,2|0|0|0|0|0|0|0|0|0|0,0:2|0:2|0:2|0:2|0:2|0:2|0:2|0:2|0:2|0:2|0:2,0:2:0:0:
74,153,50037,6,0,B|112:158|112:158|128:147|128:147|212:154,1,100,10|0,0:2|0:2,0:2:0:0:
390,60,50187,2,0,B|432:56|432:56|448:67|448:67|486:62,1,100,2|0,0:2|0:2,0:2:0:0:
290,176,50336,2,0,B|281:109|281:109|275:104|275:104|265:9,1,150,2|0,0:2|0:2,0:2:0:0:
18,322,50635,6,0,B|-25:367|-25:367|197:314,1,225.000008583069,0|0,3:2|0:2,0:2:0:0:
214,271,50933,5,2,0:2:0:0:
235,277,51008,1,2,0:2:0:0:
256,283,51082,1,2,0:2:0:0:
277,289,51157,1,2,0:2:0:0:
348,312,51232,6,0,B|359:343|359:343|317:336,1,50,10|0,0:2|0:2,0:2:0:0:
353,211,51381,5,2,0:2:0:0:
354,197,51455,2,0,B|348:181|348:181|327:206,1,50,2|0,0:2|0:2,0:2:0:0:
240,256,51605,5,2,0:2:0:0:
224,258,51679,2,0,B|213:272|213:272|246:278,1,50,2|0,0:2|0:2,0:2:0:0:
346,85,51829,6,0,B|242:113|242:113|231:196,1,150,2|0,3:2|0:2,0:2:0:0:
236,154,52127,2,0,L|195:149,6,25,2|0|0|0|0|0|0,0:2|0:2|0:2|0:2|0:2|0:2|0:2,0:2:0:0:
208,73,52426,6,0,L|190:-21,1,75.0000028610231,10|0,0:2|0:2,0:2:0:0:
439,51,52575,2,0,L|421:145,1,75.0000028610231,2|0,0:2|0:2,0:2:0:0:
138,145,52724,2,0,L|114:21,1,112.500004291535,2|0,0:2|0:2,0:2:0:0:
511,203,53023,6,0,B|491:157|491:157|299:204,1,225.000008583069,0|0,3:2|0:2,0:2:0:0:
180,248,53321,5,2,0:2:0:0:
172,235,53396,1,2,0:2:0:0:
185,227,53470,1,2,0:2:0:0:
192,240,53545,1,2,0:2:0:0:
228,313,53620,6,0,P|227:350|182:384,1,50,10|0,0:2|0:2,0:2:0:0:
237,165,53769,5,2,0:2:0:0:
224,161,53843,2,0,P|245:146|269:142,1,50,2|0,0:2|0:2,0:2:0:0:
93,228,53993,5,2,0:2:0:0:
96,240,54067,2,0,P|73:229|57:210,1,50,2|0,0:2|0:2,0:2:0:0:
119,16,54217,6,0,B|102:65|102:65|89:68|89:68|69:140,1,112.500004291535,2|0,3:2|0:2,0:2:0:0:
0,84,54515,6,2,B|146:69|146:69|143:77|143:77|364:60,1,300,2|0,0:2|0:2,0:1:0:0:
501,33,54814,6,0,B|525:68|525:68|466:96,1,75.0000028610231,10|0,0:2|0:2,0:2:0:0:
311,192,54963,2,0,B|287:157|287:157|346:129,1,75.0000028610231,2|0,0:2|0:2,0:2:0:0:
493,279,55112,2,0,B|518:352|518:352|400:333|400:333|425:283,1,225.000008583069,2|0,0:2|0:2,0:2:0:0:
1,287,55411,6,0,B|73:312|73:312|90:345|90:345|192:373|192:373|147:263,1,300,6|0,3:2|0:2,0:2:0:0:
115,219,56008,5,10,0:2:0:0:
109,142,56107,1,2,0:2:0:0:
103,65,56207,1,2,0:2:0:0:
15,152,56306,6,0,B|70:140|70:140|91:151|91:151|180:127|180:127|161:49|161:49|92:67,1,312.5,4|0,3:2|0:2,0:2:0:0:
29,51,56754,5,0,3:2:0:0:
170,209,56903,1,0,3:2:0:0:
257,100,57052,2,0,L|235:16,1,62.5,2|0,0:2|0:2,0:2:0:0:
80,258,57202,6,0,L|67:369,1,112.500004291535,8|0,0:2|0:2,0:2:0:0:
67,369,57500,6,2,B|125:355|125:355|152:372|152:372|236:353,1,150.000005722046,2|2,0:2|0:2,0:1:0:0:
210,341,57724,1,2,0:2:0:0:
301,384,57799,6,0,B|371:359|371:359|328:185,1,225.000008583069,4|0,3:2|0:2,0:2:0:0:
242,46,58097,5,2,0:2:0:0:
264,51,58172,1,2,0:2:0:0:
285,56,58246,1,2,0:2:0:0:
307,61,58321,1,2,0:2:0:0:
392,81,58396,6,0,L|363:-12,1,50,10|0,0:2|0:2,0:2:0:0:
267,137,58545,5,2,0:2:0:0:
242,146,58620,2,0,L|271:53,1,50,2|0,0:2|0:2,0:2:0:0:
160,59,58769,5,2,0:2:0:0:
142,72,58844,2,0,L|113:-21,1,50,2|0,0:2|0:2,0:2:0:0:
306,248,58993,6,0,L|172:274,1,112.500004291535,0|0,3:2|0:2,0:2:0:0:
178,276,59142,2,0,B|189:319|189:319|212:281,10,75.0000028610231,2|0|0|0|0|0|0|0|0|0|0,0:2|0:2|0:2|0:2|0:2|0:2|0:2|0:2|0:2|0:2|0:2,0:2:0:0:
107,232,59590,6,0,B|69:241|69:241|110:291,1,75.0000028610231,10|0,0:2|0:2,0:2:0:0:
278,371,59739,2,0,B|316:362|316:362|275:312,1,75.0000028610231,2|0,0:2|0:2,0:2:0:0:
209,208,59888,2,0,L|182:353,1,112.500004291535,2|0,0:2|0:2,0:2:0:0:
6,379,60187,6,0,B|166:356|166:356|188:236,1,225.000008583069,2|0,3:2|0:2,0:2:0:0:
194,176,60485,5,2,0:2:0:0:
199,154,60560,1,2,0:2:0:0:
204,132,60635,1,2,0:2:0:0:
209,110,60709,1,2,0:2:0:0:
227,31,60784,6,0,L|142:41,1,50,10|0,0:2|0:2,0:2:0:0:
71,147,60933,5,2,0:2:0:0:
66,124,61008,2,0,L|151:134,1,50,2|0,0:2|0:2,0:2:0:0:
253,225,61157,5,2,0:2:0:0:
258,202,61232,2,0,L|173:212,1,50,2|0,0:2|0:2,0:2:0:0:
26,362,61381,6,0,P|96:343|99:301,1,112.500004291535,0|0,3:2|0:2,0:2:0:0:
86,294,61679,2,0,B|231:270|121:386|330:344,1,225.000008583069,2|0,0:2|0:2,0:2:0:0:
503,165,61978,6,0,P|409:146|411:254,1,225.000008583069,10|0,0:2|0:2,0:2:0:0:
488,325,62276,2,0,P|515:303|485:323,1,112.500004291535,2|0,0:2|0:2,0:2:0:0:
496,311,62575,6,0,L|379:343,1,100.000003814697,2|2,3:2|0:2,0:2:0:0:
323,318,62873,2,0,L|311:396,2,50.0000019073487,2|2|2,0:2|0:2|0:2,0:2:0:0:
254,259,63172,6,0,B|229:259|229:259|266:248,4,50.0000019073487,2|0|0|0|0,0:2|0:2|0:2|0:2|0:2,0:2:0:0:
338,214,63321,5,0,3:2:0:0:
339,202,63396,1,0,3:2:0:0:
340,190,63470,2,0,L|346:127,1,37.5000014305115,8|0,0:2|0:2,0:2:0:0:
251,222,63620,2,0,L|254:259,1,37.5000014305115,2|0,0:2|0:2,0:2:0:0:
472,75,63769,5,0,3:2:0:0:
397,64,63843,1,0,3:2:0:0:
323,54,63918,1,0,3:2:0:0:
249,44,63992,1,0,3:2:0:0:
249,44,64217,5,0,3:2:0:0:
47,37,64366,6,0,B|14:62|14:62|69:140,1,75.0000028610231,10|0,0:2|0:2,0:2:0:0:
188,162,64515,2,0,B|182:120|182:120|87:129,1,75.0000028610231,2|0,0:2|0:2,0:2:0:0:
0,260,64664,2,0,B|46:263|46:263|69:173,1,112.500004291535,2|0,0:2|0:2,0:2:0:0:
302,195,64963,6,0,B|373:223|373:223|375:298|375:298|492:340,1,225.000008583069,4|0,3:2|0:2,0:2:0:0:
481,256,65261,5,10,0:2:0:0:
398,260,65361,1,2,0:2:0:0:
358,331,65460,1,2,0:2:0:0:
278,359,65560,6,0,P|166:342|177:234,1,225.000008583069,2|0,3:2|0:2,0:2:0:0:
263,109,65858,2,0,P|298:13|227:53,1,225.000008583069,10|0,0:2|0:2,0:2:0:0:
53,271,66157,6,0,L|187:243,1,112.500004291535,2|0,3:2|0:2,0:2:0:0:
468,354,66455,2,0,L|357:330,1,112.500004291535,10|0,0:2|0:2,0:2:0:0:
357,330,66754,6,0,L|347:240,1,75.0000028610231,2|0,3:2|0:2,0:2:0:0:
163,247,66903,2,0,L|173:157,1,75.0000028610231,2|0,3:2|0:2,0:2:0:0:
335,88,67052,2,0,L|325:-2,1,75.0000028610231,10|0,0:2|0:2,0:2:0:0:
96,5,67202,1,0,3:2:0:0:
90,52,67276,1,0,3:2:0:0:
84,100,67351,5,2,3:2:0:0:
171,86,67500,1,2,0:2:0:0:
89,115,67799,5,2,0:2:0:0:
176,101,67948,1,10,0:2:0:0:
84,100,68246,5,2,0:2:0:0:
171,86,68395,1,2,0:2:0:0:
89,115,68694,5,2,3:2:0:0:
176,101,68843,1,2,3:2:0:0:
176,101,69142,1,10,0:2:0:0:
428,100,69739,5,2,3:2:0:0:
341,86,69888,1,2,0:2:0:0:
423,115,70187,5,2,0:2:0:0:
336,101,70336,1,10,0:2:0:0:
428,100,70635,5,2,0:2:0:0:
341,86,70783,1,2,0:2:0:0:
423,115,71082,5,2,3:2:0:0:
336,101,71231,1,2,3:2:0:0:
249,87,71381,6,0,L|257:142,1,37.5000014305115,2|0,0:2|0:2,0:2:0:0:
316,219,71530,2,0,L|324:164,1,37.5000014305115,10|0,0:2|0:2,0:2:0:0:
259,289,71679,5,2,3:2:0:0:
261,300,71754,1,2,0:2:0:0:
263,311,71829,1,2,0:2:0:0:
265,321,71903,1,2,0:2:0:0:
267,332,71978,2,0,L|277:379,1,37.5000014305115,2|0,0:2|0:2,0:2:0:0:
163,302,72127,5,2,3:2:0:0:
76,316,72276,1,2,0:2:0:0:
158,287,72575,5,2,0:2:0:0:
71,301,72724,1,10,0:2:0:0:
163,302,73022,5,2,0:2:0:0:
76,316,73171,1,2,0:2:0:0:
158,287,73470,5,2,3:2:0:0:
71,301,73619,1,2,3:2:0:0:
71,301,73918,1,10,0:2:0:0:
385,290,74515,5,2,3:2:0:0:
472,304,74664,1,2,0:2:0:0:
390,275,74963,5,2,0:2:0:0:
477,289,75112,1,10,0:2:0:0:
385,290,75410,5,2,3:2:0:0:
472,304,75559,1,2,0:2:0:0:
390,275,75858,5,2,3:2:0:0:
477,289,76007,1,2,3:2:0:0:
390,275,76157,2,0,L|325:290,1,37.5000014305115,2|0,0:2|0:2,0:2:0:0:
61,321,76306,6,0,B|59:302|59:302|73:316,7,37.5000014305115,8|0|0|0|0|0|0|0,0:2|0:2|0:2|0:2|0:2|0:2|0:2|0:2,0:2:0:0:
87,341,76605,2,0,B|88:359|88:359|74:345,7,37.5000014305115,2|0|0|0|0|0|0|0,0:2|0:2|0:2|0:2|0:2|0:2|0:2|0:2,0:2:0:0:
76,331,76903,5,2,3:2:0:0:
167,265,77052,2,0,P|204:271|298:295,1,100,2|0,0:2|0:2,0:2:0:0:
317,351,77351,5,2,0:2:0:0:
214,162,77500,2,0,P|177:168|83:192,1,100,10|0,0:2|0:2,0:2:0:0:
136,65,77799,5,2,0:2:0:0:
215,145,77948,2,0,L|234:7,1,100,2|0,0:2|0:2,0:2:0:0:
438,127,78246,5,2,0:2:0:0:
359,207,78395,2,0,L|340:69,1,100,0|0,3:2|0:2,0:2:0:0:
512,268,78694,2,0,P|491:329|383:324,1,175,10|0,0:2|0:2,0:2:0:0:
384,319,79291,5,2,3:2:0:0:
246,259,79440,2,0,L|231:362,1,100,2|0,0:2|0:2,0:2:0:0:
28,164,79739,5,2,0:2:0:0:
166,104,79888,2,0,L|181:207,1,100,10|0,0:2|0:2,0:2:0:0:
147,283,80187,5,2,0:2:0:0:
276,167,80336,2,0,P|363:183|406:193,1,100,2|0,0:2|0:2,0:2:0:0:
512,122,80635,5,2,3:2:0:0:
383,6,80784,2,0,P|296:22|253:32,1,100,2|2,3:2|0:2,0:2:0:0:
275,41,81008,1,2,0:2:0:0:
269,60,81082,2,0,P|305:54|341:41,1,50,10|0,0:2|0:2,0:2:0:0:
203,7,81232,5,2,3:2:0:0:
189,21,81306,1,2,0:2:0:0:
180,39,81381,1,2,0:2:0:0:
177,59,81455,1,2,0:2:0:0:
179,78,81530,1,2,0:2:0:0:
186,97,81605,1,2,0:2:0:0:
200,112,81679,5,2,3:2:0:0:
56,212,81829,2,0,P|104:174|124:128,1,100,2|0,0:2|0:2,0:2:0:0:
342,326,82127,5,2,0:2:0:0:
172,251,82277,2,0,P|220:289|240:335,1,100,10|0,0:2|0:2,0:2:0:0:
140,372,82575,5,2,0:2:0:0:
297,237,82724,2,0,L|426:204,1,100,2|0,0:2|0:2,0:2:0:0:
481,257,83023,5,2,0:2:0:0:
324,122,83172,2,0,L|195:89,1,100,2|0,3:2|0:2,0:2:0:0:
31,287,83470,2,0,P|82:328|170:267,1,175,10|0,0:2|0:2,0:2:0:0:
172,265,84067,5,2,3:2:0:0:
70,24,84217,1,10,0:2:0:0:
96,367,84366,1,10,0:2:0:0:
162,135,84515,6,0,B|77:135|114:200|0:193,1,150,0|0,3:2|0:2,0:2:0:0:
176,113,84814,2,0,P|251:142|218:194,1,150,10|0,0:2|0:2,0:2:0:0:
237,299,85112,2,0,P|228:216|279:171,1,150,2|0,3:2|0:2,0:2:0:0:
373,248,85411,2,0,P|298:219|331:167,1,150,10|0,0:2|0:2,0:2:0:0:
344,163,85709,1,2,3:2:0:0:
344,163,86008,5,8,0:2:0:0:
28,79,86157,1,8,0:2:0:0:
166,351,86306,1,0,3:2:0:0:
170,301,86381,1,0,3:2:0:0:
173,255,86455,6,0,L|200:-17,1,262.500010013581,6|0,3:2|0:2,0:2:0:0:
151,253,87052,1,8,0:2:0:0:
496,141,87202,6,0,B|477:172|477:172|374:153,1,100,2|0,3:2|0:2,0:2:0:0:
90,192,87500,2,0,B|109:161|109:161|212:180,1,100,2|0,3:2|0:2,0:2:0:0:
485,145,88843,6,0,B|421:139|382:162|382:162|380:216|380:216|326:221|257:257,1,262.500010013581,6|0,3:2|0:2,0:2:0:0:
487,125,89440,1,8,0:2:0:0:
195,23,89590,6,0,B|270:38|270:38|284:76,1,100,2|0,3:2|0:2,0:2:0:0:
303,366,89888,2,0,B|228:351|228:351|214:313,1,100,2|0,3:2|0:2,0:2:0:0:
219,328,90187,6,8,L|234:366,2,25.0000009536744,8|8|8,0:3|0:3|0:3,0:3:0:0:
187,259,90336,1,8,0:1:0:0:
46,339,90485,5,0,3:2:0:0:
57,336,90560,1,0,3:2:0:0:
68,333,90635,2,0,L|129:353,1,37.5000014305115,8|0,0:1|0:2,0:2:0:0:
63,253,90784,2,0,L|2:273,1,37.5000014305115,0|0,3:2|0:2,0:2:0:0:
149,267,90933,5,8,0:1:0:0:
157,230,91007,1,8,0:1:0:0:
165,193,91082,1,4,0:3:0:0:
174,157,91156,1,4,0:3:0:0:
109,113,91232,6,0,L|400:85,1,262.500010013581,6|0,3:2|0:2,0:2:0:0:
92,93,91829,1,8,0:2:0:0:
489,30,91978,6,0,B|481:75|481:75|469:84|469:84|459:165,1,100,2|0,3:2|0:2,0:2:0:0:
318,380,92276,2,0,B|310:335|310:335|298:326|298:326|288:245,1,100,2|0,3:2|0:2,0:2:0:0:
276,206,92426,5,0,3:2:0:0:
276,206,92724,1,0,3:2:0:0:
276,206,93023,1,0,3:2:0:0:
276,206,93321,1,0,3:2:0:0:
276,206,93620,6,0,L|234:198,1,37.5000014305115,4|0,3:2|0:2,0:2:0:0:
213,213,93769,2,0,L|171:205,1,37.5000014305115,0|0,3:2|0:2,0:2:0:0:
150,220,93918,2,0,L|108:212,1,37.5000014305115,0|0,3:2|0:2,0:2:0:0:
87,227,94067,2,0,L|45:219,1,37.5000014305115,0|0,3:2|0:2,0:2:0:0:
24,236,94217,1,8,3:2:0:0:
25,6,94366,5,0,3:3:0:0:
73,16,94440,1,0,1:3:0:0:
122,26,94515,1,0,1:3:0:0:
140,74,94590,1,0,3:3:0:0:
188,84,94664,1,0,1:3:0:0:
237,94,94739,1,0,1:3:0:0:
280,138,94814,6,0,L|323:132,3,29.9999990844727,4|0|0|0,3:2|1:2|1:2|1:2,1:2:0:0:
393,113,95411,6,0,B|396:94|396:94|371:73,4,37.5000014305115,0|0|0|0|0,1:2|1:2|1:2|1:2|1:2,1:2:0:0:
444,23,95709,2,0,B|433:7|433:7|400:10,4,37.5000014305115,0|0|0|0|0,1:2|1:2|1:2|1:2|1:2,1:2:0:0:
512,216,96008,6,2,B|505:275|505:275|419:290|419:290|413:283|413:283|324:299|324:299|323:361,1,300,6|0,3:2|0:2,0:1:0:0:
223,332,96306,6,0,P|195:365|221:329,5,133.333333333333,2|2|2|2|2|2,0:2|0:2|0:2|0:2|0:2|0:2,0:2:0:0:
282,238,96605,6,0,P|312:256|290:230,1,100,10|0,0:2|0:2,0:2:0:0:
155,145,96754,2,0,P|190:147|156:139,1,100,2|0,0:2|0:2,0:2:0:0:
9,173,96903,2,0,P|27:143|1:166,1,100,2|0,0:2|0:2,0:2:0:0:
0,348,97052,6,0,P|196:237|416:192,1,450,2|0,3:2|0:2,0:2:0:0:
500,273,97799,5,10,0:2:0:0:
493,263,97873,2,0,L|451:271,1,25,2|0,0:2|0:2,0:2:0:0:
351,364,98023,5,2,0:2:0:0:
344,374,98097,2,0,P|288:364|325:293,1,150,2|0,0:2|0:2,0:2:0:0:
444,53,98396,6,2,B|525:24|525:24|472:176|472:176|421:122,1,300,4|0,3:2|0:2,0:1:0:0:
210,152,98694,6,0,P|172:173|205:168,5,133.333333333333,2|2|2|2|2|2,0:2|0:2|0:2|0:2|0:2|0:2,0:2:0:0:
297,160,98993,6,0,B|324:172|352:155|352:155|321:167|285:144,1,100,10|0,0:2|0:2,0:2:0:0:
126,242,99142,2,0,B|101:259|102:292|102:292|107:259|144:239,1,100,2|0,0:2|0:2,0:2:0:0:
139,52,99291,2,0,B|136:21|107:6|107:6|132:26|131:69,1,100,2|0,0:2|0:2,0:2:0:0:
195,152,99440,6,0,P|181:159|193:157,1,37.5,2|0,3:2|0:2,0:2:0:0:
188,152,99739,6,0,L|124:143,1,50,2|0,0:2|0:2,0:2:0:0:
296,252,99963,2,0,L|371:242,1,75.0000028610231,2|0,0:2|0:2,0:2:0:0:
329,77,100187,6,0,L|183:56,1,100,10|0,0:2|0:2,0:2:0:0:
364,337,100411,2,0,L|513:317,1,150.000005722046,2|0,0:2|0:2,0:2:0:0:
215,262,100635,5,2,0:2:0:0:
139,276,100709,1,2,0:2:0:0:
100,342,100784,2,2,B|163:374|163:374|168:278|168:278|178:273|178:273|190:117,1,300,4|0,3:2|0:2,0:1:0:0:
115,34,101082,6,0,B|56:60|56:60|141:45,5,133.333333333333,2|2|2|2|2|2,0:2|0:2|0:2|0:2|0:2|0:2,0:2:0:0:
86,164,101381,6,0,B|67:210|67:210|106:155,1,100,10|0,0:2|0:2,0:2:0:0:
265,260,101530,2,0,B|285:305|285:305|273:239,1,100,2|0,0:2|0:2,0:2:0:0:
459,201,101679,2,0,B|505:219|505:219|450:180,1,100,2|0,0:2|0:2,0:2:0:0:
454,94,101829,6,0,B|333:136|333:136|368:221,1,187.500007152558,2|0,3:2|0:2,0:2:0:0:
389,269,102276,5,2,0:2:0:0:
396,286,102351,1,2,0:2:0:0:
403,303,102426,1,2,0:2:0:0:
410,320,102500,1,2,0:2:0:0:
417,337,102575,6,0,L|471:355,1,37.5000014305115,10|0,0:2|0:2,0:2:0:0:
480,277,102724,2,0,L|426:259,1,37.5000014305115,2|0,0:2|0:2,0:2:0:0:
356,286,102873,5,2,0:2:0:0:
356,286,103023,1,2,0:2:0:0:
20,50,103172,6,0,P|98:26|125:129,1,187.500007152558,6|0,3:2|0:2,0:2:0:0:
90,178,103620,5,0,3:2:0:0:
90,178,103694,1,0,3:2:0:0:
90,178,103769,2,0,L|136:193,1,37.5000014305115,10|0,0:2|0:2,0:2:0:0:
236,131,103918,2,0,L|200:163,1,37.5000014305115,2|0,0:2|0:2,0:2:0:0:
203,280,104067,2,0,L|192:232,1,37.5000014305115,2|0,0:2|0:2,0:2:0:0:
512,31,104217,6,0,B|358:47|497:166|319:202,1,262.500010013581,6|0,3:2|0:2,0:2:0:0:
339,197,104814,6,0,L|349:147,1,37.5000014305115,2|0,0:2|0:2,0:2:0:0:
136,12,104963,6,0,B|40:39|40:39|49:128|49:128|139:125,1,225.000008583069,10|0,0:2|0:2,0:2:0:0:
158,88,105261,6,0,L|176:7,1,75,2|0,0:2|0:2,0:2:0:0:
19,325,105560,6,2,B|156:302|156:302|132:295|132:295|345:260,1,300,6|0,3:2|0:2,0:1:0:0:
453,259,105858,6,0,P|458:295|433:255,5,133.333333333333,2|2|2|2|2|2,0:2|0:2|0:2|0:2|0:2|0:2,0:2:0:0:
451,148,106157,6,0,P|481:130|459:156,1,100,10|0,0:2|0:2,0:2:0:0:
296,57,106306,2,0,P|304:23|307:56,1,100,2|0,0:2|0:2,0:2:0:0:
122,102,106455,2,0,P|104:72|129:94,1,100,2|0,0:2|0:2,0:2:0:0:
172,366,106605,6,0,P|84:376|134:198,1,337.500012874604,2|0,3:2|0:2,0:2:0:0:
211,190,107351,5,10,0:2:0:0:
217,195,107426,2,0,L|199:261,1,37.5000014305115,2|0,0:2|0:2,0:2:0:0:
275,330,107575,5,2,0:2:0:0:
281,326,107649,1,2,0:2:0:0:
287,322,107724,2,0,L|270:251,1,37.5000014305115,2|0,0:2|0:2,0:2:0:0:
274,33,107873,1,2,0:2:0:0:
222,97,107948,6,2,B|253:121|253:121|480:78|480:78|510:11,1,300,6|0,3:2|0:2,0:1:0:0:
420,126,108246,6,0,B|361:134|361:134|382:143|382:143|282:155,5,133.333333333333,2|2|2|2|2|2,0:2|0:2|0:2|0:2|0:2|0:2,0:2:0:0:
468,226,108545,6,0,B|514:199|514:199|475:124,1,100,10|0,0:2|0:2,0:2:0:0:
267,205,108694,2,0,B|267:258|267:258|351:262,1,100,2|0,0:2|0:2,0:2:0:0:
385,41,108843,2,0,B|338:14|338:14|293:85,1,100,2|0,0:2|0:2,0:2:0:0:
369,136,108993,6,0,L|381:180,1,37.5,2|0,3:2|0:2,0:2:0:0:
389,188,109291,6,0,L|395:160,1,25,2|0,0:2|0:2,0:2:0:0:
277,253,109515,2,0,L|265:201,1,50,2|0,0:2|0:2,0:2:0:0:
203,140,109739,6,0,P|176:133|132:120,1,37.5000014305115,10|0,0:2|0:2,0:2:0:0:
325,337,109888,5,2,3:2:0:0:
375,276,109963,2,0,P|402:283|446:296,1,50,10|0,0:2|0:2,0:2:0:0:
121,316,110112,5,2,3:2:0:0:
86,249,110187,2,0,P|53:257|1:273,1,75.0000028610231,10|0,0:2|0:2,0:2:0:0:
247,363,110336,6,0,B|173:304|129:102|199:15|317:25|355:108|296:191|183:187,1,525.000020027161,0|0,3:2|0:2,0:2:0:0:
107,172,110933,5,10,0:2:0:0:
98,166,110983,1,2,0:2:0:0:
89,160,111033,1,2,0:2:0:0:
80,155,111082,2,0,L|-3:169,3,50.0000019073487,2|2|2|2,0:2|0:2|0:2|0:2,0:2:0:0:
53,79,111381,2,0,B|30:52|30:52|58:23,1,75.0000028610231,2|0,3:2|0:2,0:2:0:0:
446,95,111530,6,0,L|322:70,1,75.0000028610231,2|0,0:2|0:2,0:2:0:0:
204,161,111679,2,0,L|277:175,1,75.0000028610231,2|0,0:2|0:2,0:2:0:0:
358,249,111829,2,0,L|372:175,1,75.0000028610231,2|0,0:2|0:2,0:2:0:0:
292,7,111978,2,0,L|277:80,1,75.0000028610231,2|0,0:2|0:2,0:2:0:0:
346,335,112127,5,10,0:2:0:0:
358,249,112276,2,0,L|394:256,1,37.5000014305115,2|0,0:2|0:2,0:2:0:0:
277,282,112426,6,0,B|211:299|250:332|177:347,1,112.500004291535,2|0,0:2|0:2,0:2:0:0:
33,47,112724,6,2,P|100:224|226:190,1,300,6|0,3:2|0:2,0:1:0:0:
271,150,113023,5,10,0:2:0:0:
251,157,113097,1,2,0:2:0:0:
251,177,113172,1,2,0:2:0:0:
271,183,113246,1,2,0:2:0:0:
283,167,113321,6,0,P|279:147|271:125,1,37.5000014305115,2|0,3:2|0:2,0:2:0:0:
181,222,113470,2,0,P|185:242|193:264,1,37.5000014305115,2|0,0:2|0:2,0:2:0:0:
373,128,113620,2,0,P|391:65|406:-2,1,112.500004291535,10|0,0:2|0:2,0:2:0:0:
512,192,113918,6,0,B|389:238|389:238|366:340|366:340|289:365,1,300,2|0,3:2|0:2,0:2:0:0:
25,309,114217,6,0,B|100:331,1,50,10|0,0:2|0:2,0:2:0:0:
156,348,114366,1,2,3:2:0:0:
303,206,114515,6,0,L|284:284,1,50,8|0,0:2|0:2,0:2:0:0:
70,193,114664,2,0,L|89:271,1,50,8|0,0:2|0:2,0:2:0:0:
312,66,114814,2,0,L|293:144,1,50,8|0,0:2|0:2,0:2:0:0:
79,53,114963,2,0,L|98:131,1,50,8|0,0:2|0:2,0:2:0:0:
435,358,115112,6,2,B|215:352|408:224|122:233,1,300,6|0,3:2|0:2,0:1:0:0:
139,317,115411,2,0,P|151:352|163:315,1,100,8|0,0:2|0:2,0:2:0:0:
109,154,115560,5,2,3:2:0:0:
96,149,115610,1,2,0:2:0:0:
83,144,115659,1,2,0:2:0:0:
70,139,115709,6,0,B|35:156|35:156|55:253,1,100,2|0,0:2|0:2,0:2:0:0:
184,233,115858,2,0,B|219:216|219:216|199:119,1,100,2|0,0:2|0:2,0:2:0:0:
4,288,116008,2,0,B|-8:324|-8:324|74:379,1,100,10|0,0:2|0:2,0:2:0:0:
323,65,116157,6,0,B|197:100|197:100|206:155,1,187.500007152558,2|0,3:2|0:2,0:2:0:0:
229,61,116605,2,0,L|241:7,1,37.5000014305115,8|0,0:2|0:2,0:2:0:0:
306,196,116754,2,0,L|294:142,1,37.5000014305115,0|0,3:2|0:2,0:2:0:0:
482,48,116903,5,2,0:2:0:0:
481,31,116978,2,0,P|450:40|426:61,1,37.5000014305115,2|0,0:2|0:2,0:2:0:0:
411,281,117127,5,2,0:2:0:0:
410,298,117202,2,0,P|361:283|323:250,1,75.0000028610231,10|0,0:2|0:2,0:2:0:0:
306,196,117351,1,2,3:2:0:0:
76,367,117500,6,2,B|99:227|99:227|107:225|107:225|139:43,1,300,6|0,3:2|0:2,0:1:0:0:
59,39,117799,2,0,B|27:-7|27:-7|40:56,1,100,8|0,0:2|0:2,0:2:0:0:
220,101,117948,5,2,3:2:0:0:
233,99,117998,1,2,0:2:0:0:
246,97,118047,1,2,0:2:0:0:
259,95,118097,6,0,B|300:87|300:87|312:89|312:89|367:78,1,100,2|0,0:2|0:2,0:2:0:0:
414,249,118246,2,0,B|386:217|386:217|382:206|382:206|345:163,1,100,2|0,0:2|0:2,0:2:0:0:
470,38,118396,2,0,B|456:77|456:77|448:86|448:86|430:140,1,100,10|0,0:2|0:2,0:2:0:0:
352,323,118545,6,0,L|309:331,1,37.5,0|0,3:2|0:2,0:2:0:0:
315,329,118843,6,0,B|337:338|337:338|344:344|344:344|381:356,1,50,2|8,0:2|0:2,0:2:0:0:
229,238,119067,5,2,0:2:0:0:
242,232,119142,2,0,B|260:224|260:224|266:219|266:219|298:208,1,37.5000014305115,2|0,3:2|0:2,0:2:0:0:
56,274,119291,6,0,B|44:313|44:313|47:320|47:320|32:370,1,100,2|0,0:2|3:2,0:2:0:0:
141,194,119515,6,0,B|132:162|132:162|134:156|134:156|122:116,1,75.0000028610231,2|8,0:2|0:2,0:2:0:0:
350,252,119664,5,0,0:0:0:0:
389,320,119739,1,2,0:2:0:0:
467,324,119814,1,2,0:2:0:0:
512,261,119888,6,2,B|425:227|357:276|391:330|329:387|190:340,1,300,6|0,3:2|0:2,0:1:0:0:
169,295,120187,6,0,P|144:321|177:307,1,100,8|0,0:2|0:2,0:2:0:0:
352,104,120336,5,2,3:2:0:0:
349,90,120386,1,2,0:2:0:0:
346,76,120436,1,2,0:2:0:0:
343,63,120485,6,0,B|369:39|369:39|451:58,1,100,2|0,0:2|0:2,0:2:0:0:
302,202,120635,2,0,B|276:226|276:226|194:207,1,100,2|0,0:2|0:2,0:2:0:0:
111,27,120784,2,0,B|137:3|137:3|219:22,1,100,10|0,0:2|0:2,0:2:0:0:
91,333,120933,6,0,B|52:305|52:305|105:149,1,187.500007152558,0|0,3:2|0:2,0:2:0:0:
181,124,121381,2,0,L|86:147,1,75.0000028610231,8|0,0:2|0:2,0:2:0:0:
337,276,121530,6,0,P|334:255|321:233,1,37.5000014305115,2|0,3:2|0:2,0:2:0:0:
266,192,121679,2,0,P|285:199|311:199,1,37.5000014305115,2|0,0:2|0:2,0:2:0:0:
374,172,121829,2,0,P|357:185|344:207,1,37.5000014305115,2|0,0:2|0:2,0:2:0:0:
417,257,121978,5,8,0:2:0:0:
307,113,122127,1,2,3:2:0:0:
137,354,122276,2,0,B|91:338|42:326|42:326|248:280,1,300,4|0,3:2|0:2,0:2:0:0:
316,352,122575,6,0,B|299:372|299:372|296:322,1,50,10|0,0:2|0:2,0:2:0:0:
496,193,122724,2,0,B|479:173|479:173|476:223,1,50,2|0,3:2|0:2,0:2:0:0:
464,280,122873,5,2,0:2:0:0:
444,282,122948,1,2,0:2:0:0:
424,284,123023,1,2,0:2:0:0:
404,286,123097,1,2,0:2:0:0:
349,237,123172,6,0,B|334:201|334:201|374:137,1,75.0000028610231,10|0,0:2|0:2,0:2:0:0:
491,86,123321,2,0,B|506:50|506:50|466:-14,1,75.0000028610231,2|0,3:2|0:2,0:2:0:0:
85,186,123470,6,0,B|90:125|90:125|274:94,1,200,2|0,3:2|0:2,0:2:0:0:
353,170,123694,2,0,B|348:109|348:109|211:86,1,200,10|0,0:2|0:2,0:2:0:0:
75,179,123918,2,0,B|79:118|79:118|214:96,1,100,2|0,3:2|0:2,0:2:0:0:
483,175,124067,6,0,B|510:203|510:203|449:196,6,75.0000028610231,2|0|0|0|0|0|0,3:2|0:2|0:2|0:2|0:2|0:2|0:2,0:2:0:0:
444,273,124366,6,0,L|453:320,1,25,2|0,0:2|0:2,0:2:0:0:
438,284,124515,2,0,L|447:331,1,25,2|0,0:2|0:2,0:2:0:0:
67,374,124664,6,2,P|182:343|262:166,1,300,6|0,3:2|0:2,0:1:0:0:
202,113,124963,2,0,P|179:121|200:103,1,75.0000028610231,8|2,0:2|0:2,0:2:0:0:
172,212,125112,5,2,3:2:0:0:
168,221,125162,1,2,0:2:0:0:
165,230,125212,1,2,0:2:0:0:
162,239,125261,6,0,L|83:225,1,75.0000028610231,2|0,0:2|0:2,0:2:0:0:
366,88,125411,2,0,L|292:101,1,75.0000028610231,2|0,0:2|0:2,0:2:0:0:
438,316,125560,2,0,L|512:330,1,75.0000028610231,10|0,0:2|0:2,0:2:0:0:
318,187,125709,6,0,L|286:378,1,187.500007152558,2|0,3:2|0:2,0:2:0:0:
325,295,126157,6,0,L|373:303,1,37.5000014305115,8|0,0:2|0:2,0:2:0:0:
438,316,126306,1,0,3:2:0:0:
94,166,126455,5,2,0:2:0:0:
78,170,126530,2,0,P|62:194|69:221,1,37.5000014305115,2|0,0:2|0:2,0:2:0:0:
148,353,126679,5,2,0:2:0:0:
164,349,126754,2,0,P|188:311|177:270,1,75.0000028610231,10|0,0:2|0:2,0:2:0:0:
76,153,126903,2,0,P|51:190|62:231,1,75.0000028610231,2|0,3:2|0:2,0:2:0:0:
300,361,127052,6,2,B|271:234|339:108|491:106|499:219|446:251,1,375,6|0,3:2|0:2,0:1:0:0:
503,335,127351,2,0,B|457:316|457:316|432:332|432:332|314:288,1,125,8|0,0:2|0:2,0:2:0:0:
237,193,127500,5,2,3:2:0:0:
245,178,127550,1,2,0:2:0:0:
253,163,127600,1,2,0:2:0:0:
258,153,127649,6,0,B|189:144|226:95|116:92,1,125,2|0,0:2|0:2,0:2:0:0:
128,4,127799,2,0,B|59:13|96:62|-14:65,1,125,2|0,0:2|0:2,0:2:0:0:
18,260,127948,2,0,B|27:191|76:228|79:118,1,125,10|0,0:2|0:2,0:2:0:0:
150,95,128097,6,0,P|158:126|166:172,1,75,2|0,3:2|0:2,0:2:0:0:
430,349,128396,6,0,B|473:327|473:327|450:235|450:235|379:273,1,200,2|8,0:2|0:2,0:2:0:0:
274,273,128620,2,0,B|250:260|250:260|263:210|263:210|301:231,1,100,2|0,0:2|3:2,0:2:0:0:
478,92,128769,5,2,0:2:0:0:
484,113,128843,2,0,B|336:87|336:87|320:16,1,200,2|0,0:2|3:2,0:2:0:0:
155,36,129067,2,0,B|227:14|227:14|234:51,1,100,2|8,0:2|0:2,0:2:0:0:
162,175,129217,5,2,0:2:0:0:
138,211,129291,1,2,0:2:0:0:
97,229,129366,1,2,0:2:0:0:
28,203,129440,6,2,B|111:187|270:229|58:358|237:426|344:399|341:282|286:241,1,450.000017166138,6|0,3:2|0:2,0:1:0:0:
275,165,129739,2,0,B|246:156|233:135|233:135|245:152|240:184,2,100.000003814697,10|2|2,0:2|0:2|0:2,0:2:0:0:
407,331,129888,5,2,3:2:0:0:
425,339,129938,1,2,0:2:0:0:
443,347,129988,1,2,0:2:0:0:
458,355,130037,6,0,B|502:322|502:322|440:221,1,100,2|0,0:2|0:2,0:2:0:0:
399,52,130187,2,0,B|348:30|348:30|291:134,1,100,2|0,0:2|0:2,0:2:0:0:
172,246,130336,2,0,B|178:300|178:300|297:297,1,100,10|0,0:2|0:2,0:2:0:0:
500,152,130485,6,0,B|470:137|436:138|436:138|448:178|425:202|425:202|403:182|356:184|356:184|373:241|332:291,1,300,2|8,3:2|0:2,0:2:0:0:
294,343,131082,1,0,3:2:0:0:
213,52,131232,6,0,L|233:-4,6,37.5000014305115,2|0|0|0|0|0|0,0:2|0:2|0:2|0:2|0:2|0:2|0:2,0:2:0:0:
121,47,131530,6,0,L|29:63,1,75.0000028610231,10|0,0:2|0:2,0:2:0:0:
291,110,131679,2,0,L|364:122,1,75.0000028610231,2|0,3:2|0:2,0:2:0:0:
161,323,131829,6,2,B|187:249|187:249|170:236|170:236|207:123|207:123|194:114|194:114|228:-2,1,300,6|0,3:2|0:2,0:1:0:0:
401,40,132127,5,10,0:2:0:0:
414,42,132177,1,2,0:2:0:0:
427,44,132227,1,2,0:2:0:0:
439,47,132276,2,0,B|476:53|476:53|456:139,1,100,2|0,0:2|3:2,0:2:0:0:
291,253,132426,6,0,B|289:199|289:199|322:327,1,100,2|0,3:2|0:2,0:2:0:0:
456,302,132575,2,0,B|501:273|501:273|407:365,1,100,2|0,3:2|0:2,0:2:0:0:
158,349,132724,2,0,B|118:312|118:312|232:379,1,100,10|0,0:2|0:2,0:2:0:0:
301,363,132873,1,2,3:2:0:0:
281,109,133023,1,0,3:2:0:0:
31,235,133172,6,0,B|172:208|172:208|203:268|203:268|316:248,1,300,14|0,0:2|0:2,0:2:0:0:
349,173,133470,2,0,B|362:226|362:226|319:240,1,100,2|0,3:2|0:2,0:2:0:0:
17,39,133620,5,8,0:2:0:0:
58,12,133694,1,8,0:2:0:0:
108,11,133769,1,0,3:2:0:0:
151,36,133843,1,0,3:2:0:0:
208,93,133918,5,8,0:2:0:0:
250,119,133992,1,8,0:2:0:0:
300,120,134067,1,0,3:2:0:0:
342,96,134141,1,0,3:2:0:0:
369,24,134217,5,6,3:2:0:0:
233,198,134366,6,0,B|214:226|214:226|261:378,1,150,0|0,3:2|0:2,0:2:0:0:
252,350,134664,1,0,3:2:0:0:
506,339,134814,6,0,B|460:345|460:345|417:308|417:308|354:319,1,150,8|0,0:2|0:2,0:2:0:0:
364,303,135112,1,0,3:2:0:0:
46,341,135261,6,0,B|23:368|23:368|166:338,1,150,0|0,3:2|0:2,0:2:0:0:
150,342,135560,1,0,3:2:0:0:
132,78,135709,6,0,B|95:52|95:52|127:171,1,150,0|0,3:2|0:2,0:2:0:0:
133,163,136008,6,0,L|54:183,1,50,10|0,0:2|0:2,0:2:0:0:
100,251,136157,2,0,L|148:238,1,50,2|0,0:2|0:2,0:2:0:0:
15,209,136306,2,0,L|30:277,1,50,2|0,0:2|0:2,0:2:0:0:
222,193,136455,5,0,3:2:0:0:
222,193,136530,1,0,3:2:0:0:
222,193,136605,1,0,3:2:0:0:
494,107,136754,6,0,B|440:66|407:117|350:52,1,150,0|0,3:2|0:2,0:2:0:0:
353,37,137052,1,0,3:2:0:0:
380,314,137202,6,0,P|386:246|440:163,1,150,8|0,0:2|0:2,0:2:0:0:
448,181,137500,1,0,3:2:0:0:
262,378,137649,6,0,P|256:310|202:227,1,150,0|0,3:2|0:2,0:2:0:0:
194,245,137947,1,0,3:2:0:0:
37,82,138097,6,0,P|28:140|127:164,1,150,0|0,3:2|0:2,0:2:0:0:
160,127,138396,5,10,0:2:0:0:
164,112,138470,1,2,0:2:0:0:
168,97,138545,1,2,0:2:0:0:
172,82,138620,1,2,0:2:0:0:
198,14,138694,6,0,L|268:26,1,50,2|0,0:2|0:2,0:2:0:0:
251,109,138843,2,0,L|321:97,1,50,2|0,0:2|0:2,0:2:0:0:
286,366,138993,1,6,3:2:0:0:
336,265,139142,6,0,L|488:239,1,150,0|0,3:2|0:2,0:2:0:0:
508,236,139440,1,0,3:2:0:0:
146,225,139590,6,0,B|185:293|101:295|146:387,1,150,8|0,0:2|0:2,0:2:0:0:
156,378,139888,1,0,3:2:0:0:
389,167,140037,6,0,B|428:99|344:97|389:5,1,150,0|0,3:2|0:2,0:2:0:0:
399,14,140335,1,0,3:2:0:0:
191,85,140485,6,0,L|39:59,1,150,0|0,3:2|0:2,0:2:0:0:
17,54,140784,6,0,B|-9:87|-9:87|36:155,1,75.0000028610231,10|0,0:2|0:2,0:2:0:0:
300,203,140933,2,0,B|284:163|284:163|203:168,1,75.0000028610231,2|0,0:2|0:2,0:2:0:0:
29,373,141082,2,0,B|70:379|70:379|85:349,1,75.0000028610231,2|0,0:2|0:2,0:2:0:0:
122,219,141232,5,0,3:2:0:0:
122,219,141306,1,0,3:2:0:0:
122,219,141381,1,0,3:2:0:0:
279,354,141530,6,0,P|363:332|456:298,1,150,0|0,3:2|0:2,0:2:0:0:
451,299,141829,1,0,3:2:0:0:
484,72,141978,6,0,P|400:50|307:16,1,150,8|0,0:2|0:2,0:2:0:0:
312,17,142277,1,0,3:2:0:0:
239,252,142426,6,0,P|277:217|269:109,1,150,0|0,3:2|0:2,0:2:0:0:
258,106,142724,1,0,3:2:0:0:
62,80,142873,6,0,P|24:115|32:223,1,150,0|0,3:2|0:2,0:2:0:0:
164,257,143172,2,0,B|135:275|135:275|94:259|94:259|37:291,1,112.500004291535,10|0,0:2|0:2,0:2:0:0:
8,325,143470,6,0,B|-3:364|-3:364|33:323,6,75.0000028610231,2|0|0|0|0|0|0,0:2|0:2|0:2|0:2|0:2|0:2|0:2,0:2:0:0:
215,82,143769,5,4,3:2:0:0:
382,79,143918,2,0,L|216:106,1,150,0|0,3:2|0:2,0:2:0:0:
215,82,144217,1,0,3:2:0:0:
512,204,144366,6,0,L|346:177,1,150,8|0,0:2|0:2,0:2:0:0:
345,201,144665,1,0,3:2:0:0:
234,329,144814,6,0,L|400:302,1,150,0|0,3:2|0:2,0:2:0:0:
401,326,145113,1,0,3:2:0:0:
190,230,145261,6,0,L|217:64,1,150,0|0,3:2|0:2,0:2:0:0:
193,63,145560,1,8,0:2:0:0:
37,7,145709,5,2,0:2:0:0:
34,21,145784,1,2,0:2:0:0:
31,35,145858,2,0,L|17:102,1,50,2|0,0:2|0:2,0:2:0:0:
113,49,146008,2,0,L|99:116,1,50,2|0,0:2|0:2,0:2:0:0:
45,160,146157,1,0,3:2:0:0:
351,75,146306,6,0,B|423:53|412:119|521:78,1,150,0|0,3:2|0:2,0:2:0:0:
511,69,146605,1,0,3:2:0:0:
364,174,146754,6,0,B|380:247|432:204|451:319,1,150,8|0,0:2|0:2,0:2:0:0:
438,315,147053,1,0,3:2:0:0:
281,229,147202,6,0,B|225:280|288:303|198:377,1,150,0|0,3:2|0:2,0:2:0:0:
195,363,147501,1,0,3:2:0:0:
184,195,147649,6,0,B|112:173|123:238|14:197,1,150,0|0,3:2|0:2,0:2:0:0:
29,123,147948,6,0,B|217:142|77:273|304:277,1,300,10|0,0:2|0:2,0:2:0:0:
362,344,148246,6,0,P|340:351|309:364,1,37.5000014305115,2|0,0:2|0:2,0:2:0:0:
331,373,148396,2,0,P|353:366|384:353,1,37.5000014305115,2|0,0:2|0:2,0:2:0:0:
500,69,148545,1,0,3:2:0:0:
328,47,148694,6,0,L|352:213,1,150,0|0,3:2|0:2,0:2:0:0:
382,212,148993,1,0,3:2:0:0:
149,168,149142,6,0,L|125:334,1,150,8|0,0:2|0:2,0:2:0:0:
95,333,149441,1,0,3:2:0:0:
428,345,149590,6,0,L|262:321,1,150,0|0,3:2|0:2,0:2:0:0:
263,291,149889,1,0,3:2:0:0:
43,54,150037,6,0,L|209:30,1,150,0|0,3:2|0:2,0:2:0:0:
270,11,150336,2,0,B|308:10|308:10|250:40,12,75.0000028610231,8|0|2|0|2|0|2|0|2|0|2|0|2,0:2|0:2|0:2|0:2|0:2|0:2|0:2|0:2|0:2|0:2|0:2|0:2|0:2,0:2:0:0:
61,328,150933,1,0,3:2:0:0:
66,145,151082,6,0,P|142:161|236:302,1,225.000008583069,0|0,3:2|0:2,0:2:0:0:
234,292,151381,1,0,3:2:0:0:
283,10,151530,6,0,P|314:57|289:180,1,150,0|0,3:2|0:2,0:2:0:0:
299,163,151829,1,0,3:2:0:0:
497,63,151978,6,0,P|488:104|411:155,1,112.500004291535,0|0,3:2|0:2,0:2:0:0:
416,153,152277,1,0,3:2:0:0:
395,369,152426,6,0,P|361:316|392:216,1,134.999995880127,0|0,3:2|0:2,0:2:0:0:
368,246,152724,6,0,B|294:272|359:327|242:350,1,150.000005722046,2|0,0:2|0:2,0:2:0:0:
139,198,152948,2,0,P|223:198|181:291,1,150.000005722046,2|0,0:2|0:2,0:2:0:0:
182,370,153172,2,0,P|160:342|185:277,1,75.0000028610231,2|0,0:2|0:2,0:2:0:0:
120,24,153321,6,0,P|305:63|515:99,1,400,6|0,3:2|0:2,0:2:0:0:
101,356,166605,6,0,L|90:294,1,50,0|0,3:2|3:2,0:2:0:0:
199,161,166754,5,8,0:1:0:0:
184,157,166829,1,8,0:1:0:0:
169,153,166903,1,8,0:1:0:0:
154,150,166978,1,8,0:1:0:0:
133,188,167052,5,4,0:3:0:0:
118,192,167127,1,4,0:3:0:0:
72,148,167202,5,8,0:3:0:0:
57,144,167277,1,8,0:3:0:0:
41,140,167351,2,0,B|107:125|107:125|119:136|119:136|217:115,1,150,0|0,3:2|0:2,0:2:0:0:
413,336,167649,6,0,B|470:313|470:313|411:113,1,262.500010013581,6|0,3:2|0:2,0:2:0:0:
415,356,168246,1,8,0:2:0:0:
354,51,168396,6,0,B|434:30|434:30|505:72,1,100,2|0,3:2|0:2,0:2:0:0:
213,334,168694,2,0,B|199:343|199:343|119:322,1,100,2|0,3:2|0:2,0:2:0:0:
19,75,170037,6,0,P|121:87|273:194,1,262.500010013581,6|0,3:2|0:2,0:2:0:0:
12,56,170635,1,8,0:2:0:0:
326,226,170784,6,0,P|349:195|298:110,1,100,2|0,3:2|0:2,0:2:0:0:
28,294,171082,2,0,P|17:341|43:383,1,100,2|0,3:2|0:2,0:2:0:0:
246,332,171381,6,0,L|249:356,2,25.0000009536744,0|0|0,3:2|3:2|3:2,3:2:0:0:
210,124,171530,1,8,0:2:0:0:
162,281,171679,5,0,3:2:0:0:
165,263,171754,1,0,3:2:0:0:
168,246,171829,5,8,0:1:0:0:
222,202,171928,1,8,0:1:0:0:
291,215,172028,1,8,0:1:0:0:
329,293,172127,5,4,0:3:0:0:
379,342,172227,1,4,0:3:0:0:
448,336,172327,1,4,0:3:0:0:
502,266,172426,6,0,L|221:311,1,262.500010013581,6|0,3:2|0:2,0:2:0:0:
509,246,173023,1,8,0:2:0:0:
159,250,173172,6,0,B|116:267|116:267|134:365,1,100,2|0,3:2|0:2,0:2:0:0:
474,173,173470,2,0,B|517:156|517:156|499:58,1,100,2|0,3:2|0:2,0:2:0:0:
256,192,173620,12,0,174739,0:2:0:0:
304,63,174814,6,0,B|139:51|225:176|50:161,1,262.500010013581,6|0,3:2|0:2,0:2:0:0:
57,140,175411,1,8,0:2:0:0:
271,157,175560,5,0,3:2:0:0:
271,157,175635,1,0,3:2:0:0:
271,157,175709,2,0,L|256:238,1,50,0|0,3:2|3:2,0:2:0:0:
183,356,175858,2,0,L|168:275,1,50,0|0,3:2|3:2,0:2:0:0:
159,280,176008,6,0,L|177:378,1,100,0|2,3:2|0:2,0:2:0:0:
159,280,176754,6,0,B|119:275|119:275|168:302,2,75.0000028610231,2|0|0,0:2|0:2|0:2,0:2:0:0:
238,311,176903,5,2,0:2:0:0:
43,263,177052,1,2,0:2:0:0:
476,35,177202,6,0,P|467:72|415:96,1,75.0000028610231,6|0,3:2|0:2,0:2:0:0:
437,305,177351,2,0,P|402:249|483:173,1,150.000005722046,2|8,0:2|0:2,0:2:0:0:
336,136,177649,6,0,P|306:113|298:77,1,75.0000028610231,2|0,0:2|0:2,0:2:0:0:
51,21,177799,2,0,B|183:36|91:144|251:152,1,225.000008583069,0|0,3:2|0:2,0:2:0:0:
309,220,178097,6,0,P|280:223|248:262,1,75.0000028610231,10|0,3:2|0:2,0:2:0:0:
49,368,178246,2,0,P|16:297|41:196,1,150.000005722046,2|0,0:2|3:2,0:2:0:0:
336,18,178545,6,0,P|306:40|298:76,1,75.0000028610231,2|0,0:2|0:2,0:2:0:0:
385,358,178694,2,0,P|471:339|488:193,1,225.000008583069,10|0,3:2|0:2,0:2:0:0:
472,87,178993,6,0,P|463:122|434:145,1,75.0000028610231,2|0,3:2|0:2,0:2:0:0:
326,197,179142,2,0,P|290:207|256:193,1,75.0000028610231,2|0,0:2|0:2,0:2:0:0:
151,76,179291,5,10,3:2:0:0:
144,62,179341,1,2,0:2:0:0:
140,47,179391,1,2,0:2:0:0:
140,32,179440,1,2,0:2:0:0:
65,225,179590,6,0,P|56:199|71:215,1,75.0000028610231,2|0,3:2|0:2,0:2:0:0:
256,193,179739,2,0,B|171:205|234:266|117:281,1,150.000005722046,2|8,0:2|3:2,0:2:0:0:
63,326,180037,6,0,P|76:351|75:329,1,75.0000028610231,2|0,0:2|0:2,0:2:0:0:
256,193,180187,2,0,B|390:213|304:290|436:318,1,225.000008583069,2|0,3:2|0:2,0:2:0:0:
499,181,180485,6,0,P|481:215|406:215,1,75.0000028610231,10|0,3:2|0:2,0:2:0:0:
118,91,180635,2,0,P|152:21|234:76,1,150.000005722046,2|0,0:2|3:2,0:2:0:0:
280,363,180933,6,0,P|263:334|267:249,1,75.0000028610231,2|0,0:2|0:2,0:2:0:0:
399,9,181082,2,0,P|376:118|344:229,1,225.000008583069,10|0,3:2|0:2,0:2:0:0:
184,213,181381,6,0,P|219:206|276:182,1,75.0000028610231,2|0,3:2|0:2,0:2:0:0:
435,339,181530,2,0,P|399:325|363:318,1,75.0000028610231,2|0,0:2|0:2,0:2:0:0:
138,314,181679,5,10,3:2:0:0:
123,319,181729,1,2,0:2:0:0:
109,325,181779,1,2,0:2:0:0:
96,333,181829,1,2,0:2:0:0:
255,192,181978,6,0,P|257:157|233:80,1,75.0000028610231,2|0,3:2|0:2,0:2:0:0:
37,19,182127,2,0,B|129:43|51:89|188:120,1,150.000005722046,2|8,0:2|3:2,0:2:0:0:
330,15,182426,6,0,P|294:16|220:46,1,75.0000028610231,2|0,0:2|0:2,0:2:0:0:
85,186,182575,2,0,B|166:210|166:210|182:264|182:264|270:294,1,225.000008583069,2|0,3:2|0:2,0:2:0:0:
355,384,182873,6,0,L|335:289,1,75.0000028610231,10|0,3:2|0:2,0:2:0:0:
512,62,183023,2,0,B|419:86|419:86|445:182,1,150.000005722046,2|0,0:2|3:2,0:2:0:0:
339,310,183321,6,0,L|359:215,1,75.0000028610231,2|0,0:2|0:2,0:2:0:0:
66,0,183470,2,0,B|159:24|159:24|133:120,1,150.000005722046,10|0,3:2|0:2,0:2:0:0:
53,347,183769,6,0,P|74:318|141:300,1,75.0000028610231,2|0,3:2|0:2,0:2:0:0:
210,285,183918,5,2,0:2:0:0:
224,287,183968,1,2,0:2:0:0:
237,293,184018,1,2,0:2:0:0:
249,303,184067,2,0,L|232:386,1,75.0000028610231,10|0,3:2|0:2,0:2:0:0:
93,227,184217,2,0,L|108:300,1,75.0000028610231,2|0,0:2|0:2,0:2:0:0:
366,261,184366,6,0,B|407:251|407:251|424:257|424:257|499:241,1,100,2|0,3:2|0:2,0:2:0:0:
512,155,184515,1,2,0:2:0:0:
500,137,184590,2,0,B|459:127|459:127|442:133|442:133|367:117,1,100,2|8,0:2|3:2,0:2:0:0:
210,211,184739,1,2,0:2:0:0:
222,193,184814,2,0,B|263:183|263:183|280:189|280:189|355:173,1,100,2|0,0:2|0:2,0:2:0:0:
323,101,184963,6,0,B|343:3,1,100,2|0,3:2|0:2,0:2:0:0:
265,275,185112,1,2,0:2:0:0:
272,290,185187,2,0,B|303:384,1,100,2|8,0:2|0:2,0:2:0:0:
147,156,185336,1,2,0:2:0:0:
135,146,185411,2,0,B|60:79,1,100,2|0,0:2|0:2,0:2:0:0:
37,267,185560,6,0,B|60:294|60:294|161:263,1,100,2|0,3:2|0:2,0:2:0:0:
316,192,185709,2,0,B|339:165|339:165|440:196,1,100,2|0,0:2|0:2,0:2:0:0:
509,364,185858,5,10,3:2:0:0:
433,347,185933,1,2,3:2:0:0:
485,290,186008,1,2,3:2:0:0:
485,290,186306,6,0,P|501:253|496:196,1,75.0000028610231,2|0,3:2|0:2,0:2:0:0:
316,192,186455,2,0,P|301:154|257:117,1,75.0000028610231,10|0,3:2|0:2,0:2:0:0:
127,242,186605,2,0,P|89:225|32:230,1,75.0000028610231,2|0,3:2|0:2,0:2:0:0:
5,324,186754,5,2,0:2:0:0:
0,334,186829,2,0,P|-3:307|16:277,1,50,2|0,0:2|0:2,0:2:0:0:
56,223,187052,6,0,P|94:240|151:235,1,75.0000028610231,14|0,3:2|0:2,0:2:0:0:
390,131,187202,2,0,P|405:93|449:56,1,75.0000028610231,2|0,0:2|0:2,0:2:0:0:
485,290,187351,2,0,P|382:339|365:290,1,150.000005722046,2|0,3:2|0:2,0:2:0:0:
285,271,187649,6,0,P|280:322|269:363,1,75.0000028610231,10|0,3:2|0:2,0:2:0:0:
56,223,187799,2,0,P|37:113|36:1,1,150.000005722046,2|0,0:2|3:2,0:2:0:0:
373,215,188097,6,0,P|368:266|357:307,1,75.0000028610231,2|0,0:2|0:2,0:2:0:0:
144,167,188247,2,0,P|125:57|124:-55,1,150.000005722046,10|0,3:2|0:2,0:2:0:0:
496,173,188545,6,0,P|475:146|407:153,1,75.0000028610231,2|0,3:2|0:2,0:2:0:0:
285,82,188694,2,0,P|248:88|225:117,1,75.0000028610231,2|0,0:2|0:2,0:2:0:0:
136,263,188843,5,10,3:2:0:0:
133,277,188893,1,2,0:2:0:0:
136,291,188943,1,2,0:2:0:0:
144,303,188993,1,2,0:2:0:0:
456,209,189142,6,0,P|442:172|436:99,1,75.0000028610231,2|0,3:2|0:2,0:2:0:0:
485,0,189291,2,0,B|383:14|458:69|331:86,1,150.000005722046,2|8,0:2|3:2,0:2:0:0:
218,61,189590,6,0,P|267:65|295:124,1,75.0000028610231,2|0,0:2|0:2,0:2:0:0:
359,375,189739,2,0,P|324:292|331:148,1,225.000008583069,2|0,3:2|0:2,0:2:0:0:
491,176,190037,6,0,P|453:157|385:174,1,75.0000028610231,10|0,3:2|0:2,0:2:0:0:
241,339,190187,2,0,P|164:346|142:268,1,150.000005722046,2|0,0:2|3:2,0:2:0:0:
66,43,190485,6,0,P|98:25|136:24,1,75.0000028610231,2|0,0:2|0:2,0:2:0:0:
316,206,190635,2,0,P|386:217|421:156,1,150.000005722046,10|0,3:2|0:2,0:2:0:0:
50,188,190933,6,0,P|34:230|39:295,1,75.0000028610231,2|0,3:2|0:2,0:2:0:0:
136,288,191082,2,0,P|152:246|147:181,1,75.0000028610231,2|0,0:2|0:2,0:2:0:0:
136,132,191232,5,10,3:2:0:0:
132,117,191282,1,2,0:2:0:0:
118,121,191332,1,2,0:2:0:0:
122,136,191381,1,2,0:2:0:0:
421,156,191530,6,0,P|422:111|405:72,1,75.0000028610231,2|0,3:2|0:2,0:2:0:0:
316,206,191679,2,0,B|372:227|372:227|379:253|379:253|443:282,1,150.000005722046,2|8,0:2|3:2,0:2:0:0:
502,204,191978,6,0,P|514:160|508:118,1,75.0000028610231,2|0,0:2|0:2,0:2:0:0:
304,304,192127,2,0,B|248:325|248:325|241:351|241:351|177:380,1,150.000005722046,2|0,3:2|0:2,0:2:0:0:
34,22,192426,6,0,P|72:35|108:69,1,75.0000028610231,10|0,3:2|0:2,0:2:0:0:
78,335,192575,2,0,P|57:248|36:133,1,150.000005722046,2|0,0:2|3:2,0:2:0:0:
350,10,192873,6,0,P|312:23|276:57,1,75.0000028610231,2|0,0:2|0:2,0:2:0:0:
304,304,193022,2,0,P|325:217|346:102,1,150.000005722046,10|0,3:2|0:2,0:2:0:0:
1,349,193321,5,2,3:2:0:0:
78,335,193396,2,0,B|181:319|181:319|222:400,1,150.000005722046,10|0,0:2|0:2,0:2:0:0:
293,378,193620,2,0,L|304:304,1,75.0000028610231,10|0,3:2|0:2,0:2:0:0:
143,168,193769,2,0,L|153:242,1,75.0000028610231,2|0,0:2|0:2,0:2:0:0:
384,350,193918,6,0,B|420:339|420:339|378:333,6,75.0000028610231,2|0|0|0|0|0|0,3:2|0:2|0:2|0:2|0:2|0:2|0:2,0:2:0:0:
61,204,194217,2,0,B|25:215|25:215|67:221,6,75.0000028610231,2|0|0|0|0|0|0,0:2|0:2|0:2|0:2|0:2|0:2|0:2,0:2:0:0:
260,202,194515,6,0,B|254:177|268:157|268:157|250:158|250:158|261:143|261:93,8,100,10|0|0|0|0|0|0|0|0,0:2|0:2|0:2|0:2|0:2|0:2|0:2|0:2|0:2,0:2:0:0:
306,270,194888,5,0,3:2:0:0:
335,266,194963,1,0,3:2:0:0:
364,262,195037,1,0,3:2:0:0:
393,258,195112,6,0,B|425:267|425:267|433:282|433:282|486:294,1,100,2|0,3:2|0:2,0:2:0:0:
365,164,195261,5,0,3:2:0:0:
394,168,195336,2,0,B|426:158|426:158|434:144|434:144|487:132,1,100,10|0,3:2|0:2,0:2:0:0:
281,359,195485,5,0,3:2:0:0:
310,355,195560,1,0,3:2:0:0:
339,351,195634,1,0,3:2:0:0:
368,347,195709,6,0,B|400:356|400:356|408:371|408:371|461:383,1,100,2|0,3:2|0:2,0:2:0:0:
213,204,195858,5,0,3:2:0:0:
180,137,195933,2,0,B|146:142|146:142|128:258,1,100,10|0,0:2|3:2,0:2:0:0:
215,283,196082,5,0,3:2:0:0:
248,350,196157,2,0,B|282:345|282:345|300:229,1,100,10|0,0:2|3:2,0:2:0:0:
326,14,196306,6,0,P|184:35|-6:50,1,300,4|0,3:2|0:2,0:2:0:0:
291,189,196605,2,0,B|421:210|317:264|461:290,1,200,8|0,3:2|0:2,0:2:0:0:
483,98,196829,1,2,0:2:0:0:
483,98,196903,6,0,P|463:137|477:263,1,100,2|0,3:2|0:2,0:2:0:0:
319,374,197052,2,0,P|313:324|291:279,1,100,2|0,0:2|0:2,0:2:0:0:
124,131,197202,2,0,P|75:148|-8:154,1,100,10|0,3:2|0:2,0:2:0:0:
151,371,197351,6,0,P|186:273|208:160,2,200,2|0|0,0:2|3:2|0:2,0:2:0:0:
99,247,197799,1,8,3:2:0:0:
291,189,197948,1,0,0:2:0:0:
206,0,198097,6,0,P|206:57|216:120,1,100,2|0,3:2|0:2,0:2:0:0:
449,379,198246,2,0,P|449:322|439:259,1,100,2|0,0:2|0:2,0:2:0:0:
214,332,198396,5,8,3:2:0:0:
214,332,198470,1,2,0:0:0:0:
214,332,198545,2,0,B|126:311|178:262|94:245,2,150.000005722046,2|0|0,0:2|3:2|0:2,0:2:0:0:
298,365,198918,6,0,P|334:355|370:344,1,75.0000028610231,2|8,0:2|3:2,0:2:0:0:
81,326,199067,1,0,0:2:0:0:
72,341,199142,2,0,P|40:351|-12:364,1,75.0000028610231,2|0,0:2|0:2,0:2:0:0:
229,251,199291,1,0,3:2:0:0:
244,239,199366,2,0,P|267:130|280:48,1,150.000005722046,2|0,0:2|0:2,0:2:0:0:
206,30,199590,6,0,P|165:42|104:46,1,75.0000028610231,10|0,3:2|0:2,0:2:0:0:
358,149,199739,2,0,P|399:161|460:165,1,75.0000028610231,2|0,0:2|0:2,0:2:0:0:
32,236,199888,6,0,B|130:232|69:169|202:167,1,150.000005722046,2|0,3:2|0:2,0:2:0:0:
363,312,200112,2,0,P|355:276|312:201,1,75.0000028610231,2|8,0:2|3:2,0:2:0:0:
170,275,200261,1,0,0:2:0:0:
156,287,200336,2,0,P|141:321|133:358,1,75.0000028610231,2|0,0:2|0:2,0:2:0:0:
358,149,200485,5,0,3:2:0:0:
367,132,200560,2,0,P|482:156|508:210,1,150.000005722046,2|0,0:2|0:2,0:2:0:0:
512,263,200784,2,0,P|507:311|490:352,1,75.0000028610231,10|0,3:2|0:2,0:2:0:0:
273,371,200933,2,0,P|261:335|259:297,1,75.0000028610231,2|0,0:2|0:2,0:2:0:0:
289,0,201082,6,0,P|177:81|-5:105,1,300,6|0,3:2|0:2,0:2:0:0:
39,239,201381,2,0,B|30:161|152:175|138:281|57:322,1,200,8|0,3:2|0:2,0:2:0:0:
174,351,201605,1,2,0:2:0:0:
174,351,201679,6,0,L|308:378,1,100,2|0,3:2|0:2,0:2:0:0:
512,135,201829,2,0,L|378:162,1,100,2|0,0:2|0:2,0:2:0:0:
263,153,201978,2,0,L|236:287,1,100,10|0,3:2|0:2,0:2:0:0:
447,351,202127,6,0,L|407:114,2,200,2|0|0,0:2|3:2|0:2,0:2:0:0:
512,243,202575,1,8,3:2:0:0:
342,273,202724,1,0,0:2:0:0:
374,25,202873,6,0,L|485:61,1,100,2|0,3:2|0:2,0:2:0:0:
466,73,203023,2,0,L|370:42,1,100,2|0,0:2|0:2,0:2:0:0:
158,172,203172,6,0,L|47:208,1,100,10|0,3:2|0:2,0:2:0:0:
66,220,203322,2,0,L|161:189,1,100,2|0,0:2|0:2,0:2:0:0:
372,357,203470,5,2,3:2:0:0:
413,155,203620,1,2,0:2:0:0:
125,11,203769,5,10,3:2:0:0:
166,213,203919,1,2,0:2:0:0:
421,76,204067,5,2,3:2:0:0:
219,35,204217,1,2,0:2:0:0:
75,323,204366,5,10,3:2:0:0:
277,282,204516,1,2,0:2:0:0:
48,116,204664,5,2,3:2:0:0:
29,192,204814,1,2,3:2:0:0:
195,377,204963,5,10,0:2:0:0:
176,301,205113,1,2,3:2:0:0:
314,128,205261,5,2,0:2:0:0:
295,204,205411,1,2,3:2:0:0:
503,276,205560,5,10,0:2:0:0:
503,276,205709,1,2,0:2:0:0:
493,191,205858,6,0,B|474:159|474:159|470:197,6,75.0000028610231,2|0|0|0|0|0|0,3:2|0:2|0:2|0:2|0:2|0:2|0:2,0:2:0:0:
471,198,206157,6,0,B|404:229|404:229|400:283|400:283|307:322,1,200,10|0,3:2|0:2,0:2:0:0:
77,346,206381,1,2,0:2:0:0:
77,346,206455,6,0,B|47:305|47:305|89:237,1,100,2|0,3:2|0:2,0:2:0:0:
330,174,206605,2,0,B|309:220|309:220|229:218,1,100,2|0,0:2|0:2,0:2:0:0:
55,41,206754,2,0,B|105:35|105:35|143:105,1,100,10|0,3:2|0:2,0:2:0:0:
161,182,206903,6,0,L|195:394,2,200,2|0|0,0:2|3:2|0:2,0:2:0:0:
59,180,207351,1,8,3:2:0:0:
425,45,207500,1,0,0:2:0:0:
262,21,207649,6,0,L|248:147,1,100,2|0,3:2|0:2,0:2:0:0:
472,370,207799,2,0,L|460:270,1,100,2|0,0:2|0:2,0:2:0:0:
140,290,207948,5,10,3:2:0:0:
140,290,208023,1,2,0:0:0:0:
140,290,208097,2,0,B|87:311|87:311|81:349|81:349|20:368,2,150.000005722046,2|0|0,0:2|3:2|0:2,0:2:0:0:
237,335,208470,6,0,B|229:374|229:374|189:344,1,75.0000028610231,2|8,0:2|3:2,0:2:0:0:
81,219,208620,1,0,0:2:0:0:
68,214,208694,2,0,B|23:191|23:191|150:166,1,150.000005722046,2|0,0:2|3:2,0:2:0:0:
274,184,208918,2,0,B|224:240|224:240|221:133,1,150.000005722046,2|0,0:2|0:2,0:2:0:0:
420,26,209142,6,0,L|514:48,1,75.0000028610231,10|0,3:2|0:2,0:2:0:0:
512,263,209291,2,0,L|438:280,1,75.0000028610231,2|0,0:2|0:2,0:2:0:0:
346,118,209440,6,0,B|407:132|407:132|411:161|411:161|480:178,1,150.000005722046,2|0,3:2|0:2,0:2:0:0:
341,314,209664,5,2,3:2:0:0:
353,239,209739,1,8,0:2:0:0:
75,125,209888,5,2,3:2:0:0:
87,200,209963,1,8,0:2:0:0:
200,359,210112,5,2,3:2:0:0:
210,284,210186,1,0,3:2:0:0:
221,210,210261,1,0,3:2:0:0:
232,136,210335,5,10,0:2:0:0:
200,359,210485,1,10,0:2:0:0:
483,57,210635,6,0,B|302:90|302:90|318:101|318:101|68:146,1,375,6|0,3:2|0:2,0:2:0:0:
40,45,210933,2,0,B|44:2|44:2|125:41|125:41|94:62,1,150,2|0,0:2|0:2,0:2:0:0:
58,125,211232,1,10,0:2:0:0:
324,230,211381,6,0,L|334:152,1,50,2|0,0:2|0:2,0:2:0:0:
413,191,211530,2,0,L|406:240,1,50,2|0,0:2|0:2,0:2:0:0:
491,241,211679,5,0,3:2:0:0:
494,208,211754,1,2,3:2:0:0:
304,368,211904,5,2,3:2:0:0:
232,353,211978,1,0,3:2:0:0:
160,340,212052,1,0,3:2:0:0:
282,114,212202,5,2,3:2:0:0:
354,101,212276,1,0,3:2:0:0:
86,329,212426,1,8,0:2:0:0:
195,18,212575,5,0,3:2:0:0:
208,90,212649,1,0,3:2:0:0:
221,162,212723,1,8,0:2:0:0:
428,89,212873,1,8,0:2:0:0:
136,69,213023,5,2,3:2:0:0:
328,245,213172,5,2,3:2:0:0:
341,173,213246,1,0,3:2:0:0:
354,101,213320,1,10,0:2:0:0:
160,271,213470,5,2,3:2:0:0:
149,213,213544,1,0,3:2:0:0:
139,155,213620,1,10,0:2:0:0:
394,315,213769,5,2,3:2:0:0:
402,268,213843,1,0,3:2:0:0:
410,222,213917,1,10,0:2:0:0:
95,373,214067,5,2,3:2:0:0:
88,335,214141,1,0,3:2:0:0:
82,295,214217,5,10,0:2:0:0:
82,295,214291,1,8,0:2:0:0:
82,295,214366,2,0,L|16:281,1,50,2|0,3:2|3:2,0:2:0:0:
290,329,214515,5,10,0:2:0:0:
290,329,214589,1,8,0:2:0:0:
290,329,214664,2,0,L|310:393,1,50,2|0,3:2|3:2,3:2:0:0:
216,132,214814,5,10,0:2:0:0:
216,132,214888,1,8,0:2:0:0:
216,132,214963,2,0,L|261:81,1,50,2|0,3:2|3:2,3:2:0:0:
203,250,215112,6,0,P|203:223|194:249,1,75,10|0,0:2|0:2,0:2:0:0:
510,380,215411,6,2,B|481:211|481:211|470:224|470:224|433:7,1,375,4|0,3:2|0:2,0:1:0:0:
212,99,215709,5,10,3:2:0:0:
248,110,215784,1,2,0:2:0:0:
283,121,215858,1,2,0:2:0:0:
319,132,215933,1,2,0:2:0:0:
360,197,216008,6,0,B|365:234|365:234|326:179,1,75.0000028610231,2|0,3:2|0:2,0:2:0:0:
206,16,216157,5,2,0:2:0:0:
221,9,216231,2,2,B|250:-13|250:-13|234:20,1,75.0000028610231,0|8,0:2|3:2,0:2:0:0:
144,230,216380,5,2,0:2:0:0:
128,223,216455,2,0,B|93:208|93:208|130:205,1,75.0000028610231,2|0,0:2|0:2,0:2:0:0:
373,348,216605,6,0,B|520:330|520:330|477:253,1,225.000008583069,2|0,3:2|0:2,0:2:0:0:
487,171,216903,6,0,P|509:152|501:180,6,75.0000028610231,10|0|0|0|0|0|0,3:2|0:2|0:2|0:2|0:2|0:2|0:2,0:2:0:0:
482,262,217202,6,0,P|421:241|405:166,1,100,2|0,3:2|0:2,0:2:0:0:
279,294,217351,2,0,P|250:236|292:171,1,100,2|0,0:2|0:2,0:2:0:0:
439,90,217500,6,0,B|463:64|500:60|500:60|437:43|364:63|408:108|350:140|276:119,1,300,10|0,3:2|0:2,0:2:0:0:
162,280,217799,6,2,P|-4:307|140:231,1,375,2|0,3:2|0:2,0:1:0:0:
130,130,218097,5,10,3:2:0:0:
150,98,218172,1,2,0:2:0:0:
138,64,218246,1,2,0:2:0:0:
102,57,218321,1,2,0:2:0:0:
43,123,218396,6,0,B|20:159|20:159|61:233,1,100,2|0,3:2|0:2,0:2:0:0:
295,108,218545,5,2,0:2:0:0:
293,85,218620,2,0,B|273:47|273:47|188:45,1,100,2|8,0:2|3:2,0:2:0:0:
179,310,218768,5,2,0:2:0:0:
200,320,218843,2,0,B|242:321|242:321|286:249,1,100,2|0,0:2|0:2,0:2:0:0:
171,158,218993,6,0,L|184:242,1,50,2|0,3:2|0:2,0:2:0:0:
351,366,219142,2,0,L|364:282,1,50,2|0,0:2|0:2,0:2:0:0:
400,100,219291,2,0,B|341:117|341:117|335:149|335:149|254:172,1,150,10|0,3:2|0:2,0:2:0:0:
375,226,219590,6,0,L|479:245,1,75.0000028610231,2|0,3:2|0:2,0:2:0:0:
289,32,219739,2,0,L|216:46,1,75.0000028610231,2|0,0:2|0:2,0:2:0:0:
79,215,219888,2,0,B|71:239|71:239|206:209|206:209|157:138,1,225.000008583069,10|0,3:2|0:2,0:2:0:0:
512,185,220187,6,2,B|477:86|477:86|474:103|474:103|390:172|390:172|385:155|385:155|262:125,1,375,2|0,3:2|0:2,0:1:0:0:
65,23,220485,5,10,3:2:0:0:
73,59,220560,1,2,0:2:0:0:
81,95,220635,1,2,0:2:0:0:
89,131,220709,1,2,0:2:0:0:
146,189,220784,6,0,P|187:195|171:158,1,100,2|0,3:2|0:2,0:2:0:0:
0,281,220933,5,2,0:2:0:0:
16,266,221008,2,0,B|134:251|55:353|235:317,1,200,2|0,0:2|0:2,0:2:0:0:
366,337,221232,5,2,3:2:0:0:
345,259,221306,1,2,3:2:0:0:
288,316,221381,2,0,P|282:343|309:393,4,50,2|0|0|0|0,3:2|0:2|0:2|0:2|0:2,0:2:0:0:
401,200,221605,5,2,3:2:0:0:
411,184,221679,2,0,B|454:193|454:193|456:202|456:202|511:213,1,100,10|0,0:2|0:2,0:2:0:0:
422,94,221829,2,0,B|465:103|465:103|467:112|467:112|522:123,1,100,2|0,3:2|0:2,0:2:0:0:
188,46,221978,5,2,3:2:0:0:
188,46,222127,2,0,L|179:4,2,33.3333333333333,2|2|2,0:2|0:2|0:2,0:2:0:0:
220,115,222276,6,0,B|217:157|217:157|186:101,4,75.0000028610231,2|0|0|0|0,0:2|0:2|0:2|0:2|0:2,0:2:0:0:
493,371,222575,6,0,P|438:319|22:175,1,525.000020027161,6|0,3:2|0:2,0:2:0:0:
30,251,223172,5,10,0:2:0:0:
105,213,223271,1,2,0:2:0:0:
108,131,223371,1,2,0:2:0:0:
45,73,223470,6,0,B|11:257|163:357|335:336|314:228|270:155|168:215,1,500,6|0,3:2|0:2,0:2:0:0:
127,308,223918,6,0,P|124:344|146:374,1,75.0000028610231,2|0,3:2|0:2,0:2:0:0:
215,325,224067,1,2,3:2:0:0:
215,325,224142,1,2,0:2:0:0:
215,325,224217,1,2,0:2:0:0:
512,279,224366,6,8,L|404:253,1,75.0000028610231,10|0,0:2|0:2,0:2:0:0:
397,149,224515,5,0,3:2:0:0:
321,134,224590,1,0,3:2:0:0:
346,208,224664,2,0,L|337:122,1,75,10|0,0:2|0:2,0:2:0:0:
70,132,224963,6,2,B|32:45|32:45|196:126|196:126|149:274,1,375,6|0,3:2|0:2,0:1:0:0:
35,363,225261,5,10,3:2:0:0:
48,327,225336,1,2,0:2:0:0:
74,300,225411,1,2,0:2:0:0:
109,289,225485,1,2,0:2:0:0:
190,304,225560,6,0,B|217:353|217:353|147:310,1,100,2|0,3:2|0:2,0:2:0:0:
321,192,225709,5,2,0:2:0:0:
337,205,225784,2,0,B|321:258|321:258|302:178,1,100,2|8,0:2|3:2,0:2:0:0:
508,218,225933,5,2,0:2:0:0:
510,238,226008,2,0,B|461:265|461:265|504:194,1,100,2|0,0:2|0:2,0:2:0:0:
486,10,226157,6,0,B|423:36|423:134|423:134|373:42|280:40,1,300,2|0,3:2|0:2,0:2:0:0:
227,16,226455,2,0,B|190:19|190:19|236:42,6,75.0000028610231,10|0|0|0|0|0|0,3:2|0:2|0:2|0:2|0:2|0:2|0:2,0:2:0:0:
284,142,226754,6,0,P|334:165|272:230,1,100,2|0,3:2|0:2,0:2:0:0:
159,354,226903,2,0,P|109:331|171:266,1,100,2|0,0:2|0:2,0:2:0:0:
109,168,227052,2,0,B|187:153|249:215|184:268|237:334|360:321,1,300,10|0,3:2|0:2,0:2:0:0:
405,111,227351,6,2,B|336:5|535:-66|585:151|391:242,1,375,2|0,3:2|0:2,0:1:0:0:
284,142,227649,5,10,3:2:0:0:
288,104,227724,1,2,0:2:0:0:
290,66,227799,1,2,0:2:0:0:
294,29,227873,1,2,0:2:0:0:
210,53,227948,6,0,B|159:69|159:69|229:92,1,100,2|0,3:2|0:2,0:2:0:0:
435,217,228097,5,2,0:2:0:0:
448,205,228172,2,0,B|499:221|499:221|429:244,1,100,2|8,0:2|3:2,0:2:0:0:
172,331,228321,5,2,0:2:0:0:
159,319,228396,2,0,B|108:335|108:335|178:358,1,100,2|0,0:2|0:2,0:2:0:0:
402,384,228545,6,0,B|432:344|432:344|361:271,1,100,2|0,3:2|0:2,0:2:0:0:
182,157,228694,2,0,B|152:197|152:197|223:270,1,100,2|0,0:2|0:2,0:2:0:0:
287,377,228843,2,0,B|295:231|295:231|310:224|310:224|325:33,1,300,10|0,3:2|0:2,0:2:0:0:
29,115,229142,6,0,P|150:159|170:-6,1,300,2|0,3:2|0:2,0:2:0:0:
94,0,229440,2,0,P|71:25|115:14,1,112.500004291535,10|0,3:2|0:2,0:2:0:0:
95,28,229739,5,2,3:2:0:0:
182,157,229888,2,0,P|186:189|181:279,1,100,2|8,0:2|3:2,0:2:0:0:
129,312,230187,5,2,0:2:0:0:
264,139,230336,2,0,P|289:119|370:78,1,100,2|0,3:2|2:2,2:2:0:0:
428,60,230634,5,10,3:2:0:0:
208,77,230784,2,0,P|178:64|102:15,1,100,2|0,0:2|3:2,0:2:0:0:
182,157,231082,1,2,0:2:0:0:
457,140,231232,6,0,P|475:172|451:263,1,100,10|0,3:2|0:2,0:2:0:0:
316,358,231530,2,0,P|315:332|347:292,1,50,2|0,3:2|0:2,0:2:0:0:
413,298,231679,2,2,P|434:315|462:326,2,33.3333333333333,2|2|2,0:2|0:2|0:2,0:2:0:0:
355,235,231829,6,0,P|356:209|324:169,1,50,10|0,3:2|0:2,0:2:0:0:
265,202,231978,2,0,P|264:228|296:268,1,50,2|0,0:2|0:2,0:2:0:0:
172,324,232127,6,0,L|44:307,1,100,10|0,3:2|0:2,0:2:0:0:
6,290,232351,2,0,L|85:270,1,50,2|8,0:2|3:2,0:2:0:0:
92,157,232500,1,2,0:2:0:0:
109,166,232575,2,0,L|129:245,1,50,2|0,0:2|0:2,0:2:0:0:
265,202,232724,6,0,L|393:185,1,100,10|0,3:2|0:2,0:2:0:0:
431,168,232948,2,0,L|352:148,1,50,2|8,0:2|3:2,0:2:0:0:
345,35,233097,1,2,0:2:0:0:
328,44,233172,2,0,L|308:123,1,50,2|0,0:2|0:2,0:2:0:0:
305,384,233321,6,0,B|393:354|314:307|438:283,1,150.000005722046,10|0,3:2|0:2,0:2:0:0:
498,251,233545,2,0,P|485:290|405:269,1,75.0000028610231,2|8,0:2|3:2,0:2:0:0:
273,311,233694,1,2,0:2:0:0:
257,301,233769,2,0,P|248:269|256:196,1,75.0000028610231,2|0,0:2|0:2,0:2:0:0:
328,44,233918,5,10,3:2:0:0:
127,138,234067,5,2,3:2:0:0:
73,77,234142,2,0,P|22:83|-29:106,1,75.0000028610231,10|0,0:2|0:2,0:2:0:0:
247,227,234291,5,2,3:2:0:0:
301,166,234366,2,0,P|352:172|403:195,1,75.0000028610231,10|0,0:2|0:2,0:2:0:0:
58,372,234515,6,0,P|35:335|48:267,1,75.0000028610231,2|0,3:2|0:2,0:2:0:0:
170,215,234664,2,0,P|134:274|87:247,1,112.500004291535,2|0,0:2|0:2,0:2:0:0:
89,245,234963,1,2,0:2:0:0:
367,271,235112,6,0,L|481:294,1,112.500004291535,10|0,0:2|0:2,0:2:0:0:
477,293,235411,2,0,L|469:237,1,37.5000014305115,2|0,0:2|0:2,0:2:0:0:
318,333,235560,2,0,L|310:389,1,37.5000014305115,2|0,0:2|0:2,0:2:0:0:
492,168,235709,6,0,L|388:188,1,75.0000028610231,2|0,3:2|0:2,0:2:0:0:
318,333,235858,2,0,L|214:313,1,75.0000028610231,2|0,0:2|0:2,0:2:0:0:
33,157,236008,2,0,B|121:132|121:132|131:84|131:84|221:59,1,225.000008583069,2|0,0:2|0:2,0:2:0:0:
396,32,236306,6,0,B|434:46|434:46|406:120,1,75.0000028610231,10|0,0:2|0:2,0:2:0:0:
219,206,236455,5,2,3:2:0:0:
214,190,236530,2,0,B|207:150|207:150|285:137,1,75.0000028610231,10|0,0:2|0:2,0:2:0:0:
445,252,236679,5,2,3:2:0:0:
442,269,236754,2,0,B|410:294|410:294|360:233,1,75.0000028610231,10|0,0:2|0:2,0:2:0:0:
351,177,236903,6,0,B|343:137|343:137|372:183,6,75.0000028610231,2|0|0|0|0|0|0,3:2|0:2|0:2|0:2|0:2|0:2|0:2,0:2:0:0:
209,339,237202,2,0,B|190:367|190:367|198:327,6,75.0000028610231,2|0|0|0|0|0|0,0:2|0:2|0:2|0:2|0:2|0:2|0:2,0:2:0:0:
34,268,237500,2,0,B|5:249|5:249|45:257,8,75.0000028610231,10|0|0|0|0|0|0|0|0,0:2|0:2|0:2|0:2|0:2|0:2|0:2|0:2|0:2,0:2:0:0:
136,226,237873,5,2,3:2:0:0:
179,212,237948,1,2,3:2:0:0:
222,198,238023,1,2,3:2:0:0:
264,184,238097,6,0,L|292:12,1,150.000005722046,2|0,3:2|0:2,0:2:0:0:
490,77,238321,1,2,3:2:0:0:
494,50,238396,2,0,B|477:27|477:27|406:50,1,75.0000028610231,10|0,0:2|0:2,0:2:0:0:
377,123,238545,2,0,B|360:146|360:146|289:123,1,75.0000028610231,2|0,0:2|0:2,0:2:0:0:
22,41,238694,6,0,B|175:21|175:21|183:97,1,225.000008583069,10|0,0:2|0:2,0:2:0:0:
93,148,238993,5,10,0:2:0:0:
52,208,239067,1,8,0:2:0:0:
62,281,239142,1,8,0:2:0:0:
118,328,239216,1,8,0:2:0:0:
192,325,239291,5,6,3:2:0:0:
484,175,239440,2,0,L|464:323,1,150.000005722046,2|0,3:2|0:2,0:2:0:0:
182,91,239739,2,0,L|202:239,1,150.000005722046,2|8,3:2|0:2,0:2:0:0:
500,93,240037,5,2,3:2:0:0:
192,325,240187,2,0,L|-21:388,1,150.000005722046,2|0,3:2|0:2,0:2:0:0:
356,50,240485,2,0,L|569:113,1,150.000005722046,2|0,3:2|0:2,0:2:0:0:
463,323,240784,5,2,3:2:0:0:
202,239,240933,2,0,L|182:91,1,150.000005722046,2|8,3:2|0:2,0:2:0:0:
499,92,241232,2,0,L|479:240,1,150.000005722046,2|0,3:2|0:2,0:2:0:0:
181,90,241530,5,2,3:2:0:0:
314,302,241679,2,0,L|462:322,1,150.000005722046,2|0,3:2|0:2,0:2:0:0:
167,9,241978,2,0,L|19:29,1,150.000005722046,2|0,3:2|0:2,0:2:0:0:
0,243,242276,5,10,0:2:0:0:
399,152,242426,2,0,L|419:4,1,150.000005722046,2|0,3:2|0:2,0:2:0:0:
83,232,242724,2,0,L|103:380,1,150.000005722046,2|0,3:2|0:2,0:2:0:0:
507,57,243023,5,2,3:2:0:0:
178,93,243172,2,0,L|30:113,1,150.000005722046,2|0,3:2|0:2,0:2:0:0:
364,363,243470,2,0,L|512:343,1,150.000005722046,10|0,0:2|0:2,0:2:0:0:
189,18,243769,6,0,L|174:112,1,75.0000028610231,2|0,3:2|0:2,0:2:0:0:
5,310,243918,2,0,L|20:404,1,75.0000028610231,2|0,3:2|0:2,0:2:0:0:
166,174,244067,5,8,0:2:0:0:
166,174,244142,1,8,0:2:0:0:
166,174,244217,2,0,L|266:156,1,75.0000028610231,2|0,3:2|3:2,0:2:0:0:
512,342,244366,5,8,0:2:0:0:
512,342,244441,1,8,0:2:0:0:
512,342,244515,2,0,L|412:324,1,75.0000028610231,2|0,3:2|3:2,0:2:0:0:
287,6,244664,2,0,L|273:79,1,75.0000028610231,2|0,3:2|3:2,0:2:0:0:
238,335,244814,6,0,L|227:400,2,37.5000014305115,2|2|2,0:2|0:2|0:2,0:2:0:0:
238,335,245112,1,2,0:2:0:0:
257,248,245261,1,6,3:2:0:0:
