osu file format v14

[General]
AudioFilename: aud.mp3
AudioLeadIn: 0
PreviewTime: 67519
Countdown: 0
SampleSet: Soft
StackLeniency: 0
Mode: 0
LetterboxInBreaks: 0
WidescreenStoryboard: 0

[Editor]
DistanceSpacing: 0.2
BeatDivisor: 8
GridSize: 4
TimelineZoom: 3.099998

[Metadata]
Title:Chirality
TitleUnicode:Chirality
Artist:Camellia
ArtistUnicode:かめりあ
Creator:Binguo
Version:Easy
Source:REFLEC BEAT groovin'!!
Tags:
BeatmapID:1765224
BeatmapSetID:843760

[Difficulty]
HPDrainRate:5
CircleSize:4.3
OverallDifficulty:9
ApproachRate:9.5
SliderMultiplier:2
SliderTickRate:1

[Events]
//Background and Video events
0,0,"illust_67722399_20180404_155515.jpg",0,0
//Break Periods
//Storyboard Layer 0 (Background)
//Storyboard Layer 1 (Fail)
//Storyboard Layer 2 (Pass)
//Storyboard Layer 3 (Foreground)
//Storyboard Sound Samples

[TimingPoints]
952,298.507462686567,4,2,1,5,1,0
952,-133.333333333333,4,2,1,20,0,0
11250,-66.6666666666667,4,2,1,60,0,0
12892,-133.333333333333,4,2,1,60,0,0
13638,-66.6666666666667,4,2,1,60,0,0
15280,-133.333333333333,4,2,1,60,0,0
16026,-66.6666666666667,4,2,1,60,0,0
17668,-133.333333333333,4,2,1,60,0,0
19459,-66.6666666666667,4,2,1,60,0,0
19757,-40,4,2,1,60,0,0
20056,-66.6666666666667,4,2,1,60,0,0
20429,-57.1428571428571,4,2,1,60,0,0
20504,-50,4,2,1,60,0,0
20578,-44.4444444444445,4,2,1,60,0,0
20653,-40,4,2,1,60,0,0
20802,-44.4444444444445,4,2,1,60,0,0
20877,-50,4,2,1,60,0,0
21026,-57.1428571428571,4,2,1,60,0,0
21101,-66.6666666666667,4,2,1,60,0,0
21250,-44.4444444444445,4,2,1,60,0,0
21847,-33.3333333333333,4,2,1,60,0,0
22444,-66.6666666666667,4,2,1,60,0,0
22817,-57.1428571428571,4,2,1,60,0,0
22892,-50,4,2,1,60,0,0
22966,-44.4444444444445,4,2,1,60,0,0
23041,-40,4,2,1,60,0,0
23190,-44.4444444444445,4,2,1,60,0,0
23265,-50,4,2,1,60,0,0
23414,-57.1428571428571,4,2,1,60,0,0
23489,-66.6666666666667,4,2,1,60,0,0
24235,-100,4,2,1,60,0,0
25131,-66.6666666666667,4,2,1,60,0,0
25205,-57.1428571428571,4,2,1,60,0,0
25280,-50,4,2,1,60,0,0
25354,-44.4444444444445,4,2,1,60,0,0
25429,-40,4,2,1,60,0,0
25578,-44.4444444444445,4,2,1,60,0,0
25653,-50,4,2,1,60,0,0
25802,-57.1428571428571,4,2,1,60,0,0
25877,-66.6666666666667,4,2,1,60,0,0
26026,-40,4,2,1,60,0,0
26325,-44.4444444444445,4,2,1,60,0,0
26623,-50,4,2,1,60,0,0
26847,-57.1428571428571,4,2,1,60,0,0
26996,-44.4444444444445,4,2,1,60,0,0
28116,-66.6666666666667,4,2,1,60,0,0
29608,-66.6666666666667,4,2,1,60,0,0
29981,-57.1428571428571,4,2,1,60,0,0
30056,-50,4,2,1,60,0,0
30130,-44.4444444444445,4,2,1,60,0,0
30205,-40,4,2,1,60,0,0
30354,-44.4444444444445,4,2,1,60,0,0
30429,-50,4,2,1,60,0,0
30578,-57.1428571428571,4,2,1,60,0,0
30653,-66.6666666666667,4,2,1,60,0,0
30802,-44.4444444444445,4,2,1,60,0,0
31399,-33.3333333333333,4,2,1,60,0,0
31996,-66.6666666666667,4,2,1,60,0,0
32369,-57.1428571428571,4,2,1,60,0,0
32444,-50,4,2,1,60,0,0
32518,-44.4444444444445,4,2,1,60,0,0
32593,-40,4,2,1,60,0,0
32742,-44.4444444444445,4,2,1,60,0,0
32817,-50,4,2,1,60,0,0
32966,-57.1428571428571,4,2,1,60,0,0
33041,-66.6666666666667,4,2,1,60,0,0
33787,-100,4,2,1,60,0,0
34683,-50,4,2,1,60,0,0
35802,-100,4,2,1,60,0,0
36175,-50,4,2,1,60,0,0
36399,-57.1428571428571,4,2,1,60,0,0
36548,-44.4444444444445,4,2,1,60,0,0
36772,-50,4,2,1,60,0,0
39160,-57.1428571428571,4,2,1,60,0,0
49160,-50,4,2,1,60,0,0
49608,-44.4444444444445,4,2,1,60,0,0
50056,-40,4,2,1,60,0,0
51101,-57.1428571428571,4,2,1,60,0,0
51549,-50,4,2,1,60,0,0
51996,-44.4444444444445,4,2,1,60,0,0
52444,-40,4,2,1,60,0,0
53489,-57.1428571428571,4,2,1,60,0,0
53937,-50,4,2,1,60,0,0
54384,-44.4444444444445,4,2,1,60,0,0
54832,-40,4,2,1,60,0,0
56325,-44.4444444444445,4,2,1,60,0,0
56772,-50,4,2,1,60,0,0
57220,-57.1428571428571,4,2,1,60,0,0
58265,-133.333333333333,4,2,1,60,0,0
59011,-66.6666666666667,4,2,1,60,0,0
60653,-133.333333333333,4,2,1,60,0,0
61399,-66.6666666666667,4,2,1,60,0,0
63041,-133.333333333333,4,2,1,60,0,0
63787,-66.6666666666667,4,2,1,60,0,0
65429,-133.333333333333,4,2,1,60,0,0
67220,-66.6666666666667,4,2,1,60,0,0
67519,-57.1428571428571,4,2,1,60,0,0
67817,-50,4,2,1,60,0,1
68414,-44.4444444444445,4,2,1,60,0,1
68862,-40,4,2,1,60,0,1
69310,-36.3636363636364,4,2,1,60,0,1
69757,-40,4,2,1,60,0,1
69908,-44.4444444444445,4,2,1,60,0,1
70056,-50,4,2,1,60,0,1
70802,-44.4444444444445,4,2,1,60,0,1
71250,-40,4,2,1,60,0,1
71698,-36.3636363636364,4,2,1,60,0,1
72146,-40,4,2,1,60,0,1
72295,-44.4444444444445,4,2,1,60,0,1
72444,-50,4,2,1,60,0,1
73190,-44.4444444444445,4,2,1,60,0,1
73638,-40,4,2,1,60,0,1
74086,-36.3636363636364,4,2,1,60,0,1
74683,-50,4,2,1,60,0,1
75578,-44.4444444444445,4,2,1,60,0,1
76922,-50,4,2,1,60,0,1
77369,-50,4,2,1,60,0,1
77966,-44.4444444444445,4,2,1,60,0,1
78414,-40,4,2,1,60,0,1
78862,-36.3636363636364,4,2,1,60,0,1
79310,-40,4,2,1,60,0,1
79459,-44.4444444444445,4,2,1,60,0,1
79608,-50,4,2,1,60,0,1
80354,-44.4444444444445,4,2,1,60,0,1
80802,-40,4,2,1,60,0,1
81250,-36.3636363636364,4,2,1,60,0,1
81698,-40,4,2,1,60,0,1
81847,-44.4444444444445,4,2,1,60,0,1
81996,-50,4,2,1,60,0,1
82743,-44.4444444444445,4,2,1,60,0,1
83190,-40,4,2,1,60,0,1
83638,-36.3636363636364,4,2,1,60,0,1
84235,-44.4444444444445,4,2,1,60,0,1
85728,-40,4,2,1,60,0,1
86922,-50,4,2,1,60,0,0
92593,-50,4,2,1,20,0,0
96772,333.333333333333,4,2,1,20,1,0
96938,342.857142857143,4,2,1,20,1,0
97109,387.096774193548,4,2,1,20,1,0
97302,413.793103448276,4,2,1,20,1,0
97508,470.588235294118,4,2,1,20,1,0
97743,585.365853658537,4,2,1,5,1,0

[Colours]
Combo1 : 0,128,255
Combo2 : 128,255,255
Combo3 : 255,255,128
Combo4 : 128,128,255

[HitObjects]
239,93,952,5,4,1:0:0:0:
170,59,1101,1,0,0:0:0:0:
96,66,1250,1,0,0:0:0:0:
35,110,1399,1,0,0:0:0:0:
77,177,1549,2,0,L|76:195,1,18.7500007152558,0|0,0:0|0:0,0:0:0:0:
151,209,1698,2,0,L|148:190,1,18.7500007152558,2|0,0:0|0:0,0:0:0:0:
217,168,1847,2,0,L|220:186,1,18.7500007152558,2|0,0:2|0:0,0:0:0:0:
244,280,1996,5,0,0:0:0:0:
313,314,2145,1,0,0:0:0:0:
387,307,2294,1,0,0:0:0:0:
448,263,2443,1,0,0:0:0:0:
325,226,2593,1,0,3:0:0:0:
331,218,2668,1,0,0:0:0:0:
341,216,2743,1,2,0:0:0:0:
350,218,2817,1,0,0:0:0:0:
350,218,2892,1,2,3:2:0:0:
357,224,2966,1,0,3:2:0:0:
342,246,3041,5,0,3:0:0:0:
356,379,3190,1,0,0:0:0:0:
387,307,3340,1,0,0:0:0:0:
313,314,3489,1,0,0:0:0:0:
238,355,3638,6,0,L|256:361,1,18.7500007152558,0|0,0:0|0:0,0:0:0:0:
464,328,3787,2,0,L|452:342,1,18.7500007152558,2|0,0:0|0:0,0:0:0:0:
356,379,3937,2,0,L|352:343,1,18.7500007152558,2|0,0:0|0:0,0:0:0:0:
89,263,4086,1,0,3:0:0:0:
19,294,4235,1,0,0:0:0:0:
135,325,4384,1,0,0:0:0:0:
111,189,4534,1,0,0:0:0:0:
89,263,4683,1,0,0:0:0:0:
43,371,4832,1,2,0:0:0:0:
56,384,4907,1,0,0:0:0:0:
74,380,4981,1,2,0:0:0:0:
66,348,5056,1,0,0:0:0:0:
66,348,5131,5,0,0:0:0:0:
199,244,5280,1,2,0:0:0:0:
8,191,5429,1,2,0:0:0:0:
140,86,5578,1,0,0:0:0:0:
295,118,5728,5,0,3:0:0:0:
301,34,5877,1,0,0:0:0:0:
218,24,6026,1,0,0:0:0:0:
212,108,6175,1,0,0:0:0:0:
295,118,6325,2,0,L|293:136,1,18.7500007152558,0|0,0:0|0:0,0:0:0:0:
301,34,6474,2,0,L|319:35,1,18.7500007152558,2|0,0:2|0:0,0:0:0:0:
218,24,6623,2,0,L|220:3,1,18.7500007152558,2|0,3:2|0:0,0:0:0:0:
212,108,6772,1,0,0:0:0:0:
290,228,6922,5,0,0:0:0:0:
400,241,7071,1,0,0:0:0:0:
409,128,7220,1,2,3:2:0:0:
295,118,7369,1,0,0:0:0:0:
295,136,7444,1,0,0:0:0:0:
313,136,7519,1,2,0:0:0:0:
313,117,7593,1,0,0:0:0:0:
295,136,7668,1,2,3:2:0:0:
313,117,7743,1,0,3:2:0:0:
303,126,7817,5,0,3:0:0:0:
191,185,7966,1,0,0:0:0:0:
198,265,8116,1,0,0:0:0:0:
119,293,8265,1,0,0:0:0:0:
108,172,8415,1,0,0:0:0:0:
26,166,8563,2,0,L|8:164,1,18.7500007152558,2|0,0:2|0:0,0:0:0:0:
24,320,8713,2,0,L|42:315,1,18.7500007152558,2|0,3:2|0:0,0:0:0:0:
44,239,8862,2,0,L|7:243,1,37.5000014305115,0|0,0:0|0:0,0:0:0:0:
119,293,9011,1,2,0:0:0:0:
198,265,9160,1,0,0:0:0:0:
191,185,9310,1,2,0:0:0:0:
314,265,9459,5,2,3:2:0:0:
353,281,9534,1,0,3:0:0:0:
393,293,9608,1,4,3:0:0:0:
432,305,9683,1,0,3:0:0:0:
471,314,9757,1,0,3:0:0:0:
502,269,9832,1,0,3:0:0:0:
511,215,9907,1,8,3:0:0:0:
486,166,9982,1,0,3:0:0:0:
404,175,10056,1,8,3:0:0:0:
321,185,10131,1,0,3:0:0:0:
231,233,10504,6,0,B|180:244|180:244|122:189|122:189|197:157|197:157|243:189,1,262.500010013581,4|0,1:2|0:0,0:0:0:0:
260,212,11101,1,4,1:2:0:0:
51,244,11250,2,0,B|31:174|31:174|74:111,1,150.000005722046,2|0,2:0|0:0,0:0:0:0:
308,290,11549,2,0,B|351:227|351:227|329:149,1,150.000005722046,2|0,1:2|0:0,0:0:0:0:
244,211,11847,1,0,0:0:0:0:
142,193,11996,1,0,0:0:0:0:
51,244,12146,1,0,0:0:0:0:
51,244,12220,1,0,0:0:0:0:
51,244,12295,1,2,3:2:0:0:
51,244,12369,1,0,3:2:0:0:
51,244,12444,1,2,3:2:0:0:
51,244,12519,1,0,3:2:0:0:
51,244,12593,5,2,3:2:0:0:
164,308,12743,1,0,0:0:0:0:
244,211,12892,6,0,B|273:180|328:195|341:229|341:229|357:228|357:228|372:227|372:227|385:266|439:280|465:247,1,262.500010013581,4|0,0:0|0:0,0:0:0:0:
464,247,13489,1,4,1:2:0:0:
241,298,13638,2,0,B|226:330|258:353|258:353|264:363|264:363|273:357|273:357|313:351|315:316,1,150.000005722046,2|0,1:2|0:0,0:0:0:0:
484,161,13937,2,0,B|498:128|466:105|466:105|460:95|460:95|451:101|451:101|411:107|409:143,1,150.000005722046,2|0,1:2|0:0,0:0:0:0:
242,211,14384,5,2,3:0:0:0:
218,95,14534,1,8,3:0:0:0:
184,71,14608,1,0,0:0:0:0:
143,76,14683,1,2,3:0:0:0:
39,205,14832,1,2,3:0:0:0:
72,229,14906,1,0,3:0:0:0:
114,223,14981,2,0,P|141:198|159:166,1,75.0000028610231,2|0,3:2|3:2,0:0:0:0:
256,307,15131,2,0,P|237:339|209:363,1,75.0000028610231,2|0,3:2|3:2,0:0:0:0:
354,298,15280,6,0,B|368:273|368:248|368:248|316:203|316:203|307:203|307:203|268:167|268:167|269:142|291:108,1,243.750009298325,4|0,1:2|0:0,0:0:0:0:
290,112,15877,1,4,1:2:0:0:
213,30,16026,2,0,P|168:10|212:31,1,150.000005722046,2|0,1:2|0:0,0:0:0:0:
396,77,16325,2,0,P|440:96|396:75,1,150.000005722046,2|0,1:2|0:0,0:0:0:0:
290,112,16623,1,0,3:0:0:0:
187,151,16772,1,2,3:2:0:0:
109,71,16922,1,2,0:0:0:0:
77,179,17071,1,2,3:3:0:0:
77,179,17146,1,0,0:0:0:0:
77,179,17220,1,2,3:2:0:0:
77,179,17295,1,0,0:0:0:0:
77,179,17369,1,2,3:2:0:0:
36,353,17668,6,0,B|71:337|65:281|65:281|102:294|102:294|108:303|108:303|111:314|111:314|155:321|155:321|151:279|188:254,1,262.500010013581,4|0,1:2|0:0,0:0:0:0:
183,258,18265,1,4,1:2:0:0:
232,314,18340,1,0,0:0:0:0:
305,325,18414,1,0,1:0:0:0:
370,287,18489,5,0,1:0:0:0:
306,248,18563,1,0,1:0:0:0:
355,192,18638,1,0,1:0:0:0:
428,181,18712,1,0,1:0:0:0:
493,219,18787,1,0,1:0:0:0:
443,274,18862,2,0,P|414:332|371:283,1,150.000005722046,4|0,1:0|0:0,0:0:0:0:
247,79,19459,2,0,P|180:142|269:183,1,225.000008583069,0|0,0:0|0:0,0:0:0:0:
323,100,19757,6,0,B|385:100|385:100|330:130,1,125,2|0,3:0|0:0,0:0:0:0:
308,119,19907,1,4,0:0:0:0:
64,52,20056,6,0,P|43:195|141:301,1,300.000011444092,0|0,1:0|3:0,0:0:0:0:
136,344,20429,2,0,P|141:322|137:287,1,43.7500004172325,0|0,3:0|0:0,0:0:0:0:
169,339,20504,2,0,P|163:319|128:299,1,50,0|0,3:0|0:0,0:0:0:0:
195,307,20578,2,0,P|175:299|133:302,1,56.2500021457673,0|0,3:0|0:0,0:0:0:0:
183,256,20653,2,0,P|159:273|138:307,1,62.5,8|0,1:2|0:0,0:0:0:0:
54,224,20802,6,0,P|26:224|0:216,1,56.2500021457673,0|0,0:0|0:0,0:0:0:0:
8,242,20877,2,0,P|29:230|53:224,1,50,2|0,0:0|0:0,0:0:0:0:
133,166,21026,6,0,P|140:146|154:128,1,43.7500004172325,2|0,0:0|0:0,0:0:0:0:
130,129,21101,2,0,P|134:147|134:165,1,37.5000014305115,0|0,0:0|0:0,0:0:0:0:
247,34,21250,2,0,B|304:33|364:44|442:119|442:119|538:54|432:-44|348:5|385:134|312:126|312:126|267:120|267:120|385:135|423:210|402:252|368:237|378:214,1,787.500030040742,4|0,1:0|3:0,0:0:0:0:
288,214,21847,2,0,B|267:247|266:272|266:272|258:276|258:276|266:280|266:280|264:310|281:346,1,150.000005722046,8|0,1:2|0:0,0:0:0:0:
371,347,21996,2,0,B|391:313|392:288|392:288|400:284|400:284|392:280|392:280|394:250|377:214,1,150.000005722046,0|0,1:0|0:0,0:0:0:0:
280,345,22146,2,2,P|177:273|288:214,1,300.000011444092,0|0,1:0|0:0,1:1:0:0:
250,277,22444,6,0,B|135:270|175:306|59:357|25:314|55:200|114:227|130:266,1,300.000011444092,4|0,1:0|3:0,0:0:0:0:
0,154,22817,2,0,L|44:176,1,43.7500004172325,0|0,3:0|0:0,0:0:0:0:
23,125,22892,2,0,L|50:166,1,50,0|0,3:0|0:0,0:0:0:0:
60,106,22966,2,0,L|63:162,1,56.2500021457673,0|0,3:0|0:0,0:0:0:0:
106,102,23041,2,0,L|77:156,1,62.5,8|0,1:2|0:0,0:0:0:0:
191,169,23190,6,0,L|243:189,1,56.2500021457673,0|0,0:0|0:0,0:0:0:0:
244,189,23265,2,0,L|235:136,1,50,2|0,0:0|0:0,0:0:0:0:
340,90,23414,6,0,L|335:46,1,43.7500004172325,2|0,0:0|0:0,0:0:0:0:
335,46,23489,2,0,L|369:63,1,37.5000014305115,0|0,3:0|0:0,0:0:0:0:
386,251,23638,2,0,B|399:271|396:298|396:298|437:259|448:227|448:227|447:217|447:217|454:211|454:211|465:181|460:121|460:121|447:144|421:153,1,300.000011444092,4|0,1:2|3:0,0:0:0:0:
283,203,24235,6,0,P|237:218|177:220,1,100,12|2,1:2|3:2,0:0:0:0:
112,287,24534,6,0,P|67:310|19:321,1,100,2|2,3:0|3:2,0:0:0:0:
91,191,24832,6,2,P|43:178|0:154,1,100,0|0,1:0|0:0,1:1:0:0:
312,138,25131,2,0,P|330:151|337:172,1,37.5000014305115,0|0,0:0|0:0,0:0:0:0:
314,129,25205,2,0,P|336:129|360:138,1,43.7500004172325,0|0,0:0|0:0,0:0:0:0:
314,114,25280,2,0,L|358:89,1,50,0|0,0:0|0:0,0:0:0:0:
308,94,25354,2,0,P|318:75|325:38,1,56.2500021457673,0|0,0:0|0:0,0:0:0:0:
295,68,25429,2,0,P|291:38|270:10,1,62.5,8|0,1:2|0:0,0:0:0:0:
166,97,25578,6,0,P|168:123|188:149,1,56.2500021457673,0|0,0:0|0:0,0:0:0:0:
196,132,25653,2,0,P|186:109|165:96,1,50,2|0,0:0|0:0,0:0:0:0:
122,256,25802,2,0,P|139:268|161:269,1,43.7500004172325,2|0,0:0|0:0,0:0:0:0:
147,280,25877,2,0,P|138:263|122:255,1,37.5000014305115,0|0,3:0|0:0,0:0:0:0:
418,211,26026,2,0,B|456:215|408:275|374:282|374:282|421:296|421:296|387:304|348:324|348:324|401:337|426:359|426:359|396:352|375:359|365:376,1,375,0|0,3:0|3:0,0:0:0:0:
253,335,26325,2,2,B|206:325|187:342|162:363|162:363|142:351|142:351|126:383|101:412|55:420|70:370|93:376,1,225.000008583069,2|0,3:3|0:0,1:1:0:0:
41,96,26623,2,2,B|56:182|56:182|62:191|62:191|59:202|59:202|76:296,1,200,12|0,1:2|0:0,1:1:0:0:
164,174,26847,2,2,B|124:155|124:155|91:184,1,87.500000834465,0|0,0:0|0:0,1:1:0:0:
209,241,26996,2,0,B|198:179|198:179|202:167|202:167|195:156|195:156|183:95,1,150.000005722046,0|0,0:0|0:0,0:0:0:0:
245,32,27220,6,0,B|348:53|337:3|479:24|479:24|420:67|413:124|413:124|357:107|295:141|295:141|330:208|385:222|385:222|348:280|381:357|381:357|464:340|484:255,1,900.000034332277,4|8,1:0|1:2,1:1:0:0:
483,257,28041,5,0,0:0:0:0:
482,257,28116,2,0,B|492:276|492:276|484:307|484:307|459:309|459:309|447:281|447:281|453:248|405:228|364:259|391:319|350:355|242:365|209:312|214:282|251:232|304:244|276:293,1,450.000017166138,0|0,1:0|1:2,0:0:0:0:
276,293,28713,1,0,1:2:0:0:
158,216,28862,1,0,0:0:0:0:
30,324,29011,2,0,B|57:301|84:303|84:303|9:234|77:127,1,225.000008583069,8|0,1:2|0:0,0:0:0:0:
81,3,29310,2,0,P|36:20|-11:27,3,75.0000028610231,0|0|0|0,0:0|0:0|1:0|1:0,0:0:0:0:
179,80,29608,6,0,B|262:45|370:45|434:84|434:84|399:79|381:85,1,300.000011444092,4|0,1:0|3:0,0:0:0:0:
377,166,29981,2,0,L|337:146,1,43.7500004172325,0|0,3:0|0:0,0:0:0:0:
353,194,30056,2,0,L|326:153,1,50,0|0,3:0|0:0,0:0:0:0:
316,213,30131,2,0,L|313:157,1,56.2500021457673,0|0,3:0|0:0,0:0:0:0:
270,217,30205,2,0,L|299:161,1,62.5,8|0,1:2|0:0,0:0:0:0:
388,26,30354,6,0,L|397:81,1,56.2500021457673,2|0,0:0|0:0,0:0:0:0:
437,51,30429,2,0,L|398:81,1,50,2|0,0:0|0:0,0:0:0:0:
489,219,30578,6,0,L|458:186,1,43.7500004172325,2|0,0:0|0:0,0:0:0:0:
450,224,30653,2,0,L|458:187,1,37.5000014305115,0|0,3:0|0:0,0:0:0:0:
270,217,30802,2,0,B|228:202|190:220|190:220|142:188|142:188|160:112|160:112|219:160|219:160|195:251|195:251|159:318|186:415|251:421|338:345|285:271|235:254|138:290|108:330,1,787.500030040742,0|0,1:0|3:0,0:0:0:0:
20,347,31399,2,0,B|20:279|20:279|14:269|14:269|20:260|20:260|20:187,1,150.000005722046,8|0,1:2|0:0,0:0:0:0:
54,140,31549,2,0,B|54:208|54:208|60:218|60:218|54:227|54:227|54:286,1,150.000005722046,0|0,1:0|0:0,0:0:0:0:
14,268,31698,2,2,B|14:126|14:126|59:109|59:109|59:218,1,300.000011444092,2|0,0:0|0:0,1:1:0:0:
158,269,31996,6,0,B|206:289|206:289|206:96|206:96|266:129,1,300.000011444092,0|0,1:0|3:0,0:0:0:0:
270,161,32369,2,0,P|264:139|245:109,1,43.7500004172325,0|0,3:0|0:0,0:0:0:0:
295,142,32444,2,0,P|280:126|240:124,1,50,0|0,3:0|0:0,0:0:0:0:
306,104,32518,2,0,P|284:105|248:126,1,56.2500021457673,0|0,3:0|0:0,0:0:0:0:
273,63,32593,2,0,P|258:88|254:128,1,62.5,8|0,1:2|0:0,0:0:0:0:
449,119,32742,6,0,P|421:119|395:111,1,56.2500021457673,2|0,0:0|0:0,0:0:0:0:
448,118,32817,2,0,P|423:123|402:136,1,50,2|0,0:0|0:0,0:0:0:0:
353,253,32966,6,0,P|370:239|390:232,1,43.7500004172325,2|0,0:0|0:0,0:0:0:0:
353,229,33041,2,0,P|371:233|389:233,1,37.5000014305115,0|0,3:0|0:0,0:0:0:0:
232,307,33190,2,0,P|228:367|275:330,1,150.000005722046,4|0,1:2|0:0,0:0:0:0:
469,356,33489,2,0,P|423:318|425:377,1,150.000005722046,0|0,3:0|3:0,0:0:0:0:
232,307,33787,6,0,L|117:326,1,100,10|2,1:2|3:2,0:0:0:0:
167,226,34086,6,0,L|52:245,1,100,2|2,3:0|3:2,0:0:0:0:
104,145,34384,6,0,L|-11:164,1,100,4|0,1:0|0:0,0:0:0:0:
148,24,34683,2,0,B|102:45|102:45|158:44,1,100,2|0,3:2|0:0,0:0:0:0:
254,105,34907,2,0,P|278:111|307:104,4,50,0|0|0|0|0,1:0|0:0|3:0|3:0|3:0,0:0:0:0:
189,160,35131,1,0,1:0:0:0:
197,188,35205,1,0,0:0:0:0:
203,218,35280,2,0,P|194:280|174:323,1,100,2|2,1:2|0:2,0:0:0:0:
372,287,35429,2,0,P|323:279|271:288,1,100,2|2,0:2|0:2,0:0:0:0:
179,313,35578,5,0,3:0:0:0:
106,334,35653,1,0,3:0:0:0:
158,384,35728,1,0,3:0:0:0:
259,376,35802,2,0,P|303:384|364:371,1,100,0|0,3:0|3:0,0:0:0:0:
440,347,36026,1,0,1:0:0:0:
385,65,36175,2,2,P|306:116|324:209,1,200,8|0,1:2|0:0,1:1:0:0:
464,168,36399,2,2,B|419:171|419:171|383:150,1,87.500000834465,0|0,0:0|1:0,1:1:0:0:
238,65,36549,2,0,P|227:170|326:208,1,225.000008583069,0|0,0:0|0:0,0:0:0:0:
429,186,36772,6,0,B|447:215|476:212|519:154|451:97|362:50|394:237|188:147|313:75|305:122,1,300,4|0,1:0|0:0,0:0:0:0:
238,65,37071,2,2,P|190:62|124:82,1,100,8|0,1:2|0:0,0:0:0:0:
193,146,37220,2,0,P|145:156|101:180,1,100,2|0,0:0|0:0,0:0:0:0:
250,238,37369,2,0,B|258:191|133:263|339:353|307:166|397:213|464:270|421:328|393:331|375:303,1,300,0|0,1:0|0:0,0:0:0:0:
374,302,37668,1,8,1:2:0:0:
143,331,37817,1,2,0:0:0:0:
261,383,37966,6,0,B|274:325|309:290|309:290|254:316|198:302|198:302|232:329|242:366,1,300,4|0,1:0|0:0,0:0:0:0:
251,383,38265,2,0,B|238:325|202:290|202:290|258:316|314:302|314:302|280:329|270:366,1,300,8|0,1:2|0:0,0:0:0:0:
257,239,38563,1,0,1:0:0:0:
244,99,38713,1,0,1:0:0:0:
187,183,38862,5,8,1:2:0:0:
257,239,38937,1,2,0:3:0:0:
314,155,39011,1,0,1:0:0:0:
244,99,39086,1,2,1:3:0:0:
148,90,39160,6,0,B|81:106|81:106|119:126,1,87.500000834465,4|0,1:0|0:0,0:0:0:0:
386,51,39310,2,0,B|402:59|402:59|335:75,1,87.500000834465,0|0,1:0|0:0,1:1:0:0:
238,15,39608,1,0,1:0:0:0:
333,201,39757,2,0,P|340:299|278:222,1,262.500002503395,8|0,1:2|0:0,0:0:0:0:
321,252,40056,1,0,1:0:0:0:
199,339,40205,6,0,B|158:274|198:184|198:184|163:188,1,175.00000166893,0|0,1:0|0:0,0:0:0:0:
396,121,40504,6,0,B|384:127|384:127|426:151|452:188,1,87.500000834465,0|0,1:0|0:0,0:0:0:0:
449,336,40653,2,0,B|442:324|442:324|419:365|395:381,1,87.500000834465,0|0,1:2|0:0,0:0:0:0:
33,264,40951,5,8,1:2:0:0:
372,352,41101,2,0,B|391:331|391:331|372:338|332:329,1,87.500000834465,2|0,3:2|0:0,0:0:0:0:
363,147,41250,2,0,B|384:166|384:166|364:162|326:175,1,87.500000834465,2|0,3:2|0:0,0:0:0:0:
260,254,41399,1,0,1:0:0:0:
289,253,41474,1,0,1:0:0:0:
318,254,41549,6,0,L|405:247,1,87.500000834465,0|0,1:0|0:0,0:0:0:0:
123,339,41698,2,0,L|211:333,1,87.500000834465,0|0,1:0|0:0,0:0:0:0:
33,264,41996,1,0,1:0:0:0:
301,106,42146,2,0,B|431:96|431:96|325:174,1,262.500002503395,8|0,1:2|0:0,0:0:0:0:
295,147,42444,1,0,1:0:0:0:
467,154,42593,6,0,P|487:75|419:30,1,175.00000166893,0|0,1:0|0:0,0:0:0:0:
249,243,42892,6,0,B|278:272|278:272|322:286,1,87.500000834465,0|0,1:0|0:0,0:0:0:0:
222,19,43041,2,0,B|201:60|201:60|201:101,1,87.500000834465,0|0,1:0|0:0,0:0:0:0:
295,147,43190,2,0,L|360:121,4,43.7500004172325,0|0|0|0|10,3:0|0:0|3:0|0:0|1:2,0:0:0:0:
96,260,43489,2,0,P|25:238|72:180,2,175.00000166893,2|2|2,3:2|0:3|3:2,0:0:0:0:
183,297,43937,6,0,P|206:335|207:378,1,87.500000834465,4|0,1:2|0:0,0:0:0:0:
115,96,44086,2,0,P|113:52|90:15,1,87.500000834465,0|0,1:0|0:0,0:0:0:0:
306,193,44384,1,0,1:0:0:0:
75,192,44533,2,0,P|-6:247|92:250,1,262.500002503395,8|0,1:2|0:0,0:0:0:0:
41,233,44832,1,0,1:0:0:0:
247,258,44981,6,0,P|257:172|223:92,1,175.00000166893,0|0,1:0|0:0,0:0:0:0:
96,101,45280,6,0,P|55:86|12:82,1,87.500000834465,0|0,1:0|0:0,0:0:0:0:
164,316,45429,2,0,P|136:349|100:374,1,87.500000834465,0|0,1:0|0:0,0:0:0:0:
304,179,45727,5,8,1:2:0:0:
489,147,45877,2,0,B|498:104|498:104|464:135,1,87.500000834465,2|0,3:2|0:0,0:0:0:0:
384,328,46026,2,0,B|351:357|351:357|361:312,1,87.500000834465,2|0,3:2|0:0,0:0:0:0:
403,217,46175,1,0,1:0:0:0:
427,231,46250,1,0,1:0:0:0:
452,245,46325,6,0,P|478:283|492:338,1,87.500000834465,0|0,1:0|0:0,0:0:0:0:
412,57,46474,2,0,P|386:95|372:150,1,87.500000834465,0|0,1:0|0:0,0:0:0:0:
287,381,46772,1,0,1:0:0:0:
72,153,46922,2,0,B|62:22|62:22|140:128,1,262.500002503395,8|0,1:2|0:0,0:0:0:0:
113,159,47220,1,0,1:0:0:0:
158,268,47369,6,0,B|149:356|149:356|89:294,1,175.00000166893,0|0,1:0|0:0,0:0:0:0:
3,211,47668,6,0,B|-20:252|-20:252|33:257,1,87.500000834465,0|0,1:0|0:0,0:0:0:0:
231,218,47817,2,0,B|254:177|254:177|201:172,1,87.500000834465,0|0,1:0|0:0,0:0:0:0:
150,354,47966,1,0,0:0:0:0:
356,349,48116,2,2,B|385:292|385:292|380:284|380:284|392:288|392:288|380:276|380:276|400:284|400:284|380:268|380:268|408:280|408:280|380:260|380:260|416:276|416:276|380:252|380:252|424:272|424:272|520:224|556:112|388:60|424:164,1,612.500005841255,8|0,1:2|0:0,1:1:0:0:
322,86,48713,6,0,B|332:72|332:72|263:89,1,87.500000834465,4|0,1:2|0:0,0:0:0:0:
280,199,48862,2,0,B|278:216|278:216|237:158,1,87.500000834465,4|0,1:2|0:0,0:0:0:0:
303,192,49160,6,0,B|307:206|307:206|237:158,1,100,4|0,1:2|0:0,0:0:0:0:
335,105,49310,2,0,B|347:96|347:96|263:88,1,100,4|0,1:2|0:0,0:0:0:0:
355,72,49608,6,0,B|361:63|361:63|263:88,1,112.500004291535,4|0,1:2|0:0,0:0:0:0:
297,231,49757,2,0,B|296:242|296:242|237:159,1,112.500004291535,4|0,1:2|0:0,0:0:0:0:
273,253,50056,6,0,B|267:265|267:265|237:157,1,125,4|0,1:2|0:0,0:0:0:0:
351,39,50205,2,0,B|354:26|354:26|262:89,1,125,4|0,1:2|0:0,0:0:0:0:
175,96,50504,5,4,1:2:0:0:
42,35,50653,2,0,L|94:68,1,62.5,0|0,3:0|0:0,0:0:0:0:
35,44,50728,2,0,L|92:67,1,62.5,2|0,3:2|0:0,0:0:0:0:
32,55,50802,2,0,L|92:68,1,62.5,2|0,3:2|0:0,0:0:0:0:
31,64,50877,2,0,L|92:66,1,62.5,0|0,0:0|0:0,0:0:0:0:
32,75,50951,2,0,L|93:66,1,62.5,2|0,3:2|0:0,0:0:0:0:
71,183,51101,6,0,P|100:214|143:220,1,87.500000834465,4|0,1:2|0:0,0:0:0:0:
242,336,51250,2,0,P|208:310|198:268,1,87.500000834465,4|0,1:2|0:0,0:0:0:0:
266,327,51549,6,0,P|221:311|197:266,1,100,4|0,1:2|0:0,0:0:0:0:
75,158,51698,2,0,P|94:200|141:220,1,100,4|0,1:2|0:0,0:0:0:0:
52,166,51996,6,0,P|89:209|143:220,1,112.500004291535,4|0,1:2|0:0,0:0:0:0:
268,347,52146,2,0,P|219:317|198:266,1,112.500004291535,4|0,1:2|0:0,0:0:0:0:
242,379,52444,6,0,P|204:329|199:268,1,125,4|0,1:2|0:0,0:0:0:0:
25,197,52593,2,0,P|80:224|141:219,1,125,4|0,1:2|0:0,0:0:0:0:
242,207,52743,5,0,0:0:0:0:
267,197,52818,1,0,3:0:0:0:
282,176,52893,1,2,1:2:0:0:
284,149,52967,1,0,0:0:0:0:
268,129,53042,1,2,3:2:0:0:
244,119,53117,1,0,0:0:0:0:
217,127,53191,1,2,3:2:0:0:
203,146,53266,1,0,0:0:0:0:
201,174,53340,1,2,3:2:0:0:
403,319,53489,6,0,B|405:271|405:271|383:236,1,87.500000834465,4|0,1:2|0:0,0:0:0:0:
449,94,53638,2,0,B|431:135|431:135|398:158,1,87.500000834465,4|0,1:2|0:0,0:0:0:0:
480,110,53937,6,0,B|445:147|445:147|397:160,1,100,4|0,1:2|0:0,0:0:0:0:
437,314,54086,2,0,B|420:264|420:264|383:233,1,100,4|0,1:2|0:0,0:0:0:0:
408,340,54384,6,0,B|410:278|410:278|381:227,1,112.500004291535,4|0,1:2|0:0,0:0:0:0:
458,68,54534,2,0,B|439:126|439:126|394:164,1,112.500004291535,4|0,1:2|0:0,0:0:0:0:
424,41,54832,6,0,B|426:114|426:114|400:159,1,125,4|0,1:2|0:0,0:0:0:0:
367,353,54981,2,0,B|394:285|394:285|385:234,1,125,4|0,1:2|0:0,0:0:0:0:
219,229,55280,6,0,B|209:268|209:301|209:301|144:332|144:332|130:265|159:183|159:183|165:161|217:141|297:148|297:148|233:109|211:29|211:29|188:105|164:161|63:169|-13:136|12:68|54:96|56:118,1,875,4|0,1:0|0:0,0:0:0:0:
52,272,55877,6,0,B|30:275|30:275|59:232|60:177,1,125,4|0,1:2|0:0,0:0:0:0:
10,20,56026,2,0,B|-10:24|-10:24|30:54|50:106,1,125,4|0,1:2|0:0,0:0:0:0:
42,26,56325,6,0,B|20:23|20:23|49:66|50:109,1,112.500004291535,4|0,1:2|0:0,0:0:0:0:
82,258,56474,2,0,B|63:268|63:268|75:218|61:178,1,112.500004291535,4|0,1:2|0:0,0:0:0:0:
102,236,56772,6,0,B|87:252|87:252|81:200|47:157,1,100,4|0,1:2|0:0,0:0:0:0:
67,40,56922,2,0,B|48:29|48:29|60:79|42:132,1,100,4|0,1:2|0:0,0:0:0:0:
229,66,57220,6,0,P|171:93|122:133,1,87.500000834465,0|0,1:0|0:0,0:0:0:0:
247,150,57369,2,0,P|184:150|122:133,1,87.500000834465,4|0,1:2|0:0,0:0:0:0:
10,20,57668,1,0,1:0:0:0:
52,272,57817,1,2,1:2:0:0:
2,151,57966,1,2,1:2:0:0:
83,144,58041,1,0,1:0:0:0:
159,168,58116,1,2,1:2:0:0:
251,172,58190,1,0,1:0:0:0:
281,151,58265,6,0,B|332:140|332:140|390:195|390:195|315:227|315:227|269:195,1,262.500010013581,0|0,1:0|0:0,0:0:0:0:
252,172,58862,1,4,1:2:0:0:
461,140,59011,2,0,B|481:210|481:210|438:273,1,150.000005722046,2|0,1:2|0:0,0:0:0:0:
204,94,59310,2,0,B|161:157|161:157|183:235,1,150.000005722046,2|0,1:2|0:0,0:0:0:0:
268,173,59608,1,0,0:0:0:0:
370,191,59757,1,0,0:0:0:0:
461,140,59907,1,0,0:0:0:0:
461,140,59981,1,0,0:0:0:0:
461,140,60056,1,0,0:0:0:0:
461,140,60131,1,0,0:0:0:0:
461,140,60205,1,2,3:2:0:0:
461,140,60355,5,2,3:2:0:0:
348,76,60504,1,0,0:0:0:0:
268,173,60653,6,0,B|239:204|184:189|171:155|171:155|155:156|155:156|140:157|140:157|127:118|73:104|47:137,1,262.500010013581,4|0,1:2|0:0,0:0:0:0:
48,137,61250,1,4,1:2:0:0:
271,86,61399,2,0,B|286:54|254:31|254:31|248:21|248:21|239:27|239:27|199:33|197:68,1,150.000005722046,0|0,1:0|0:0,0:0:0:0:
28,223,61698,2,0,B|14:256|46:279|46:279|52:289|52:289|61:283|61:283|101:277|103:241,1,150.000005722046,2|0,1:2|0:0,0:0:0:0:
270,173,62145,5,0,3:0:0:0:
294,289,62295,1,0,3:0:0:0:
328,313,62369,1,0,3:0:0:0:
369,308,62444,1,4,3:0:0:0:
473,179,62593,1,0,3:0:0:0:
440,155,62667,1,0,0:0:0:0:
398,161,62742,2,0,P|371:186|353:218,1,75.0000028610231,8|0,3:0|3:0,0:0:0:0:
256,77,62892,2,0,P|275:45|303:21,1,75.0000028610231,2|0,3:0|3:0,0:0:0:0:
158,86,63041,6,0,B|144:111|144:136|144:136|196:181|196:181|205:181|205:181|244:217|244:217|243:242|221:276,1,243.750009298325,4|0,1:2|0:0,0:0:0:0:
222,272,63638,1,4,1:2:0:0:
299,354,63787,2,0,P|344:374|300:353,1,150.000005722046,0|0,1:0|0:0,0:0:0:0:
116,307,64086,2,0,P|72:288|116:309,1,150.000005722046,2|0,1:2|0:0,0:0:0:0:
222,272,64384,1,0,3:0:0:0:
325,233,64533,1,2,3:2:0:0:
403,313,64683,1,2,3:2:0:0:
432,205,64832,1,0,3:0:0:0:
432,205,64907,1,0,0:0:0:0:
432,205,64981,1,0,3:0:0:0:
432,205,65056,1,0,0:0:0:0:
432,205,65130,1,2,3:2:0:0:
476,31,65429,6,0,B|441:47|447:103|447:103|410:90|410:90|404:81|404:81|401:70|401:70|357:63|357:63|361:105|324:130,1,262.500010013581,4|0,1:2|0:0,0:0:0:0:
329,126,66026,1,0,1:2:0:0:
280,70,66101,1,0,0:0:0:0:
207,59,66175,1,0,1:0:0:0:
142,97,66250,5,0,0:0:0:0:
206,136,66324,1,0,1:0:0:0:
157,192,66399,1,0,0:0:0:0:
84,203,66473,1,0,1:0:0:0:
19,165,66548,1,0,0:0:0:0:
69,110,66623,2,0,P|98:52|141:101,1,150.000005722046,4|0,1:0|0:0,0:0:0:0:
25,289,67220,6,0,P|131:315|229:265,1,225.000008583069,0|0,0:0|0:0,0:0:0:0:
357,243,67519,2,0,B|327:205|327:205|354:267|336:328,1,175.00000166893,2|2,3:0|1:3,0:0:0:0:
222,158,67817,5,4,1:0:0:0:
420,337,67966,2,0,B|467:330|510:357|510:357|469:327|446:252,1,200,2|8,0:0|1:1,0:0:0:0:
222,226,68265,5,2,0:0:0:0:
419,47,68414,2,0,B|476:55|527:22|527:22|478:58|450:149,1,225.000008583069,0|0,1:0|0:0,0:0:0:0:
289,158,68713,5,8,1:0:0:0:
93,47,68862,2,0,B|30:55|-26:20|-26:20|27:59|58:159,1,250,2|0,0:0|1:0,0:0:0:0:
289,225,69160,5,2,0:0:0:0:
93,337,69310,2,0,B|30:328|-26:363|-26:363|27:324|58:224,1,275.000002622604,8|0,1:0|0:0,0:0:0:0:
239,75,69608,6,0,B|272:50|272:50|256:103|263:146,1,137.500001311302,0|0,1:0|0:0,0:0:0:0:
270,294,69757,6,0,B|237:317|237:317|252:280|247:221,1,125,2|0,0:0|0:0,0:0:0:0:
372,178,69907,6,0,B|396:211|396:211|356:196|313:199,1,125,8|0,1:0|0:0,0:0:0:0:
163,204,70056,6,0,B|139:171|139:171|169:184|197:184,1,100,0|0,0:0|0:0,0:0:0:0:
256,193,70205,5,0,1:0:0:0:
468,278,70354,2,0,P|510:191|464:101,1,200,2|8,0:0|1:0,0:0:0:0:
256,193,70653,5,2,0:0:0:0:
50,90,70802,2,0,P|1:188|49:286,1,225.000008583069,0|0,1:0|0:0,0:0:0:0:
256,193,71101,5,8,1:0:0:0:
366,49,71250,2,0,P|255:1|145:52,1,250,2|0,0:0|1:0,0:0:0:0:
256,193,71549,5,2,0:0:0:0:
133,332,71698,2,0,P|258:382|383:332,1,275.000002622604,8|0,1:0|0:0,0:0:0:0:
310,270,71996,6,0,P|255:305|201:270,1,137.500001311302,0|0,1:0|0:0,0:0:0:0:
204,107,72146,6,0,P|256:78|307:109,1,125,2|0,0:0|0:0,0:0:0:0:
130,236,72295,6,0,P|104:188|130:141,1,112.500004291535,8|0,1:0|0:0,0:0:0:0:
387,144,72444,6,0,P|408:191|385:231,1,100,2|0,0:0|0:0,0:0:0:0:
187,189,72593,5,4,1:0:0:0:
444,322,72743,2,0,B|485:359|485:359|373:340|373:340|408:373,1,200,2|8,0:0|1:0,0:0:0:0:
325,189,73041,5,2,0:0:0:0:
66,318,73190,2,0,B|19:355|19:355|145:336|145:336|106:369,1,225.000008583069,0|0,1:0|0:0,0:0:0:0:
325,195,73489,5,8,1:0:0:0:
66,66,73638,2,0,B|12:29|12:29|156:48|156:48|111:15,1,250,2|0,0:0|1:0,0:0:0:0:
187,195,73937,5,2,0:0:0:0:
473,66,74086,2,0,B|534:29|534:29|370:48|370:48|421:15,1,275.000002622604,8|0,1:0|0:0,0:0:0:0:
512,161,74384,1,0,1:0:0:0:
239,96,74534,2,0,B|256:29|256:29|273:99,2,137.500001311302,2|0|8,3:2|0:0|1:0,0:0:0:0:
0,161,74832,1,2,1:2:0:0:
256,242,74981,6,0,P|321:175|273:96,1,200,4|0,1:2|0:0,0:0:0:0:
239,96,75205,2,0,P|191:175|256:242,1,200,2|0,3:3|0:0,0:0:0:0:
256,175,75429,1,2,3:3:0:0:
256,308,75578,6,0,P|355:261|391:157,1,225.000008583069,0|0,1:0|0:0,0:0:0:0:
120,158,75802,2,0,P|156:261|255:308,1,225.000008583069,2|0,3:0|0:0,0:0:0:0:
256,242,76026,1,2,3:0:0:0:
256,242,76175,6,0,P|198:205|200:130,1,112.500004291535,4|0,1:0|0:0,0:0:0:0:
323,165,76325,2,0,P|305:217|256:242,1,112.500004291535,0|0,1:0|0:0,0:0:0:0:
255,88,76474,2,0,P|304:113|323:165,1,112.500004291535,8|0,1:0|1:0,0:0:0:0:
188,165,76624,2,0,P|206:113|255:89,1,112.500004291535,0|0,1:0|0:0,0:0:0:0:
214,202,76922,6,0,P|256:224|299:203,1,100,0|0,1:0|0:0,0:0:0:0:
306,189,77071,2,0,P|303:140|262:115,1,100,8|0,1:0|0:0,0:0:0:0:
249,115,77220,2,0,P|208:140|206:189,1,100,0|0,1:0|0:0,0:0:0:0:
367,227,77369,2,0,B|349:251|340:289|340:289|321:259|304:307|304:307|281:267|259:326|259:326|237:267|216:307|216:307|188:259|177:289|177:289|163:251|141:225,1,400,4|12,1:0|1:0,0:0:0:0:
32,69,77817,5,2,0:0:0:0:
135,32,77966,2,0,B|169:69|218:87|218:87|165:103|109:147,1,225.000008583069,0|0,1:0|0:0,0:0:0:0:
32,69,78265,5,8,1:0:0:0:
238,43,78414,2,0,B|265:73|323:94|323:94|260:114|193:167,1,250,2|0,0:0|1:0,0:0:0:0:
32,69,78713,5,2,0:0:0:0:
359,49,78862,2,0,B|372:67|442:93|442:93|366:116|286:180,1,275.000002622604,8|0,1:0|0:0,0:0:0:0:
411,222,79160,6,0,B|449:297|408:294|448:359,1,137.500001311302,0|0,1:0|0:0,0:0:0:0:
356,359,79310,6,0,B|322:294|363:300|326:239,1,125,2|0,1:2|0:0,0:0:0:0:
240,264,79459,6,0,B|273:320|234:313|266:372,1,112.500004291535,8|0,1:0|0:0,0:0:0:0:
160,372,79608,2,0,P|123:344|142:302,1,100,0|0,3:0|0:0,0:0:0:0:
31,371,79757,5,0,1:0:0:0:
133,182,79907,2,0,B|165:171|165:171|142:303|142:303|188:288,1,200,2|8,0:0|1:0,0:0:0:0:
160,372,80205,5,2,0:0:0:0:
260,170,80354,2,0,B|309:165|309:165|255:297|255:297|301:293,1,225.000008583069,0|0,1:0|0:0,0:0:0:0:
265,371,80653,5,8,1:0:0:0:
422,165,80802,2,0,B|466:168|466:168|381:302|381:302|428:305,1,250,2|0,0:0|1:0,0:0:0:0:
381,379,81101,5,2,0:0:0:0:
172,292,81250,2,0,P|248:198|285:304,1,275.000002622604,8|0,1:0|0:0,0:0:0:0:
58,143,81549,6,0,B|52:104|9:71|9:71|47:83|70:79,1,137.500001311302,0|0,1:0|0:0,0:0:0:0:
138,63,81698,6,0,B|161:95|158:142|158:142|167:122|182:109,1,125,2|0,1:2|0:0,0:0:0:0:
242,46,81847,6,0,B|228:31|208:22|208:22|255:25|287:2,1,125,8|0,1:0|0:0,0:0:0:0:
272,124,81996,2,0,P|321:133|370:125,1,100,0|0,3:0|0:0,0:0:0:0:
343,55,82146,5,4,1:2:0:0:
476,137,82295,2,0,B|486:150|486:150|489:109|489:109|445:176|392:199|392:199|412:183,1,200,2|8,0:0|1:0,0:0:0:0:
370,125,82593,5,2,0:0:0:0:
474,247,82743,2,0,B|484:264|484:264|489:226|489:226|434:285|362:303|362:303|388:289,1,225.000008583069,0|0,1:0|0:0,0:0:0:0:
399,194,83041,5,8,1:0:0:0:
504,340,83190,2,0,B|512:363|512:363|520:323|520:323|442:378|359:383|359:383|371:379,1,250,2|0,0:0|1:0,0:0:0:0:
321,187,83489,5,2,0:0:0:0:
176,259,83638,2,0,B|122:319|49:314|49:314|110:338|138:383|138:383|134:366,1,275.000002622604,8|0,1:0|0:0,0:0:0:0:
10,170,83937,1,0,1:0:0:0:
37,160,84011,1,0,0:0:0:0:
65,157,84086,2,0,P|113:190|66:225,2,137.500001311302,2|0|8,1:2|0:0|1:0,0:0:0:0:
8,40,84384,1,0,1:0:0:0:
324,54,84534,6,0,B|360:47|360:47|381:61|366:82|366:82|255:101|255:101|244:124|265:148,1,225.000008583069,4|0,1:0|0:0,0:0:0:0:
188,55,84757,2,2,B|151:48|151:48|130:62|145:83|145:83|256:102|256:102|267:125|246:149,1,225.000008583069,2|0,0:2|0:0,1:1:0:0:
256,34,84981,1,2,0:0:0:0:
360,152,85131,6,2,B|383:180|383:180|382:205|356:202|356:202|284:116|284:116|258:118|248:148,1,225.000008583069,0|0,1:0|0:0,1:1:0:0:
150,152,85354,2,2,B|126:180|126:180|127:205|153:202|153:202|225:116|225:116|251:118|261:148,1,225.000008583069,2|0,0:2|1:0,1:1:0:0:
256,207,85578,1,2,3:0:0:0:
256,229,85653,1,0,1:0:0:0:
256,309,85728,6,0,B|251:305|251:305|274:301|326:305|331:342|403:345|435:322|435:322|410:299|388:299,1,250,0|0,1:0|1:0,0:0:0:0:
123,299,85951,2,2,B|101:298|76:321|76:321|108:344|180:342|185:305|237:301|260:305|260:305|255:308,1,250,0|0,1:0|0:0,1:1:0:0:
256,378,86175,1,2,1:0:0:0:
307,231,86325,2,2,B|315:169|255:123|255:123|198:169|206:233,1,250,4|0,1:2|0:0,1:1:0:0:
205,230,86549,1,0,1:0:0:0:
257,235,86623,1,2,1:0:0:0:
307,231,86698,1,0,1:0:0:0:
281,188,86772,1,0,1:0:0:0:
230,188,86847,1,0,1:0:0:0:
256,158,86922,6,0,L|256:76,1,50,4|0,1:2|0:0,0:0:0:0:
371,143,87071,2,0,L|356:62,1,50,0|0,1:0|0:0,0:0:0:0:
482,114,87369,6,0,L|453:36,1,50,0|0,1:0|0:0,0:0:0:0:
256,108,87519,5,8,1:0:0:0:
141,143,87668,2,0,L|155:62,1,50,0|0,1:0|0:0,0:0:0:0:
30,114,87817,2,0,L|58:36,1,50,0|0,1:0|0:0,0:0:0:0:
324,241,88116,6,0,L|333:291,1,50,0|0,1:0|0:0,0:0:0:0:
187,241,88414,6,0,L|179:291,1,50,0|0,1:0|0:0,0:0:0:0:
60,227,88563,2,0,L|42:273,1,50,0|0,1:0|0:0,0:0:0:0:
333,291,88713,5,8,1:0:0:0:
452,227,88862,2,0,L|469:273,1,50,0|0,1:0|0:0,0:0:0:0:
256,384,89160,6,0,L|256:334,1,50,0|0,1:0|0:0,0:0:0:0:
256,220,89310,2,0,L|256:170,1,50,0|0,1:0|0:0,0:0:0:0:
256,334,89571,2,0,L|256:384,1,50,0|0,0:0|1:0,0:0:0:0:
54,311,89907,6,0,L|79:267,1,50,8|0,1:0|0:0,0:0:0:0:
136,168,90057,2,0,L|161:124,1,50,0|0,1:0|0:0,0:0:0:0:
79,267,90318,2,0,L|53:310,1,50,0|4,0:0|1:2,0:0:0:0:
458,311,90653,6,0,L|433:267,1,50,0|0,1:0|0:0,0:0:0:0:
376,168,90803,2,0,L|351:124,1,50,4|0,1:2|0:0,0:0:0:0:
433,267,91064,2,0,L|458:310,1,50,0|4,0:0|1:2,0:0:0:0:
161,124,91399,6,0,L|136:168,1,50,4|0,1:2|0:0,0:0:0:0:
256,170,91549,2,0,L|256:220,1,50,4|0,1:2|0:0,0:0:0:0:
256,57,91698,5,8,1:0:0:0:
90,49,91847,2,0,L|41:47,1,50,4|0,1:2|0:0,0:0:0:0:
256,57,91996,5,8,1:0:0:0:
422,49,92146,2,0,L|471:47,1,50,4|0,1:2|0:0,0:0:0:0:
256,330,92295,6,0,L|256:380,1,50,4|0,1:2|0:0,0:0:0:0:
160,167,92593,6,0,B|256:192|256:192|353:166,1,200,2|2,3:2|3:2,0:0:0:0:
400,384,92892,5,4,0:1:0:0:
496,353,93041,1,0,0:0:0:0:
496,253,93190,1,0,0:0:0:0:
400,222,93340,1,0,0:0:0:0:
342,303,93489,5,0,0:0:0:0:
427,303,93638,1,2,0:0:0:0:
305,215,93787,1,2,3:2:0:0:
173,179,93937,5,0,0:0:0:0:
77,148,94086,1,0,0:0:0:0:
77,48,94235,1,2,0:0:0:0:
173,17,94385,1,2,0:0:0:0:
146,98,94534,5,0,3:0:0:0:
146,98,94608,1,0,3:0:0:0:
146,98,94683,1,2,3:2:0:0:
146,98,94757,1,0,0:2:0:0:
146,98,94832,1,2,0:2:0:0:
146,98,94907,1,0,2:2:0:0:
146,98,94981,5,0,0:0:0:0:
230,94,95131,1,0,0:0:0:0:
237,177,95280,1,0,0:0:0:0:
310,87,95430,1,0,0:0:0:0:
222,12,95579,5,0,0:0:0:0:
230,94,95728,1,2,0:0:0:0:
237,177,95877,1,2,3:2:0:0:
290,366,96026,5,0,0:0:0:0:
294,282,96176,1,0,0:0:0:0:
211,275,96325,1,2,0:0:0:0:
301,202,96475,1,2,0:0:0:0:
376,290,96624,5,0,0:0:0:0:
294,282,96772,2,0,L|239:277,1,50,2|0,0:2|0:0,0:0:0:0:
211,275,96938,2,0,L|161:270,1,50,0|0,0:2|0:0,0:0:0:0:
72,275,97109,5,2,0:2:0:0:
61,300,97302,5,2,0:2:0:0:
59,316,97508,5,2,0:2:0:0:
59,316,97743,5,2,0:2:0:0:
