osu file format v14

[General]
AudioFilename: audio.mp3
AudioLeadIn: 0
PreviewTime: 76036
Countdown: 0
SampleSet: Soft
StackLeniency: 0.1
Mode: 0
LetterboxInBreaks: 0
WidescreenStoryboard: 0

[Editor]
Bookmarks: 480,9984,28994,38499,57509,67014,76519,95826,114539,124044,133772,145430,148994,154935,173945,185826,192955,211965,230975,240480,278499,295133,304861,314366,326024,349341
DistanceSpacing: 0.8
BeatDivisor: 4
GridSize: 16
TimelineZoom: 4.199999

[Metadata]
Title:Burning Aquamarine
TitleUnicode:Burning Aquamarine
Artist:Camellia
ArtistUnicode:かめりあ
Creator:too
Version:Burn it
Source:
Tags:English Electronic instrumental bass hardcore techno cametek youtube 200k subscribers music rhythm game tokyo
BeatmapID:3331635
BeatmapSetID:1632153

[Difficulty]
HPDrainRate:3
CircleSize:4
OverallDifficulty:9.3
ApproachRate:9.7
SliderMultiplier:2
SliderTickRate:1

[Events]
//Background and Video events
0,0,"bg.jpg",0,0
//Break Periods
2,145630,148469
2,193155,206717
//Storyboard Layer 0 (Background)
//Storyboard Layer 1 (Fail)
//Storyboard Layer 2 (Pass)
//Storyboard Layer 3 (Foreground)
//Storyboard Layer 4 (Overlay)
//Storyboard Sound Samples

[TimingPoints]
480,297.029702970297,4,2,1,40,1,0
9390,-200,4,2,1,40,0,0
9910,-200,4,2,1,5,0,0
9984,-200,4,2,1,40,0,0
11767,-500,4,2,1,40,0,0
12286,-500,4,2,1,5,0,0
12361,-200,4,2,1,40,0,0
14737,-250,4,2,1,40,0,0
15331,-333.333333333333,4,2,1,40,0,0
18895,-133.333333333333,4,2,1,40,0,0
19489,-500,4,2,11,40,0,0
19564,-500,4,2,1,40,0,0
21866,-200,4,2,1,40,0,0
24242,-500,4,2,11,40,0,0
24316,-500,4,2,1,40,0,0
28994,-200,4,2,2,60,0,0
36123,-100,4,2,1,70,0,0
37608,-50,4,2,0,100,0,0
37905,-100,4,2,12,100,0,0
38499,-40,4,2,1,100,0,0
38759,-40,4,2,1,5,0,0
38796,-200,4,2,1,100,0,0
38945,-55.5555555555556,4,2,1,100,0,0
39390,-55.5555555555556,4,2,1,5,0,0
39465,-200,4,2,1,80,0,0
39836,-200,4,2,2,80,0,0
40133,-200,4,2,1,80,0,0
40430,-50,4,2,1,100,0,0
40876,-133.333333333333,4,2,1,60,0,0
42212,-66.6666666666667,4,2,13,100,0,0
42361,-50,4,2,1,100,0,0
44291,-133.333333333333,4,2,1,100,0,0
44440,-100,4,2,14,80,0,0
45108,-50,4,2,14,80,0,0
45257,-100,4,2,1,80,0,0
45331,-50,4,2,1,80,0,0
45628,-133.333333333333,4,2,15,70,0,0
46074,-100,4,2,15,80,0,0
46519,-80,4,2,15,90,0,0
46965,-50,4,2,1,100,0,0
47707,-333.333333333333,4,2,1,60,0,0
48004,-50,4,2,1,100,0,0
48264,-50,4,2,1,5,0,0
48301,-200,4,2,1,100,0,0
48450,-50,4,2,1,100,0,0
48895,-50,4,2,1,5,0,0
48970,-200,4,2,1,80,0,0
49341,-200,4,2,2,80,0,0
49638,-200,4,2,1,80,0,0
49935,-50,4,2,1,100,0,0
50380,-133.333333333333,4,2,1,80,0,0
51717,-66.6666666666667,4,2,13,100,0,0
51866,-50,4,2,1,100,0,0
52757,-133.333333333333,4,2,1,100,0,0
53202,-40,4,2,1,100,0,0
53871,-40,4,2,16,60,0,0
53945,-200,4,2,16,60,0,0
54242,-50,4,2,1,100,0,0
56767,-50,4,2,1,60,0,0
56915,-40,4,2,1,60,0,0
57361,-133.333333333333,4,2,1,60,0,0
57509,-133.333333333333,4,2,1,60,0,0
59588,-200,4,2,1,60,0,0
59737,-100,4,2,1,60,0,0
61965,-333.333333333333,4,2,1,60,0,0
64341,-200,4,2,1,60,0,0
64489,-100,4,2,1,60,0,0
64935,-83.3333333333333,4,2,1,60,0,0
65232,-100,4,2,1,60,0,0
65529,-66.6666666666667,4,2,1,60,0,0
66123,-50,4,2,1,60,0,0
66940,-50,4,2,1,5,0,0
67014,-133.333333333333,4,2,1,70,0,0
67608,-117.647058823529,4,2,1,70,0,0
68202,-105.263157894737,4,2,1,70,0,0
68796,-95.2380952380952,4,2,1,70,0,0
69390,-86.9565217391305,4,2,1,70,0,0
69984,-80,4,2,1,70,0,0
70579,-74.0740740740741,4,2,1,70,0,0
71321,-200,4,2,1,70,0,0
71767,-50,4,2,1,60,0,0
72361,-50,4,2,1,70,0,0
72955,-50,4,2,1,80,0,0
73549,-50,4,2,1,90,0,0
74291,-50,4,2,1,20,0,0
74440,-50,4,2,1,30,0,0
74588,-50,4,2,1,40,0,0
74737,-50,4,2,1,50,0,0
74885,-50,4,2,1,60,0,0
75034,-50,4,2,1,70,0,0
75182,-50,4,2,1,80,0,0
75331,-100,4,2,1,80,0,0
75777,-100,4,2,2,80,0,0
76074,-50,4,2,2,80,0,0
76222,-66.6666666666667,4,2,2,80,0,0
76519,-35.7142857142857,4,2,3,100,0,1
77113,-50,4,2,3,100,0,1
78895,-50,4,2,3,100,0,1
79192,-55.5555555555556,4,2,3,100,0,1
79489,-62.5,4,2,3,95,0,1
79786,-71.4285714285714,4,2,3,90,0,1
80083,-83.3333333333333,4,2,3,85,0,1
80380,-100,4,2,3,80,0,1
80975,-100,4,2,3,100,0,1
81272,-100,4,2,3,100,0,0
81866,-50,4,2,3,100,0,1
83648,-50,4,2,3,100,0,1
83945,-55.5555555555556,4,2,3,95,0,1
84242,-62.5,4,2,3,90,0,1
84539,-71.4285714285714,4,2,3,85,0,1
84836,-83.3333333333333,4,2,3,80,0,1
85133,-83.3333333333333,4,2,3,70,0,0
86024,-50,4,2,3,100,0,1
88400,-33.3333333333333,4,2,3,100,0,1
89588,-25,4,2,3,100,0,1
89663,-100,4,2,3,100,0,1
89811,-25,4,2,3,100,0,1
89885,-100,4,2,3,100,0,1
90034,-25,4,2,3,100,0,1
90108,-100,4,2,3,100,0,1
90257,-25,4,2,3,100,0,1
90331,-100,4,2,3,100,0,1
90480,-16.6666666666667,4,2,3,100,0,0
90777,-50,4,2,3,100,0,1
91668,-133.333333333333,4,2,3,100,0,1
93153,-200,4,2,3,100,0,1
93252,-33.3333333333333,4,2,3,100,0,1
93351,-200,4,2,3,100,0,1
93450,-38.4615384615384,4,2,3,100,0,1
93549,-200,4,2,3,100,0,1
93648,-45.4545454545454,4,2,3,100,0,1
93747,-200,4,2,3,100,0,1
93846,-55.5555555555555,4,2,3,100,0,1
93945,-200,4,2,3,100,0,1
94044,-71.4285714285713,4,2,3,100,0,1
94341,-500,4,2,3,100,0,1
94638,-500,4,2,3,100,0,1
94935,-500,4,2,1,100,0,0
95752,-500,4,2,1,5,0,0
95826,-50,4,2,3,80,0,1
95900,-50,4,2,3,80,0,0
97311,-200,4,2,3,80,0,0
97905,-50,4,2,3,80,0,0
101173,-40,4,2,3,80,0,0
101470,-100,4,2,3,80,0,0
101618,-50,4,2,3,80,0,0
102064,-100,4,2,3,80,0,0
102212,-44.4444444444445,4,2,3,80,0,0
102658,-100,4,2,3,80,0,0
102806,-50,4,2,3,80,0,0
103252,-100,4,2,3,80,0,0
103400,-44.4444444444445,4,2,3,80,0,0
103549,-44.4444444444445,4,2,17,80,0,0
103846,-50,4,2,3,80,0,0
103920,-50,4,2,3,5,0,0
103994,-50,4,2,3,80,0,0
104069,-50,4,2,3,5,0,0
104143,-50,4,2,3,80,0,0
104366,-50,4,2,3,5,0,0
104440,-50,4,2,3,80,0,0
104663,-50,4,2,3,5,0,0
104737,-100,4,2,3,80,0,0
104885,-100,4,2,18,80,0,0
105034,-50,4,2,3,80,0,0
106816,-200,4,2,3,80,0,0
107410,-50,4,2,3,80,0,0
109786,-50,4,2,3,80,0,0
110678,-40,4,2,3,80,0,0
110975,-50,4,2,3,80,0,0
112163,-33.3333333333333,4,2,3,80,0,1
112608,-200,4,2,3,80,0,0
112757,-28.5714285714286,4,2,3,80,0,1
113202,-200,4,2,3,80,0,0
113351,-26.3157894736842,4,2,3,80,0,1
113796,-200,4,2,3,80,0,0
113945,-500,4,2,1,60,0,0
114242,-100,4,2,1,70,0,0
114390,-100,4,2,1,80,0,0
114539,-66.6666666666667,4,2,11,80,0,1
114613,-66.6666666666667,4,2,3,80,0,0
114836,-71.4285714285715,4,2,3,80,0,0
115133,-76.923076923077,4,2,3,80,0,0
115430,-83.3333333333334,4,2,3,80,0,0
115727,-90.909090909091,4,2,3,80,0,0
116024,-100,4,2,3,80,0,0
116321,-133.333333333333,4,2,1,80,0,0
116618,-25,4,2,1,80,0,0
116767,-200,4,2,1,80,0,0
116915,-66.6666666666667,4,2,11,80,0,0
116989,-66.6666666666667,4,2,3,80,0,0
117212,-71.4285714285715,4,2,3,80,0,0
117509,-76.923076923077,4,2,3,80,0,0
117806,-83.3333333333334,4,2,3,80,0,0
118252,-83.3333333333334,4,2,19,80,0,0
118697,-100,4,2,3,80,0,0
119291,-66.6666666666667,4,2,11,80,0,0
119366,-66.6666666666667,4,2,3,80,0,0
121074,-133.333333333333,4,2,1,80,0,0
121371,-25,4,2,1,80,0,0
121519,-200,4,2,1,80,0,0
121668,-66.6666666666667,4,2,11,80,0,0
121742,-66.6666666666667,4,2,3,80,0,0
123598,-50,4,2,3,80,0,0
123747,-66.6666666666667,4,2,3,80,0,0
124044,-100,4,2,11,70,0,0
124341,-100,4,2,3,70,0,0
125232,-111.111111111111,4,2,11,60,0,0
125529,-111.111111111111,4,2,3,60,0,0
126420,-125,4,2,11,50,0,0
126717,-125,4,2,3,50,0,0
127608,-142.857142857143,4,2,11,40,0,0
127905,-142.857142857143,4,2,3,40,0,0
128796,-166.666666666666,4,2,3,50,0,0
129390,-142.857142857142,4,2,3,60,0,0
129984,-125,4,2,3,70,0,0
130579,-111.111111111111,4,2,3,80,0,0
131173,-66.6666666666667,4,2,3,90,0,0
132361,-133.333333333333,4,2,1,60,0,0
133549,-250,4,2,1,80,0,0
133772,-50,4,2,4,100,0,1
133994,-43.4782608695652,4,2,4,100,0,1
134217,-38.4615384615385,4,2,4,100,0,1
134440,-34.4827586206897,4,2,4,100,0,1
134663,-31.25,4,2,4,100,0,1
134885,-28.5714285714286,4,2,4,100,0,1
135108,-26.3157894736842,4,2,4,100,0,1
135331,-200,4,2,1,80,0,0
135628,-40,4,2,1,80,0,0
136148,-50,4,2,4,100,0,1
136371,-43.4782608695652,4,2,4,100,0,1
136593,-38.4615384615385,4,2,4,100,0,1
136816,-34.4827586206897,4,2,4,100,0,1
137039,-31.25,4,2,4,100,0,1
137262,-28.5714285714286,4,2,4,100,0,1
137484,-26.3157894736842,4,2,4,100,0,1
137707,-26.3157894736842,4,2,15,80,0,0
138004,-66.6666666666667,4,2,12,80,0,0
138301,-200,4,2,12,80,0,0
138524,-50,4,2,4,100,0,1
138747,-43.4782608695652,4,2,4,100,0,1
138970,-38.4615384615385,4,2,4,100,0,1
139192,-34.4827586206897,4,2,4,100,0,1
139415,-31.25,4,2,4,100,0,1
139638,-28.5714285714286,4,2,4,100,0,1
139861,-26.3157894736842,4,2,4,100,0,1
140083,-200,4,2,1,80,0,0
140380,-40,4,2,1,80,0,0
140826,-50,4,2,4,100,0,1
141049,-43.4782608695652,4,2,4,100,0,1
141272,-38.4615384615385,4,2,4,100,0,1
141569,-1000,4,2,3,80,0,0
142014,-50,4,2,4,100,0,1
142237,-43.4782608695653,4,2,4,100,0,1
142460,-38.4615384615385,4,2,4,100,0,1
142757,-38.4615384615385,4,2,4,100,0,0
142905,-38.4615384615385,4,2,1,30,0,0
143054,-38.4615384615385,4,2,1,35,0,0
143202,-38.4615384615385,4,2,1,40,0,0
143351,-38.4615384615385,4,2,1,45,0,0
143499,-38.4615384615385,4,2,1,50,0,0
143648,-38.4615384615385,4,2,1,55,0,0
143796,-38.4615384615385,4,2,1,60,0,0
143945,-38.4615384615385,4,2,1,65,0,0
144093,-38.4615384615385,4,2,1,70,0,0
144242,-38.4615384615385,4,2,1,40,0,0
144390,-38.4615384615385,4,2,1,50,0,0
144539,-38.4615384615385,4,2,1,60,0,0
144687,-38.4615384615385,4,2,1,70,0,0
144836,-100,4,2,1,80,0,0
145133,-100,4,2,1,90,0,0
145207,-76.9230769230769,4,2,1,90,0,0
145281,-62.5,4,2,1,90,0,0
145356,-52.6315789473684,4,2,1,90,0,0
145430,-100,4,2,1,90,0,0
148994,-100,4,2,1,60,0,0
150182,-66.6666666666667,4,2,3,60,0,0
151371,-55.5555555555556,4,2,3,70,0,0
151965,-55.5555555555556,4,2,3,80,0,0
152559,-66.6666666666667,4,2,3,80,0,0
152856,-100,4,2,1,30,0,0
152893,-100,4,2,1,5,0,0
153004,-66.6666666666667,4,2,1,40,0,0
153041,-66.6666666666667,4,2,1,5,0,0
153153,-50,4,2,1,50,0,0
153190,-50,4,2,1,5,0,0
153301,-33.3333333333333,4,2,1,60,0,0
153338,-33.3333333333333,4,2,1,5,0,0
153450,-25,4,2,1,70,0,0
153487,-25,4,2,1,5,0,0
153598,-16.6666666666667,4,2,1,80,0,0
153635,-16.6666666666667,4,2,1,5,0,0
153747,-133.333333333333,4,2,12,100,0,0
154044,-33.3333333333333,4,2,3,80,0,0
154638,-50,4,2,1,60,0,0
154935,-40,4,2,1,70,0,1
155009,-40,4,2,1,70,0,0
155232,-40,4,2,1,70,0,0
155418,-33.3333333333333,4,2,1,70,0,0
155529,-100,4,2,1,70,0,0
155752,-66.6666666666667,4,2,1,70,0,0
155975,-50,4,2,1,70,0,0
156197,-40,4,2,1,70,0,0
156420,-33.3333333333333,4,2,1,70,0,0
156643,-33.3333333333333,4,2,1,70,0,0
156717,-25,4,2,1,70,0,0
156866,-25,4,2,15,70,0,0
157311,-33.3333333333333,4,2,1,70,0,0
157423,-33.3333333333333,4,2,1,5,0,0
157460,-33.3333333333333,4,2,1,70,0,0
157571,-33.3333333333333,4,2,1,5,0,0
157608,-33.3333333333333,4,2,1,70,0,0
157720,-33.3333333333333,4,2,1,5,0,0
157757,-33.3333333333333,4,2,1,70,0,0
157868,-33.3333333333333,4,2,1,5,0,0
157905,-100,4,2,1,70,0,0
158128,-66.6666666666667,4,2,1,70,0,0
158351,-50,4,2,1,70,0,0
158574,-40,4,2,1,70,0,0
159093,-66.6666666666667,4,2,1,70,0,0
159390,-200,4,2,1,70,0,0
159687,-40,4,2,1,70,0,1
159762,-40,4,2,1,70,0,0
159984,-28.5714285714286,4,2,1,70,0,0
160281,-500,4,2,1,70,0,0
161618,-500,4,2,15,70,0,0
162064,-33.3333333333333,4,2,1,70,0,0
162175,-33.3333333333333,4,2,1,5,0,0
162212,-33.3333333333333,4,2,1,70,0,0
162324,-33.3333333333333,4,2,1,5,0,0
162361,-33.3333333333333,4,2,1,70,0,0
162472,-33.3333333333333,4,2,1,5,0,0
162509,-33.3333333333333,4,2,1,70,0,0
162621,-33.3333333333333,4,2,1,5,0,0
162658,-33.3333333333333,4,2,1,70,0,0
162732,-100,4,2,1,70,0,0
163029,-66.6666666666667,4,2,1,70,0,0
163252,-50,4,2,1,70,0,0
163623,-40,4,2,1,70,0,0
164291,-100,4,2,1,70,0,0
164440,-40,4,2,1,80,0,1
164514,-40,4,2,1,80,0,0
166371,-40,4,2,15,80,0,0
166816,-33.3333333333333,4,2,1,80,0,0
166928,-33.3333333333333,4,2,1,5,0,0
166965,-33.3333333333333,4,2,1,80,0,0
167076,-33.3333333333333,4,2,1,5,0,0
167113,-33.3333333333333,4,2,1,80,0,0
167225,-33.3333333333333,4,2,1,5,0,0
167262,-33.3333333333333,4,2,1,80,0,0
167373,-33.3333333333333,4,2,1,5,0,0
167410,-33.3333333333333,4,2,1,80,0,0
168079,-50,4,2,1,80,0,0
168598,-66.6666666666667,4,2,1,80,0,0
168895,-200,4,2,1,80,0,0
169192,-40,4,2,1,80,0,1
169267,-40,4,2,1,80,0,0
169489,-66.6666666666667,4,2,1,80,0,0
171123,-66.6666666666667,4,2,15,80,0,0
171569,-33.3333333333333,4,2,1,80,0,0
171680,-33.3333333333333,4,2,1,5,0,0
171717,-33.3333333333333,4,2,1,80,0,0
171829,-33.3333333333333,4,2,1,5,0,0
171866,-33.3333333333333,4,2,1,80,0,0
171977,-33.3333333333333,4,2,1,5,0,0
172014,-33.3333333333333,4,2,1,80,0,0
172126,-33.3333333333333,4,2,1,5,0,0
172163,-100,4,2,1,80,0,0
172460,-66.6666666666667,4,2,1,80,0,0
172757,-50,4,2,1,80,0,0
173945,-40,4,2,1,100,0,1
174019,-40,4,2,1,100,0,0
175653,-66.6666666666667,4,2,1,100,0,0
175876,-66.6666666666667,4,2,15,100,0,0
176321,-33.3333333333333,4,2,1,100,0,0
176432,-33.3333333333333,4,2,1,5,0,0
176470,-33.3333333333333,4,2,1,100,0,0
176581,-33.3333333333333,4,2,1,5,0,0
176618,-33.3333333333333,4,2,1,100,0,0
176730,-33.3333333333333,4,2,1,5,0,0
176767,-33.3333333333333,4,2,1,100,0,0
176878,-33.3333333333333,4,2,1,5,0,0
176915,-100,4,2,1,100,0,0
177064,-66.6666666666667,4,2,1,100,0,0
177286,-50,4,2,1,100,0,0
178103,-66.6666666666667,4,2,1,100,0,0
178400,-200,4,2,1,100,0,0
178697,-40,4,2,1,100,0,1
178772,-40,4,2,1,100,0,0
179143,-66.6666666666667,4,2,1,100,0,0
179588,-66.6666666666667,4,2,16,100,0,0
179737,-66.6666666666667,4,2,1,100,0,0
180182,-66.6666666666667,4,2,16,100,0,0
180331,-66.6666666666667,4,2,1,100,0,0
180628,-66.6666666666667,4,2,15,100,0,0
181074,-33.3333333333333,4,2,1,100,0,0
181185,-33.3333333333333,4,2,1,5,0,0
181222,-33.3333333333333,4,2,1,100,0,0
181333,-33.3333333333333,4,2,1,5,0,0
181371,-33.3333333333333,4,2,1,100,0,0
181482,-33.3333333333333,4,2,1,5,0,0
181519,-33.3333333333333,4,2,1,100,0,0
181630,-33.3333333333333,4,2,1,5,0,0
181668,-33.3333333333333,4,2,1,100,0,0
181965,-33.3333333333333,4,2,16,100,0,0
182039,-33.3333333333333,4,2,1,100,0,0
182559,-33.3333333333333,4,2,16,100,0,0
182633,-33.3333333333333,4,2,1,100,0,0
183301,-100,4,2,1,50,0,0
183450,-100,4,2,1,50,0,0
183895,-100,4,2,1,15,0,0
184044,-66.6666666666667,4,2,1,20,0,0
184267,-50,4,2,1,30,0,0
184489,-40,4,2,1,40,0,0
184712,-33.3333333333333,4,2,1,50,0,0
184935,-28.5714285714285,4,2,1,60,0,0
185158,-25,4,2,1,70,0,0
185380,-25,4,2,1,80,0,0
185455,-20,4,2,1,90,0,0
185529,-25,4,2,1,90,0,0
185826,-33.3333333333333,4,2,1,100,0,1
185900,-33.3333333333333,4,2,1,100,0,0
185937,-33.3333333333333,4,2,1,5,0,0
185975,-33.3333333333333,4,2,1,100,0,0
186086,-33.3333333333333,4,2,1,5,0,0
186123,-33.3333333333333,4,2,1,100,0,0
186234,-33.3333333333333,4,2,1,5,0,0
186272,-33.3333333333333,4,2,1,100,0,0
186383,-33.3333333333333,4,2,1,5,0,0
186420,-33.3333333333333,4,2,1,100,0,0
187460,-66.6666666666667,4,2,1,100,0,0
187608,-133.333333333333,4,2,1,100,0,0
187905,-40,4,2,1,100,0,0
188202,-66.6666666666667,4,2,3,100,0,0
189390,-66.6666666666667,4,2,3,90,0,0
189984,-66.6666666666667,4,2,3,80,0,0
190579,-55.5555555555556,4,2,3,90,0,0
191173,-47.6190476190476,4,2,3,90,0,0
191767,-41.6666666666667,4,2,1,100,0,0
192361,-100,4,2,1,100,0,0
192955,-100,4,2,21,100,0,0
193029,-100,4,2,1,100,0,0
207212,-100,4,2,1,60,0,0
209588,-100,4,2,1,80,0,0
211074,-50,4,2,1,80,0,0
211371,-50,4,2,12,100,0,0
211965,-40,4,2,1,100,0,0
212225,-40,4,2,1,5,0,0
212262,-200,4,2,1,100,0,0
212410,-55.5555555555556,4,2,1,100,0,0
212856,-55.5555555555556,4,2,1,5,0,0
212930,-200,4,2,1,80,0,0
213301,-200,4,2,2,80,0,0
213598,-200,4,2,1,80,0,0
213895,-50,4,2,1,100,0,0
214192,-50,4,2,3,80,0,0
214341,-133.333333333333,4,2,1,80,0,0
215678,-66.6666666666667,4,2,11,100,0,0
215826,-50,4,2,1,100,0,0
217905,-100,4,2,14,80,0,0
218574,-50,4,2,14,80,0,0
218722,-100,4,2,1,80,0,0
218796,-50,4,2,1,100,0,0
218945,-50,4,2,3,100,0,0
219093,-133.333333333333,4,2,15,70,0,0
219539,-100,4,2,15,80,0,0
219984,-80,4,2,15,90,0,0
220430,-50,4,2,1,100,0,0
221173,-333.333333333333,4,2,1,100,0,0
221470,-50,4,2,1,100,0,0
221767,-200,4,2,1,100,0,0
221915,-50,4,2,1,100,0,0
222212,-133.333333333333,4,2,1,100,0,0
222509,-133.333333333333,4,2,2,100,0,0
222658,-50,4,2,1,100,0,0
222955,-200,4,2,1,100,0,0
223103,-50,4,2,1,100,0,0
223400,-133.333333333333,4,2,1,100,0,0
223846,-50,4,2,1,100,0,0
224143,-200,4,2,1,100,0,0
224291,-50,4,2,1,100,0,0
224588,-66.6666666666667,4,2,1,100,0,0
225034,-50,4,2,1,100,0,0
225331,-200,4,2,1,100,0,0
225480,-50,4,2,1,100,0,0
225777,-133.333333333333,4,2,1,100,0,0
226222,-100,4,2,1,70,0,0
228598,-100,4,2,1,80,0,0
229786,-83.3333333333333,4,2,1,90,0,0
230380,-83.3333333333333,4,2,1,70,0,0
230678,-83.3333333333333,4,2,1,60,0,0
230975,-133.333333333333,4,2,1,50,0,0
235727,-66.6666666666667,4,2,1,60,0,0
236321,-57.1428571428571,4,2,1,60,0,0
236915,-50,4,2,1,60,0,0
237509,-66.6666666666667,4,2,1,80,0,0
238103,-66.6666666666667,4,2,1,20,0,0
238400,-66.6666666666667,4,2,1,30,0,0
238697,-66.6666666666667,4,2,1,40,0,0
238994,-66.6666666666667,4,2,1,50,0,0
239291,-66.6666666666667,4,2,22,80,0,0
239366,-66.6666666666667,4,2,1,80,0,0
239737,-66.6666666666667,4,2,2,80,0,0
240034,-50,4,2,1,80,0,0
240480,-40,4,2,3,100,0,1
240554,-50,4,2,3,100,0,1
240628,-66.6666666666667,4,2,3,100,0,1
240702,-100,4,2,3,100,0,1
240777,-50,4,2,3,100,0,1
240851,-100,4,2,3,100,0,1
240925,-50,4,2,3,100,0,1
240999,-100,4,2,3,100,0,1
241074,-40,4,2,3,100,0,1
241148,-50,4,2,3,100,0,1
241222,-66.6666666666667,4,2,3,100,0,1
241296,-100,4,2,3,100,0,1
241371,-50,4,2,3,100,0,1
241445,-100,4,2,3,100,0,1
241519,-50,4,2,3,100,0,1
241593,-100,4,2,3,100,0,1
242856,-40,4,2,3,100,0,1
242930,-50,4,2,3,100,0,1
243004,-66.6666666666667,4,2,3,100,0,1
243079,-100,4,2,3,100,0,1
243153,-50,4,2,3,100,0,1
243450,-40,4,2,3,100,0,1
243524,-50,4,2,3,100,0,1
243598,-66.6666666666667,4,2,3,100,0,1
243673,-100,4,2,3,100,0,1
243747,-40,4,2,3,100,0,1
243821,-50,4,2,3,100,0,1
243895,-66.6666666666667,4,2,3,100,0,1
243970,-100,4,2,3,100,0,1
244044,-100,4,2,3,100,0,1
244341,-66.6666666666667,4,2,3,100,0,1
249093,-66.6666666666667,4,2,3,100,0,1
249836,-66.6666666666667,4,2,3,100,0,0
249984,-66.6666666666667,4,2,3,100,0,1
257113,-50,4,2,1,100,0,1
258301,-50,4,2,1,60,0,0
259192,-50,4,2,22,100,0,0
259267,-50,4,2,3,100,0,0
259489,-50,4,2,3,100,0,1
261272,-100,4,2,3,60,0,0
261866,-100,4,2,3,100,0,1
263648,-100,4,2,3,70,0,0
264242,-100,4,2,2,100,0,0
264390,-100,4,2,3,100,0,0
264539,-100,4,2,3,100,0,1
266024,-50,4,2,3,100,0,1
266618,-66.6666666666667,4,2,3,100,0,1
266841,-50,4,2,3,100,0,1
267064,-40,4,2,3,100,0,1
268920,-40,4,2,3,100,0,0
268994,-40,4,2,3,100,0,1
270777,-133.333333333333,4,2,3,100,0,0
271074,-33.3333333333333,4,2,3,100,0,0
271371,-33.3333333333333,4,2,3,100,0,1
273153,-33.3333333333333,4,2,3,80,0,0
273747,-133.333333333333,4,2,1,80,0,0
273895,-133.333333333333,4,2,3,100,0,1
274044,-200,4,2,1,100,0,1
274786,-100,4,2,1,100,0,1
275380,-66.6666666666667,4,2,1,100,0,1
276123,-66.6666666666667,4,2,1,80,0,1
278499,-66.6666666666667,4,2,1,80,0,0
278945,-66.6666666666667,4,2,13,80,0,0
279093,-66.6666666666667,4,2,18,80,0,0
279465,-133.333333333333,4,2,1,80,0,0
279984,-50,4,2,13,80,0,0
280133,-50,4,2,1,80,0,0
280281,-50,4,2,18,80,0,0
280430,-50,4,2,1,80,0,0
281470,-50,4,2,13,80,0,0
281544,-50,4,2,1,80,0,0
282212,-50,4,2,18,80,0,0
282361,-50,4,2,1,80,0,0
282658,-133.333333333333,4,2,18,80,0,0
282806,-50,4,2,1,80,0,0
283846,-66.6666666666667,4,2,18,80,0,0
284291,-66.6666666666667,4,2,1,80,0,0
284440,-100,4,2,14,80,0,0
284663,-50,4,2,14,80,0,0
284737,-50,4,2,13,80,0,0
284885,-100,4,2,14,80,0,0
285034,-100,4,2,18,80,0,0
285108,-50,4,2,14,80,0,0
285331,-50,4,2,1,80,0,0
285628,-133.333333333333,4,2,15,70,0,0
286074,-100,4,2,15,80,0,0
286519,-80,4,2,15,80,0,0
286965,-50,4,2,1,80,0,0
287410,-1000,4,2,1,80,0,0
288004,-50,4,2,1,80,0,0
288301,-200,4,2,1,80,0,0
288450,-50,4,2,1,80,0,0
288970,-200,4,2,1,80,0,0
289489,-50,4,2,1,80,0,0
289786,-50,4,2,13,80,0,0
289935,-50,4,2,1,80,0,0
290380,-50,4,2,1,85,0,0
290826,-50,4,2,1,90,0,0
291272,-50,4,2,1,95,0,0
291717,-66.6666666666667,4,2,13,100,0,0
291866,-50,4,2,1,100,0,0
292163,-200,4,2,1,100,0,0
292311,-40,4,2,1,100,0,0
292608,-133.333333333333,4,2,1,100,0,0
292757,-33.3333333333333,4,2,1,100,0,0
293054,-100,4,2,1,100,0,0
293202,-43.4782608695652,4,2,1,100,0,0
293945,-333.333333333333,4,2,1,100,0,0
294242,-333.333333333333,4,2,3,100,0,0
294836,-100,4,2,1,100,0,0
295133,-66.6666666666667,4,2,3,80,0,0
295727,-100,4,2,3,80,0,0
296470,-200,4,2,3,80,0,0
297361,-100,4,2,3,80,0,0
297509,-66.6666666666667,4,2,3,80,0,0
298103,-100,4,2,3,80,0,0
298846,-200,4,2,3,80,0,0
299885,-66.6666666666667,4,2,3,80,0,0
300480,-100,4,2,3,80,0,0
301965,-200,4,2,3,80,0,0
302262,-66.6666666666667,4,2,3,80,0,0
302856,-100,4,2,3,80,0,0
303450,-100,4,2,3,60,0,0
304044,-100,4,2,3,80,0,0
304638,-200,4,2,1,100,0,0
304861,-66.6666666666667,4,2,4,100,0,1
305083,-58.8235294117647,4,2,4,100,0,1
305306,-52.6315789473685,4,2,4,100,0,1
305529,-47.6190476190476,4,2,4,100,0,1
305752,-43.4782608695652,4,2,4,100,0,1
305975,-40,4,2,4,100,0,1
306197,-37.037037037037,4,2,4,100,0,1
306420,-200,4,2,1,80,0,0
306717,-40,4,2,1,80,0,0
307237,-66.6666666666667,4,2,4,100,0,1
307460,-58.8235294117647,4,2,4,100,0,1
307682,-52.6315789473684,4,2,4,100,0,1
307905,-47.6190476190476,4,2,4,100,0,1
308128,-43.4782608695652,4,2,4,100,0,1
308351,-40,4,2,4,100,0,1
308574,-37.037037037037,4,2,4,100,0,1
308796,-37.037037037037,4,2,15,80,0,0
309093,-66.6666666666667,4,2,16,80,0,0
309390,-200,4,2,16,80,0,0
309613,-66.6666666666667,4,2,4,100,0,1
309836,-58.8235294117647,4,2,4,100,0,1
310059,-52.6315789473684,4,2,4,100,0,1
310281,-47.6190476190476,4,2,4,100,0,1
310504,-43.4782608695652,4,2,4,100,0,1
310727,-40,4,2,4,100,0,1
310950,-37.037037037037,4,2,4,100,0,1
311173,-200,4,2,1,80,0,0
311395,-40,4,2,1,80,0,0
311915,-66.6666666666667,4,2,4,100,0,1
312138,-58.8235294117647,4,2,4,100,0,1
312361,-52.6315789473684,4,2,4,100,0,1
312658,-66.6666666666667,4,2,1,80,0,0
312955,-200,4,2,1,80,0,0
313103,-66.6666666666667,4,2,4,100,0,1
313326,-58.8235294117647,4,2,4,100,0,1
313549,-52.6315789473685,4,2,4,100,0,1
313697,-52.6315789473685,4,2,1,100,0,1
314143,-200,4,2,1,80,0,0
314366,-66.6666666666667,4,2,4,100,0,1
314588,-55.5555555555556,4,2,4,100,0,1
314811,-47.6190476190476,4,2,4,100,0,1
315034,-41.6666666666667,4,2,4,100,0,1
315257,-37.0370370370371,4,2,4,100,0,1
315480,-33.3333333333334,4,2,4,100,0,1
315925,-200,4,2,1,80,0,0
316222,-40,4,2,1,80,0,0
316742,-66.6666666666667,4,2,4,100,0,1
316965,-55.5555555555556,4,2,4,100,0,1
317187,-47.6190476190476,4,2,4,100,0,1
317410,-41.6666666666667,4,2,4,100,0,1
317707,-37.0370370370371,4,2,4,100,0,1
317856,-33.3333333333333,4,2,4,100,0,1
318301,-33.3333333333333,4,2,15,80,0,0
318598,-50,4,2,16,80,0,0
318895,-200,4,2,16,80,0,0
319118,-66.6666666666667,4,2,4,100,0,1
319341,-55.5555555555556,4,2,4,100,0,1
319564,-47.6190476190476,4,2,4,100,0,1
319786,-41.6666666666667,4,2,4,100,0,1
320009,-37.0370370370371,4,2,4,100,0,1
320232,-33.3333333333334,4,2,4,100,0,1
320678,-200,4,2,1,80,0,0
320975,-40,4,2,1,80,0,0
321420,-50,4,2,4,100,0,1
322163,-333.333333333333,4,2,1,80,0,0
322608,-50,4,2,4,100,0,1
323351,-50,4,2,4,100,0,0
323499,-50,4,2,1,30,0,0
323648,-50,4,2,1,35,0,0
323796,-50,4,2,1,40,0,0
323945,-50,4,2,1,45,0,0
324093,-50,4,2,1,50,0,0
324242,-50,4,2,1,55,0,0
324390,-50,4,2,1,60,0,0
324539,-50,4,2,1,65,0,0
324687,-50,4,2,1,70,0,0
324836,-50,4,2,1,40,0,0
324984,-50,4,2,1,50,0,0
325133,-50,4,2,1,60,0,0
325281,-50,4,2,1,70,0,0
325430,-100,4,2,1,80,0,0
325727,-100,4,2,1,90,0,0
325801,-76.9230769230769,4,2,1,90,0,0
325876,-62.5,4,2,1,90,0,0
325950,-52.6315789473684,4,2,1,90,0,0
326024,-100,4,2,1,100,0,0

[Colours]
Combo1 : 127,158,239
Combo2 : 39,136,225
Combo3 : 120,201,233
Combo4 : 38,234,185

[HitObjects]
256,192,480,12,0,9242,0:0:0:0:
67,320,9390,6,0,P|40:269|121:286,1,175,2|0,0:0|0:0,0:0:0:0:
3,379,9984,6,0,P|38:349|105:345,1,100,4|0,0:1|0:0,0:0:0:0:
121,273,10430,2,0,B|179:233|243:280|217:313|294:349|348:313,1,250,2|0,0:0|0:0,0:0:0:0:
347,315,11767,6,0,L|342:384,1,70,2|0,0:0|0:0,0:0:0:0:
357,308,12361,6,0,L|348:187,1,100,2|0,0:0|0:0,0:0:0:0:
439,251,12806,2,0,L|338:319,1,100,2|0,0:0|0:0,0:0:0:0:
349,208,13252,2,0,L|403:234,1,50,2|0,0:0|0:0,0:0:0:0:
440,45,13549,6,0,P|405:48|359:106,1,100,2|0,0:0|0:0,0:0:0:0:
443,137,13994,2,0,P|457:105|429:36,1,100,2|0,0:0|0:0,0:0:0:0:
362,94,14440,2,0,P|382:122|415:132,1,50,2|0,0:0|0:0,0:0:0:0:
265,2,14737,6,0,P|257:45|246:132,1,120,2|0,0:0|0:0,0:0:0:0:
223,209,15331,2,0,B|242:338|242:338|296:370|296:370|338:323|338:323|318:191|318:191|264:158|264:158|220:203,1,509.999984436036,2|2,0:0|0:0,0:0:0:0:
224,199,18895,6,0,B|110:138|106:239|-10:170,1,225.000008583069,2|0,0:0|0:0,0:0:0:0:
29,27,19489,6,0,P|84:19|25:102,1,240,6|2,0:0|0:0,0:0:0:0:
86,202,21866,6,0,P|123:187|188:190,1,100,2|0,0:0|0:0,0:0:0:0:
206,330,22311,2,0,P|169:345|104:342,1,100,2|0,0:0|0:0,0:0:0:0:
122,269,22757,2,0,L|173:262,1,50,2|0,0:0|0:0,0:0:0:0:
290,292,23054,6,0,L|302:181,1,100,2|0,0:0|0:0,0:0:0:0:
447,211,23499,2,0,L|436:310,1,100,2|0,0:0|0:0,0:0:0:0:
366,274,23945,2,0,L|372:218,1,50,2|0,0:0|0:0,0:0:0:0:
319,26,24242,6,0,B|162:5|170:157|38:148|4:110|4:110|59:64|163:137|75:241|-3:197,1,600,6|0,0:0|0:0,0:0:0:0:
286,120,28994,6,0,L|292:182,6,50,4|0|0|0|0|0|0,1:2|0:0|0:0|0:0|0:0|0:0|0:0,0:0:0:0:
341,229,30034,6,0,P|381:233|408:224,1,50,2|0,0:0|0:0,0:0:0:0:
263,242,30331,2,0,P|226:259|198:260,1,50,2|0,0:0|0:0,0:0:0:0:
319,324,30628,1,2,0:0:0:0:
286,120,30925,6,0,L|289:157,1,25,2|0,0:0|0:0,0:0:0:0:
217,260,31074,2,0,P|183:255|140:219,1,75,2|0,0:0|0:0,0:0:0:0:
143,204,31371,6,0,L|149:142,6,50,0|0|0|0|0|0|0,1:0|0:0|0:0|0:0|0:0|0:0|0:0,0:0:0:0:
198,95,32411,6,0,P|238:91|265:100,1,50,2|0,0:0|0:0,0:0:0:0:
120,82,32708,2,0,P|83:65|55:64,1,50,2|0,0:0|0:0,0:0:0:0:
176,0,33005,1,2,0:0:0:0:
143,204,33302,6,0,L|146:173,1,25,2|0,0:0|0:0,0:0:0:0:
74,64,33451,2,0,P|40:69|-3:105,1,75,2|0,0:0|0:0,0:0:0:0:
1,114,33747,6,0,L|7:176,6,50,0|0|0|0|0|0|0,1:0|0:0|0:0|0:0|0:0|0:0|0:0,0:0:0:0:
256,192,34786,12,0,35975,0:0:0:0:
134,296,36123,6,0,B|93:275|45:305|45:305|36:226|93:171|190:189|221:247|221:247|215:104|215:104|277:153|277:153|376:234|475:158|468:63|363:13|328:116,1,900
260,120,37608,6,0,B|293:149|293:149|375:216|457:154|451:75|365:34|336:119,1,300,12|0,0:3|0:0,0:0:0:0:
166,62,37905,5,8,0:0:0:0:
105,161,38054,5,8,0:0:0:0:
134,296,38202,5,8,0:0:0:0:
272,372,38351,5,8,0:0:0:0:
166,62,38499,6,0,B|210:12|210:12|474:34|474:34|401:37|401:37|328:78,1,437.5,6|0,0:0|0:0,0:0:0:0:
473,34,38796,6,0,L|476:77,1,25,2|0,0:0|0:0,0:0:0:0:
457,181,38945,6,0,B|440:299|440:299|435:306|435:306|519:307|519:307|513:297|513:297|492:147|492:147|428:134|428:134|372:53,1,539.999983520508,6|0,0:0|0:0,0:0:0:0:
470,10,39465,6,0,L|475:60,1,50,2|0,0:0|0:0,0:0:0:0:
368,26,39687,2,0,L|371:51,1,25,2|0,0:0|0:0,0:0:0:0:
266,44,39836,2,0,L|267:56,4,12.5
162,57,40133,1,2,0:0:0:0:
162,57,40281,1,2,0:0:0:0:
183,165,40430,6,0,B|205:267|381:315|446:197|336:70|231:121|179:298,1,500,2|0,0:1|0:0,0:0:0:0:
176,306,40876,6,0,L|222:297,3,37.5000014305115,2|2|2|2,3:2|0:0|0:0|0:0,0:0:0:0:
92,384,41173,1,2,0:0:0:0:
103,260,41321,6,0,L|128:220,3,37.5000014305115,2|2|2|2,3:2|0:0|0:0|0:0,0:0:0:0:
92,384,41618,1,2,0:0:0:0:
15,263,41767,6,0,L|6:217,3,37.5000014305115,2|2|2|2,3:2|0:0|0:0|0:0,0:0:0:0:
92,384,42064,1,2,0:0:0:0:
81,157,42212,6,0,P|115:142|150:151,1,75.0000028610231,8|0,0:0|0:0,0:0:0:0:
401,338,42361,6,0,B|362:339|324:356|324:356|360:340|383:291|383:291|338:214|381:133|381:133|378:178|405:201,1,400,6|0,0:0|0:0,0:0:0:0:
307,356,42806,6,0,B|268:357|230:374|230:374|266:358|289:309|289:309|240:190|310:63,1,400,6|0,0:0|0:0,0:0:0:0:
217,372,43252,6,0,B|184:353|184:353|130:220|150:77|224:-5,1,400,6|0,0:0|0:0,0:0:0:0:
42,375,43697,6,0,B|18:351|-7:344|-7:344|205:338|319:262|443:118|487:-1,1,600,6|0,0:0|0:0,0:0:0:0:
461,0,44291,1,2,0:1:0:0:
328,100,44440,6,0,B|306:122|282:102|282:102|313:82|336:107,1,100,2|0,0:0|0:0,0:0:0:0:
392,148,44663,2,0,B|414:170|394:194|394:194|374:163|399:140,1,100,2|0,0:0|0:0,0:0:0:0:
442,86,44885,2,0,B|464:64|488:84|488:84|457:104|434:79,1,100,2|0,0:0|0:0,0:0:0:0:
378,38,45108,2,0,B|356:16|376:-8|376:-8|396:23|371:46,1,100,2|0,0:0|0:0,0:0:0:0:
385,142,45257,1,0,3:0:0:0:
392,148,45331,6,0,P|354:177|277:181,1,100,2|0,0:0|0:0,0:0:0:0:
225,65,45480,2,0,P|248:37|241:76,1,100,2|0,0:0|0:0,0:0:0:0:
137,180,45628,5,2,3:2:0:0:
150,194,45702,1,2,0:0:0:0:
169,165,45777,1,2,0:0:0:0:
166,118,45851,1,2,0:0:0:0:
129,74,45925,2,0,L|84:71,1,37.5000014305115,2|0,0:0|0:0,0:0:0:0:
0,145,46074,5,2,3:2:0:0:
13,132,46148,1,2,0:0:0:0:
47,154,46222,1,2,0:0:0:0:
66,202,46296,1,2,0:0:0:0:
51,258,46371,2,0,L|-1:264,1,50,2|0,0:0|0:0,0:0:0:0:
61,374,46519,5,2,3:2:0:0:
44,365,46593,1,2,0:0:0:0:
90,324,46668,1,2,0:0:0:0:
155,302,46742,1,2,0:0:0:0:
235,300,46816,2,0,L|304:312,1,62.5,2|0,0:0|0:0,0:0:0:0:
418,290,46965,6,0,B|497:303|497:303|311:332|311:332|301:343|301:343|168:361,1,400,6|0,0:0|0:0,0:0:0:0:
503,382,47410,2,0,B|496:302|496:302|491:298|491:298|469:85,1,300,6|0,0:0|0:0,0:0:0:0:
474,73,47707,6,0,L|470:25,1,44.999998626709,0|0,3:2|0:0,0:0:0:0:
387,169,48004,6,0,B|253:155|253:155|260:152|260:152|238:43|238:43|244:35|244:35|129:55,1,350,6|0,0:0|0:0,0:0:0:0:
158,49,48301,6,0,L|126:56,1,25,2|0,0:0|0:0,0:0:0:0:
59,224,48450,6,0,B|271:203|271:203|261:197|261:197|296:22|296:22|287:12|287:12|472:28,1,600,6|0,0:0|0:0,0:0:0:0:
469,41,48970,6,0,L|419:36,1,50,2|0,0:0|0:0,0:0:0:0:
453,143,49192,2,0,L|428:140,1,25,2|0,0:0|0:0,0:0:0:0:
435,245,49341,2,0,L|423:244,4,12.5
422,349,49638,1,2,0:0:0:0:
422,349,49786,1,2,0:0:0:0:
303,356,49935,6,0,B|219:336|204:278|362:233|271:67|128:100|64:215|85:259|198:293|125:357|19:349|45:283,1,500,2|0,0:1|0:0,0:0:0:0:
36,276,50380,6,0,L|0:283,3,37.5000014305115,2|2|2|2,3:2|0:0|0:0|0:0,0:0:0:0:
72,159,50677,1,2,0:0:0:0:
132,281,50826,6,0,L|123:316,3,37.5000014305115,2|2|2|2,3:2|0:0|0:0|0:0,0:0:0:0:
72,159,51123,1,2,0:0:0:0:
193,220,51271,6,0,L|221:243,3,37.5000014305115,2|2|2|2,3:2|0:0|0:0|0:0,0:0:0:0:
72,159,51568,1,2,0:0:0:0:
193,220,51717,6,0,P|228:229|262:214,1,75.0000028610231,8|0,0:0|0:0,0:0:0:0:
349,116,51866,6,0,B|407:114|407:114|464:149|464:149|489:215|489:215|472:277|472:277|418:318|418:318|341:318,1,400,6|0,0:0|0:0,0:0:0:0:
362,107,52311,6,0,B|411:107|411:107|473:145|473:145|501:218|501:218|482:286|482:286|423:331|423:331|338:331,1,400,6|0,0:0|0:0,0:0:0:0:
372,182,52757,6,0,B|393:181|393:181|415:194|415:194|424:218|424:218|418:242|418:242|397:257|397:257|368:257,1,150.000005722046,6|0,0:0|0:0,0:0:0:0:
512,5,53202,6,0,B|450:9|450:9|371:38|371:38|318:91|318:91|299:150|299:150|268:201|268:201|194:252|194:252|99:286|99:286|11:296|11:296|59:232|59:232|166:240|166:240|222:280|222:280|227:301|227:301|331:365,1,1000,6|0,0:0|0:0,0:0:0:0:
395,331,53871,5,0,3:0:0:0:
395,331,53945,2,0,B|402:367|402:367|386:349,1,50,8|0,3:2|0:0,0:0:0:0:
207,379,54242,6,0,B|197:297|256:257|256:257|259:168|171:131|171:131|243:178|209:244,1,400,6|0,0:0|0:0,0:0:0:0:
85,329,54687,2,0,B|93:257|135:211|135:211|36:223|-19:182|-19:182|50:198|83:167,1,400,6|0,0:0|0:0,0:0:0:0:
82,13,55133,2,0,B|34:49|28:98|28:98|58:59|164:41|275:68|335:146,1,400,6|0,0:0|0:0,0:0:0:0:
500,225,55579,2,0,P|380:327|430:194,1,400,6|0,0:0|0:0,0:0:0:0:
439,273,56024,2,0,B|303:283|231:199|231:199|275:252|261:369,1,400,6|0,0:0|0:0,0:0:0:0:
7,290,56470,2,0,B|22:240|80:202|80:202|52:302|94:381,1,300,6|0,0:0|0:0,0:0:0:0:
148,165,56767,5,2,0:0:0:0:
151,168,56841,1,2,0:0:0:0:
154,171,56915,2,0,B|349:195|349:195|372:165|410:164,2,250,2|2|2,0:0|0:0|0:0,0:0:0:0:
440,180,57361,6,0,P|450:191|458:227,1,37.5000014305115,2|0,0:0|0:0,0:0:0:0:
512,309,57509,6,0,P|433:317|356:263,6,150.000005722046,4|0|0|0|0|0|0,3:2|3:0|3:0|3:0|3:0|3:0|3:0,0:0:0:0:
479,329,59588,6,0,P|460:329|439:324,1,25,2|0,3:2|0:0,0:0:0:0:
373,234,59737,2,0,P|376:258|372:283,1,50,2|0,0:0|0:0,0:0:0:0:
337,355,59885,1,0,3:0:0:0:
268,138,60034,6,0,P|283:157|292:180,1,50,2|0,0:0|0:0,0:0:0:0:
297,260,60182,1,0,3:0:0:0:
134,106,60331,6,0,P|156:115|176:130,1,50,2|0,0:0|0:0,0:0:0:0:
221,197,60479,1,0,3:0:0:0:
5,146,60628,6,0,P|29:142|54:146,1,50,2|0,0:0|0:0,0:0:0:0:
125,181,60776,1,0,3:0:0:0:
68,361,60925,6,0,P|77:338|92:318,1,50,2|0,0:0|0:0,0:0:0:0:
158,274,61073,1,0,3:0:0:0:
125,181,61222,6,0,P|144:165|167:156,1,50,2|0,0:0|0:0,0:0:0:0:
246,150,61370,1,0,3:0:0:0:
251,48,61519,6,0,P|275:44|300:48,1,50,2|0,0:0|0:0,0:0:0:0:
371,82,61667,1,0,3:0:0:0:
426,0,61816,6,0,P|448:9|468:24,1,50,2|0,0:0|0:0,0:0:0:0:
512,89,61965,6,0,P|517:113|517:141,1,44.999998626709,0|0,3:0|0:0,0:0:0:0:
507,160,62262,5,0,3:2:0:0:
363,171,62559,1,0,3:2:0:0:
507,160,62856,1,0,3:2:0:0:
363,171,63153,1,0,3:2:0:0:
507,160,63450,1,0,3:2:0:0:
363,171,63747,1,0,3:2:0:0:
507,160,64044,1,0,3:2:0:0:
363,171,64341,2,0,L|364:145,1,25,2|0,3:2|0:0,0:0:0:0:
349,63,64489,6,0,L|299:68,1,50,2|0,0:0|0:0,0:0:0:0:
220,79,64638,1,0,3:2:0:0:
412,176,64786,6,0,L|363:171,1,50,2|0,0:0|0:0,0:0:0:0:
276,153,64935,6,0,L|283:213,1,59.9999981689454,2|0,0:0|0:0,0:0:0:0:
264,147,65083,2,0,L|271:206,1,59.9999981689454,2|0,0:0|0:0,0:0:0:0:
338,278,65232,6,0,P|274:295|203:240,1,150,0|0,3:2|0:0,0:0:0:0:
193,236,65529,6,0,B|144:233|144:233|137:226|137:226|83:226|83:226|78:220|78:220|16:220|16:220|77:241,1,225.000008583069,2|0,0:0|0:0,0:0:0:0:
103,301,65826,1,2,3:2:0:0:
115,152,65975,1,2,0:0:0:0:
38,12,66123,6,0,B|2:33|2:33|36:29|36:29|42:31|42:31|80:27|80:27|83:29|83:29|123:24|123:24|126:28|126:28|168:23|168:23|171:27|171:27|208:22|208:22|212:27|212:27|247:22|247:22|253:26|253:26|294:18|294:18|298:23|298:23|346:10|346:10|354:18|354:18|517:8|517:8|483:50|483:50|349:59|349:59|340:49|340:49|298:60|298:60|293:54|293:54|252:64|252:64|245:58|245:58|208:69|208:69|200:63|200:63|168:71|168:71|161:64|161:64|121:72|121:72|115:66|115:66|80:73|80:73|76:66|76:66|35:71|35:71|25:66|25:66|-17:72,1,1100,0|2,0:0|0:0,0:0:0:0:
55,281,67014,6,0,L|61:319,5,37.5000014305115,0|0|0|0|0|0,3:0|0:0|0:0|0:0|0:0|0:0,0:0:0:0:
0,192,67460,1,0,0:0:0:0:
139,272,67608,6,0,L|145:315,5,42.5000008106232,0|0|0|0|0|0,3:0|0:0|0:0|0:0|0:0|0:0,0:0:0:0:
0,192,68054,1,0,0:0:0:0:
109,143,68202,6,0,L|115:95,5,47.4999987316132,0|0|0|0|0|0,3:0|0:0|0:0|0:0|0:0|0:0,0:0:0:0:
0,192,68648,1,0,0:0:0:0:
192,141,68796,6,0,L|200:79,5,52.4999983978272,0|0|0|0|0|0,3:0|0:0|0:0|0:0|0:0|0:0,0:0:0:0:
0,192,69242,1,0,0:0:0:0:
310,275,69390,6,0,L|302:332,5,57.5000010967255,0|0|0|0|0|0,3:0|0:0|0:0|0:0|0:0|0:0,0:0:0:0:
512,192,69836,1,0,0:0:0:0:
396,285,69984,6,0,L|386:359,5,62.5,0|0|0|0|0|0,3:0|0:0|0:0|0:0|0:0|0:0,0:0:0:0:
512,192,70430,1,0,0:0:0:0:
372,142,70579,6,0,L|362:67,5,67.5000002574921,0|0|0|0|0|0,3:0|0:0|0:0|0:0|0:0|0:0,0:0:0:0:
512,192,71024,1,0,0:0:0:0:
273,124,71173,5,0,3:2:0:0:
273,124,71247,1,0,0:0:0:0:
273,124,71321,2,0,P|263:138|277:178,1,50,2|0,0:0|0:0,0:0:0:0:
284,125,71544,2,0,P|291:148|281:171,1,50,2|0,0:0|0:0,0:0:0:0:
176,238,71767,6,0,B|171:266|171:266|201:311,6,50,2|0|0|0|0|0|0,3:2|0:0|0:0|0:0|0:0|0:0|0:0,0:0:0:0:
205,101,72064,2,0,B|210:73|210:73|180:28,6,50,2|0|0|0|0|0|0,0:0|0:0|0:0|0:0|0:0|0:0|0:0,0:0:0:0:
105,217,72361,6,0,B|81:233|81:233|71:286,6,50,2|0|0|0|0|0|0,0:0|0:0|0:0|0:0|0:0|0:0|0:0,0:0:0:0:
273,124,72658,2,0,B|296:107|296:107|306:54,6,50,2|0|0|0|0|0|0,0:0|0:0|0:0|0:0|0:0|0:0|0:0,0:0:0:0:
55,168,72955,6,0,B|27:163|27:163|-18:193,6,50,2|0|0|0|0|0|0,0:0|0:0|0:0|0:0|0:0|0:0|0:0,0:0:0:0:
325,183,73252,2,0,B|353:188|353:188|398:158,6,50,2|0|0|0|0|0|0,0:0|0:0|0:0|0:0|0:0|0:0|0:0,0:0:0:0:
77,97,73549,6,0,B|60:73|60:73|7:63,6,50,2|0|0|0|0|0|0,0:0|0:0|0:0|0:0|0:0|0:0|0:0,0:0:0:0:
316,256,73846,2,0,B|332:279|332:279|385:289,8,50,2|0|0|0|0|0|0|0|0,0:0|0:0|0:0|0:0|0:0|0:0|0:0|0:0|0:0,0:0:0:0:
192,183,74291,5,2,0:0:0:0:
186,183,74366,5,2,0:0:0:0:
187,189,74440,5,2,0:0:0:0:
197,191,74514,5,2,0:0:0:0:
197,177,74588,5,2,0:0:0:0:
179,175,74663,5,2,0:0:0:0:
171,192,74737,5,2,0:0:0:0:
186,207,74811,5,2,0:0:0:0:
218,194,74885,5,2,0:0:0:0:
215,153,74960,5,2,0:0:0:0:
174,137,75034,5,2,0:0:0:0:
135,165,75108,5,2,0:0:0:0:
136,222,75182,5,2,0:0:0:0:
91,278,75257,5,2,0:0:0:0:
6,303,75331,6,0,B|16:280|39:270|39:270|99:279,1,100,2|0,0:0|0:0,0:0:0:0:
175,308,75554,2,0,B|226:315|226:315|249:305|259:282,1,100,2|0,0:0|0:0,0:0:0:0:
289,212,75777,2,0,L|288:184,6,25,0|0|0|0|0|0|0,1:0|1:0|1:0|1:0|1:0|1:0|1:0,0:0:0:0:
427,298,76074,6,0,P|378:300|337:274,1,100,2|0,1:2|0:0,0:0:0:0:
393,139,76222,2,0,P|474:205|427:297,1,225.000008583069,2|0,1:2|0:0,0:0:0:0:
79,325,76519,6,0,B|12:266|12:266|183:276|183:276|191:265|191:265|354:275,1,419.999987182618,14|0,1:2|0:0,0:0:0:0:
85,145,76816,2,0,B|11:195|11:195|156:202|156:202|174:192|174:192|357:202,1,419.999987182618,10|0,1:2|0:0,0:0:0:0:
427,297,77113,2,0,B|457:355|457:355|220:339,1,300,8|0,1:2|0:0,0:0:0:0:
25,306,77410,5,8,1:2:0:0:
63,289,77484,1,0,1:2:0:0:
79,325,77559,1,0,1:2:0:0:
43,342,77633,1,0,1:2:0:0:
131,213,77707,5,8,1:2:0:0:
181,211,77781,1,0,1:2:0:0:
183,257,77856,1,0,1:2:0:0:
136,261,77930,1,0,1:2:0:0:
285,175,78004,5,8,1:2:0:0:
347,194,78078,1,0,1:2:0:0:
329,252,78152,1,0,1:2:0:0:
269,235,78227,1,0,1:2:0:0:
231,133,78301,5,8,1:2:0:0:
255,66,78376,1,0,1:2:0:0:
324,68,78450,1,0,1:2:0:0:
344,136,78524,1,0,1:2:0:0:
285,175,78598,5,8,1:2:0:0:
231,133,78673,1,0,1:2:0:0:
186,82,78747,1,0,1:2:0:0:
171,16,78821,1,0,1:2:0:0:
108,0,78895,5,8,1:2:0:0:
65,14,78970,1,0,1:0:0:0:
39,52,79044,2,0,P|78:32|169:46,1,100,0|0,1:2|1:0,0:0:0:0:
311,38,79192,5,8,1:2:0:0:
346,49,79267,1,0,1:0:0:0:
367,80,79341,2,0,P|334:63|260:75,1,89.9999972534181,0|0,1:0|1:0,0:0:0:0:
106,117,79489,5,8,1:2:0:0:
84,133,79564,1,0,1:0:0:0:
77,160,79638,2,0,P|94:140|149:129,1,80,0|0,1:0|1:0,0:0:0:0:
303,151,79786,5,8,1:2:0:0:
320,163,79861,1,0,1:0:0:0:
326,186,79935,2,0,P|310:169|265:160,1,69.9999978637696,0|0,1:0|1:0,0:0:0:0:
141,209,80083,5,8,1:2:0:0:
130,224,80158,1,0,1:0:0:0:
131,245,80232,2,0,P|138:226|175:204,1,59.9999981689454,0|0,1:0|1:0,0:0:0:0:
268,260,80380,5,8,1:2:0:0:
276,272,80455,1,0,1:0:0:0:
276,288,80529,2,0,P|269:273|240:255,1,50,0|0,1:0|1:0,0:0:0:0:
192,354,80678,5,8,1:2:0:0:
193,318,80752,1,0,1:2:0:0:
159,307,80826,1,0,1:2:0:0:
138,336,80900,1,0,1:2:0:0:
159,364,80975,5,10,1:2:0:0:
213,317,81049,1,2,1:2:0:0:
236,244,81123,1,2,1:2:0:0:
234,163,81197,1,2,1:2:0:0:
207,84,81272,1,2,1:2:0:0:
202,95,81420,6,0,L|294:78,1,50,14|0,1:2|1:2,0:0:0:0:
363,67,81569,2,0,L|408:58,6,25,14|0|0|0|0|0|0,1:2|1:0|1:0|1:0|1:0|1:0|1:0,0:0:0:0:
481,118,81866,6,0,B|460:250|460:250|380:239|380:239|402:104,1,300,12|0,1:2|0:0,0:0:0:0:
491,125,82163,5,8,1:2:0:0:
485,163,82237,1,0,1:2:0:0:
480,202,82311,1,0,1:2:0:0:
474,241,82385,1,0,1:2:0:0:
400,115,82460,5,8,1:2:0:0:
393,154,82534,1,0,1:2:0:0:
388,193,82608,1,0,1:2:0:0:
383,232,82682,1,0,1:2:0:0:
314,310,82757,5,8,1:2:0:0:
308,272,82831,1,0,1:2:0:0:
303,233,82905,1,0,1:2:0:0:
297,194,82979,1,0,1:2:0:0:
223,320,83054,5,8,1:2:0:0:
216,281,83128,1,0,1:2:0:0:
211,242,83202,1,0,1:2:0:0:
206,203,83276,1,0,1:2:0:0:
141,101,83351,5,8,1:2:0:0:
94,79,83425,1,0,1:2:0:0:
57,118,83500,1,0,1:2:0:0:
83,163,83574,1,0,1:2:0:0:
136,152,83648,5,8,1:2:0:0:
141,101,83722,1,0,1:2:0:0:
173,62,83796,2,0,P|224:36|275:37,1,100,0|0,1:2|1:2,0:2:0:0:
224,229,83945,5,8,1:2:0:0:
181,211,84019,1,0,1:2:0:0:
157,173,84093,2,0,P|148:122|163:78,1,89.9999972534181,0|0,1:2|1:2,0:2:0:0:
314,174,84242,5,8,1:2:0:0:
286,204,84316,1,0,1:2:0:0:
247,214,84390,2,0,P|201:206|169:182,1,80,0|0,1:2|1:2,0:2:0:0:
289,84,84539,5,8,1:2:0:0:
307,114,84613,1,0,1:2:0:0:
305,150,84687,2,0,P|286:185|257:206,1,69.9999978637696,0|0,1:2|1:2,0:2:0:0:
208,83,84836,5,8,1:2:0:0:
238,76,84910,1,0,1:2:0:0:
266,87,84984,2,0,P|290:111|299:140,1,59.9999981689454,0|0,1:2|1:2,0:2:0:0:
162,324,85133,5,10,0:2:0:0:
256,335,85281,1,2,1:2:0:0:
303,341,85356,1,2,1:2:0:0:
350,347,85430,1,10,1:2:0:0:
350,347,85504,1,2,1:2:0:0:
444,358,85727,1,2,1:2:0:0:
444,358,85802,1,2,1:2:0:0:
444,358,85876,1,2,1:2:0:0:
444,358,85950,1,2,1:2:0:0:
409,272,86024,6,0,B|386:64|386:64|382:3|432:-4,1,300,14|0,1:2|0:0,0:0:0:0:
495,46,86321,2,0,B|500:94|441:106|441:106|234:137,1,300,8|0,1:2|0:0,0:0:0:0:
9,22,86618,2,0,B|-22:49|-22:49|63:67|63:67|73:64|73:64|174:80|174:80|142:21,1,300,8|0,1:2|0:0,0:0:0:0:
181,192,86915,5,8,1:2:0:0:
142,191,86989,1,0,1:2:0:0:
105,175,87064,1,0,1:2:0:0:
78,147,87138,1,0,1:2:0:0:
234,137,87212,5,8,1:2:0:0:
254,103,87286,1,0,1:2:0:0:
286,79,87361,1,0,1:2:0:0:
324,70,87435,1,0,1:2:0:0:
219,135,87509,5,8,1:2:0:0:
243,94,87583,1,0,1:2:0:0:
281,65,87658,1,0,1:2:0:0:
327,54,87732,1,0,1:2:0:0:
257,208,87806,5,8,1:2:0:0:
275,242,87880,1,0,1:2:0:0:
280,282,87955,1,0,1:2:0:0:
269,319,88029,1,0,1:2:0:0:
265,194,88103,5,8,1:2:0:0:
288,235,88177,1,0,1:2:0:0:
294,282,88252,1,0,1:2:0:0:
281,328,88326,1,0,1:2:0:0:
367,360,88400,6,0,B|454:344|454:344|384:342,1,150.000005722046,8|0,1:2|1:2,0:2:0:0:
473,247,88549,2,0,B|386:263|386:263|447:264,1,150.000005722046,8|0,1:2|1:2,0:2:0:0:
370,184,88697,5,8,1:2:0:0:
415,177,88771,1,0,1:2:0:0:
460,170,88845,1,0,1:2:0:0:
506,164,88920,1,0,1:2:0:0:
399,98,88994,5,8,1:2:0:0:
362,102,89069,1,0,1:2:0:0:
326,108,89143,1,0,1:2:0:0:
290,114,89217,1,0,1:2:0:0:
260,205,89291,5,8,1:2:0:0:
281,201,89365,1,0,1:2:0:0:
302,197,89439,1,0,1:2:0:0:
324,195,89514,1,0,1:2:0:0:
260,121,89588,6,0,P|238:191|259:262,1,100,4|0,1:2|0:2,0:2:0:0:
226,310,89663,1,0,1:0:0:0:
154,121,89811,6,0,P|170:193|224:244,1,100,4|0,1:2|0:2,0:2:0:0:
237,305,89885,1,0,1:0:0:0:
65,174,90034,6,0,P|115:228|187:245,1,100,4|0,1:2|0:2,0:2:0:0:
244,299,90108,1,0,1:0:0:0:
15,265,90257,6,0,P|85:286|156:265,1,100,12|0,1:2|0:2,0:2:0:0:
244,290,90331,1,0,1:0:0:0:
235,45,90480,5,10,0:2:0:0:
235,127,90579,5,10,0:2:0:0:
307,85,90678,5,10,0:2:0:0:
156,174,90777,6,0,B|184:212|227:217|227:217|482:239,1,300,12|0,1:2|0:0,0:0:0:0:
426,136,91074,2,0,B|394:74|425:27|505:-5|513:88|433:157|389:221|455:236|457:276,1,300,8|0,1:2|0:0,0:0:0:0:
512,281,91371,2,0,B|464:316|464:316|188:332,1,300,8|0,1:2|0:0,0:0:0:0:
182,334,91668,6,0,L|173:390,2,50.0000019073487,8|0|0,1:2|1:2|1:2,0:0:0:0:
199,226,91965,6,0,L|202:201,1,25.0000009536744,8|0,1:2|0:0,0:0:0:0:
114,238,92064,1,0,1:0:0:0:
278,257,92163,1,0,1:0:0:0:
211,127,92262,6,0,L|214:102,1,25.0000009536744,8|0,1:2|0:0,0:0:0:0:
76,147,92361,1,0,1:0:0:0:
335,179,92460,1,0,1:0:0:0:
222,26,92559,6,0,L|225:1,5,25.0000009536744,8|0|0|0|0|0,1:2|0:0|1:0|0:0|1:0|0:0,0:0:0:0:
213,102,92856,2,0,L|210:127,5,25.0000009536744,8|0|0|0|0|0,1:2|0:0|1:0|0:0|1:0|0:0,0:0:0:0:
388,79,93153,5,8,1:2:0:0:
459,14,93252,2,0,P|485:68|465:135,1,100.000003814697,0|0,1:0|0:0,0:0:0:0:
368,157,93351,5,8,1:2:0:0:
313,106,93450,2,0,P|292:149|308:202,1,86.6666626993817,0|0,1:0|0:0,0:0:0:0:
401,228,93549,5,8,1:2:0:0:
443,187,93648,2,0,P|458:219|446:259,1,73.3333355712891,0|0,1:0|0:0,0:0:0:0:
360,292,93747,5,8,1:2:0:0:
328,261,93846,2,0,P|316:285|325:315,1,59.9999981689454,0|0,1:0|0:0,0:0:0:0:
394,365,93945,5,8,1:2:0:0:
418,341,94044,2,0,P|427:359|420:383,1,46.6666652425131,0|0,1:0|0:0,0:0:0:0:
290,384,94143,5,10,1:2:0:0:
290,384,94242,1,10,1:2:0:0:
290,384,94341,5,10,0:0:0:0:
184,369,94489,5,10,0:0:0:0:
78,349,94638,6,0,L|72:348,6,5,2|0|0|0|0|0|0,1:2|1:0|1:0|1:0|1:0|1:0|1:0,0:0:0:0:
108,334,94935,6,2,L|103:266,1,60,2|0,0:0|0:0,0:1:0:0:
285,7,95529,6,0,P|297:32|296:37,1,30,4|0,0:1|0:0,0:0:0:0:
100,36,95826,6,0,B|87:31|66:28|66:28|223:6|185:144|302:132,1,300,12|0,0:0|0:0,0:0:0:0:
379,81,96123,2,0,P|376:189|211:192,1,300,8|0,0:0|0:0,0:0:0:0:
63,110,96420,2,0,P|38:221|112:120,1,300,8|0,0:0|0:0,0:0:0:0:
100,36,96717,2,0,B|87:31|66:28|66:28|223:6|185:144|302:132,1,300,8|0,0:0|0:0,0:0:0:0:
378,80,97014,2,0,P|351:214|215:197,1,300,8|0,0:0|0:0,0:0:0:0:
63,110,97311,6,0,P|35:159|43:192,1,75,10|0,0:0|0:0,0:0:0:0:
142,138,97608,2,0,P|139:175|116:204,1,75,8|0,0:0|0:0,0:0:0:0:
0,306,97905,6,0,P|105:252|330:294,1,300,10|0,0:0|0:0,0:0:0:0:
294,285,98202,2,0,B|301:311|292:344|292:344|285:317|268:295,1,100,10|0,0:0|0:0,0:0:0:0:
307,86,98351,2,0,B|281:144|318:225|358:200|396:283|364:366,1,300,2|0,0:0|0:0,0:0:0:0:
390,126,98648,2,0,P|412:102|486:91,1,100,2|0,0:0|0:0,0:0:0:0:
468,246,98796,2,0,B|410:272|329:235|354:195|271:157|188:189,1,300,10|0,0:0|0:0,0:0:0:0:
97,235,99093,6,0,P|60:284|58:353,1,100,10|0,1:2|0:0,0:0:0:0:
103,134,99242,1,0,1:2:0:0:
96,74,99316,1,0,1:2:0:0:
56,29,99390,1,8,1:2:0:0:
188,188,99539,1,2,1:2:0:0:
56,29,99687,5,8,1:2:0:0:
96,74,99761,1,0,1:2:0:0:
103,134,99835,1,0,1:2:0:0:
83,191,99910,1,0,1:2:0:0:
40,281,99984,5,10,1:2:0:0:
97,235,100059,1,0,1:2:0:0:
174,217,100133,1,0,1:2:0:0:
257,230,100207,1,0,1:2:0:0:
308,332,100281,6,0,P|294:220|414:64,1,300,12|0,0:0|0:0,0:0:0:0:
230,37,100579,2,0,P|313:157|312:310,1,300,8|0,0:0|0:0,0:0:0:0:
308,332,100876,2,0,B|263:349|263:349|212:337,1,100,10|0,0:0|0:0,0:0:0:0:
400,295,101024,2,0,B|444:277|444:277|495:289,1,100,2|0,0:0|0:0,0:0:0:0:
212,337,101173,6,0,B|53:293|53:293|46:296|46:296|55:300|55:300|271:261,1,375,2|0,0:1|0:0,0:0:0:0:
396,72,101470,6,0,L|388:141,1,50,8|0,0:0|0:0,0:0:0:0:
345,354,101618,6,0,P|290:344|260:266,1,100,0|0,1:0|0:0,0:0:0:0:
383,263,101767,2,0,P|373:318|295:348,1,100,0|0,1:0|0:0,0:0:0:0:
292,225,101915,2,0,P|347:235|377:313,1,100,0|0,1:0|0:0,0:0:0:0:
390,121,102064,6,0,L|398:190,1,50,8|0,0:0|0:0,0:0:0:0:
243,316,102212,6,0,P|254:255|339:222,1,112.500004291535,0|0,1:0|0:0,0:0:0:0:
354,360,102361,2,0,P|293:349|260:263,1,112.500004291535,0|0,1:0|0:0,0:0:0:0:
389,254,102509,2,0,P|378:314|292:347,1,112.500004291535,0|0,1:0|0:0,0:0:0:0:
116,312,102658,6,0,L|124:243,1,50,8|0,0:0|0:0,0:0:0:0:
167,30,102806,6,0,P|222:40|252:118,1,100,0|0,1:0|0:0,0:0:0:0:
129,121,102955,2,0,P|139:66|217:36,1,100,0|0,1:0|0:0,0:0:0:0:
220,159,103103,2,0,P|165:149|135:71,1,100,0|0,1:0|0:0,0:0:0:0:
122,263,103252,6,0,L|114:194,1,50,8|0,0:0|0:0,0:0:0:0:
269,68,103400,6,0,P|258:129|173:162,1,112.500004291535,0|0,1:0|0:0,0:0:0:0:
158,24,103549,1,2,0:3:0:0:
199,13,103623,1,2,0:3:0:0:
232,35,103697,1,2,0:3:0:0:
277,18,103772,1,2,0:3:0:0:
343,56,103846,6,0,L|498:39,1,100,8|0,0:0|0:0,0:0:0:0:
332,155,103994,2,0,L|487:138,1,100,8|0,0:0|0:0,0:0:0:0:
442,45,104291,6,0,L|425:200,1,100,8|0,0:0|0:0,0:0:0:0:
332,155,104588,6,0,L|343:56,1,100,8|0,0:0|0:0,0:0:0:0:
397,236,104737,5,0,1:0:0:0:
397,236,104811,1,0,1:0:0:0:
397,236,104885,1,0,3:0:0:0:
397,236,104960,1,0,3:0:0:0:
297,243,105034,6,0,B|134:263|134:263|79:199|79:199|-8:212,1,300,14|0,0:0|0:0,0:0:0:0:
262,117,105331,2,0,B|110:181|110:181|95:264|95:264|13:296,1,300,8|0,0:0|0:0,0:0:0:0:
182,44,105628,2,0,L|129:340,1,300,8|0,0:0|0:0,0:0:0:0:
70,112,105925,2,0,L|264:341,1,300,8|0,0:0|0:0,0:0:0:0:
16,249,106222,2,0,L|362:159,1,300,8|0,0:0|0:0,0:0:0:0:
358,97,106519,2,0,P|473:105|368:183,1,300,8|0,0:0|0:0,0:0:0:0:
306,173,106816,6,0,P|283:210|294:254,1,75,10|0,0:0|0:0,0:0:0:0:
387,195,107113,2,0,P|388:231|367:261,1,75,8|0,0:0|0:0,0:0:0:0:
259,333,107410,6,0,B|199:324|155:258|224:213|128:154|58:196|58:196|70:214|69:230,1,300,10|0,0:0|0:0,0:0:0:0:
1,270,107707,2,0,P|42:296|91:295,1,100,10|0,0:0|0:0,0:0:0:0:
254,175,107856,2,0,B|314:184|358:250|289:295|385:354|455:312|455:312|442:293|444:278,1,300,2|0,0:0|0:0,0:0:0:0:
512,235,108153,2,0,P|470:208|421:209,1,100,2|0,0:0|0:0,0:0:0:0:
454,333,108301,2,0,B|338:379|230:245|395:203|418:345|335:391,1,300,10|0,0:0|0:0,0:0:0:0:
271,354,108598,1,10,0:0:0:0:
321,183,108747,5,0,1:2:0:0:
375,183,108821,1,0,1:2:0:0:
421,209,108895,5,8,1:2:0:0:
421,209,108970,1,0,1:2:0:0:
421,209,109044,1,2,1:2:0:0:
421,209,109118,1,0,1:2:0:0:
421,209,109192,5,8,1:2:0:0:
428,169,109267,1,0,1:2:0:0:
435,129,109341,1,0,1:2:0:0:
442,89,109415,1,0,1:2:0:0:
449,49,109489,5,10,1:2:0:0:
370,68,109564,1,0,1:2:0:0:
292,86,109638,1,0,1:2:0:0:
214,105,109712,1,0,1:2:0:0:
136,124,109786,6,0,B|110:131|110:131|72:220|147:326|263:278,1,300,14|0,0:0|0:0,0:0:0:0:
214,105,110083,2,0,B|186:40|119:48|119:48|1:72|1:72|57:36,1,300,8|0,0:0|0:0,0:0:0:0:
63,29,110380,2,0,L|182:4,1,100,10|0,0:0|0:0,0:0:0:0:
136,124,110529,2,0,L|17:149,1,100,2|0,0:0|0:0,0:0:0:0:
324,14,110678,6,0,B|483:58|483:58|490:55|490:55|481:51|481:51|265:90,1,375,2|0,0:1|0:0,0:0:0:0:
184,229,110975,6,0,B|150:311|212:364|212:364|300:315|257:178,1,300,8|0,0:0|0:0,0:0:0:0:
233,158,111272,2,0,B|178:87|102:114|102:114|100:215|240:246,1,300,8|0,0:0|0:0,0:0:0:0:
269,235,111569,2,0,B|357:223|371:143|371:143|285:91|188:197,1,300,8|0,0:0|0:0,0:0:0:0:
184,229,111866,2,0,B|220:277|270:235|270:235|289:180|232:157|232:157|170:169|183:229,1,300,8|0,0:0|0:0,0:0:0:0:
399,123,112163,6,0,B|475:108|475:108|493:46|493:46|294:14|294:14|320:46,1,300.000011444092,12|0,0:0|0:0,0:0:0:0:
113,123,112385,2,0,B|37:108|37:108|19:46|19:46|218:14|218:14|192:46,1,300.000011444092,12|0,0:0|0:0,0:0:0:0:
256,10,112608,2,0,L|256:58,1,25,2|0,0:0|0:0,0:0:0:0:
94,249,112757,6,0,B|8:232|8:232|-11:162|-11:162|211:126|211:126|182:162,1,350.00000333786,12|0,0:0|0:0,0:0:0:0:
415,249,112979,2,0,B|500:232|500:232|520:162|520:162|297:126|297:126|326:162,1,350.00000333786,12|0,0:0|0:0,0:0:0:0:
256,130,113202,2,0,L|256:178,1,25,2|0,0:0|0:0,0:0:0:0:
418,382,113351,6,0,B|511:363|511:363|533:286|533:286|289:246|289:246|320:286,1,379.999989852906,12|0,0:0|0:0,0:0:0:0:
94,382,113573,2,0,B|1:363|1:363|-21:286|-21:286|223:246|223:246|192:286,1,379.999989852906,12|0,0:0|0:0,0:0:0:0:
256,248,113796,2,0,L|256:296,1,25,2|0,0:0|0:0,0:0:0:0:
256,352,113945,6,0,L|256:390,1,30,2|0,0:0|0:0,0:0:0:0:
221,384,114242,6,0,P|214:358|234:323,1,50,2|0,0:0|0:0,0:0:0:0:
286,279,114390,2,0,P|292:255|285:231,1,50,2|0,0:0|0:0,0:0:0:0:
230,58,114539,6,0,P|190:44|136:55,1,75.0000028610231,10|0,0:0|0:0,0:0:0:0:
209,28,114687,2,0,P|166:28|119:57,1,75.0000028610231,2|0,0:0|0:0,0:0:0:0:
284,149,114836,6,0,P|244:162|190:151,1,69.9999978637696,10|0,0:0|0:0,0:0:0:0:
263,178,114984,2,0,P|221:177|174:148,1,69.9999978637696,2|0,0:0|0:0,0:0:0:0:
339,53,115133,6,0,P|302:41|254:51,1,64.9999970245363,10|0,0:0|0:0,0:0:0:0:
320,26,115281,2,0,P|282:26|239:53,1,64.9999970245363,2|0,0:0|0:0,0:0:0:0:
394,170,115430,6,0,P|357:181|309:171,1,59.9999981689454,10|0,0:0|0:0,0:0:0:0:
375,197,115578,2,0,P|337:196|294:169,1,59.9999981689454,2|0,0:0|0:0,0:0:0:0:
452,54,115727,6,0,P|415:42|367:52,1,55.0000016784668,10|0,0:0|0:0,0:0:0:0:
433,27,115875,2,0,P|395:27|352:54,1,55.0000016784668,2|0,0:0|0:0,0:0:0:0:
501,159,116024,6,0,P|464:170|416:160,1,50,10|0,0:0|0:0,0:0:0:0:
482,186,116172,2,0,P|444:185|401:158,1,50,2|0,0:0|0:0,0:0:0:0:
150,181,116321,6,2,B|154:186|154:186|148:192|148:192|155:199|155:199|148:206|148:206|157:212|157:212|150:214|150:214|156:221|156:221|151:226|151:226|159:232|159:232|155:236|155:236|160:240|160:240|153:245|153:245|160:249|160:249|153:249,1,112.500004291535,2|0,0:1|0:0,0:1:0:0:
146,258,116618,6,2,B|138:170|138:170|159:169|159:169|171:266,1,200,2|0,0:1|0:0,0:1:0:0:
165,337,116767,6,0,L|168:370,1,25,2|0,0:1|0:0,0:0:0:0:
144,92,116915,6,0,L|138:7,1,75.0000028610231,10|0,0:0|0:0,0:0:0:0:
125,17,117064,2,0,L|130:91,1,75.0000028610231,2|0,0:0|0:0,0:0:0:0:
314,173,117212,6,0,L|320:93,1,69.9999978637696,10|0,0:0|0:0,0:0:0:0:
332,103,117361,2,0,L|327:172,1,69.9999978637696,2|0,0:0|0:0,0:0:0:0:
154,238,117509,6,0,L|148:163,1,64.9999970245363,10|0,0:0|0:0,0:0:0:0:
137,172,117658,2,0,L|141:236,1,64.9999970245363,2|0,0:0|0:0,0:0:0:0:
305,312,117806,6,0,L|310:242,1,59.9999981689454,10|0,0:0|0:0,0:0:0:0:
320,250,117955,2,0,L|316:309,1,59.9999981689454,2|0,0:0|0:0,0:0:0:0:
154,338,118103,5,10,0:0:0:0:
366,184,118252,1,2,3:2:0:0:
314,173,118326,1,0,3:2:0:0:
262,191,118400,1,2,3:2:0:0:
307,96,118549,5,2,3:2:0:0:
307,96,118623,1,0,3:2:0:0:
297,122,118697,2,0,P|328:79|311:123,2,150,2|2|2,0:0|0:0|0:0,0:0:0:0:
497,116,119291,6,0,P|459:100|414:101,1,75.0000028610231,10|0,0:0|0:0,0:0:0:0:
495,128,119440,2,0,P|457:112|412:113,1,75.0000028610231,2|0,0:0|0:0,0:0:0:0:
169,70,119588,6,0,P|207:86|252:85,1,75.0000028610231,10|0,0:0|0:0,0:0:0:0:
171,58,119737,2,0,P|209:74|254:73,1,75.0000028610231,2|0,0:0|0:0,0:0:0:0:
493,140,119885,6,0,P|455:124|410:125,1,75.0000028610231,10|0,0:0|0:0,0:0:0:0:
491,152,120034,2,0,P|453:136|408:137,1,75.0000028610231,2|0,0:0|0:0,0:0:0:0:
173,46,120182,6,0,P|211:62|256:61,1,75.0000028610231,10|0,0:0|0:0,0:0:0:0:
175,34,120331,2,0,P|213:50|258:49,1,75.0000028610231,2|0,0:0|0:0,0:0:0:0:
489,164,120480,6,0,P|451:148|406:149,1,75.0000028610231,10|0,0:0|0:0,0:0:0:0:
487,176,120629,2,0,P|449:160|404:161,1,75.0000028610231,2|0,0:0|0:0,0:0:0:0:
177,22,120777,6,0,P|215:38|260:37,1,75.0000028610231,10|0,0:0|0:0,0:0:0:0:
179,10,120926,2,0,P|217:26|262:25,1,75.0000028610231,2|0,0:0|0:0,0:0:0:0:
315,202,121074,6,2,B|311:207|311:207|317:213|317:213|310:220|310:220|317:227|317:227|308:233|308:233|315:235|315:235|309:242|309:242|314:247|314:247|306:253|306:253|310:257|310:257|305:261|305:261|312:266|312:266|305:270|305:270|312:270,1,112.500004291535,2|0,0:1|0:0,0:1:0:0:
319,279,121371,6,2,B|327:191|327:191|306:190|306:190|294:287,1,200,2|0,0:1|0:0,0:1:0:0:
330,89,121520,6,0,L|327:122,1,25,2|0,0:1|0:0,0:0:0:0:
299,360,121668,6,0,P|259:353|218:303,1,75.0000028610231,10|0,0:0|0:0,0:0:0:0:
305,347,121816,2,0,P|265:340|224:290,1,75.0000028610231,2|0,0:0|0:0,0:0:0:0:
104,307,121964,6,0,P|64:314|23:364,1,75.0000028610231,10|0,0:0|0:0,0:0:0:0:
110,294,122113,2,0,P|70:301|29:351,1,75.0000028610231,2|0,0:0|0:0,0:0:0:0:
311,334,122262,6,0,P|271:327|230:277,1,75.0000028610231,10|0,0:0|0:0,0:0:0:0:
317,321,122410,2,0,P|277:314|236:264,1,75.0000028610231,2|0,0:0|0:0,0:0:0:0:
116,281,122558,6,0,P|76:288|35:338,1,75.0000028610231,10|0,0:0|0:0,0:0:0:0:
122,268,122707,2,0,P|82:275|41:325,1,75.0000028610231,2|0,0:0|0:0,0:0:0:0:
323,308,122856,6,0,P|283:301|242:251,1,75.0000028610231,10|0,0:0|0:0,0:0:0:0:
133,179,123004,1,2,0:0:0:0:
133,179,123079,1,2,0:0:0:0:
133,179,123153,1,10,0:0:0:0:
438,210,123301,5,2,0:0:0:0:
380,222,123375,1,2,0:0:0:0:
321,233,123450,1,2,0:0:0:0:
253,75,123598,6,0,L|153:62,1,100,2|0,0:0|0:0,0:0:0:0:
133,179,123747,2,0,B|237:194|237:194|253:76,1,225.000008583069,2|0,0:0|0:0,0:0:0:0:
45,77,124044,5,10,0:0:0:0:
476,364,124341,5,10,0:0:0:0:
501,217,124489,1,2,0:0:0:0:
476,364,124638,1,10,0:0:0:0:
488,290,124786,1,2,0:0:0:0:
501,217,124935,1,10,0:0:0:0:
154,64,125232,5,10,0:0:0:0:
329,339,125529,5,10,0:0:0:0:
476,364,125677,1,2,0:0:0:0:
329,339,125826,1,10,0:0:0:0:
403,351,125974,1,2,0:0:0:0:
476,364,126123,1,10,0:0:0:0:
263,51,126420,5,10,0:0:0:0:
354,192,126717,5,10,0:0:0:0:
329,339,126865,1,2,0:0:0:0:
354,192,127014,1,10,0:0:0:0:
342,266,127162,1,2,0:0:0:0:
329,339,127311,1,10,0:0:0:0:
372,38,127608,5,10,0:0:0:0:
501,217,127905,5,10,0:0:0:0:
354,192,128053,1,2,0:0:0:0:
501,217,128202,1,10,0:0:0:0:
427,205,128350,1,2,0:0:0:0:
354,192,128499,1,10,0:0:0:0:
248,308,128796,6,0,P|235:254|225:243,1,59.9999981689454,8|0,1:2|0:0,0:0:0:0:
167,206,129093,2,0,P|111:199|98:205,1,59.9999981689454,0|0,1:2|0:0,0:0:0:0:
257,314,129390,6,0,P|273:266|272:224,1,69.9999978637696,8|0,1:2|0:0,0:0:0:0:
261,159,129687,2,0,P|242:111|214:80,1,69.9999978637696,0|0,1:0|0:0,0:0:0:0:
266,323,129984,6,0,P|306:265|317:227,1,80,8|0,1:2|0:0,0:0:0:0:
354,158,130281,2,0,P|359:87|350:49,1,80,0|0,1:0|0:0,0:0:0:0:
271,331,130579,6,0,P|321:307|358:280,1,89.9999972534181,8|0,1:2|0:0,0:0:0:0:
454,196,130876,2,0,P|492:156|518:118,1,89.9999972534181,0|0,1:0|0:0,0:0:0:0:
6,288,131173,6,0,B|302:322|302:322|498:343|592:181|519:-11|321:-23|203:47|223:242,1,1050.00004005432,8|0,0:0|0:0,0:0:0:0:
235,238,132361,6,0,L|278:234,1,37.5000014305115,2|0,0:0|0:0,0:0:0:0:
248,255,132509,2,0,L|287:236,1,37.5000014305115,2|0,0:0|0:0,0:0:0:0:
357,183,132658,1,2,0:0:0:0:
344,317,132806,6,0,L|362:277,1,37.5000014305115,2|0,0:0|0:0,0:0:0:0:
365,314,132954,2,0,L|368:270,1,37.5000014305115,2|0,0:0|0:0,0:0:0:0:
357,183,133103,1,2,0:0:0:0:
466,262,133252,6,0,L|441:226,3,37.5000014305115,2|2|2|2,0:3|0:3|0:3|0:3,0:0:0:0:
475,154,133549,6,0,P|456:147|436:148,1,40,6|0,0:0|0:0,0:0:0:0:
357,183,133772,6,0,B|204:198|204:198|164:161,1,200,12|0,0:0|0:0,0:0:0:0:
303,215,133994,2,0,B|164:145|164:145|92:200,1,230.000004386902,12|0,0:0|0:0,0:0:0:0:
262,144,134217,2,0,B|99:215|99:215|36:138,1,259.999988098145,12|0,0:0|0:0,0:0:0:0:
213,263,134440,2,0,B|66:114|66:114|-3:184,1,290.000008850098,12|0,0:0|0:0,0:0:0:0:
166,72,134663,2,0,B|113:150|113:150|109:175|109:175|47:265|47:265|-8:120,1,320,12|0,0:0|0:0,0:0:0:0:
109,332,134885,2,0,B|89:271|89:271|80:262|80:262|24:117|24:117|25:91|25:91|-25:240,1,350.00000333786,12|0,0:0|0:0,0:0:0:0:
78,0,135108,2,0,B|41:96|41:96|54:143|54:143|13:277|13:277|-8:174,1,379.999989852906,12|0,0:0|0:0,0:0:0:0:
0,377,135331,6,0,L|64:384,1,50,0|0,3:0|3:0,0:0:0:0:
432,241,135628,6,0,B|438:111|438:111|441:49|363:44|360:107|360:107|351:302|351:302|347:360|402:366|402:366|444:368|444:368|455:192,1,750,4|0,0:0|0:0,0:0:0:0:
472,130,136148,6,0,P|356:138|256:223,1,200,12|0,0:0|0:0,0:0:0:0:
453,215,136371,2,0,P|328:211|251:116,1,230.000004386902,12|0,0:0|0:0,0:0:0:0:
384,47,136593,2,0,P|259:142|233:252,1,259.999988098145,12|0,0:0|0:0,0:0:0:0:
377,336,136816,2,0,P|250:258|223:74,1,290.000008850098,12|0,0:0|0:0,0:0:0:0:
277,0,137039,2,0,P|164:139|144:297,1,320,12|0,0:0|0:0,0:0:0:0:
204,384,137262,2,0,P|115:224|114:51,1,350.00000333786,12|0,0:0|0:0,0:0:0:0:
161,0,137484,2,0,P|25:182|9:352,1,379.999989852906,12|0,0:0|0:0,0:0:0:0:
80,368,137707,5,2,0:0:0:0:
80,368,137781,1,2,0:0:0:0:
80,368,137856,1,2,0:0:0:0:
80,368,137930,1,2,0:0:0:0:
80,368,138004,6,0,L|100:245,2,100.000003814697,8|8|8,0:0|0:0|0:0,0:0:0:0:
118,177,138301,6,0,L|68:167,1,50,8|0,0:0|0:0,0:0:0:0:
4,247,138524,6,0,L|273:188,1,200,12|0,0:0|0:0,0:0:0:0:
60,152,138747,2,0,L|319:197,1,230.000004386902,12|0,0:0|0:0,0:0:0:0:
96,269,138970,2,0,L|368:181,1,259.999988098145,12|0,0:0|0:0,0:0:0:0:
113,80,139192,2,0,L|379:192,1,290.000008850098,12|0,0:0|0:0,0:0:0:0:
143,374,139415,2,0,L|413:189,1,320,12|0,0:0|0:0,0:0:0:0:
141,0,139638,2,0,L|453:213,1,350.00000333786,12|0,0:0|0:0,0:0:0:0:
82,302,139861,2,0,L|448:199,1,379.999989852906,12|0,0:0|0:0,0:0:0:0:
478,56,140083,6,0,L|485:113,1,50,0|0,3:0|3:0,0:0:0:0:
459,326,140380,6,0,B|280:304|280:304|198:290|223:206|147:197|147:197|86:191|86:191|19:187|7:269|78:278|78:278|132:281,1,625,4|0,0:0|0:0,0:0:0:0:
297,222,140826,6,0,B|346:135|346:135|292:50,1,200,12|0,0:0|0:0,0:0:0:0:
383,216,141049,2,0,B|392:103|392:103|294:39,1,230.000004386902,12|0,0:0|0:0,0:0:0:0:
473,185,141272,2,0,L|413:49,1,129.999994049073,12|0,0:0|0:0,0:0:0:0:
295,29,141420,2,0,L|419:65,1,129.999994049073,12|0,0:0|0:0,0:0:0:0:
512,84,141569,6,0,L|519:104,1,20,8|0,0:0|0:0,0:0:0:0:
215,222,142014,6,0,B|166:135|166:135|219:50,1,200,12|0,0:0|0:0,0:0:0:0:
129,216,142237,2,0,B|119:103|119:103|217:39,1,230.000004386902,12|0,0:0|0:0,0:0:0:0:
39,185,142460,2,0,L|99:49,1,129.999994049073,12|0,0:0|0:0,0:0:0:0:
217,29,142608,2,0,L|129:54,4,64.9999970245363,8|8|8|8|8,0:0|0:0|0:0|0:0|0:0,0:0:0:0:
0,84,142905,5,2,0:0:0:0:
0,70,142980,1,2,0:0:0:0:
6,52,143054,1,2,0:0:0:0:
23,37,143128,1,2,0:0:0:0:
60,33,143202,1,2,0:0:0:0:
91,66,143277,1,2,0:0:0:0:
87,120,143351,1,2,0:0:0:0:
45,161,143425,1,2,0:0:0:0:
1,211,143499,1,2,0:0:0:0:
0,283,143574,1,2,0:0:0:0:
56,337,143648,1,2,0:0:0:0:
133,348,143722,1,2,0:0:0:0:
194,302,143796,1,2,0:0:0:0:
202,239,143871,1,2,0:0:0:0:
173,188,143945,1,2,0:0:0:0:
160,141,144019,1,2,0:0:0:0:
172,101,144093,1,2,0:0:0:0:
198,81,144168,1,2,0:0:0:0:
229,81,144242,5,2,0:0:0:0:
253,96,144316,1,2,0:0:0:0:
285,140,144390,1,2,0:0:0:0:
331,186,144465,1,2,0:0:0:0:
399,207,144539,1,2,0:0:0:0:
471,186,144613,1,2,0:0:0:0:
501,119,144687,1,2,0:0:0:0:
468,45,144762,1,2,0:0:0:0:
390,34,144836,6,0,P|378:51|377:97,1,50,2|0,0:0|0:0,0:0:0:0:
259,131,144984,2,0,P|267:148|298:181,1,50,2|0,0:0|0:0,0:0:0:0:
200,277,145133,6,0,L|226:289,1,25,2|0,0:0|0:0,0:0:0:0:
247,314,145207,6,0,L|289:314,1,32.4999985122681,2|0,0:0|0:0,0:0:0:0:
327,328,145281,6,0,L|364:298,1,40,2|0,0:0|0:0,0:0:0:0:
410,300,145356,6,0,L|432:237,1,47.4999987316132,2|0,0:0|0:0,0:0:0:0:
425,163,145430,5,6,0:0:0:0:
88,232,148994,5,0,0:0:0:0:
81,245,149069,1,0,0:0:0:0:
78,259,149143,1,0,0:0:0:0:
78,273,149217,1,0,0:0:0:0:
82,287,149291,5,2,0:0:0:0:
126,262,149366,1,2,0:0:0:0:
175,254,149440,1,2,0:0:0:0:
32,324,149588,5,2,0:0:0:0:
66,273,149663,1,2,0:0:0:0:
119,245,149737,1,2,0:0:0:0:
178,238,149811,1,2,0:0:0:0:
235,252,149885,2,0,L|245:326,1,50,2|0,0:0|0:0,0:0:0:0:
165,378,150034,2,0,L|171:328,1,50,2|0,0:0|0:0,0:0:0:0:
162,164,150182,6,0,L|245:154,1,75.0000028610231,10|0,0:0|0:0,0:0:0:0:
376,190,150331,1,2,0:0:0:0:
296,83,150480,6,0,L|237:36,1,75.0000028610231,10|0,0:0|0:0,0:0:0:0:
348,204,150628,1,2,0:0:0:0:
381,9,150777,6,0,L|391:92,1,75.0000028610231,10|0,0:0|0:0,0:0:0:0:
341,231,150925,1,2,0:0:0:0:
466,128,151074,6,0,L|512:69,1,75.0000028610231,10|0,0:0|0:0,0:0:0:0:
350,259,151222,1,2,0:0:0:0:
502,271,151371,6,0,P|471:297|388:298,1,89.9999972534181,10|0,0:0|0:0,0:0:0:0:
338,350,151519,2,0,P|299:336|257:264,1,89.9999972534181,10|0,0:0|0:0,0:0:0:0:
235,173,151668,6,0,P|204:147|121:146,1,89.9999972534181,10|0,0:0|0:0,0:0:0:0:
72,93,151816,2,0,P|33:106|-8:178,1,89.9999972534181,10|0,0:0|0:0,0:0:0:0:
17,248,151965,6,0,P|55:234|97:162,1,89.9999972534181,10|0,0:0|0:0,0:0:0:0:
177,315,152113,2,0,P|183:275|142:202,1,89.9999972534181,10|0,0:0|0:0,0:0:0:0:
242,86,152262,6,0,P|280:99|322:171,1,89.9999972534181,10|0,0:0|0:0,0:0:0:0:
402,19,152410,2,0,P|408:58|367:131,1,89.9999972534181,10|0,0:0|0:0,0:0:0:0:
33,331,152559,5,10,0:0:0:0:
33,331,152856,6,0,P|40:336|36:325,1,25,2|0,0:0|0:0,0:0:0:0:
111,352,153004,6,0,P|124:350|109:347,1,37.5000014305115,2|0,0:0|0:0,0:0:0:0:
197,339,153153,6,0,P|204:326|197:331,1,50,2|0,0:0|0:0,0:0:0:0:
297,289,153301,6,0,P|305:267|282:284,1,75.0000028610231,2|0,0:0|0:0,0:0:0:0:
363,185,153450,6,0,P|349:147|348:186,1,100,2|0,0:0|0:0,0:0:0:0:
385,32,153598,6,0,P|340:49|379:42,1,150.000005722046,2|0,0:0|0:0,0:0:0:0:
247,149,153747,6,0,P|215:168|178:167,1,75.0000028610231,10|8,0:0|0:0,0:0:0:0:
99,47,154044,6,0,P|59:110|104:167,1,150.000005722046,0|0,1:0|0:0,0:0:0:0:
194,86,154192,2,0,P|130:46|73:91,1,150.000005722046,0|0,1:0|0:0,0:0:0:0:
154,181,154341,2,0,P|193:117|148:60,1,150.000005722046,0|0,1:0|0:0,0:0:0:0:
58,142,154489,2,0,P|121:181|178:136,1,150.000005722046,0|0,1:0|0:0,0:0:0:0:
431,87,154638,6,0,P|398:214|372:385,1,300,2|0,0:0|0:0,0:0:0:0:
304,211,154935,6,0,B|280:240|262:246|262:246|257:245|257:245|292:269|319:252|319:252|325:258|325:258|357:246|356:208|356:208|358:172|397:157|423:185|423:185|452:206|489:198|491:157,1,375,6|0,0:0|0:0,0:0:0:0:
506,67,155232,2,0,B|503:46|456:28|456:28|413:19|433:-63|493:3|456:29|456:29|425:58|432:89,1,250,2|0,0:0|0:0,0:0:0:0:
345,77,155418,6,0,L|271:61,2,75.0000028610231,2|2|2,0:3|0:3|0:3,0:0:0:0:
381,159,155529,6,0,L|392:244,1,50,8|0,0:3|0:0,0:0:0:0:
387,208,155752,6,0,L|349:302,1,75.0000028610231,4|0,0:3|0:0,0:0:0:0:
358,277,155975,6,0,L|256:319,1,100,4|0,0:3|0:0,0:0:0:0:
266,315,156197,6,0,L|125:292,1,125,4|0,0:3|0:0,0:0:0:0:
142,294,156420,6,0,L|44:147,1,150.000005722046,4|0,0:3|0:0,0:0:0:0:
59,170,156643,6,0,L|145:184,1,75.0000028610231,4|0,0:3|0:0,0:0:0:0:
211,149,156717,2,0,B|240:85|240:85|214:122|214:122|107:103|107:103|43:186,1,300,8|0,0:3|0:0,0:0:0:0:
180,28,156866,5,2,0:0:0:0:
177,42,156941,1,2,0:0:0:0:
166,25,157014,1,2,0:0:0:0:
162,39,157088,1,2,0:0:0:0:
151,22,157163,1,2,0:0:0:0:
147,36,157237,1,2,0:0:0:0:
120,54,157311,6,0,B|15:60|15:60|96:84|96:84|135:66,1,225.000008583069,2|0,0:0|0:0,0:0:0:0:
206,34,157460,2,0,B|238:19|238:19|319:43|319:43|214:49,1,225.000008583069,2|0,0:0|0:0,0:0:0:0:
111,27,157608,2,0,B|6:14|6:14|82:52|82:52|123:41,1,225.000008583069,2|0,0:0|0:0,0:0:0:0:
219,59,157757,2,0,B|253:49|253:49|328:87|328:87|224:75,1,225.000008583069,2|0,0:0|0:0,0:0:0:0:
237,210,157905,6,0,L|297:206,1,50,8|0,0:3|0:0,0:0:0:0:
286,206,158128,6,0,L|319:128,1,75.0000028610231,4|0,0:3|0:0,0:0:0:0:
315,137,158351,6,0,L|423:129,1,100,4|0,0:3|0:0,0:0:0:0:
414,129,158574,6,0,L|466:4,2,125,6|2|2,0:3|0:3|0:3,0:0:0:0:
369,220,158796,1,4,0:3:0:0:
369,220,158945,5,2,0:0:0:0:
455,208,159019,1,2,0:0:0:0:
421,288,159093,2,0,P|387:304|331:294,1,75.0000028610231,2|0,0:0|0:0,0:0:0:0:
238,265,159242,2,0,P|201:264|168:280,1,75.0000028610231,2|0,0:0|0:0,0:0:0:0:
92,363,159390,6,0,P|58:378|21:377,1,75.0000028610231,2|0,0:0|0:0,0:0:0:0:
177,384,159687,6,0,B|209:343|204:278|204:278|217:268|217:268|189:203|212:134|212:134|202:123|202:123|252:68|238:0,1,375,6|0,0:0|0:0,0:0:0:0:
240,38,159984,2,0,P|191:41|138:70,6,87.500000834465,2|0|0|0|0|0|0,0:0|0:0|0:0|0:0|0:0|0:0|0:0,0:0:0:0:
90,151,160281,5,8,0:3:0:0:
92,138,160356,2,0,L|56:142,1,30,2|0,0:0|0:0,0:0:0:0:
160,232,160653,2,0,L|131:228,1,20,2|0,0:0|0:0,0:0:0:0:
125,228,160876,1,4,0:3:0:0:
227,122,160950,2,0,L|191:126,1,30,2|0,0:0|0:0,0:0:0:0:
283,250,161247,2,0,L|254:246,1,20,2|0,0:0|0:0,0:0:0:0:
248,246,161470,2,0,L|233:244,1,10,8|2,0:3|0:0,0:0:0:0:
325,140,161618,5,2,0:0:0:0:
327,162,161692,1,2,0:0:0:0:
335,144,161767,1,2,0:0:0:0:
337,163,161841,1,2,0:0:0:0:
345,145,161915,1,2,0:0:0:0:
347,164,161989,1,2,0:0:0:0:
364,160,162064,6,0,B|383:79|383:79|374:39|374:39|350:77|350:77|358:172,1,225.000008583069,2|0,0:0|0:0,0:0:0:0:
343,238,162212,2,0,B|324:319|324:319|333:359|333:359|357:321|357:321|349:226,1,225.000008583069,2|0,0:0|0:0,0:0:0:0:
274,190,162361,2,0,B|183:168|183:168|166:193|166:193|305:195,1,225.000008583069,2|0,0:0|0:0,0:0:0:0:
419,209,162509,2,0,B|510:231|510:231|527:206|527:206|388:204,1,225.000008583069,2|0,0:0|0:0,0:0:0:0:
253,309,162658,5,8,0:3:0:0:
246,293,162732,2,0,P|210:297|171:290,1,50,2|0,0:0|0:0,0:0:0:0:
174,304,163029,6,0,P|129:290|99:271,1,75.0000028610231,2|0,0:0|0:0,0:0:0:0:
101,296,163252,5,4,0:3:0:0:
106,276,163326,2,0,P|76:235|58:184,1,100,2|0,0:0|0:0,0:0:0:0:
48,183,163623,6,0,P|56:103|82:40,1,125,2|0,0:0|0:0,0:0:0:0:
18,333,164291,6,0,L|16:382,1,50,0|0,3:0|0:0,0:0:0:0:
29,252,164440,6,0,B|73:263|92:303|92:303|102:291|102:291|206:306|186:210|310:230|310:230|275:230|219:256,1,375,6|0,0:0|0:0,0:0:0:0:
272,379,164737,2,0,P|321:367|297:308,1,125,2|0,0:0|0:0,0:0:0:0:
128,201,164885,2,0,L|119:132,2,62.5,2|2|2,0:3|0:3|0:3,0:0:0:0:
107,278,165034,5,8,0:3:0:0:
183,350,165257,5,4,3:3:0:0:
194,311,165331,1,2,0:0:0:0:
234,199,165480,5,4,3:3:0:0:
249,247,165554,1,2,0:0:0:0:
285,370,165702,5,4,3:3:0:0:
302,309,165777,1,2,0:0:0:0:
338,177,165925,5,4,3:3:0:0:
359,247,165999,1,2,0:0:0:0:
391,383,166147,5,4,3:3:0:0:
410,307,166222,2,0,P|444:250|526:231,1,125,8|0,0:3|0:0,0:0:0:0:
506,330,166371,5,0,3:2:0:0:
498,353,166445,1,2,0:0:0:0:
504,278,166519,1,2,0:0:0:0:
496,301,166593,1,2,0:0:0:0:
496,228,166668,1,2,0:0:0:0:
488,251,166742,1,2,0:0:0:0:
483,177,166816,6,0,B|464:110|464:110|519:69|519:69|488:173,1,225.000008583069,2|0,0:0|0:0,0:0:0:0:
404,222,166965,2,0,B|423:289|423:289|368:330|368:330|399:226,1,225.000008583069,2|0,0:0|0:0,0:0:0:0:
339,169,167113,2,0,B|333:86|333:86|358:61|358:61|368:104|368:104|347:176,1,225.000008583069,2|0,0:0|0:0,0:0:0:0:
258,227,167262,2,0,B|264:310|264:310|239:335|239:335|229:292|229:292|250:220,1,225.000008583069,2|0,0:0|0:0,0:0:0:0:
198,104,167410,5,8,0:3:0:0:
228,96,167484,1,2,0:0:0:0:
126,182,167633,5,4,3:3:0:0:
165,192,167707,1,2,0:0:0:0:
21,211,167856,5,4,3:3:0:0:
56,248,167930,1,2,0:0:0:0:
18,36,168079,6,0,P|70:9|112:47,2,100,4|2|2,3:3|0:0|0:0,0:0:0:0:
63,96,168301,1,4,3:3:0:0:
63,96,168450,5,2,0:0:0:0:
102,28,168524,1,2,0:0:0:0:
179,39,168598,2,0,P|222:53|284:36,1,75.0000028610231,2|0,0:0|0:0,0:0:0:0:
328,9,168747,2,0,P|365:7|400:20,1,75.0000028610231,2|0,0:0|0:0,0:0:0:0:
440,93,168895,6,0,P|483:107|545:90,1,75.0000028610231,2|0,0:0|0:0,0:0:0:0:
493,21,169192,6,0,B|360:91|403:264|565:224|493:369|388:362|372:304|402:241|452:239,1,375,6|0,0:0|0:0,0:0:0:0:
394,268,169489,2,0,P|462:245|400:319,1,225.000008583069,2|0,0:0|0:0,0:0:0:0:
357,188,169786,5,8,0:3:0:0:
379,181,169861,1,2,0:0:0:0:
401,174,169935,1,2,0:0:0:0:
246,207,170083,5,2,0:1:0:0:
278,216,170158,1,2,0:0:0:0:
307,225,170232,1,2,0:0:0:0:
131,184,170380,5,4,3:3:0:0:
171,175,170455,1,2,0:0:0:0:
200,168,170529,1,2,0:0:0:0:
14,203,170678,5,2,0:1:0:0:
56,215,170753,1,2,0:0:0:0:
98,229,170826,1,2,0:0:0:0:
290,136,170975,5,8,0:3:0:0:
224,38,171123,1,2,0:0:0:0:
228,23,171197,1,2,0:0:0:0:
258,87,171272,1,2,0:0:0:0:
262,72,171346,1,2,0:0:0:0:
290,136,171420,1,2,0:0:0:0:
294,121,171494,1,2,0:0:0:0:
320,182,171569,6,0,B|403:203|403:203|436:171|436:171|292:211,1,225.000008583069,2|0,0:0|0:0,0:0:0:0:
245,193,171717,2,0,B|162:172|162:172|128:203|128:203|273:164,1,225.000008583069,2|0,0:0|0:0,0:0:0:0:
366,113,171866,2,0,B|397:19|397:19|435:71|435:71|369:117,1,225.000008583069,2|0,0:0|0:0,0:0:0:0:
211,262,172014,2,0,B|180:356|180:356|142:304|142:304|208:258,1,225.000008583069,2|0,0:0|0:0,0:0:0:0:
293,41,172163,5,8,0:3:0:0:
287,33,172237,2,0,P|272:27|208:30,1,50,2|0,0:0|0:0,0:0:0:0:
194,85,172460,5,2,0:0:0:0:
185,77,172534,2,0,P|144:90|113:117,1,75.0000028610231,2|0,0:0|0:0,0:0:0:0:
65,167,172757,6,0,B|88:215|88:215|331:260|331:260|392:269|406:184|346:174|346:174|288:163|288:163|242:385,1,700,4|0,3:3|0:0,0:0:0:0:
247,357,173351,1,12,0:3:0:0:
247,357,173796,5,0,3:0:0:0:
447,316,173945,2,0,B|471:309|471:309|499:154|499:154|507:111|441:98|432:141|432:141|407:278,1,375,6|0,0:0|0:0,0:0:0:0:
338,294,174242,1,0,3:2:0:0:
382,74,174390,5,2,0:0:0:0:
399,56,174440,5,2,0:0:0:0:
420,44,174489,5,2,0:0:0:0:
444,39,174539,5,4,3:3:0:0:
352,150,174687,5,4,0:3:0:0:
303,91,174762,1,2,0:0:0:0:
28,200,174984,5,4,3:3:0:0:
64,193,175059,1,2,0:0:0:0:
64,193,175133,1,2,0:0:0:0:
122,241,175207,5,4,3:3:0:0:
171,256,175281,1,2,0:0:0:0:
171,256,175356,1,2,0:0:0:0:
231,213,175430,5,4,3:3:0:0:
291,198,175504,1,2,0:0:0:0:
291,198,175579,1,2,0:0:0:0:
351,249,175653,5,4,3:3:0:0:
421,272,175727,2,0,L|519:302,1,75.0000028610231,2|0,0:0|0:0,0:0:0:0:
499,137,175876,5,0,3:0:0:0:
479,129,175950,1,2,0:0:0:0:
505,167,176024,1,2,3:2:0:0:
485,159,176098,1,2,0:0:0:0:
512,201,176173,1,2,0:0:0:0:
492,193,176247,1,2,0:0:0:0:
421,272,176321,6,0,B|391:325|391:325|427:364|427:364|476:346|476:346|477:288,1,225.000008583069,2|0,0:0|0:0,0:0:0:0:
397,271,176470,2,0,B|367:324|367:324|403:363|403:363|452:345|452:345|453:287,1,225.000008583069,2|0,0:0|0:0,0:0:0:0:
344,205,176618,2,0,B|314:151|314:151|350:112|350:112|399:130|399:130|400:188,1,225.000008583069,2|0,0:0|0:0,0:0:0:0:
379,271,176767,2,0,B|349:324|349:324|385:363|385:363|434:345|434:345|435:287,1,225.000008583069,2|0,0:0|0:0,0:0:0:0:
479,129,176915,6,0,P|472:94|449:69,1,50,4|0,3:3|0:0,0:0:0:0:
373,93,177064,5,8,0:3:0:0:
362,69,177138,2,0,P|329:51|286:53,1,75.0000028610231,4|0,3:3|0:0,0:0:0:0:
213,102,177286,5,2,0:0:0:0:
194,80,177361,2,0,P|138:76|83:107,1,100,4|0,3:3|0:0,0:0:0:0:
42,175,177509,5,2,0:0:0:0:
2,166,177583,1,4,3:3:0:0:
17,195,177658,1,2,0:0:0:0:
68,184,177732,1,2,0:0:0:0:
156,160,177806,5,4,3:3:0:0:
264,244,177955,1,2,0:0:0:0:
248,272,178029,1,4,3:3:0:0:
230,245,178103,2,0,P|252:220|304:222,1,75.0000028610231,2|0,0:0|0:0,0:0:0:0:
398,257,178252,2,0,P|434:254|459:228,1,75.0000028610231,2|0,0:0|0:0,0:0:0:0:
460,121,178400,6,0,P|474:92|477:124,1,75,2|0,0:0|0:0,0:0:0:0:
459,228,178697,6,0,B|322:223|386:107|219:104|219:104|283:109|317:167,1,375,6|0,0:0|0:0,0:0:0:0:
233,205,178994,2,0,P|212:198|236:197,3,62.5,2|0|0|0,3:2|0:0|0:0|0:0,0:0:0:0:
299,142,179143,6,0,P|316:182|311:236,1,75.0000028610231,2|2,0:1|0:0,0:0:0:0:
103,47,179366,5,4,3:3:0:0:
182,73,179440,2,0,P|165:112|170:166,1,75.0000028610231,2|0,0:1|0:0,0:0:0:0:
224,308,179588,1,8,0:0:0:0:
403,206,179737,6,0,P|397:248|366:292,1,75.0000028610231,2|0,0:1|0:0,0:0:0:0:
6,97,179960,5,4,3:3:0:0:
78,136,180034,2,0,P|83:178|114:222,1,75.0000028610231,2|0,0:1|0:0,0:0:0:0:
228,337,180182,1,8,0:0:0:0:
461,312,180331,6,0,P|435:346|385:368,1,75.0000028610231,2|0,0:1|0:0,0:0:0:0:
20,241,180554,5,4,3:3:0:0:
87,289,180628,1,2,0:0:0:0:
90,311,180702,1,2,0:0:0:0:
135,248,180777,1,2,3:2:0:0:
132,270,180851,1,2,0:0:0:0:
98,206,180925,1,2,0:0:0:0:
101,228,180999,1,2,0:0:0:0:
176,180,181074,6,0,B|249:157|249:157|263:167|263:167|279:192|279:192|168:187,1,225.000008583069,2|0,0:0|0:0,0:0:0:0:
182,167,181222,2,0,B|255:144|255:144|269:154|269:154|285:179|285:179|174:174,1,225.000008583069,2|0,0:0|0:0,0:0:0:0:
110,112,181371,2,0,B|37:89|37:89|23:99|23:99|7:124|7:124|118:119,1,225.000008583069,2|0,0:0|0:0,0:0:0:0:
186,154,181519,2,0,B|259:131|259:131|273:141|273:141|289:166|289:166|178:161,1,225.000008583069,2|0,0:0|0:0,0:0:0:0:
175,74,181668,5,2,0:0:0:0:
249,50,181742,5,4,3:3:0:0:
249,50,181816,1,2,0:0:0:0:
490,229,181965,5,8,0:0:0:0:
490,229,182039,1,2,0:0:0:0:
249,50,182262,5,2,0:0:0:0:
323,26,182336,5,4,3:3:0:0:
323,26,182410,1,2,0:0:0:0:
417,341,182559,5,8,0:0:0:0:
417,341,182633,1,2,0:0:0:0:
323,26,182856,5,4,3:3:0:0:
323,26,183301,6,0,L|315:86,1,50,0|0,3:2|0:0,0:0:0:0:
171,159,183450,6,0,B|94:157|101:50|197:16|282:103|225:163|326:152,1,300,4|2,3:3|0:0,0:0:0:0:
334,146,183945,5,2,0:0:0:0:
357,144,183994,5,2,0:0:0:0:
377,151,184044,6,0,B|409:131|410:88|410:88|375:112|374:154,1,150.000005722046,2|0,0:0|0:0,0:0:0:0:
407,216,184267,6,0,B|446:251|501:235|501:235|456:200|402:216,1,200,2|0,0:0|0:0,0:0:0:0:
348,260,184489,6,0,B|319:318|361:379|361:379|385:311|344:252,1,250,2|0,0:0|0:0,0:0:0:0:
281,227,184712,6,0,B|203:215|150:285|150:285|236:287|288:219,1,300.000011444092,2|0,0:0|0:0,0:0:0:0:
303,151,184935,6,0,B|288:61|192:27|192:27|221:122|314:155,1,350.00000333786,2|0,0:0|0:0,0:0:0:0:
409,85,185158,5,2,0:0:0:0:
405,51,185232,2,0,P|407:116|410:51,1,200,2|0,0:0|0:0,0:0:0:0:
408,218,185380,5,2,0:0:0:0:
406,238,185455,2,0,P|418:199|401:237,1,125,2|0,0:0|0:0,0:0:0:0:
303,151,185529,6,2,B|251:63|74:165|23:77|23:77|113:26|213:202|303:151,1,600,2|0,0:1|0:0,0:1:0:0:
506,273,185826,6,0,B|519:344|519:344|466:360|466:360|510:261,1,225.000008583069,6|0,0:0|0:0,0:0:0:0:
492,271,185975,2,0,B|505:342|505:342|452:358|452:358|496:259,1,225.000008583069,2|0,0:0|0:0,0:0:0:0:
476,185,186123,2,0,B|463:114|463:114|516:98|516:98|472:197,1,225.000008583069,2|0,0:0|0:0,0:0:0:0:
473,272,186272,2,0,B|486:343|486:343|433:359|433:359|477:260,1,225.000008583069,2|0,0:0|0:0,0:0:0:0:
401,226,186420,5,4,3:3:0:0:
309,340,186569,1,8,0:3:0:0:
338,332,186643,1,4,3:3:0:0:
275,189,186866,1,6,3:3:0:0:
212,167,186940,1,2,0:0:0:0:
134,340,187088,1,4,3:3:0:0:
134,340,187163,1,8,0:3:0:0:
65,360,187237,1,2,0:0:0:0:
0,381,187311,1,4,3:3:0:0:
254,266,187460,6,0,L|252:315,1,37.5000014305115,2|0,0:0|0:0,0:0:0:0:
264,273,187534,2,0,L|262:322,1,37.5000014305115,2|0,0:0|0:0,0:0:0:0:
274,280,187608,6,0,L|272:329,1,37.5000014305115,2|0,0:0|0:0,0:0:0:0:
166,384,187757,2,0,L|168:335,1,37.5000014305115,2|0,0:0|0:0,0:0:0:0:
275,189,187905,6,0,B|322:204|343:247|343:247|345:172|446:109|530:181|458:280|374:236|367:198,1,375,2|0,0:0|0:0,0:0:0:0:
192,16,188202,6,0,P|197:57|215:96,1,75.0000028610231,14|0,0:2|0:0,0:0:0:0:
301,87,188351,2,0,P|314:52|319:15,1,75.0000028610231,2|0,0:0|0:0,0:0:0:0:
109,101,188499,6,0,P|148:145|185:162,1,75.0000028610231,10|0,0:0|0:0,0:0:0:0:
351,153,188648,2,0,P|381:131|403:101,1,75.0000028610231,2|0,0:0|0:0,0:0:0:0:
75,207,188796,6,0,P|121:232|166:232,1,75.0000028610231,10|0,0:0|0:0,0:0:0:0:
369,234,188945,2,0,P|405:227|437:207,1,75.0000028610231,2|0,0:0|0:0,0:0:0:0:
75,321,189093,6,0,P|117:324|167:311,1,75.0000028610231,10|0,0:0|0:0,0:0:0:0:
362,317,189242,2,0,P|399:324|437:321,1,75.0000028610231,2|0,0:0|0:0,0:0:0:0:
115,9,189390,6,0,P|74:18|43:39,1,75.0000028610231,10|0,0:0|0:0,0:0:0:0:
397,9,189539,2,0,P|433:16|465:35,1,75.0000028610231,2|0,0:0|0:0,0:0:0:0:
109,101,189687,6,0,P|72:127|50:160,1,75.0000028610231,10|0,0:0|0:0,0:0:0:0:
403,101,189836,2,0,P|440:127|462:160,1,75.0000028610231,2|0,0:0|0:0,0:0:0:0:
138,183,189984,6,0,P|125:238|126:280,1,75.0000028610231,10|0,0:0|0:0,0:0:0:0:
374,183,190133,2,0,P|387:238|386:280,1,75.0000028610231,2|0,0:0|0:0,0:0:0:0:
206,240,190281,6,0,P|210:286|219:321,1,75.0000028610231,10|0,0:0|0:0,0:0:0:0:
306,239,190430,2,0,P|303:277|295:313,1,75.0000028610231,2|0,0:0|0:0,0:0:0:0:
156,21,190579,6,0,L|38:37,1,89.9999972534181,10|0,0:0|0:0,0:0:0:0:
97,228,190727,2,0,L|186:215,1,89.9999972534181,10|0,0:0|0:0,0:0:0:0:
19,95,190876,2,0,L|35:213,1,89.9999972534181,10|0,0:0|0:0,0:0:0:0:
235,155,191024,2,0,L|222:65,1,89.9999972534181,10|0,0:0|0:0,0:0:0:0:
343,55,191173,6,0,L|496:75,1,104.999996795654,10|0,0:0|0:0,0:0:0:0:
417,293,191321,2,0,L|301:277,1,104.999996795654,10|0,0:0|0:0,0:0:0:0:
493,136,191470,2,0,L|472:289,1,104.999996795654,10|0,0:0|0:0,0:0:0:0:
264,214,191618,2,0,L|279:98,1,104.999996795654,10|0,0:0|0:0,0:0:0:0:
156,21,191767,5,2,3:2:0:0:
112,75,191841,2,0,P|109:135|161:216,1,119.999996337891,4|0,0:3|0:0,0:0:0:0:
284,368,191989,5,2,3:2:0:0:
354,359,192064,1,2,3:2:0:0:
398,305,192138,2,0,P|400:244|348:163,1,119.999996337891,4|0,0:3|0:0,0:0:0:0:
230,14,192286,5,2,3:2:0:0:
227,100,192361,2,0,L|277:109,7,50,2|0|0|0|0|0|0|0,0:0|0:0|0:0|0:0|0:0|0:0|0:0|0:0,0:0:0:0:
512,0,192955,5,6,0:0:0:0:
256,192,207212,12,0,208326,0:0:0:0:
256,192,208400,12,0,209440,0:0:0:0:
335,132,209588,6,0,B|96:148|96:148|47:231|47:231|109:303|109:303|309:289|309:289|365:286|370:363|315:368|315:368|176:378,1,900
139,224,211074,6,0,B|325:211|325:211|417:204|420:140,1,300,0|0,3:2|0:0,0:0:0:0:
237,13,211371,5,8,0:0:0:0:
172,103,211519,5,8,0:0:0:0:
139,224,211668,5,8,0:0:0:0:
176,379,211816,5,8,0:0:0:0:
417,158,211965,6,0,B|420:81|345:40|345:40|276:119|277:218|334:295|419:296,1,437.5,4|0,0:0|0:0,0:0:0:0:
375,287,212262,6,0,L|374:326,1,25,2|0,0:0|0:0,0:0:0:0:
417,158,212410,6,0,B|420:81|345:40|345:40|252:-6|101:39|23:230,1,539.999983520508,4|0,0:0|0:0,0:0:0:0:
20,287,212931,6,0,L|15:337,1,50,2|0,0:0|0:0,0:0:0:0:
122,303,213153,2,0,L|119:328,1,25,2|0,0:0|0:0,0:0:0:0:
224,321,213302,2,0,L|223:333,4,12.5
328,334,213599,1,2,0:0:0:0:
328,334,213747,1,2,0:0:0:0:
289,201,213895,6,2,B|331:58|416:16|506:119|453:215|310:176,1,400,2|8,0:1|0:0,0:1:0:0:
224,104,214267,1,8,0:0:0:0:
162,177,214342,6,0,L|125:184,3,37.5000014305115,6|2|2|2,0:0|0:0|0:0|0:0,0:0:0:0:
229,84,214638,1,4,3:3:0:0:
294,217,214786,6,0,L|330:224,3,37.5000014305115,6|2|2|2,0:0|0:0|0:0|0:0,0:0:0:0:
223,71,215083,1,4,3:3:0:0:
162,255,215232,6,0,L|125:262,3,37.5000014305115,6|2|2|2,0:0|0:0|0:0|0:0,0:0:0:0:
226,61,215529,1,4,3:3:0:0:
398,13,215678,6,0,P|433:22|455:52,1,75.0000028610231,8|0,0:0|0:0,0:0:0:0:
409,268,215826,6,0,B|389:313|338:325|338:325|219:237|285:77|386:90|386:90|382:137|411:168,1,500,6|0,0:0|0:0,0:0:0:0:
422,276,216272,6,0,B|402:328|339:344|339:344|269:309|235:205|273:135|273:135|314:80|297:0|234:16,1,500,6|0,0:0|0:0,0:0:0:0:
64,111,216717,6,0,B|28:121|9:178|69:208|131:181|131:181|237:136|237:136|298:105|289:35|256:8|185:27|185:27|172:77,1,500,6|0,0:0|0:0,0:0:0:0:
50,292,217163,6,0,B|31:274|15:251|15:251|72:283|114:296|331:178|331:178|344:134|344:134|336:206|347:263|411:317,1,600,6|0,0:0|0:0,0:0:0:0:
473,369,217757,1,2,0:1:0:0:
271,365,217905,6,0,B|254:339|260:316|260:316|266:342|280:341|270:378,1,100,2|0,0:0|0:0,0:0:0:0:
186,255,218128,2,0,B|211:238|234:244|234:244|209:250|210:264|173:254,1,100,2|0,0:0|0:0,0:0:0:0:
297,174,218351,2,0,B|313:199|307:222|307:222|302:197|288:198|298:161,1,100,2|0,0:0|0:0,0:0:0:0:
379,285,218574,2,0,B|353:301|330:295|330:295|356:290|355:276|392:286,1,100,2|0,0:0|0:2,0:0:0:0:
410,184,218722,1,0,3:0:0:0:
425,180,218796,6,0,P|446:134|440:65,1,100,2|0,3:2|0:0,0:0:0:0:
377,30,218945,2,0,P|399:10|440:1,2,50,8|0|8,0:0|0:0|0:0,0:0:0:0:
358,121,219094,5,6,0:0:0:0:
358,102,219168,1,2,0:0:0:0:
319,113,219243,1,2,0:0:0:0:
262,113,219317,1,2,0:0:0:0:
212,83,219391,2,0,L|167:80,1,37.5000014305115,2|2,3:2|0:0,0:0:0:0:
14,22,219540,5,6,0:0:0:0:
6,40,219614,1,2,0:0:0:0:
50,44,219688,1,2,0:0:0:0:
85,100,219762,1,2,0:0:0:0:
68,159,219837,2,0,L|18:164,1,50,2|2,3:2|0:0,0:0:0:0:
154,14,219985,5,6,0:0:0:0:
156,33,220059,1,2,0:0:0:0:
174,80,220134,1,2,0:0:0:0:
171,150,220208,1,2,0:0:0:0:
140,226,220281,2,0,L|128:292,1,62.5,2|2,0:0|0:0,0:0:0:0:
290,304,220431,6,0,B|369:317|369:317|183:346|183:346|173:357|173:357|40:375,1,400,4|0,0:0|0:0,0:0:0:0:
221,214,220876,2,0,B|409:249|409:249|419:260|419:260|513:277,1,300,4|0,0:0|0:0,0:0:0:0:
507,280,221173,6,0,L|510:324,1,44.999998626709
417,382,221470,6,0,B|429:249|429:249|448:222|448:222|454:140|454:140|442:115|442:115|445:69,1,300,4|0,0:0|0:0,0:0:0:0:
376,162,221767,6,0,L|374:201,1,25,2|0,0:0|0:0,0:0:0:0:
512,42,221915,6,0,B|470:11|470:11|360:33|360:33|369:59|369:59|205:90,1,300,4|0,0:0|0:0,0:0:0:0:
156,65,222212,6,0,L|150:120,1,37.5000014305115,2|0,0:3|0:0,0:0:0:0:
175,60,222361,2,0,L|169:115,1,37.5000014305115,2|0,0:3|0:0,0:0:0:0:
70,120,222509,1,0,0:0:0:0:
291,162,222658,6,0,B|284:246|284:246|420:228|420:228|411:340,1,300,4|0,0:0|0:0,0:0:0:0:
337,319,222955,6,0,L|290:327,1,25,2|0,0:0|0:0,0:0:0:0:
430,152,223103,6,0,L|97:197,1,300,4|0,0:0|0:0,0:0:0:0:
55,210,223400,6,2,B|52:196|52:196|47:209|47:209|46:195|46:195|39:207|39:207|39:194|39:194|31:206|31:206|31:196|31:196|25:207|25:207|25:197|25:197|20:207|20:207|21:198|21:198|18:209|18:209|16:201|16:201|15:208|15:208|6:205|6:205|9:210|9:210|2:230,1,187.500007152558,2|0,0:1|0:0,0:1:0:0:
122,345,223846,6,0,B|137:356|137:356|431:303,1,300,4|0,0:0|0:0,0:0:0:0:
502,291,224143,6,0,L|510:338,1,25,2|0,0:0|0:0,0:0:0:0:
150,278,224291,6,0,L|446:224,1,300,4|0,0:0|0:0,0:0:0:0:
512,180,224588,6,0,B|499:157|473:147|473:147|484:146|484:146|440:133|407:145|407:145|410:131|410:131|367:136|349:161,1,225.000008583069,8|0,0:1|0:0,0:0:0:0:
350,174,224885,1,0,3:0:0:0:
277,36,225034,6,0,B|272:103|272:103|260:102|260:102|256:170|256:170|246:167|246:167|241:236|241:236|230:229|230:229|221:356,1,300,4|0,0:0|0:0,0:0:0:0:
301,313,225331,6,0,L|303:289,1,25,2|0,0:0|0:0,0:0:0:0:
350,174,225480,6,0,B|296:151|296:151|299:145|299:145|220:172|220:172|226:175|226:175|163:140|163:140|167:135|167:135|76:164,1,300,4|0,0:0|0:0,0:0:0:0:
8,211,225777,6,0,P|12:235|17:201,1,112.500004291535,2|0,0:0|0:0,0:0:0:0:
30,111,226074,5,2,0:0:0:0:
41,90,226123,5,2,0:0:0:0:
65,72,226173,5,2,0:0:0:0:
95,67,226222,6,0,L|171:44,30,50,2|0|2|0|2|0|2|0|2|0|2|0|2|0|2|0|2|0|2|0|2|0|2|0|2|0|2|0|2|0|2,0:0|0:0|0:0|0:0|0:0|0:0|0:0|0:0|0:0|0:0|0:0|0:0|0:0|0:0|0:0|0:0|0:0|0:0|0:0|0:0|0:0|0:0|0:0|0:0|0:0|0:0|0:0|0:0|0:0|0:0|0:0,0:0:0:0:
224,22,228598,5,2,3:2:0:0:
233,39,228673,1,2,0:0:0:0:
235,57,228747,2,0,L|215:118,1,50,2|0,0:0|0:0,0:0:0:0:
332,83,228895,5,2,3:2:0:0:
331,110,228970,1,2,0:0:0:0:
318,135,229044,2,0,L|277:171,1,50,2|0,0:0|0:0,0:0:0:0:
397,195,229192,5,2,3:2:0:0:
375,222,229267,1,2,0:0:0:0:
346,242,229341,2,0,L|270:257,1,50,2|0,0:0|0:0,0:0:0:0:
398,341,229489,5,2,3:2:0:0:
355,358,229564,1,2,0:0:0:0:
313,356,229638,2,0,L|233:330,1,50,2|0,0:0|0:0,0:0:0:0:
49,217,229786,5,2,3:2:0:0:
16,253,229861,1,2,0:0:0:0:
9,300,229935,1,2,0:0:0:0:
25,344,230009,1,2,0:0:0:0:
152,237,230083,5,2,3:2:0:0:
168,281,230157,1,2,0:0:0:0:
161,328,230232,2,0,P|136:356|100:378,1,59.9999981689454,2|2,0:0|0:0,0:0:0:0:
104,91,230380,5,12,0:3:0:0:
117,165,230480,5,12,0:3:0:0:
175,116,230579,5,12,0:3:0:0:
73,133,230678,5,12,0:3:0:0:
170,170,230778,5,12,0:3:0:0:
152,67,230877,5,12,0:3:0:0:
131,127,230975,6,0,L|186:114,5,37.5000014305115,2|0|0|0|0|0,0:0|0:0|0:0|0:0|0:0|0:0,0:0:0:0:
276,177,231420,2,0,L|331:190,25,37.5000014305115,2|0|0|0|0|0|0|0|0|0|0|0|0|0|0|0|0|0|0|0|0|0|0|0|0|0,0:0|0:0|0:0|0:0|0:0|0:0|0:0|0:0|0:0|0:0|0:0|0:0|0:0|0:0|0:0|0:0|0:0|0:0|0:0|0:0|0:0|0:0|0:0|0:0|0:0|0:0,0:0:0:0:
430,68,233351,6,0,L|435:28,5,37.5000014305115,2|0|0|0|0|0,0:0|0:0|0:0|0:0|0:0|0:0,0:0:0:0:
512,180,233796,2,0,L|507:140,3,37.5000014305115,2|0|0|0,0:0|0:0|0:0|0:0,0:0:0:0:
394,272,234093,2,0,L|399:232,17,37.5000014305115,2|0|0|0|0|0|0|0|0|0|0|0|0|0|0|0|0|0,0:0|0:0|0:0|0:0|0:0|0:0|0:0|0:0|0:0|0:0|0:0|0:0|0:0|0:0|0:0|0:0|0:0|0:0,0:0:0:0:
436,357,235430,5,2,0:0:0:0:
401,370,235504,1,2,0:0:0:0:
363,366,235579,1,2,0:0:0:0:
329,348,235653,1,2,0:0:0:0:
309,316,235727,6,0,L|304:268,6,37.5000014305115,2|0|0|0|0|0|0,0:0|0:0|0:0|0:0|0:0|0:0|0:0,0:0:0:0:
203,68,236024,2,0,L|208:116,6,37.5000014305115,2|0|0|0|0|0|0,0:0|0:0|0:0|0:0|0:0|0:0|0:0,0:0:0:0:
389,208,236321,6,0,L|345:188,6,43.7500004172325,2|0|0|0|0|0|0,0:0|0:0|0:0|0:0|0:0|0:0|0:0,0:0:0:0:
122,175,236618,2,0,L|166:195,6,43.7500004172325,2|0|0|0|0|0|0,0:0|0:0|0:0|0:0|0:0|0:0|0:0,0:0:0:0:
336,84,236915,6,0,L|289:117,6,50,2|0|0|0|0|0|0,0:0|0:0|0:0|0:0|0:0|0:0|0:0,0:0:0:0:
175,299,237212,2,0,L|221:265,6,50,2|0|0|0|0|0|0,0:0|0:0|0:0|0:0|0:0|0:0|0:0,0:0:0:0:
280,138,237509,5,2,0:0:0:0:
235,136,237583,1,2,0:0:0:0:
202,167,237658,1,2,0:0:0:0:
200,212,237732,1,2,0:0:0:0:
231,245,237806,1,2,0:0:0:0:
276,247,237880,1,2,0:0:0:0:
309,216,237955,1,2,0:0:0:0:
311,171,238029,1,2,0:0:0:0:
256,192,238103,5,2,0:0:0:0:
263,197,238178,5,2,0:0:0:0:
263,184,238252,5,2,0:0:0:0:
249,184,238326,5,2,0:0:0:0:
243,197,238400,5,2,0:0:0:0:
256,214,238475,5,2,0:0:0:0:
282,198,238549,5,2,0:0:0:0:
280,169,238623,5,2,0:0:0:0:
245,153,238697,5,2,0:0:0:0:
209,117,238772,5,2,0:0:0:0:
210,57,238846,5,2,0:0:0:0:
255,10,238920,5,2,0:0:0:0:
329,10,238994,5,2,0:0:0:0:
367,76,239069,5,2,0:0:0:0:
357,166,239143,6,0,P|367:208|399:233,1,75.0000028610231,2|0,0:0|0:0,0:0:0:0:
463,61,239291,5,10,0:0:0:0:
415,68,239366,1,0,0:0:0:0:
367,76,239440,2,0,L|283:87,1,75.0000028610231,2|0,0:0|0:0,0:0:0:0:
436,166,239588,2,0,L|529:179,1,75.0000028610231,2|0,0:0|0:0,0:0:0:0:
343,290,239737,6,0,L|311:294,12,18.7500007152558,2|0|0|0|0|0|0|0|0|0|0|0|0,1:2|0:0|0:0|0:0|0:0|0:0|0:0|0:0|0:0|0:0|0:0|0:0|0:0,0:0:0:0:
205,221,240034,5,2,0:0:0:0:
125,283,240108,1,2,0:0:0:0:
141,377,240182,2,0,P|159:257|220:71,1,300,2|0,0:0|0:0,0:0:0:0:
359,12,240480,6,0,L|351:82,1,62.5,14|0,0:0|0:0,0:0:0:0:
338,13,240554,2,0,L|330:83,1,50,2|0,0:0|0:0,0:0:0:0:
319,15,240628,2,0,L|314:52,1,37.5000014305115,2|0,0:0|0:0,0:0:0:0:
303,16,240702,2,0,L|298:53,1,25,2|0,0:0|0:0,0:0:0:0:
213,88,240777,6,0,L|206:29,1,50,10|0,0:0|0:0,0:0:0:0:
191,76,240851,2,0,L|187:47,1,25,2|0,0:0|0:0,0:0:0:0:
176,92,240925,2,0,L|169:33,1,50,2|0,0:0|0:0,0:0:0:0:
156,80,240999,2,0,L|152:51,1,25,2|0,0:0|0:0,0:0:0:0:
274,185,241074,6,0,L|282:115,1,62.5,10|0,0:0|0:0,0:0:0:0:
295,184,241148,2,0,L|303:114,1,50,2|0,0:0|0:0,0:0:0:0:
314,182,241222,2,0,L|319:145,1,37.5000014305115,2|0,0:0|0:0,0:0:0:0:
330,181,241296,2,0,L|335:144,1,25,2|0,0:0|0:0,0:0:0:0:
418,112,241371,6,0,L|425:171,1,50,10|0,0:0|0:0,0:0:0:0:
440,124,241445,2,0,L|444:153,1,25,2|0,0:0|0:0,0:0:0:0:
455,108,241519,2,0,L|462:167,1,50,2|0,0:0|0:0,0:0:0:0:
475,120,241593,2,0,L|479:149,1,25,2|0,0:0|0:0,0:0:0:0:
476,25,241668,5,10,0:0:0:0:
453,19,241742,1,2,0:0:0:0:
479,31,241816,1,2,0:0:0:0:
456,25,241890,1,2,0:0:0:0:
342,55,241965,5,10,0:0:0:0:
296,67,242039,1,2,0:0:0:0:
341,62,242113,1,2,0:0:0:0:
295,74,242187,1,2,0:0:0:0:
198,27,242262,5,10,0:0:0:0:
175,21,242336,1,2,0:0:0:0:
201,33,242410,1,2,0:0:0:0:
178,27,242484,1,2,0:0:0:0:
74,71,242559,5,10,0:0:0:0:
37,118,242633,1,2,0:0:0:0:
35,177,242707,1,2,0:0:0:0:
67,227,242781,1,2,0:0:0:0:
123,248,242856,6,0,P|150:257|172:290,1,62.5,10|0,0:0|0:0,0:0:0:0:
151,241,242930,2,0,P|174:261|182:297,1,50,2|0,0:0|0:0,0:0:0:0:
177,240,243004,2,0,P|189:261|192:280,1,37.5000014305115,2|0,0:0|0:0,0:0:0:0:
195,246,243079,2,0,P|199:259|202:278,1,25,2|0,0:0|0:0,0:0:0:0:
271,225,243153,6,0,P|296:240|311:258,1,50,10|0,0:0|0:0,0:0:0:0:
332,219,243227,2,0,P|330:248|323:270,1,50,2|0,0:0|0:0,0:0:0:0:
376,262,243301,2,0,P|349:275|327:280,1,50,2|0,0:0|0:0,0:0:0:0:
370,322,243376,2,0,P|345:305|329:288,1,50,2|0,0:0|0:0,0:0:0:0:
283,349,243450,6,0,P|256:358|234:391,1,62.5,10|0,0:0|0:0,0:0:0:0:
255,342,243524,2,0,P|232:362|224:398,1,50
229,341,243598,2,2,P|217:362|214:381,1,37.5000014305115,0|2,0:0|0:0,0:0:0:0:
211,347,243673,2,0,P|207:360|204:379,1,25,2|0,0:0|0:0,0:0:0:0:
112,384,243747,6,0,P|104:354|107:306,1,62.5,10|0,0:0|0:0,0:0:0:0:
88,318,243821,2,0,P|95:280|106:251,1,50,2|0,0:0|0:0,0:0:0:0:
85,259,243895,2,0,P|95:227|108:212,1,37.5000014305115,2|0,0:0|0:0,0:0:0:0:
88,214,243970,2,0,P|94:196|102:184,1,25,2|0,0:0|0:0,0:0:0:0:
90,182,244044,5,10,0:0:0:0:
138,169,244118,1,2,0:0:0:0:
186,157,244192,1,2,0:0:0:0:
235,145,244267,1,2,0:0:0:0:
283,135,244341,2,0,P|308:91|306:49,1,75.0000028610231,10|0,0:0|0:0,0:0:0:0:
195,0,244489,2,0,P|200:36|221:67,1,75.0000028610231,2|0,0:0|0:0,0:0:0:0:
414,129,244638,5,10,0:0:0:0:
428,124,244712,1,2,0:0:0:0:
428,109,244786,1,2,0:0:0:0:
414,104,244861,1,2,0:0:0:0:
405,116,244935,5,10,0:0:0:0:
470,129,245009,1,2,0:0:0:0:
504,70,245084,1,2,0:0:0:0:
459,20,245158,1,2,0:0:0:0:
397,48,245232,5,10,0:0:0:0:
374,44,245306,1,2,0:0:0:0:
351,41,245380,1,2,0:0:0:0:
328,37,245455,1,2,0:0:0:0:
336,123,245529,5,10,0:0:0:0:
313,119,245603,1,2,0:0:0:0:
290,116,245677,1,2,0:0:0:0:
267,112,245752,1,2,0:0:0:0:
319,20,245826,5,10,0:0:0:0:
296,16,245900,1,2,0:0:0:0:
273,13,245974,1,2,0:0:0:0:
250,9,246049,1,2,0:0:0:0:
259,95,246123,5,10,0:0:0:0:
206,86,246197,1,2,0:0:0:0:
155,78,246271,1,2,0:0:0:0:
102,69,246346,1,2,0:0:0:0:
47,62,246420,5,10,0:0:0:0:
52,83,246494,1,2,0:0:0:0:
57,105,246569,1,2,0:0:0:0:
62,126,246643,1,2,0:0:0:0:
134,90,246717,5,10,0:0:0:0:
140,115,246791,1,2,0:0:0:0:
146,141,246866,1,2,0:0:0:0:
151,166,246940,1,2,0:0:0:0:
225,116,247014,5,10,0:0:0:0:
232,145,247088,1,2,0:0:0:0:
239,176,247163,1,2,0:0:0:0:
246,205,247237,1,2,0:0:0:0:
313,134,247311,5,10,0:0:0:0:
324,184,247385,1,2,0:0:0:0:
337,239,247460,1,2,0:0:0:0:
349,292,247534,1,2,0:0:0:0:
361,344,247608,5,10,0:0:0:0:
316,384,247683,1,2,0:0:0:0:
256,381,247757,1,2,0:0:0:0:
216,338,247831,1,2,0:0:0:0:
256,274,247905,5,10,0:0:0:0:
236,253,247979,1,2,0:0:0:0:
206,252,248053,1,2,0:0:0:0:
183,271,248128,1,2,0:0:0:0:
216,338,248202,5,10,0:0:0:0:
171,378,248277,1,2,0:0:0:0:
111,375,248351,1,2,0:0:0:0:
71,332,248425,1,2,0:0:0:0:
74,279,248499,5,10,0:0:0:0:
114,234,248574,1,2,0:0:0:0:
111,174,248648,1,2,0:0:0:0:
68,134,248722,1,2,0:0:0:0:
15,137,248796,5,10,0:0:0:0:
40,164,248871,1,2,0:0:0:0:
76,173,248945,1,2,0:0:0:0:
112,166,249019,1,2,0:0:0:0:
135,131,249093,6,0,P|162:110|213:108,1,75.0000028610231,10|0,0:0|0:0,0:0:0:0:
264,163,249242,6,0,P|291:142|342:140,1,75.0000028610231,2|0,0:0|0:0,0:0:0:0:
385,204,249390,5,10,0:0:0:0:
461,216,249465,1,2,0:0:0:0:
512,174,249539,1,2,0:0:0:0:
506,116,249613,1,2,0:0:0:0:
457,100,249687,1,2,0:0:0:0:
427,124,249762,1,2,0:0:0:0:
439,145,249836,5,8,0:0:0:0:
403,83,249910,5,8,0:0:0:0:
330,85,249984,6,0,L|241:97,1,75.0000028610231,6|0,0:0|0:0,0:0:0:0:
340,0,250133,2,0,L|251:12,1,75.0000028610231,2|0,0:0|0:0,0:0:0:0:
237,115,250281,1,10,0:0:0:0:
177,105,250356,1,2,0:0:0:0:
117,96,250430,1,2,0:0:0:0:
122,110,250504,1,2,0:0:0:0:
127,124,250579,5,10,0:0:0:0:
155,132,250653,1,2,0:0:0:0:
198,144,250727,1,2,0:0:0:0:
255,160,250801,1,2,0:0:0:0:
327,181,250876,1,10,0:0:0:0:
374,213,250950,1,2,0:0:0:0:
385,254,251024,1,2,0:0:0:0:
377,278,251098,1,2,0:0:0:0:
363,290,251173,5,10,0:0:0:0:
347,230,251247,1,2,0:0:0:0:
399,199,251321,1,2,0:0:0:0:
445,237,251396,1,2,0:0:0:0:
423,294,251470,5,10,0:0:0:0:
363,290,251544,1,2,0:0:0:0:
302,285,251618,1,2,0:0:0:0:
242,280,251692,1,2,0:0:0:0:
189,275,251766,5,10,0:0:0:0:
177,221,251840,1,2,0:0:0:0:
224,195,251914,1,2,0:0:0:0:
264,231,251989,1,2,0:0:0:0:
242,280,252063,5,10,0:0:0:0:
189,275,252137,1,2,0:0:0:0:
132,297,252211,1,2,0:0:0:0:
76,349,252286,1,2,0:0:0:0:
0,284,252361,5,10,0:0:0:0:
9,263,252435,1,2,0:0:0:0:
25,248,252509,1,2,0:0:0:0:
46,240,252583,1,2,0:0:0:0:
13,137,252658,5,10,0:0:0:0:
57,131,252732,1,2,0:0:0:0:
99,143,252806,1,2,0:0:0:0:
135,171,252880,1,2,0:0:0:0:
165,251,252955,5,10,0:0:0:0:
190,240,253029,1,2,0:0:0:0:
208,221,253103,1,2,0:0:0:0:
217,195,253177,1,2,0:0:0:0:
341,235,253252,5,10,0:0:0:0:
348,182,253326,1,2,0:0:0:0:
334,132,253400,1,2,0:0:0:0:
300,89,253474,1,2,0:0:0:0:
171,75,253549,5,10,0:0:0:0:
155,58,253623,1,2,0:0:0:0:
167,38,253698,1,2,0:0:0:0:
189,43,253772,1,2,0:0:0:0:
191,65,253846,2,0,P|215:28|287:9,1,75.0000028610231,10|0,0:0|0:0,0:0:0:0:
329,0,253994,1,2,0:0:0:0:
373,7,254069,1,2,0:0:0:0:
417,14,254143,5,10,0:0:0:0:
441,42,254217,1,2,0:0:0:0:
450,78,254291,1,2,0:0:0:0:
444,115,254366,1,2,0:0:0:0:
420,144,254440,5,10,0:0:0:0:
384,192,254514,1,2,0:0:0:0:
377,251,254588,1,2,0:0:0:0:
397,307,254663,1,2,0:0:0:0:
443,344,254737,5,10,0:0:0:0:
450,331,254811,1,2,0:0:0:0:
456,317,254885,1,2,0:0:0:0:
460,302,254960,1,2,0:0:0:0:
463,287,255034,5,10,0:0:0:0:
403,296,255108,1,2,0:0:0:0:
344,305,255182,1,2,0:0:0:0:
284,316,255257,1,2,0:0:0:0:
225,325,255331,5,10,0:0:0:0:
232,312,255405,1,2,0:0:0:0:
238,298,255479,1,2,0:0:0:0:
242,283,255554,1,2,0:0:0:0:
245,268,255628,5,10,0:0:0:0:
185,277,255702,1,2,0:0:0:0:
126,286,255776,1,2,0:0:0:0:
66,297,255851,1,2,0:0:0:0:
7,306,255925,5,10,0:0:0:0:
49,321,255999,1,2,0:0:0:0:
94,319,256074,1,2,0:0:0:0:
131,294,256148,1,2,0:0:0:0:
150,253,256222,1,10,0:0:0:0:
184,224,256296,1,2,0:0:0:0:
228,213,256371,1,2,0:0:0:0:
271,223,256445,1,2,0:0:0:0:
303,254,256519,1,10,0:0:0:0:
345,268,256593,1,2,0:0:0:0:
390,263,256668,1,2,0:0:0:0:
424,234,256742,1,2,0:0:0:0:
443,193,256816,5,10,0:0:0:0:
368,186,256890,1,2,0:0:0:0:
328,121,256965,1,2,0:0:0:0:
353,50,257039,1,2,0:0:0:0:
474,80,257113,5,6,0:0:0:0:
207,124,257336,5,6,0:0:0:0:
506,108,257559,5,6,0:0:0:0:
353,50,257707,5,6,0:0:0:0:
396,342,257930,5,6,0:0:0:0:
381,18,258153,5,6,0:0:0:0:
505,249,258301,5,2,0:3:0:0:
493,246,258376,1,2,0:3:0:0:
481,244,258450,1,2,0:3:0:0:
457,240,258524,1,2,0:3:0:0:
434,237,258598,1,2,0:3:0:0:
398,231,258673,1,2,0:3:0:0:
363,225,258747,1,2,0:3:0:0:
316,218,258821,1,2,0:3:0:0:
269,211,258895,1,2,0:3:0:0:
210,201,258970,1,2,0:3:0:0:
151,192,259044,1,2,0:3:0:0:
80,181,259118,1,2,0:3:0:0:
9,171,259192,5,10,0:0:0:0:
62,92,259267,1,2,0:0:0:0:
156,86,259341,1,2,0:0:0:0:
231,140,259415,1,2,0:0:0:0:
239,233,259489,5,14,0:0:0:0:
235,252,259564,1,2,0:0:0:0:
231,271,259638,1,2,0:0:0:0:
228,290,259712,1,2,0:0:0:0:
319,261,259786,5,10,0:0:0:0:
314,283,259861,1,2,0:0:0:0:
309,306,259935,1,2,0:0:0:0:
305,329,260009,1,2,0:0:0:0:
400,287,260083,5,10,0:0:0:0:
394,313,260158,1,2,0:0:0:0:
388,340,260232,1,2,0:0:0:0:
384,366,260306,1,2,0:0:0:0:
468,384,260380,5,10,0:0:0:0:
477,323,260455,1,2,0:0:0:0:
486,264,260529,1,2,0:0:0:0:
495,205,260603,1,2,0:0:0:0:
491,104,260678,5,10,0:0:0:0:
464,70,260752,1,2,0:0:0:0:
425,85,260826,1,2,0:0:0:0:
425,127,260900,1,2,0:0:0:0:
466,139,260975,5,10,0:0:0:0:
392,149,261049,1,2,0:0:0:0:
379,219,261123,1,2,0:0:0:0:
442,256,261197,1,2,0:0:0:0:
495,205,261272,6,0,L|440:199,3,50,2|0|2|0,0:0|0:0|0:0|0:0,0:0:0:0:
499,218,261569,2,0,L|450:213,3,50,2|0|2|0,0:0|0:0|0:0|0:0,0:0:0:0:
326,172,261866,5,14,0:0:0:0:
298,185,261940,1,2,0:0:0:0:
277,207,262014,1,2,0:0:0:0:
264,235,262088,1,2,0:0:0:0:
197,134,262163,5,10,0:0:0:0:
175,105,262237,1,2,0:0:0:0:
166,69,262311,1,2,0:0:0:0:
169,32,262385,1,2,0:0:0:0:
253,2,262460,5,10,0:0:0:0:
277,33,262534,1,2,0:0:0:0:
287,73,262608,1,2,0:0:0:0:
283,114,262682,1,2,0:0:0:0:
197,134,262757,5,10,0:0:0:0:
245,84,262831,1,2,0:0:0:0:
309,57,262905,1,2,0:0:0:0:
379,52,262980,1,2,0:0:0:0:
448,61,263054,5,10,0:0:0:0:
453,80,263128,1,2,0:0:0:0:
454,99,263202,1,2,0:0:0:0:
451,119,263277,1,2,0:0:0:0:
445,138,263351,5,10,0:0:0:0:
395,144,263425,1,2,0:0:0:0:
347,158,263499,1,2,0:0:0:0:
304,185,263574,1,2,0:0:0:0:
277,226,263648,5,8,0:0:0:0:
403,265,263747,6,0,L|411:310,2,33.3333333333333,2|2|2,0:0|0:0|0:0,0:0:0:0:
197,134,263945,5,2,0:3:0:0:
137,235,264044,5,2,0:3:0:0:
41,205,264143,5,2,0:3:0:0:
23,290,264242,6,0,L|26:311,4,12.5
28,123,264390,5,8,0:0:0:0:
108,148,264465,1,8,0:0:0:0:
141,66,264539,5,14,0:0:0:0:
96,59,264614,1,2,0:0:0:0:
47,79,264688,1,2,0:0:0:0:
28,123,264762,1,2,0:0:0:0:
108,148,264836,5,10,0:0:0:0:
151,141,264910,1,2,0:0:0:0:
197,134,264984,1,2,0:0:0:0:
246,127,265059,1,2,0:0:0:0:
297,63,265133,5,10,0:0:0:0:
366,78,265207,1,2,0:0:0:0:
438,87,265281,1,2,0:0:0:0:
511,95,265356,1,2,0:0:0:0:
492,0,265430,5,10,0:0:0:0:
431,34,265504,1,2,0:0:0:0:
418,103,265579,1,2,0:0:0:0:
435,170,265653,1,2,0:0:0:0:
501,216,265727,5,10,0:0:0:0:
508,244,265801,1,2,0:0:0:0:
506,273,265876,1,2,0:0:0:0:
491,299,265950,1,2,0:0:0:0:
428,250,266024,6,0,P|375:233|300:272,1,100,10|0,0:0|0:0,0:0:0:0:
422,335,266173,2,0,P|373:344|327:328,1,100,2|0,0:0|0:0,0:0:0:0:
218,101,266321,5,10,0:0:0:0:
172,178,266395,1,2,0:0:0:0:
145,264,266470,1,2,0:0:0:0:
128,353,266544,1,2,0:0:0:0:
223,384,266618,6,0,L|228:340,4,37.5000014305115,10|0|0|0|0,0:0|0:0|0:0|0:0|0:0,0:0:0:0:
263,275,266841,6,0,L|215:231,4,50,10|0|0|0|0,0:0|0:0|0:0|0:0|0:0,0:0:0:0:
26,275,267064,6,0,L|32:337,1,62.5,10|0,0:0|0:0,0:0:0:0:
45,250,267138,2,0,L|38:180,2,62.5,10|0|0,0:0|0:0|0:0,0:0:0:0:
121,137,267286,6,0,L|127:74,1,62.5,10|0,0:0|0:0,0:0:0:0:
140,162,267360,2,0,L|133:232,2,62.5,10|0|0,0:0|0:0|0:0,0:0:0:0:
209,269,267509,6,0,L|215:331,1,62.5,10|0,0:0|0:0,0:0:0:0:
226,241,267583,2,0,L|219:171,2,62.5,10|0|0,0:0|0:0|0:0,0:0:0:0:
277,0,267732,6,0,L|351:11,1,62.5,10|0,0:0|0:0,0:0:0:0:
421,21,267806,2,0,L|495:32,1,62.5,10|0,0:0|0:0,0:0:0:0:
422,31,267880,2,0,L|496:42,1,62.5,10|0,0:0|0:0,0:0:0:0:
423,41,267955,2,0,L|497:52,1,62.5,10|0,0:0|0:0,0:0:0:0:
424,51,268029,2,0,L|498:62,1,62.5,10|0,0:0|0:0,0:0:0:0:
397,82,268103,2,0,L|323:93,1,62.5,10|0,0:0|0:0,0:0:0:0:
396,92,268177,2,0,L|322:103,1,62.5,10|0,0:0|0:0,0:0:0:0:
395,102,268252,2,0,L|321:113,1,62.5,10|0,0:0|0:0,0:0:0:0:
394,112,268326,2,0,L|320:123,1,62.5,10|0,0:0|0:0,0:0:0:0:
315,157,268400,5,2,0:0:0:0:
300,197,268475,1,2,0:0:0:0:
303,258,268549,1,2,0:0:0:0:
362,309,268623,1,2,0:0:0:0:
452,307,268697,1,2,0:0:0:0:
512,239,268772,1,2,0:0:0:0:
471,168,268846,1,2,0:0:0:0:
412,182,268920,1,2,0:0:0:0:
406,217,268994,5,14,0:0:0:0:
415,237,269069,1,2,0:0:0:0:
400,232,269143,1,2,0:0:0:0:
420,223,269217,1,2,0:0:0:0:
403,317,269291,5,10,0:0:0:0:
353,356,269366,1,2,0:0:0:0:
290,358,269440,1,2,0:0:0:0:
247,311,269514,1,2,0:0:0:0:
215,242,269588,5,10,0:0:0:0:
220,221,269663,1,2,0:0:0:0:
206,228,269737,1,2,0:0:0:0:
227,234,269811,1,2,0:0:0:0:
203,146,269885,5,10,0:0:0:0:
162,98,269959,1,2,0:0:0:0:
98,92,270033,1,2,0:0:0:0:
49,133,270108,1,2,0:0:0:0:
27,214,270182,5,10,0:0:0:0:
22,235,270257,1,2,0:0:0:0:
36,228,270331,1,2,0:0:0:0:
15,222,270405,1,2,0:0:0:0:
49,133,270480,5,10,0:0:0:0:
98,92,270555,1,2,0:0:0:0:
162,98,270629,1,2,0:0:0:0:
203,146,270703,1,2,0:0:0:0:
203,253,270777,6,0,P|241:269|206:245,1,112.500004291535,2|0,0:0|0:0,0:0:0:0:
203,253,271074,6,0,P|248:272|206:243,1,150.000005722046,2|0,0:3|0:0,0:0:0:0:
272,130,271222,1,2,0:0:0:0:
272,130,271296,1,2,0:0:0:0:
272,130,271371,5,14,0:0:0:0:
286,156,271445,1,2,0:0:0:0:
309,174,271519,1,2,0:0:0:0:
336,186,271593,1,2,0:0:0:0:
443,120,271668,5,10,0:0:0:0:
420,78,271742,1,2,0:0:0:0:
383,49,271816,1,2,0:0:0:0:
340,30,271890,1,2,0:0:0:0:
281,120,271965,5,10,0:0:0:0:
295,146,272039,1,2,0:0:0:0:
318,164,272113,1,2,0:0:0:0:
345,176,272187,1,2,0:0:0:0:
443,120,272262,5,10,0:0:0:0:
450,186,272336,1,2,0:0:0:0:
439,253,272410,1,2,0:0:0:0:
403,312,272484,1,2,0:0:0:0:
308,337,272559,5,10,0:0:0:0:
273,288,272633,1,2,0:0:0:0:
216,269,272707,1,2,0:0:0:0:
157,282,272781,1,2,0:0:0:0:
81,247,272856,5,10,0:0:0:0:
63,222,272930,1,2,0:0:0:0:
34,213,273004,1,2,0:0:0:0:
5,219,273078,1,2,0:0:0:0:
11,134,273153,5,10,0:0:0:0:
25,131,273227,1,2,0:0:0:0:
39,128,273301,1,2,0:0:0:0:
53,125,273376,1,2,0:0:0:0:
67,122,273450,1,2,0:0:0:0:
81,119,273524,1,2,0:0:0:0:
95,116,273598,1,2,0:0:0:0:
109,113,273673,1,2,0:0:0:0:
123,110,273747,1,2,0:0:0:0:
0,158,273895,5,8,0:0:0:0:
73,142,273970,5,8,0:0:0:0:
146,127,274044,6,0,L|152:87,9,25,4|0|0|0|0|0|0|0|0|0,0:0|0:0|0:0|0:0|0:0|0:0|0:0|0:0|0:0|0:0,0:0:0:0:
255,171,274786,6,0,L|263:122,7,50,4|0|0|0|0|0|0|0,0:0|0:0|0:0|0:0|0:0|0:0|0:0|0:0,0:0:0:0:
371,218,275380,6,0,L|383:142,5,75.0000028610231,4|0|0|0|0|0,0:0|0:0|0:0|0:0|0:0|0:0,0:0:0:0:
498,195,275826,5,2,0:0:0:0:
491,231,275900,1,2,0:0:0:0:
485,268,275975,1,2,0:0:0:0:
479,304,276049,1,2,0:0:0:0:
382,363,276123,6,0,B|201:337|332:139|77:115,1,375.000014305115,4|0,0:0|0:0,0:0:0:0:
83,211,276569,2,0,P|196:188|217:130,1,150.000005722046,4|0,0:0|0:0,0:0:0:0:
374,31,276791,2,0,P|301:26|248:76,1,150.000005722046,4|0,0:0|0:0,0:0:0:0:
396,247,277014,5,6,0:0:0:0:
414,223,277088,1,2,0:0:0:0:
424,194,277163,1,2,0:0:0:0:
424,164,277237,1,2,0:0:0:0:
412,136,277311,2,0,L|324:116,1,75.0000028610231,2|0,0:0|0:0,0:0:0:0:
124,122,277460,6,0,P|81:103|54:61,2,75.0000028610231,6|0|0,3:2|0:0|0:0,0:0:0:0:
277,231,277682,6,0,P|320:212|347:170,2,75.0000028610231,6|0|0,3:2|0:0|0:0,0:0:0:0:
71,331,277905,6,0,P|28:312|1:270,1,75.0000028610231,6|0,3:2|0:0,0:0:0:0:
83,211,278054,1,2,0:0:0:0:
155,196,278128,1,2,0:0:0:0:
216,208,278202,1,2,0:0:0:0:
257,247,278277,1,2,0:0:0:0:
268,290,278351,1,2,0:0:0:0:
259,326,278425,1,2,0:0:0:0:
233,341,278499,6,0,L|280:24,1,300.000011444092,6|0,0:0|0:0,0:0:0:0:
276,44,278945,6,0,L|362:29,1,75.0000028610231,8|0,0:0|0:0,0:0:0:0:
461,113,279093,2,0,P|426:245|349:148,1,300.000011444092,0|0,3:2|0:0,0:0:0:0:
344,171,279465,6,0,P|378:214|378:245,1,75.0000028610231,2|0,0:0|0:0,0:0:0:0:
312,281,279687,2,0,P|285:306|277:343,1,75.0000028610231,2|0,0:0|0:0,0:0:0:0:
512,349,279984,6,0,P|491:310|413:290,1,100,10|0,0:2|0:0,0:0:0:0:
381,342,280133,2,0,P|360:303|282:283,1,100,2|0,0:0|0:0,0:0:0:0:
250,335,280281,2,0,P|229:296|151:276,1,100,2|0,3:2|0:0,0:0:0:0:
95,339,280430,6,2,B|14:255|63:95|250:128|250:263|168:335|48:340|-13:284,1,500,2|0,0:1|0:0,0:1:0:0:
46,139,280876,5,6,0:0:0:0:
81,114,280950,1,2,0:0:0:0:
126,103,281024,1,2,0:0:0:0:
175,107,281098,1,2,0:0:0:0:
215,136,281173,1,2,0:0:0:0:
46,139,281321,5,6,0:0:0:0:
88,126,281395,1,2,0:0:0:0:
127,89,281469,1,10,0:2:0:0:
169,124,281543,1,2,0:0:0:0:
215,136,281618,1,2,0:0:0:0:
46,139,281767,5,6,0:0:0:0:
82,190,281841,1,2,0:0:0:0:
137,215,281915,1,2,0:0:0:0:
189,185,281989,1,2,0:0:0:0:
215,136,282064,1,2,0:0:0:0:
123,16,282212,5,0,3:0:0:0:
127,89,282286,1,0,3:0:0:0:
190,45,282361,2,0,B|282:41|282:41|342:148|342:148|432:145,1,300.000011444092,4|0,0:0|0:0,0:0:0:0:
427,145,282658,6,0,L|498:141,1,37.5000014305115,0|0,3:0|0:0,0:0:0:0:
443,0,282806,6,0,B|346:6|346:6|259:192|259:192|158:198,1,400,4|0,0:0|0:0,0:0:0:0:
123,124,283252,6,0,B|251:118|251:118|335:268|335:268|461:264,1,400,4|0,0:0|0:0,0:0:0:0:
218,380,283697,6,0,L|245:267,1,100,4|0,0:0|0:0,0:0:0:0:
223,45,283846,2,0,P|81:6|48:231,1,375.000014305115,0|0,3:0|0:0,0:0:0:0:
123,124,284291,1,2,0:1:0:0:
19,290,284440,6,0,B|-3:312|-27:292|-27:292|4:272|27:297,1,100,2|0,0:0|0:0,0:0:0:0:
83,338,284663,2,0,B|105:360|85:384|85:384|65:353|90:330,2,100,2|8|0,0:0|0:0|0:0,0:0:0:0:
133,276,284885,2,0,B|155:254|179:274|179:274|148:294|125:269,1,100,2|0,0:0|3:0,0:0:0:0:
69,228,285108,2,0,B|47:206|67:182|67:182|87:213|62:236,2,100,2|0|0,0:0|0:0|0:0,0:0:0:0:
264,306,285331,6,0,P|313:306|357:283,1,100,2|0,0:0|0:0,0:0:0:0:
240,205,285480,2,0,P|284:182|333:182,1,100,2|0,0:0|0:0,0:0:0:0:
492,278,285628,5,6,0:0:0:0:
499,300,285702,1,2,0:0:0:0:
451,294,285777,1,2,0:0:0:0:
424,239,285851,1,2,0:0:0:0:
442,171,285925,2,0,L|480:174,1,37.5000014305115,2|2,0:0|0:0,0:0:0:0:
454,41,286074,5,6,0:0:0:0:
460,20,286148,1,2,0:0:0:0:
504,36,286222,1,2,0:0:0:0:
512,92,286296,1,2,0:0:0:0:
479,148,286371,2,0,L|419:144,1,50,2|2,0:0|0:0,0:0:0:0:
289,31,286519,5,6,0:0:0:0:
272,22,286593,1,2,0:0:0:0:
215,50,286668,1,2,0:0:0:0:
166,93,286742,1,2,0:0:0:0:
133,155,286816,2,0,L|122:224,1,62.5,2|2,0:0|0:0,0:0:0:0:
209,332,286965,6,0,B|246:355|246:355|361:348|361:348|382:321|382:321|509:314,1,300,4|0,0:0|0:0,0:0:0:0:
478,323,287262,5,0,3:0:0:0:
465,244,287336,1,0,3:0:0:0:
451,165,287410,2,0,L|447:135,1,30,0|0,3:0|0:0,0:0:0:0:
278,61,288004,6,0,B|240:110|240:110|365:92|365:92|394:59|394:59|492:47,1,300,6|0,0:0|0:0,0:0:0:0:
461,50,288301,6,0,L|466:22,1,25,0|0,3:2|0:0,0:0:0:0:
340,176,288450,6,0,B|216:193|216:193|191:178|191:178|43:195|43:195|95:224|95:224|282:20,1,600,4|0,0:0|0:0,0:0:0:0:
254,49,288970,6,0,L|247:109,1,50,2|0,0:0|0:0,0:0:0:0:
90,102,289192,2,0,L|84:53,1,50,2|0,0:0|0:0,0:0:0:0:
268,41,289489,6,0,P|320:57|346:124,1,100,2|0,3:2|0:0,0:0:0:0:
452,158,289638,2,0,P|400:174|374:241,1,100,2|0,0:0|0:0,0:0:0:0:
276,283,289786,2,0,P|328:299|354:366,1,100,10|0,0:2|0:0,0:0:0:0:
391,351,289935,1,2,0:0:0:0:
272,368,290009,2,0,P|214:340|230:212,1,200,2|0,3:2|0:0,0:0:0:0:
220,219,290232,2,0,P|183:268|129:282,1,100,2|0,3:2|0:0,0:0:0:0:
74,221,290380,5,6,0:0:0:0:
79,185,290455,1,2,0:0:0:0:
107,150,290529,1,2,0:0:0:0:
145,135,290603,1,2,0:0:0:0:
185,139,290678,1,2,3:2:0:0:
74,221,290826,5,6,0:0:0:0:
61,175,290901,1,2,0:0:0:0:
82,122,290975,1,2,0:0:0:0:
135,112,291049,1,2,0:0:0:0:
185,139,291124,1,2,3:2:0:0:
74,221,291272,5,6,0:0:0:0:
39,165,291347,1,2,0:0:0:0:
62,95,291421,1,2,0:0:0:0:
136,93,291495,1,2,0:0:0:0:
185,139,291570,1,2,3:2:0:0:
397,63,291717,6,0,P|421:89|427:145,1,75.0000028610231,8|0,0:2|0:0,0:0:0:0:
249,332,291866,6,0,B|204:298|204:298|332:290|332:290|331:294|331:294|398:289|398:289|395:286|395:286|486:280,1,300,4|0,0:0|0:0,0:0:0:0:
361,286,292163,6,0,L|399:284,1,25,0|0,3:0|0:0,0:0:0:0:
185,378,292311,6,0,B|151:349|151:349|113:312|128:263|141:230|206:224|206:224|372:213,1,375,4|0,0:0|0:0,0:0:0:0:
359,213,292608,6,0,L|417:209,1,37.5000014305115,0|0,3:0|0:0,0:0:0:0:
74,367,292757,6,0,B|47:326|32:228|103:159|194:153|194:153|418:137,1,450.000017166138,4|0,0:0|0:0,0:0:0:0:
348,141,293054,6,0,L|412:138,1,50,0|0,3:0|0:0,0:0:0:0:
15,11,293202,6,0,B|42:86|183:78|183:78|335:69,1,345.000006580353,4|0,0:0|0:0,0:0:0:0:
409,63,293499,1,0,3:0:0:0:
409,63,293871,5,0,3:0:0:0:
512,23,293945,2,0,L|504:73,1,44.999998626709,0|0,3:0|0:0,0:0:0:0:
451,155,294242,6,0,L|446:184,3,29.9999990844727,10|2|2|2,0:0|0:0|0:0|0:0,0:0:0:0:
409,63,294836,5,4,0:3:0:0:
334,69,294910,1,4,0:3:0:0:
259,75,294984,1,4,0:3:0:0:
341,246,295133,6,0,B|313:277|274:293|230:252|230:211|230:211|229:165|205:136|159:137|134:177|134:177|111:212|70:204,1,375.000014305115,14|0,0:0|0:0,0:0:0:0:
55,203,295579,2,0,P|35:154|49:109,1,75.0000028610231,2|0,0:0|0:0,0:0:0:0:
153,72,295727,2,0,P|185:99|180:212,1,150,10|0,0:0|0:0,0:0:0:0:
66,236,296024,2,0,P|33:208|38:95,1,150,2|0,0:0|0:0,0:0:0:0:
74,28,296321,1,10,0:0:0:0:
145,277,296470,2,0,L|172:378,1,100,2|0,0:0|0:0,0:0:0:0:
112,154,296915,1,8,0:0:0:0:
112,154,297212,6,0,L|169:164,1,50,2|2,0:0|0:0,0:0:0:0:
313,117,297509,6,0,B|365:50|229:0|144:128|384:194|334:334|231:355|181:350,1,375.000014305115,14|0,0:0|0:0,0:0:0:0:
226,339,297955,2,0,P|174:331|127:295,1,75.0000028610231,2|0,0:0|0:0,0:0:0:0:
371,247,298103,2,0,P|430:243|526:290,1,150,10|0,0:0|0:0,0:0:0:0:
349,338,298400,2,0,P|416:370|490:368,1,150,2|0,0:0|0:0,0:0:0:0:
302,277,298697,1,10,0:0:0:0:
395,43,298846,2,0,L|409:134,1,75,2|0,0:0|0:0,0:0:0:0:
379,148,299143,1,2,0:0:0:0:
512,0,299291,1,8,0:0:0:0:
512,0,299588,1,0,0:0:0:0:
234,93,299885,6,0,B|164:106|126:77|126:77|116:75|116:75|127:69|127:69|176:21|304:61|297:185,1,375.000014305115,14|0,0:0|0:0,0:0:0:0:
295,195,300331,2,0,P|285:231|241:272,1,75.0000028610231,2|0,0:0|0:0,0:0:0:0:
329,23,300480,2,0,P|386:14|457:77,1,150,10|0,0:0|0:0,0:0:0:0:
495,152,300777,2,0,P|422:156|369:106,1,150,2|0,0:0|0:0,0:0:0:0:
329,23,301074,1,10,0:0:0:0:
157,243,301222,1,2,0:0:0:0:
208,181,301370,1,2,0:0:0:0:
128,168,301519,1,2,0:0:0:0:
386,217,301668,1,8,0:0:0:0:
386,217,301965,6,0,L|330:224,1,50,2|2,0:0|0:0,0:0:0:0:
170,47,302262,6,0,B|162:0|276:-40|288:71|236:93|236:93|186:113|181:207|288:210|296:151,1,375.000014305115,14|0,0:0|0:0,0:0:0:0:
296,148,302707,2,0,P|279:107|223:101,1,75.0000028610231,2|0,0:0|0:0,0:0:0:0:
123,135,302856,2,0,P|146:214|211:267,2,150.000005722046,10|2|2,0:0|0:0|0:0,0:0:0:0:
74,9,303450,5,8,0:0:0:0:
62,67,303524,1,8,0:0:0:0:
51,120,303598,1,8,0:0:0:0:
41,169,303673,1,8,0:0:0:0:
33,208,303747,1,8,0:0:0:0:
26,242,303821,1,8,0:0:0:0:
20,271,303895,1,8,0:0:0:0:
15,295,303970,1,8,0:0:0:0:
11,314,304044,5,8,0:0:0:0:
80,307,304118,1,8,0:0:0:0:
159,296,304192,1,8,0:0:0:0:
249,284,304267,1,8,0:0:0:0:
347,272,304341,2,0,L|401:263,3,50,2|2|2|2,0:3|0:3|0:3|0:3,0:0:0:0:
266,221,304638,6,0,P|253:253|252:276,1,50,4|0,0:0|0:0,0:0:0:0:
285,357,304861,6,0,P|266:294|287:209,1,150.000005722046,12|0,0:0|0:0,0:0:0:0:
262,370,305083,2,0,P|285:277|262:187,1,170.000003242493,12|0,0:0|0:0,0:0:0:0:
239,375,305306,2,0,P|270:274|333:207,1,189.999994926453,12|0,0:0|0:0,0:0:0:0:
207,378,305529,2,0,P|252:263|228:166,1,209.999993591309,12|0,0:0|0:0,0:0:0:0:
176,375,305752,2,0,P|228:260|333:182,1,230.000004386902,12|0,0:0|0:0,0:0:0:0:
143,364,305975,2,0,P|183:231|149:117,1,250,12|0,0:0|0:0,0:0:0:0:
103,332,306197,2,0,P|177:172|270:90,1,270.000001029968,12|0,0:0|0:0,0:0:0:0:
387,95,306420,6,0,L|444:90,1,50,0|0,3:0|3:0,0:0:0:0:
130,108,306717,6,0,B|6:114|6:114|531:161|531:161|433:171,1,750,4|0,0:0|0:0,0:0:0:0:
219,270,307237,6,0,L|68:277,1,150.000005722046,12|0,0:0|0:0,0:0:0:0:
240,240,307460,2,0,L|48:199,1,170.000003242493,12|0,0:0|0:0,0:0:0:0:
276,218,307682,2,0,L|110:114,1,189.999994926453,12|0,0:0|0:0,0:0:0:0:
248,261,307905,2,0,L|98:31,1,209.999993591309,12|0,0:0|0:0,0:0:0:0:
206,301,308128,2,0,L|191:27,1,230.000004386902,12|0,0:0|0:0,0:0:0:0:
136,315,308351,2,0,L|281:82,1,250,12|0,0:0|0:0,0:0:0:0:
69,277,308574,2,0,L|329:192,1,270.000001029968,12|0,0:0|0:0,0:0:0:0:
409,321,308796,5,2,0:0:0:0:
409,321,308871,1,2,0:0:0:0:
409,321,308945,1,2,0:0:0:0:
409,321,309019,1,2,0:0:0:0:
409,321,309093,6,0,L|427:182,2,100.000003814697,0|0|0,3:0|3:0|3:0,0:0:0:0:
460,115,309390,6,0,L|468:164,1,50,0|0,3:0|0:0,0:0:0:0:
431,278,309613,6,0,B|357:268|395:202|296:192,1,150.000005722046,12|0,0:0|0:0,0:0:0:0:
344,373,309836,2,0,B|294:307|375:285|305:201,1,170.000003242493,12|0,0:0|0:0,0:0:0:0:
203,379,310059,2,0,B|214:281|293:327|306:207,1,189.999994926453,12|0,0:0|0:0,0:0:0:0:
87,270,310281,2,0,B|171:202|197:300|300:216,1,209.999993591309,12|0,0:0|0:0,0:0:0:0:
87,95,310504,2,0,B|205:108|149:205|294:219,1,230.000004386902,12|0,0:0|0:0,0:0:0:0:
207,0,310727,2,0,B|281:93|172:123|266:237,1,250,12|0,0:0|0:0,0:0:0:0:
377,18,310950,2,0,B|362:146|257:85|241:243,1,270.000001029968,12|0,0:0|0:0,0:0:0:0:
239,328,311173,6,0,L|175:333,1,50,0|0,3:0|3:0,0:0:0:0:
32,281,311470,6,0,B|25:139|25:139|102:84|102:84|111:331|111:331|7:292|7:292|5:225,1,625,4|0,0:0|0:0,0:0:0:0:
73,193,311915,6,0,P|160:187|215:269,1,150.000005722046,12|0,0:0|0:0,0:0:0:0:
187,86,312138,2,0,P|235:158|192:246,1,170.000003242493,12|0,0:0|0:0,0:0:0:0:
304,234,312361,2,0,P|260:250|214:239,1,94.9999974632264,12|0,0:0|0:0,0:0:0:0:
359,145,312509,2,0,P|403:129|449:140,1,94.9999974632264,12|0,0:0|0:0,0:0:0:0:
414,288,312658,2,0,L|407:203,3,75.0000028610231,6|2|2|2,0:0|0:0|0:0|0:0,0:0:0:0:
335,356,312955,6,0,L|339:310,1,25,2|0,0:0|0:0,0:0:0:0:
449,140,313103,6,0,P|362:134|307:216,1,150.000005722046,12|0,0:0|0:0,0:0:0:0:
335,33,313326,2,0,P|287:105|330:193,1,170.000003242493,12|0,0:0|0:0,0:0:0:0:
217,182,313549,2,0,P|261:197|307:186,1,94.9999974632264,12|0,0:0|0:0,0:0:0:0:
127,31,313697,6,0,P|104:23|81:28,2,47.4999987316132,0|0|0,3:0|3:0|3:0,0:0:0:0:
167,109,313846,2,0,L|222:103,2,47.4999987316132,0|0|0,3:0|3:0|3:0,3:0:0:0:
124,186,313994,2,0,P|102:191|80:184,2,47.4999987316132,0|0|0,3:0|3:0|3:0,0:0:0:0:
246,102,314143,6,0,L|305:97,1,50
351,36,314366,5,12,0:0:0:0:
376,72,314440,2,0,P|379:108|346:168,1,75.0000028610231,0|0,3:0|0:0,0:0:0:0:
420,11,314588,2,0,P|371:103|360:216,1,179.999994506836,12|0,0:0|0:0,0:0:0:0:
504,184,314811,1,12,0:0:0:0:
462,221,314885,2,0,P|448:272|459:335,1,104.999996795654,0|0,3:0|0:0,0:0:0:0:
439,136,315034,2,0,P|482:272|459:386,1,239.999992675781,12|0,0:0|0:0,0:0:0:0:
271,139,315257,1,12,0:0:0:0:
326,189,315331,2,0,P|337:245|299:338,1,135.000000514984,0|0,3:0|0:0,0:0:0:0:
348,87,315480,2,0,P|268:259|310:381,1,300.000011444092,12|0,0:0|0:0,0:0:0:0:
295,357,315702,2,0,P|125:341|67:201,1,300.000011444092,12|0,0:0|0:0,0:0:0:0:
63,153,315925,6,0,P|95:157|121:176,1,50,0|0,3:0|3:0,0:0:0:0:
198,342,316222,6,0,B|287:350|354:248|354:248|396:159|519:225|417:334|354:250|354:250|275:152|90:179|33:278,1,750,4|0,0:0|0:0,0:0:0:0:
31,352,316742,5,12,0:0:0:0:
4,326,316816,2,0,P|43:325|91:298,1,75.0000028610231,0|0,3:0|0:0,0:0:0:0:
13,129,316965,2,0,P|107:170|143:247,1,179.999994506836,12|0,0:0|0:0,0:0:0:0:
183,370,317187,1,12,0:0:0:0:
140,340,317262,2,0,P|205:322|241:283,1,104.999996795654,0|0,3:0|0:0,0:0:0:0:
170,81,317410,2,0,P|296:136|356:238,1,239.999992675781,12|0,0:0|0:0,0:0:0:0:
370,362,317633,1,12,0:0:0:0:
323,321,317707,2,0,P|394:307|453:234,1,135.000000514984,0|0,3:0|0:0,0:0:0:0:
341,43,317856,2,0,P|431:80|512:263,1,300.000011444092,12|0,0:0|0:0,0:0:0:0:
512,255,318079,2,0,P|374:170|222:199,1,300.000011444092,12|0,0:0|0:0,0:0:0:0:
160,356,318301,5,2,0:0:0:0:
160,356,318376,1,2,0:0:0:0:
160,356,318450,1,2,0:0:0:0:
160,356,318524,1,2,0:0:0:0:
160,356,318598,6,0,L|150:247,1,66.6666666666667,0|0,3:0|0:0,0:0:0:0:
172,352,318697,2,0,L|162:243,1,66.6666666666667,0|0,3:0|0:0,0:0:0:0:
183,348,318796,2,0,L|173:239,1,66.6666666666667,0|0,3:0|0:0,0:0:0:0:
238,237,318895,6,0,L|243:182,1,50,0|0,3:0|0:0,0:0:0:0:
64,121,319118,5,12,0:0:0:0:
0,74,319192,2,0,B|27:51|27:51|69:44,1,75.0000028610231,0|0,3:0|0:0,0:0:0:0:
243,36,319341,2,0,L|269:243,1,179.999994506836,12|0,0:0|0:0,0:0:0:0:
415,158,319564,1,12,0:0:0:0:
488,129,319638,2,0,B|463:85|463:85|388:74,1,104.999996795654,0|0,3:0|0:0,0:0:0:0:
259,28,319786,2,0,L|225:313,1,239.999992675781,12|0,0:0|0:0,0:0:0:0:
82,247,320009,1,12,0:0:0:0:
0,230,320083,2,0,B|35:172|35:172|132:160,1,135.000000514984,0|0,3:0|0:0,0:0:0:0:
234,19,320232,2,0,L|273:371,1,300.000011444092,12|0,0:0|0:0,0:0:0:0:
261,329,320455,2,0,L|227:30,1,300.000011444092,12|0,0:0|0:0,0:0:0:0:
332,11,320678,6,0,L|401:21,1,50,0|0,3:0|3:0,0:0:0:0:
421,312,320975,6,0,B|355:268|355:268|343:135|343:135|339:93|371:79|413:85|417:125|417:125|428:242|428:242|338:359|338:359|221:365,1,625,4|0,0:0|0:0,0:0:0:0:
232,282,321420,6,0,L|223:174,1,100,12|0,0:0|0:0,0:0:0:0:
86,343,321569,1,0,3:0:0:0:
159,314,321643,2,0,L|140:87,1,200,12|0,0:0|0:0,0:0:0:0:
212,32,321866,2,0,L|325:22,1,100,12|0,0:0|0:0,0:0:0:0:
392,97,322014,2,0,L|292:105,1,100,12|0,0:0|0:0,0:0:0:0:
102,15,322163,6,0,L|22:21,1,74.9999977111817,0|0,3:0|0:0,0:0:0:0:
0,130,322608,6,0,L|113:120,1,100,12|0,0:0|0:0,0:0:0:0:
223,182,322757,1,0,3:0:0:0:
287,212,322831,2,0,L|487:196,1,200,12|0,0:0|0:0,0:0:0:0:
483,105,323054,2,0,P|422:129|392:211,1,100,12|0,0:0|0:0,0:0:0:0:
385,302,323202,2,0,L|384:360,4,50,12|8|8|8|8,0:0|0:0|0:0|0:0|0:0,0:0:0:0:
266,84,323499,5,2,0:0:0:0:
257,79,323574,1,2,0:0:0:0:
242,76,323648,1,2,0:0:0:0:
218,78,323722,1,2,0:0:0:0:
191,96,323796,1,2,0:0:0:0:
173,136,323871,1,2,0:0:0:0:
197,183,323945,1,2,0:0:0:0:
259,192,324019,1,2,0:0:0:0:
316,155,324093,1,2,0:0:0:0:
330,79,324168,1,2,0:0:0:0:
388,17,324242,1,2,0:0:0:0:
471,22,324316,1,2,0:0:0:0:
509,82,324391,1,2,0:0:0:0:
482,142,324465,1,2,0:0:0:0:
433,152,324539,1,2,0:0:0:0:
388,130,324613,1,2,0:0:0:0:
350,95,324688,1,2,0:0:0:0:
309,93,324762,1,2,0:0:0:0:
281,117,324836,5,2,0:0:0:0:
266,167,324910,1,2,0:0:0:0:
278,222,324984,1,2,0:0:0:0:
263,286,325059,1,2,0:0:0:0:
191,307,325133,1,2,0:0:0:0:
118,276,325207,1,2,0:0:0:0:
97,197,325281,1,2,0:0:0:0:
121,108,325356,1,2,0:0:0:0:
90,20,325430,6,0,P|54:46|37:80,1,50,2|0,0:0|0:0,0:0:0:0:
16,185,325579,2,0,P|20:229|41:260,1,50,2|0,0:0|0:0,0:0:0:0:
126,329,325727,6,0,L|171:323,1,25,2|0,0:0|0:0,0:0:0:0:
179,348,325801,6,0,L|223:330,1,32.4999985122681,2|0,0:0|0:0,0:0:0:0:
258,349,325876,6,0,L|299:319,1,40,2|0,0:0|0:0,0:0:0:0:
341,327,325950,6,0,L|373:277,1,47.4999987316132,2|0,0:0|0:0,0:0:0:0:
466,242,326024,5,4,0:0:0:0:
