osu file format v14

[General]
AudioFilename: new BOIB.ogg
AudioLeadIn: 0
PreviewTime: 66585
Countdown: 0
SampleSet: Normal
StackLeniency: 0.7
Mode: 1
LetterboxInBreaks: 0
WidescreenStoryboard: 0

[Editor]
Bookmarks: 68596
DistanceSpacing: 1
BeatDivisor: 4
GridSize: 32
TimelineZoom: 2.4

[Metadata]
Title:Bring Our Ignition Back
TitleUnicode:Bring Our Ignition Back
Artist:Camellia
ArtistUnicode:かめりあ
Creator:Arrival
Version:Inner Oni
Source:
Tags:voltage reignition dubcore heaxys electronic instrumental かめるかめりあ cametek kamelcamellia C.H.S Cutie & Headshaking Sounds comic market 95 comiket c95 MOTF-0009 Movement on the Floor
BeatmapID:2367371
BeatmapSetID:1133558

[Difficulty]
HPDrainRate:6
CircleSize:2
OverallDifficulty:6
ApproachRate:0
SliderMultiplier:1.4
SliderTickRate:1

[Events]
//Background and Video events
0,0,"bg.jpg",0,100
//Break Periods
2,132385,142785
//Storyboard Layer 0 (Background)
//Storyboard Layer 1 (Fail)
//Storyboard Layer 2 (Pass)
//Storyboard Layer 3 (Foreground)
//Storyboard Layer 4 (Overlay)
//Storyboard Sound Samples

[TimingPoints]
4185,400,4,1,0,70,1,0
4185,-111.111111111111,4,1,0,70,0,0
29785,-100,4,1,0,70,0,0
30085,-99.4233446013124,4,1,0,80,0,0
30185,-98.8533017002768,4,1,0,80,0,0
30385,-98.2897582071948,4,1,0,80,0,0
30585,-97.7230528681716,4,1,0,80,0,0
30985,-97.1722864639005,4,1,0,80,0,0
31185,-96.6276934969562,4,1,0,80,0,0
31285,-96.0891707504564,4,1,0,80,0,0
31385,-95.5566172957477,4,1,0,80,0,0
31485,-95.0299344293452,4,1,0,80,0,0
31685,-94.5090256119459,4,1,0,80,0,0
31785,-93.984962406015,4,1,0,80,0,0
31985,-93.475415965601,4,1,0,80,0,0
32185,-92.9713648196356,4,1,0,80,0,0
32385,-92.4727205474385,4,1,0,80,0,0
32485,-91.9793966151582,4,1,0,80,0,0
32585,-91.4913083257091,4,1,0,80,0,0
32785,-91.0083727702949,4,1,0,80,0,0
32885,-90.5223137503395,4,1,0,80,0,0
32985,-90.049527239982,4,1,0,80,0,0
33085,-89.5816536773269,4,1,0,80,0,0
33285,-89.118616879066,4,1,0,80,0,0
33385,-88.660342228921,4,1,0,80,0,0
33585,-88.2067566375584,4,1,0,80,0,0
33785,-87.7577885037297,4,1,0,80,0,0
34085,-87.3133676765913,4,1,0,80,0,0
34185,-86.8658790826963,4,1,0,80,0,0
34385,-86.4304235090752,4,1,0,80,0,0
34485,-85.999312005504,4,1,0,80,0,0
34585,-85.5724798904672,4,1,0,80,0,0
34685,-85.149863760218,4,1,0,80,0,0
34885,-84.7314014573801,4,1,0,80,0,0
34985,-84.3170320404722,4,1,0,80,0,0
35185,-83.8996560114104,4,1,0,80,0,0
35385,-83.4933622776989,4,1,0,80,0,0
35585,-83.0909846281678,4,1,0,80,0,0
35651,-82.6924667162821,4,1,0,80,0,0
35718,-82.2977532713357,4,1,0,80,0,0
35785,-81.906790072897,4,1,0,80,0,0
35885,-81.5195239259803,4,1,0,80,0,0
35985,-81.1293201362973,4,1,0,80,0,0
36085,-80.749354005168,4,1,0,80,0,0
36185,-80.3729303970423,4,1,0,80,0,0
36251,-80,4,1,0,80,0,0
36318,-79.6305144131231,4,1,0,80,0,0
36385,-79.2644261255548,4,1,0,80,0,0
36485,-78.9016884961338,4,1,0,80,0,0
36585,-78.5360873321291,4,1,0,80,0,0
36785,-78.1799702916113,4,1,0,80,0,0
36985,-77.8270682543389,4,1,0,80,0,0
37185,-77.4773378786705,4,1,0,80,0,0
37285,-77.1307365985345,4,1,0,80,0,0
37485,-76.7872226061583,4,1,0,80,0,0
37585,-76.4467548352572,4,1,0,80,0,0
37685,-76.103500761035,4,1,0,80,0,0
37785,-75.7690559175633,4,1,0,80,0,0
37851,-75.4375377187689,4,1,0,80,0,0
37918,-75.1089079164789,4,1,0,80,0,0
37985,-74.7831289261143,4,1,0,80,0,0
38085,-74.4601638123604,4,1,0,80,0,0
38185,-74.1399762752076,4,1,0,80,0,0
38385,-73.8170812726065,4,1,0,80,0,0
38485,-73.5023888276369,4,1,0,80,0,0
38585,-73.1903681475518,4,1,0,80,0,0
38785,-72.8809853509219,4,1,0,80,0,0
38885,-72.5742071267871,4,1,0,80,0,0
39085,-72.2700007227,4,1,0,80,0,0
39185,-71.9683339330694,4,1,0,80,0,0
39385,-71.6691750877947,4,1,0,80,0,0
39485,-71.3673993719669,4,1,0,80,0,0
39585,-71.0732054015636,4,1,0,80,0,0
39685,-70.7814269535674,4,1,0,80,0,0
39785,-70.4920344001128,4,1,0,80,0,0
39885,-70.2049985959,4,1,0,80,0,0
39985,-69.92029086841,4,1,0,80,0,0
40085,-69.6378830083565,4,1,0,80,0,0
40185,-69.3529370968861,4,1,0,80,0,0
40285,-69.0750846169787,4,1,0,80,0,0
40385,-68.7994496044032,4,1,0,80,0,0
40485,-68.5260056191325,4,1,0,80,0,0
40585,-68.2547266398198,4,1,0,80,0,0
40651,-67.9855870555442,4,1,0,80,0,0
40718,-67.7185616577504,4,1,0,80,0,0
40785,-67.4490759476595,4,1,0,80,0,0
40851,-67.1862402579952,4,1,0,80,0,0
40918,-66.9254450542096,4,1,0,80,0,0
40985,-66.6666666666667,4,1,0,80,0,0
42585,-133.333333333333,4,1,0,80,0,0
61785,-130.072840790843,4,1,0,80,0,0
61985,-126.984126984127,4,1,0,80,0,0
62185,-124.02331638348,4,1,0,80,0,0
62285,-121.212121212121,4,1,0,80,0,0
62385,-118.511495615075,4,1,0,80,0,0
62585,-115.942028985507,4,1,0,80,0,0
62785,-113.468739362306,4,1,0,80,0,0
62885,-111.111111111111,4,1,0,80,0,0
63085,-108.837614279495,4,1,0,80,0,0
63185,-106.666666666667,4,1,0,80,0,0
63385,-104.569695702185,4,1,0,80,0,0
63485,-102.564102564103,4,1,0,80,0,0
63585,-100.623867981485,4,1,0,80,0,0
63785,-98.7654320987654,4,1,0,80,0,0
63985,-96.9649956365752,4,1,0,80,0,0
64085,-95.2380952380952,4,1,0,80,0,0
64185,-93.562874251497,4,1,0,80,0,0
64385,-91.9540229885057,4,1,0,80,0,0
64485,-90.3913947392208,4,1,0,80,0,0
64685,-88.8888888888889,4,1,0,80,0,0
64785,-87.4278720055954,4,1,0,80,0,0
64985,-86.0215053763441,4,1,0,80,0,0
65085,-84.6525014814188,4,1,0,80,0,0
65185,-83.3333333333333,4,1,0,80,0,0
65285,-82.047915982934,4,1,0,80,0,0
65385,-80.8080808080808,4,1,0,80,0,0
65485,-79.5988219374353,4,1,0,80,0,0
65585,-78.4313725490196,4,1,0,80,0,0
65685,-77.2916988715412,4,1,0,80,0,0
65785,-76.1904761904762,4,1,0,80,0,0
65885,-75.1145496882746,4,1,0,80,0,0
65985,-74.0740740740741,4,1,0,80,0,0
66085,-73.0566919929866,4,1,0,80,0,0
66185,-72.0720720720721,4,1,0,80,0,0
66251,-71.1085828059447,4,1,0,80,0,0
66318,-70.1754385964912,4,1,0,80,0,0
66385,-69.2616705914947,4,1,0,80,0,0
66451,-68.3760683760684,4,1,0,80,0,0
66518,-67.508269763046,4,1,0,80,0,0
66585,-66.6666666666667,4,1,0,80,0,0
68185,-66.6666666666667,4,1,0,90,0,1
79385,-67.5675675675676,4,1,0,90,0,1
79451,-68.4931506849315,4,1,0,90,0,1
79518,-69.4444444444444,4,1,0,90,0,1
79585,-70.4225352112676,4,1,0,90,0,1
79651,-71.4285714285714,4,1,0,90,0,1
79785,-72.463768115942,4,1,0,90,0,1
79851,-73.5294117647059,4,1,0,90,0,1
79918,-74.6268656716418,4,1,0,90,0,1
79985,-75.7575757575758,4,1,0,90,0,1
80051,-76.9230769230769,4,1,0,90,0,1
80118,-78.125,4,1,0,90,0,1
80251,-79.3650793650794,4,1,0,90,0,1
80318,-80.6451612903226,4,1,0,90,0,1
80451,-81.9672131147541,4,1,0,90,0,1
80518,-83.3333333333333,4,1,0,90,0,1
80718,-85.4700854700855,4,1,0,90,0,1
80985,-87.719298245614,4,1,0,90,0,0
81385,-86.2738331464067,4,1,0,90,0,1
81585,-84.8824378236143,4,1,0,90,0,1
81785,-83.5282325425994,4,1,0,90,0,1
81885,-82.2165584148648,4,1,0,90,0,1
82085,-80.9519954666882,4,1,0,90,0,1
82285,-79.719387755102,4,1,0,90,0,1
82385,-78.5299198994817,4,1,0,90,0,1
82485,-77.3694390715667,4,1,0,90,0,1
82685,-76.2427569380909,4,1,0,90,0,1
82785,-75.1540658349617,4,1,0,90,0,1
82885,-74.0905386382159,4,1,0,90,0,1
82985,-73.0566919929866,4,1,0,90,0,1
83085,-72.0564922899553,4,1,0,90,0,1
83185,-71.0782571611344,4,1,0,90,0,1
83285,-70.1311452416018,4,1,0,90,0,1
83385,-69.204152249135,4,1,0,90,0,1
83485,-68.3013455365071,4,1,0,90,0,1
83685,-67.4263367271256,4,1,0,90,0,1
83885,-66.5690320862735,4,1,0,90,0,1
83985,-65.733254453428,4,1,0,90,0,1
84185,-64.9224177108355,4,1,0,90,0,1
84385,-64.1272284211876,4,1,0,90,0,1
84485,-63.3552965027876,4,1,0,90,0,1
84585,-62.5978090766823,4,1,0,90,0,1
84685,-61.8582209575653,4,1,0,90,0,1
84785,-61.1396429444852,4,1,0,90,0,1
84885,-60.4339155133861,4,1,0,90,0,1
84985,-59.7442944198829,4,1,0,90,0,1
85085,-59.0737240075614,4,1,0,90,0,1
85285,-58.4146270226065,4,1,0,90,0,1
85485,-57.7734126754867,4,1,0,90,0,1
85585,-57.1428571428571,4,1,0,90,0,1
85785,-57.9710144927536,4,1,0,90,0,0
85851,-58.8235294117647,4,1,0,90,0,0
85918,-59.7014925373134,4,1,0,90,0,0
85985,-60.6060606060606,4,1,0,90,0,0
86051,-61.5384615384615,4,1,0,90,0,0
86118,-62.5,4,1,0,90,0,0
86251,-63.4920634920635,4,1,0,90,0,0
86318,-64.5161290322581,4,1,0,90,0,0
86385,-65.5737704918033,4,1,0,90,0,0
86485,-66.6666666666667,4,1,0,90,0,0
86585,-67.7966101694915,4,1,0,90,0,0
86685,-68.9655172413793,4,1,0,90,0,0
86785,-70.1754385964912,4,1,0,90,0,0
86885,-71.4285714285714,4,1,0,90,0,0
86985,-72.7272727272727,4,1,0,90,0,0
87085,-74.0740740740741,4,1,0,90,0,0
87185,-75.4716981132076,4,1,0,90,0,0
87285,-76.9230769230769,4,1,0,90,0,0
87385,-78.4313725490196,4,1,0,90,0,1
87585,-77.6337240897446,4,1,0,90,0,1
87785,-76.8462306923845,4,1,0,90,0,1
87985,-76.0687661646128,4,1,0,90,0,1
88085,-75.3125470703419,4,1,0,90,0,1
88185,-74.5712155108128,4,1,0,90,0,1
88385,-73.8443361394181,4,1,0,90,0,1
88585,-73.1314904197748,4,1,0,90,0,1
88785,-72.4322758221063,4,1,0,90,0,1
88885,-71.7463050652891,4,1,0,90,0,1
88985,-71.0782571611344,4,1,0,90,0,1
89185,-70.4175762270263,4,1,0,90,0,1
89385,-69.7690643968464,4,1,0,90,0,1
89585,-69.1323885240235,4,1,0,90,0,1
89685,-68.5072275125026,4,1,0,90,0,1
89785,-67.8932717767669,4,1,0,90,0,1
89885,-67.2902227306372,4,1,0,90,0,1
89985,-66.6977923030748,4,1,0,90,0,1
90185,-66.1157024793388,4,1,0,90,0,1
90385,-65.5436848659632,4,1,0,90,0,1
90585,-64.9814802781207,4,1,0,90,0,1
90685,-64.4288383480446,4,1,0,90,0,1
90785,-63.8855171532614,4,1,0,90,0,1
90885,-63.351282863478,4,1,0,90,0,1
90985,-62.8259094050386,4,1,0,90,0,1
91085,-62.3091781419403,4,1,0,90,0,1
91185,-61.8008775724615,4,1,0,90,0,1
91285,-61.3008030405198,4,1,0,90,0,1
91385,-60.8124543906592,4,1,0,90,0,1
91485,-60.3281853281853,4,1,0,90,0,1
91585,-59.8515681110845,4,1,0,90,0,1
91685,-59.3824228028504,4,1,0,90,0,1
91785,-58.9205750648126,4,1,0,90,0,1
91885,-58.465855940131,4,1,0,90,0,1
91985,-58.0181016477141,4,1,0,90,0,1
92085,-57.5771533855366,4,1,0,90,0,1
92185,-57.1428571428571,4,1,0,90,0,1
93385,-100,4,1,0,90,0,1
93785,-98.2897582071948,4,1,0,80,0,0
94085,-99.403578528827,4,1,0,80,0,0
94185,-98.8142292490118,4,1,0,80,0,0
94385,-98.2221785679206,4,1,0,80,0,0
94585,-97.6467141880676,4,1,0,80,0,0
94985,-97.0779535967382,4,1,0,80,0,0
95185,-96.515780330084,4,1,0,80,0,0
95285,-95.9508731529457,4,1,0,80,0,0
95385,-95.4016409082236,4,1,0,80,0,0
95485,-94.8586605957124,4,1,0,80,0,0
95685,-94.3218260705527,4,1,0,80,0,0
95785,-93.7822376441902,4,1,0,80,0,0
95985,-93.257483913084,4,1,0,80,0,0
96185,-92.738569971251,4,1,0,80,0,0
96385,-92.2253988748501,4,1,0,80,0,0
96485,-91.7094644167278,4,1,0,80,0,0
96585,-91.2075884713608,4,1,0,80,0,0
96785,-90.711175616836,4,1,0,80,0,0
96885,-90.2201371346085,4,1,0,80,0,0
96985,-89.7263346792283,4,1,0,80,0,0
97085,-89.2458723784025,4,1,0,80,0,0
97285,-88.7705281846427,4,1,0,80,0,0
97385,-88.3002207505519,4,1,0,80,0,0
97585,-87.8271561566836,4,1,0,80,0,0
97785,-87.3667656823344,4,1,0,80,0,0
98085,-86.9111767773336,4,1,0,80,0,0
98185,-86.4603147155456,4,1,0,80,0,0
98385,-86.0067085232648,4,1,0,80,0,0
98485,-85.5651578677163,4,1,0,80,0,0
98585,-85.1281178173151,4,1,0,80,0,0
98685,-84.6955196070128,4,1,0,80,0,0
98885,-84.2672958624758,4,1,0,80,0,0
98985,-83.8363514419852,4,1,0,80,0,0
99185,-83.4167500834167,4,1,0,80,0,0
99385,-83.0013280212483,4,1,0,80,0,0
99585,-82.5900231252065,4,1,0,80,0,0
99651,-82.1760210370614,4,1,0,80,0,0
99718,-81.7728350641917,4,1,0,80,0,0
99785,-81.3735861339409,4,1,0,80,0,0
99885,-80.9782168596647,4,1,0,80,0,0
99985,-80.58017727639,4,1,0,80,0,0
100085,-80.1924619085806,4,1,0,80,0,0
100185,-79.8084596967279,4,1,0,80,0,0
100251,-79.428117553614,4,1,0,80,0,0
100318,-79.0451347719548,4,1,0,80,0,0
100385,-78.6720163637794,4,1,0,80,0,0
100485,-78.3024038837992,4,1,0,80,0,0
100585,-77.9362481490141,4,1,0,80,0,0
100785,-77.5674837108284,4,1,0,80,0,0
100985,-77.2081531809759,4,1,0,80,0,0
101185,-76.8521364893944,4,1,0,80,0,0
101285,-76.499388004896,4,1,0,80,0,0
101485,-76.1440645701668,4,1,0,80,0,0
101585,-75.7977715455166,4,1,0,80,0,0
101685,-75.4546140496491,4,1,0,80,0,0
101785,-75.1145496882746,4,1,0,80,0,0
101851,-74.7775368279369,4,1,0,80,0,0
101918,-74.4379931517046,4,1,0,80,0,0
101985,-74.1070105231955,4,1,0,80,0,0
102085,-73.7789582411096,4,1,0,80,0,0
102185,-73.4537975613339,4,1,0,80,0,0
102385,-73.1261425959781,4,1,0,80,0,0
102485,-72.8066982162359,4,1,0,80,0,0
102585,-72.4900326205147,4,1,0,80,0,0
102785,-72.1761097076868,4,1,0,80,0,0
102885,-71.8597298074159,4,1,0,80,0,0
103085,-71.5512306811677,4,1,0,80,0,0
103185,-71.2453690510117,4,1,0,80,0,0
103385,-70.9421112372304,4,1,0,80,0,0
103518,-70.6364342727979,4,1,0,80,0,0
103651,-70.3383273545755,4,1,0,80,0,0
103785,-70.0427260628984,4,1,0,80,0,0
103918,-69.7495989398061,4,1,0,80,0,0
104051,-69.4540908459508,4,1,0,80,0,0
104185,-69.1658597316365,4,1,0,80,0,0
104318,-68.8800110208018,4,1,0,80,0,0
104451,-68.5965152970229,4,1,0,80,0,0
104585,-68.3106769588087,4,1,0,80,0,0
104651,-68.0318389006055,4,1,0,80,0,0
104718,-67.7552679720848,4,1,0,80,0,0
104785,-67.4809366354005,4,1,0,80,0,0
104851,-67.2043010752688,4,1,0,80,0,0
104918,-66.9344042838019,4,1,0,80,0,0
104985,-66.6666666666667,4,1,0,80,0,0
106585,-40,4,1,0,80,0,1
108185,-133.333333333333,4,1,0,80,0,0
108985,-157.48031496063,4,1,0,80,0,0
109251,-175.438596491228,4,1,0,80,0,0
109518,-192.307692307692,4,1,0,80,0,0
109785,-200,4,1,0,90,0,1
112585,-200,4,1,0,90,0,0
112985,-200,4,1,0,90,0,1
118985,-200,4,1,0,90,0,0
119385,-200,4,1,0,90,0,1
124985,-200,4,1,0,90,0,0
125785,-129.87012987013,4,1,0,90,0,1
126051,-126.582278481013,4,1,0,90,0,1
126185,-123.456790123457,4,1,0,90,0,1
126318,-120.481927710843,4,1,0,90,0,1
126451,-117.647058823529,4,1,0,90,0,1
126585,-114.942528735632,4,1,0,90,0,1
126718,-112.359550561798,4,1,0,90,0,1
126785,-111.111111111111,4,1,0,90,0,1
126851,-109.89010989011,4,1,0,90,0,1
126985,-107.52688172043,4,1,0,90,0,1
127118,-105.263157894737,4,1,0,90,0,1
127251,-103.092783505155,4,1,0,90,0,1
127385,-101.010101010101,4,1,0,90,0,1
127518,-99.009900990099,4,1,0,90,0,1
127651,-97.0873786407767,4,1,0,90,0,1
127785,-95.2380952380952,4,1,0,90,0,1
127918,-93.4579439252336,4,1,0,90,0,1
127985,-92.5925925925926,4,1,0,90,0,1
128051,-91.743119266055,4,1,0,90,0,1
128185,-90.0900900900901,4,1,0,90,0,1
128318,-88.4955752212389,4,1,0,90,0,1
128451,-86.9565217391304,4,1,0,90,0,1
128585,-85.4700854700855,4,1,0,90,0,1
128718,-84.0336134453781,4,1,0,90,0,1
128785,-83.3333333333333,4,1,0,90,0,1
128851,-82.6446280991736,4,1,0,90,0,1
128985,-81.3008130081301,4,1,0,90,0,1
129118,-80,4,1,0,90,0,1
129185,-79.3650793650794,4,1,0,90,0,1
129251,-78.7401574803149,4,1,0,90,0,1
129385,-77.5193798449612,4,1,0,90,0,1
129518,-76.3358778625954,4,1,0,90,0,1
129585,-75.7575757575758,4,1,0,90,0,1
129651,-75.187969924812,4,1,0,90,0,1
129785,-74.0740740740741,4,1,0,90,0,1
129918,-72.992700729927,4,1,0,90,0,1
129985,-72.463768115942,4,1,0,90,0,1
130051,-71.9424460431655,4,1,0,90,0,1
130118,-71.4285714285714,4,1,0,90,0,1
130185,-70.9219858156028,4,1,0,90,0,1
130251,-70.4225352112676,4,1,0,90,0,1
130318,-69.9300699300699,4,1,0,90,0,1
130385,-69.4444444444444,4,1,0,90,0,1
130451,-68.9655172413793,4,1,0,90,0,1
130518,-68.4931506849315,4,1,0,90,0,1
130585,-68.0272108843537,4,1,0,90,0,0
131785,-66.6666666666667,4,1,0,90,0,0
133685,-72.992700729927,4,1,0,90,0,0
135185,-80.6451612903226,4,1,0,90,0,0
136785,-90.0900900900901,4,1,0,90,0,0
138185,-102.040816326531,4,1,0,90,0,0
139985,-117.647058823529,4,1,0,90,0,0
141385,-138.888888888889,4,1,0,90,0,0
143185,-169.491525423729,4,1,0,90,0,0
144585,-200,4,1,0,60,0,0
166985,-111.111111111111,4,1,0,70,0,0
183385,-100,4,1,0,80,0,0
183685,-99.4233446013124,4,1,0,80,0,0
183785,-98.8533017002768,4,1,0,80,0,0
183985,-98.2897582071948,4,1,0,80,0,0
184185,-97.7230528681716,4,1,0,80,0,0
184585,-97.1722864639005,4,1,0,80,0,0
184785,-96.6276934969562,4,1,0,80,0,0
184885,-96.0891707504564,4,1,0,80,0,0
184985,-95.5566172957477,4,1,0,80,0,0
185085,-95.0299344293452,4,1,0,80,0,0
185285,-94.5090256119459,4,1,0,80,0,0
185385,-93.984962406015,4,1,0,80,0,0
185585,-93.475415965601,4,1,0,80,0,0
185785,-92.9713648196356,4,1,0,80,0,0
185985,-92.4727205474385,4,1,0,80,0,0
186085,-91.9793966151582,4,1,0,80,0,0
186185,-91.4913083257091,4,1,0,80,0,0
186385,-91.0083727702949,4,1,0,80,0,0
186485,-90.5223137503395,4,1,0,80,0,0
186585,-90.049527239982,4,1,0,80,0,0
186685,-89.5816536773269,4,1,0,80,0,0
186885,-89.118616879066,4,1,0,80,0,0
186985,-88.660342228921,4,1,0,80,0,0
187185,-88.2067566375584,4,1,0,80,0,0
187385,-87.7577885037297,4,1,0,80,0,0
187685,-87.3133676765913,4,1,0,80,0,0
187785,-86.8658790826963,4,1,0,80,0,0
187985,-86.4304235090752,4,1,0,80,0,0
188085,-85.999312005504,4,1,0,80,0,0
188185,-85.5724798904672,4,1,0,80,0,0
188285,-85.149863760218,4,1,0,80,0,0
188485,-84.7314014573801,4,1,0,80,0,0
188585,-84.3170320404722,4,1,0,80,0,0
188785,-83.8996560114104,4,1,0,80,0,0
188985,-83.4933622776989,4,1,0,80,0,0
189185,-83.0909846281678,4,1,0,80,0,0
189251,-82.6924667162821,4,1,0,80,0,0
189318,-82.2977532713357,4,1,0,80,0,0
189385,-81.906790072897,4,1,0,80,0,0
189485,-81.5195239259803,4,1,0,80,0,0
189585,-81.1293201362973,4,1,0,80,0,0
189685,-80.749354005168,4,1,0,80,0,0
189785,-80.3729303970423,4,1,0,80,0,0
189851,-80,4,1,0,80,0,0
189918,-79.6305144131231,4,1,0,80,0,0
189985,-79.2644261255548,4,1,0,80,0,0
190085,-78.9016884961338,4,1,0,80,0,0
190185,-78.5360873321291,4,1,0,80,0,0
190385,-78.1799702916113,4,1,0,80,0,0
190585,-77.8270682543389,4,1,0,80,0,0
190785,-77.4773378786705,4,1,0,80,0,0
190885,-77.1307365985345,4,1,0,80,0,0
191085,-76.7872226061583,4,1,0,80,0,0
191185,-76.4467548352572,4,1,0,80,0,0
191285,-76.103500761035,4,1,0,80,0,0
191385,-75.7690559175633,4,1,0,80,0,0
191451,-75.4375377187689,4,1,0,80,0,0
191518,-75.1089079164789,4,1,0,80,0,0
191585,-74.7831289261143,4,1,0,80,0,0
191685,-74.4601638123604,4,1,0,80,0,0
191785,-74.1399762752076,4,1,0,80,0,0
191985,-73.8170812726065,4,1,0,80,0,0
192085,-73.5023888276369,4,1,0,80,0,0
192185,-73.1903681475518,4,1,0,80,0,0
192385,-72.8809853509219,4,1,0,80,0,0
192485,-72.5742071267871,4,1,0,80,0,0
192685,-72.2700007227,4,1,0,80,0,0
192785,-71.9683339330694,4,1,0,80,0,0
192985,-71.6691750877947,4,1,0,80,0,0
193085,-71.3673993719669,4,1,0,80,0,0
193185,-71.0732054015636,4,1,0,80,0,0
193285,-70.7814269535674,4,1,0,80,0,0
193385,-70.4920344001128,4,1,0,80,0,0
193485,-70.2049985959,4,1,0,80,0,0
193585,-69.92029086841,4,1,0,80,0,0
193685,-69.6378830083565,4,1,0,80,0,0
193785,-69.3529370968861,4,1,0,80,0,0
193885,-69.0750846169787,4,1,0,80,0,0
193985,-68.7994496044032,4,1,0,80,0,0
194085,-68.5260056191325,4,1,0,80,0,0
194185,-68.2547266398198,4,1,0,80,0,0
194251,-67.9855870555442,4,1,0,80,0,0
194318,-67.7185616577504,4,1,0,80,0,0
194385,-67.4490759476595,4,1,0,80,0,0
194451,-67.1862402579952,4,1,0,80,0,0
194518,-66.9254450542096,4,1,0,80,0,0
194585,-66.6666666666667,4,1,0,80,0,0
196185,-66.6666666666667,4,1,0,90,0,1
208585,-66.6666666666667,4,1,0,90,0,0
208985,-66.6666666666667,4,1,0,90,0,1
215785,-66.4407680552787,4,1,0,90,0,1
215851,-66.2163951794464,4,1,0,90,0,1
215918,-65.9935326338019,4,1,0,90,0,1
215985,-65.772165219679,4,1,0,90,0,1
216085,-65.5522779416585,4,1,0,90,0,1
216185,-65.3338560041814,4,1,0,90,0,1
216285,-65.1168848082308,4,1,0,90,0,1
216385,-64.9013499480789,4,1,0,90,0,1
216485,-64.6872372080988,4,1,0,90,0,1
216585,-64.4745325596389,4,1,0,90,0,1
216685,-64.263222157959,4,1,0,90,0,1
216785,-64.0532923392262,4,1,0,90,0,1
216885,-63.8447296175701,4,1,0,90,0,1
216985,-63.6375206821942,4,1,0,90,0,1
217051,-63.4316523945449,4,1,0,90,0,1
217118,-63.2271117855336,4,1,0,90,0,1
217185,-63.023886052814,4,1,0,90,0,1
217285,-62.8219625581103,4,1,0,90,0,1
217385,-62.6213288245977,4,1,0,90,0,1
217485,-62.4219725343321,4,1,0,90,0,1
217585,-62.2238815257296,4,1,0,90,0,1
217685,-62.0270437910929,4,1,0,90,0,1
217785,-61.8314474741854,4,1,0,90,0,1
217885,-61.6370808678501,4,1,0,90,0,1
217985,-61.4401572868027,4,1,0,90,0,1
218085,-61.2482391131255,4,1,0,90,0,1
218185,-61.0575161802418,4,1,0,90,0,1
218285,-60.8679773571124,4,1,0,90,0,1
218385,-60.6796116504854,4,1,0,90,0,1
218485,-60.4924082027705,4,1,0,90,0,1
218585,-60.306356289953,4,1,0,90,0,1
218685,-60.1214453195455,4,1,0,90,0,1
218785,-59.9376648285783,4,1,0,90,0,1
218885,-59.7550044816253,4,1,0,90,0,1
218985,-59.5734540688669,4,1,0,90,0,1
219085,-59.3930035041872,4,1,0,90,0,1
219185,-59.2136428233065,4,1,0,90,0,1
219285,-59.035362181947,4,1,0,90,0,1
219385,-58.8581518540318,4,1,0,90,0,1
219485,-58.6820022299161,4,1,0,90,0,1
219585,-58.5069038146501,4,1,0,90,0,1
219685,-58.3328472262731,4,1,0,90,0,1
219785,-58.1598231941375,4,1,0,90,0,1
219851,-57.987822557263,4,1,0,90,0,1
219918,-57.8168362627197,4,1,0,90,0,1
219985,-57.6468553640399,4,1,0,90,0,1
220051,-57.4778710196574,4,1,0,90,0,1
220118,-57.3098744913749,4,1,0,90,0,1
220185,-57.1428571428571,4,1,0,90,0,1
221385,-50,4,1,0,100,0,0
221785,-66.6666666666667,4,1,0,100,0,1
233785,-66.6666666666667,4,1,0,100,0,0
233885,-65.4535934022778,4,1,0,100,0,0
233985,-64.283877603497,4,1,0,100,0,0
234085,-63.1592244047243,4,1,0,100,0,0
234185,-62.0693935820247,4,1,0,100,0,0
234251,-61.0165354811154,4,1,0,100,0,0
234318,-59.9988000239995,4,1,0,100,0,0
234385,-59.0179414542021,4,1,0,100,0,0
234485,-58.0652653582627,4,1,0,100,0,0
234585,-57.1428571428571,4,1,0,100,0,1
239385,-57.9710144927536,4,1,0,100,0,0
239451,-58.8235294117647,4,1,0,100,0,0
239518,-59.7014925373134,4,1,0,100,0,0
239585,-60.6060606060606,4,1,0,100,0,0
239685,-61.5384615384615,4,1,0,100,0,0
239785,-62.5,4,1,0,100,0,0
239851,-63.4920634920635,4,1,0,100,0,0
239918,-64.5161290322581,4,1,0,100,0,0
239985,-65.5737704918033,4,1,0,100,0,0
240085,-66.6666666666667,4,1,0,100,0,0
240185,-67.7966101694915,4,1,0,100,0,0
240285,-68.9655172413793,4,1,0,100,0,0
240385,-70.1754385964912,4,1,0,100,0,0
240485,-71.4285714285714,4,1,0,100,0,0
240585,-72.7272727272727,4,1,0,100,0,0
240685,-74.0740740740741,4,1,0,100,0,0
240785,-75.4716981132076,4,1,0,100,0,0
240885,-76.9230769230769,4,1,0,100,0,0
240985,-78.4313725490196,4,1,0,100,0,1
241085,-77.8513040093422,4,1,0,100,0,1
241185,-77.2797527047913,4,1,0,100,0,1
241285,-76.7165324127349,4,1,0,100,0,1
241385,-76.1614623000762,4,1,0,100,0,1
241485,-75.6143667296786,4,1,0,100,0,1
241585,-75.0750750750751,4,1,0,100,0,1
241685,-74.5434215430488,4,1,0,100,0,1
241785,-74.019245003701,4,1,0,100,0,1
241885,-73.5023888276369,4,1,0,100,0,1
241985,-72.992700729927,4,1,0,100,0,1
242085,-72.4900326205147,4,1,0,100,0,1
242185,-71.9942404607631,4,1,0,100,0,1
242285,-71.5051841258491,4,1,0,100,0,1
242385,-71.0227272727273,4,1,0,100,0,1
242485,-70.5467372134039,4,1,0,100,0,1
242585,-70.0770847932726,4,1,0,100,0,1
242685,-69.6136442742778,4,1,0,100,0,1
242785,-69.1562932226833,4,1,0,100,0,1
242885,-68.7049124012367,4,1,0,100,0,1
242985,-68.259385665529,4,1,0,100,0,1
243085,-67.8195998643608,4,1,0,100,0,1
243185,-67.3854447439353,4,1,0,100,0,1
243285,-66.9568128557081,4,1,0,100,0,1
243385,-66.5335994677312,4,1,0,100,0,1
243485,-66.1157024793388,4,1,0,100,0,1
243585,-65.7030223390276,4,1,0,100,0,1
243685,-65.2954619653934,4,1,0,100,0,1
243785,-64.8929266709929,4,1,0,100,0,1
243885,-64.4953240890035,4,1,0,100,0,1
243985,-64.1025641025641,4,1,0,100,0,1
244085,-63.7145587766805,4,1,0,100,0,1
244185,-63.3312222925902,4,1,0,100,0,1
244285,-62.9524708844822,4,1,0,100,0,1
244385,-62.5782227784731,4,1,0,100,0,1
244485,-62.2083981337481,4,1,0,100,0,1
244585,-61.8429189857761,4,1,0,100,0,1
244685,-61.4817091915155,4,1,0,100,0,1
244785,-61.1246943765281,4,1,0,100,0,1
244885,-60.7718018839259,4,1,0,100,0,1
244985,-60.4229607250755,4,1,0,100,0,1
245085,-60.0781015319916,4,1,0,100,0,1
245185,-59.7371565113501,4,1,0,100,0,1
245285,-59.4000594000594,4,1,0,100,0,1
245385,-59.0667454223272,4,1,0,100,0,1
245451,-58.7371512481645,4,1,0,100,0,1
245518,-58.411214953271,4,1,0,100,0,1
245585,-58.0888759802498,4,1,0,100,0,1
245651,-57.7700751010976,4,1,0,100,0,1
245718,-57.454754380925,4,1,0,100,0,1
245785,-57.1428571428571,4,1,0,100,0,1
247385,-57.1428571428571,4,1,0,100,0,0
247485,-57.1428571428571,4,1,0,90,0,0
248985,-80,4,1,0,80,0,0
250585,-100,4,1,0,70,0,0
252185,-133.333333333333,4,1,0,60,0,0
253785,-200,4,1,0,50,0,0

[HitObjects]
256,192,985,12,0,3785,0:0:0:0:
256,128,4185,5,4,0:0:0:0:
256,128,4985,2,0,L|448:128,1,188.999994232178
256,128,5785,5,0,0:0:0:0:
256,128,6185,5,0,0:0:0:0:
256,128,6585,2,0,L|352:128,2,94.499997116089
256,128,7385,5,0,0:0:0:0:
256,128,8185,2,0,L|448:128,1,188.999994232178
256,128,8985,5,0,0:0:0:0:
256,128,9385,5,0,0:0:0:0:
256,128,9785,5,8,0:0:0:0:
256,128,10085,5,8,0:0:0:0:
256,128,10385,1,0,0:0:0:0:
256,128,10451,1,0,0:0:0:0:
256,128,10518,1,0,0:0:0:0:
256,128,10585,1,0,0:0:0:0:
256,128,11385,2,0,L|448:128,1,188.999994232178
256,128,12185,5,0,0:0:0:0:
256,128,12585,5,0,0:0:0:0:
256,128,12985,2,0,L|448:128,1,188.999994232178
256,128,13785,5,0,0:0:0:0:
256,128,14585,2,0,L|384:128,1,125.999996154785
256,128,15185,5,0,0:0:0:0:
256,128,15251,5,0,0:0:0:0:
256,128,15318,5,0,0:0:0:0:
256,128,15385,5,8,0:0:0:0:
256,128,15585,5,0,0:0:0:0:
256,128,15685,5,0,0:0:0:0:
256,128,15785,5,0,0:0:0:0:
256,128,15851,5,0,0:0:0:0:
256,128,15918,5,0,0:0:0:0:
256,128,15985,5,8,0:0:0:0:
256,128,16185,5,0,0:0:0:0:
256,128,16285,5,0,0:0:0:0:
256,128,16385,5,8,0:0:0:0:
256,128,16451,5,8,0:0:0:0:
256,128,16518,5,8,0:0:0:0:
256,128,16585,5,0,0:0:0:0:
256,128,16685,5,0,0:0:0:0:
256,128,16785,5,8,0:0:0:0:
256,128,16985,5,4,0:0:0:0:
256,128,17385,5,8,0:0:0:0:
256,128,17685,5,8,0:0:0:0:
256,128,17985,5,8,0:0:0:0:
256,128,18285,5,8,0:0:0:0:
256,128,18585,5,0,0:0:0:0:
256,128,18985,5,8,0:0:0:0:
256,128,19285,5,8,0:0:0:0:
256,128,19485,5,8,0:0:0:0:
256,128,19585,5,8,0:0:0:0:
256,128,19785,5,8,0:0:0:0:
256,128,19985,5,8,0:0:0:0:
256,128,20185,5,0,0:0:0:0:
256,128,20585,5,8,0:0:0:0:
256,128,20885,5,8,0:0:0:0:
256,128,21185,5,8,0:0:0:0:
256,128,21485,5,8,0:0:0:0:
256,128,21785,5,0,0:0:0:0:
256,128,22185,5,8,0:0:0:0:
256,128,22385,5,0,0:0:0:0:
256,128,22451,5,0,0:0:0:0:
256,128,22518,5,0,0:0:0:0:
256,128,22585,5,0,0:0:0:0:
256,128,22685,5,0,0:0:0:0:
256,128,22785,5,0,0:0:0:0:
256,128,22885,5,0,0:0:0:0:
256,128,22985,5,0,0:0:0:0:
256,128,23085,5,0,0:0:0:0:
256,128,23185,5,0,0:0:0:0:
256,128,23385,5,4,0:0:0:0:
256,128,23785,5,8,0:0:0:0:
256,128,24085,5,8,0:0:0:0:
256,128,24385,5,8,0:0:0:0:
256,128,24685,5,8,0:0:0:0:
256,128,24985,5,0,0:0:0:0:
256,128,25385,5,8,0:0:0:0:
256,128,25685,5,8,0:0:0:0:
256,128,25885,5,8,0:0:0:0:
256,128,25985,5,8,0:0:0:0:
256,128,26185,5,8,0:0:0:0:
256,128,26385,5,8,0:0:0:0:
256,192,26585,12,0,27985,0:0:0:0:
256,128,28185,5,0,0:0:0:0:
256,128,28285,1,0,0:0:0:0:
256,128,28385,1,8,0:0:0:0:
256,128,28585,1,0,0:0:0:0:
256,128,28685,1,0,0:0:0:0:
256,128,28785,1,0,0:0:0:0:
256,128,28885,1,0,0:0:0:0:
256,128,28985,1,8,0:0:0:0:
256,128,29185,1,0,0:0:0:0:
256,128,29285,1,0,0:0:0:0:
256,128,29385,1,8,0:0:0:0:
256,128,29451,1,8,0:0:0:0:
256,128,29518,1,8,0:0:0:0:
256,128,29585,1,0,0:0:0:0:
256,128,29785,5,4,0:0:0:0:
256,128,30085,5,0,0:0:0:0:
256,128,30185,1,8,0:0:0:0:
256,128,30385,1,0,0:0:0:0:
256,128,30585,1,0,0:0:0:0:
256,128,30985,1,8,0:0:0:0:
256,128,31185,1,0,0:0:0:0:
256,128,31285,1,0,0:0:0:0:
256,128,31385,1,0,0:0:0:0:
256,128,31485,1,0,0:0:0:0:
256,128,31685,1,0,0:0:0:0:
256,128,31785,1,8,0:0:0:0:
256,128,31985,1,0,0:0:0:0:
256,128,32185,1,8,0:0:0:0:
256,128,32385,1,8,0:0:0:0:
256,128,32485,1,8,0:0:0:0:
256,128,32585,1,0,0:0:0:0:
256,128,32785,1,8,0:0:0:0:
256,128,32885,1,0,0:0:0:0:
256,128,32985,1,0,0:0:0:0:
256,128,33085,1,0,0:0:0:0:
256,128,33285,1,0,0:0:0:0:
256,128,33385,1,8,0:0:0:0:
256,128,33585,1,0,0:0:0:0:
256,128,33785,1,0,0:0:0:0:
256,128,34085,1,0,0:0:0:0:
256,128,34185,1,8,0:0:0:0:
256,128,34385,1,0,0:0:0:0:
256,128,34485,1,0,0:0:0:0:
256,128,34585,1,0,0:0:0:0:
256,128,34685,1,0,0:0:0:0:
256,128,34885,1,0,0:0:0:0:
256,128,34985,1,8,0:0:0:0:
256,128,35185,1,0,0:0:0:0:
256,128,35385,1,8,0:0:0:0:
256,128,35585,1,0,0:0:0:0:
256,128,35651,1,0,0:0:0:0:
256,128,35718,1,0,0:0:0:0:
256,128,35785,1,8,0:0:0:0:
256,128,35885,1,8,0:0:0:0:
256,128,35985,1,8,0:0:0:0:
256,128,36085,1,0,0:0:0:0:
256,128,36185,1,8,0:0:0:0:
256,128,36251,1,8,0:0:0:0:
256,128,36318,1,8,0:0:0:0:
256,128,36385,1,0,0:0:0:0:
256,128,36485,1,0,0:0:0:0:
256,128,36585,1,8,0:0:0:0:
256,128,36785,1,8,0:0:0:0:
256,128,36985,1,0,0:0:0:0:
256,128,37185,1,0,0:0:0:0:
256,128,37285,1,8,0:0:0:0:
256,128,37485,1,8,0:0:0:0:
256,128,37585,1,0,0:0:0:0:
256,128,37685,1,0,0:0:0:0:
256,128,37785,1,8,0:0:0:0:
256,128,37851,1,8,0:0:0:0:
256,128,37918,1,8,0:0:0:0:
256,128,37985,1,0,0:0:0:0:
256,128,38085,1,0,0:0:0:0:
256,128,38185,1,8,0:0:0:0:
256,128,38385,1,0,0:0:0:0:
256,128,38485,1,0,0:0:0:0:
256,128,38585,1,8,0:0:0:0:
256,128,38785,1,0,0:0:0:0:
256,128,38885,1,8,0:0:0:0:
256,128,39085,1,8,0:0:0:0:
256,128,39185,1,0,0:0:0:0:
256,128,39385,1,0,0:0:0:0:
256,128,39485,1,0,0:0:0:0:
256,128,39585,1,0,0:0:0:0:
256,128,39685,1,8,0:0:0:0:
256,128,39785,1,0,0:0:0:0:
256,128,39885,1,0,0:0:0:0:
256,128,39985,1,8,0:0:0:0:
256,128,40085,1,8,0:0:0:0:
256,128,40185,1,0,0:0:0:0:
256,128,40285,1,8,0:0:0:0:
256,128,40385,1,8,0:0:0:0:
256,128,40485,1,8,0:0:0:0:
256,128,40585,1,8,0:0:0:0:
256,128,40651,1,8,0:0:0:0:
256,128,40718,1,8,0:0:0:0:
256,128,40785,1,8,0:0:0:0:
256,128,40851,1,8,0:0:0:0:
256,128,40918,1,8,0:0:0:0:
256,128,40985,1,0,0:0:0:0:
256,128,42585,5,4,0:0:0:0:
256,128,42885,5,8,0:0:0:0:
256,128,42985,5,0,0:0:0:0:
256,128,43085,5,0,0:0:0:0:
256,128,43185,5,8,0:0:0:0:
256,128,43385,5,0,0:0:0:0:
256,128,43585,5,8,0:0:0:0:
256,128,43685,5,8,0:0:0:0:
256,128,43885,5,8,0:0:0:0:
256,128,44085,5,8,0:0:0:0:
256,128,44185,5,0,0:0:0:0:
256,128,44385,5,0,0:0:0:0:
256,128,44485,5,0,0:0:0:0:
256,128,44685,5,0,0:0:0:0:
256,128,44785,5,8,0:0:0:0:
256,128,44985,5,0,0:0:0:0:
256,128,45185,5,8,0:0:0:0:
256,128,45285,5,0,0:0:0:0:
256,128,45485,5,8,0:0:0:0:
256,128,45785,5,0,0:0:0:0:
256,128,46085,5,0,0:0:0:0:
256,128,46185,5,8,0:0:0:0:
256,128,46285,5,8,0:0:0:0:
256,128,46385,5,0,0:0:0:0:
256,128,46585,5,0,0:0:0:0:
256,128,46785,5,8,0:0:0:0:
256,128,46885,5,0,0:0:0:0:
256,128,47085,5,8,0:0:0:0:
256,128,47285,5,8,0:0:0:0:
256,128,47385,5,0,0:0:0:0:
256,128,47485,5,0,0:0:0:0:
256,128,47585,5,8,0:0:0:0:
256,128,47685,5,0,0:0:0:0:
256,128,47885,5,0,0:0:0:0:
256,128,47985,5,8,0:0:0:0:
256,128,48185,5,0,0:0:0:0:
256,128,48385,5,8,0:0:0:0:
256,128,48485,5,8,0:0:0:0:
256,128,48585,5,0,0:0:0:0:
256,128,48685,5,0,0:0:0:0:
256,128,48785,5,0,0:0:0:0:
256,128,48985,5,4,0:0:0:0:
256,128,49285,5,8,0:0:0:0:
256,128,49385,5,0,0:0:0:0:
256,128,49485,5,0,0:0:0:0:
256,128,49585,5,8,0:0:0:0:
256,128,49785,5,0,0:0:0:0:
256,128,49985,5,8,0:0:0:0:
256,128,50085,5,0,0:0:0:0:
256,128,50285,5,8,0:0:0:0:
256,128,50485,5,0,0:0:0:0:
256,128,50585,5,8,0:0:0:0:
256,128,50785,5,0,0:0:0:0:
256,128,50885,5,0,0:0:0:0:
256,128,51085,5,0,0:0:0:0:
256,128,51185,5,8,0:0:0:0:
256,128,51385,5,0,0:0:0:0:
256,128,51585,5,8,0:0:0:0:
256,128,51685,5,0,0:0:0:0:
256,128,51885,5,8,0:0:0:0:
256,128,52185,5,8,0:0:0:0:
256,128,52285,5,8,0:0:0:0:
256,128,52385,5,0,0:0:0:0:
256,128,52485,5,8,0:0:0:0:
256,128,52585,5,0,0:0:0:0:
256,128,52685,5,0,0:0:0:0:
256,128,52785,5,8,0:0:0:0:
256,128,52885,5,0,0:0:0:0:
256,128,52985,5,8,0:0:0:0:
256,128,53085,5,8,0:0:0:0:
256,128,53185,5,0,0:0:0:0:
256,128,53285,5,8,0:0:0:0:
256,128,53385,5,0,0:0:0:0:
256,128,53485,5,0,0:0:0:0:
256,128,53585,5,8,0:0:0:0:
256,128,53785,5,0,0:0:0:0:
256,128,53851,5,0,0:0:0:0:
256,128,53918,5,0,0:0:0:0:
256,128,53985,5,0,0:0:0:0:
256,128,54085,5,0,0:0:0:0:
256,128,54185,5,8,0:0:0:0:
256,128,54251,5,8,0:0:0:0:
256,128,54318,5,8,0:0:0:0:
256,128,54385,5,0,0:0:0:0:
256,128,54485,5,0,0:0:0:0:
256,128,54585,5,0,0:0:0:0:
256,128,54685,5,0,0:0:0:0:
256,128,54785,5,8,0:0:0:0:
256,128,54985,5,8,0:0:0:0:
256,128,55185,1,8,0:0:0:0:
256,128,55385,5,4,0:0:0:0:
256,128,55685,5,8,0:0:0:0:
256,128,55785,5,0,0:0:0:0:
256,128,55885,5,0,0:0:0:0:
256,128,55985,5,8,0:0:0:0:
256,128,56185,5,0,0:0:0:0:
256,128,56385,5,8,0:0:0:0:
256,128,56485,5,8,0:0:0:0:
256,128,56685,5,8,0:0:0:0:
256,128,56885,5,8,0:0:0:0:
256,128,56985,5,0,0:0:0:0:
256,128,57085,1,0,0:0:0:0:
256,128,57185,5,8,0:0:0:0:
256,128,57285,5,0,0:0:0:0:
256,128,57485,5,0,0:0:0:0:
256,128,57585,5,8,0:0:0:0:
256,128,57785,5,0,0:0:0:0:
256,128,57985,5,8,0:0:0:0:
256,128,58085,5,0,0:0:0:0:
256,128,58285,5,8,0:0:0:0:
256,128,58585,1,0,0:0:0:0:
256,128,58885,5,0,0:0:0:0:
256,128,58985,5,8,0:0:0:0:
256,128,59085,5,8,0:0:0:0:
256,128,59185,5,0,0:0:0:0:
256,128,59385,5,0,0:0:0:0:
256,128,59585,5,8,0:0:0:0:
256,128,59685,5,0,0:0:0:0:
256,128,59885,5,0,0:0:0:0:
256,128,59985,5,8,0:0:0:0:
256,128,60185,5,0,0:0:0:0:
256,128,60285,5,0,0:0:0:0:
256,128,60385,5,8,0:0:0:0:
256,128,60451,5,8,0:0:0:0:
256,128,60518,5,8,0:0:0:0:
256,128,60585,5,0,0:0:0:0:
256,128,60685,5,0,0:0:0:0:
256,128,60785,5,8,0:0:0:0:
256,128,60851,5,0,0:0:0:0:
256,128,60918,5,0,0:0:0:0:
256,128,60985,5,8,0:0:0:0:
256,128,61085,5,8,0:0:0:0:
256,128,61185,5,8,0:0:0:0:
256,128,61285,5,8,0:0:0:0:
256,128,61385,5,0,0:0:0:0:
256,128,61585,5,8,0:0:0:0:
256,128,61785,5,4,0:0:0:0:
256,128,61985,1,8,0:0:0:0:
256,128,62185,1,0,0:0:0:0:
256,128,62285,1,0,0:0:0:0:
256,128,62385,1,8,0:0:0:0:
256,128,62585,1,0,0:0:0:0:
256,128,62785,1,0,0:0:0:0:
256,128,62885,1,8,0:0:0:0:
256,128,63085,1,8,0:0:0:0:
256,128,63185,1,0,0:0:0:0:
256,128,63385,1,8,0:0:0:0:
256,128,63485,1,8,0:0:0:0:
256,128,63585,1,0,0:0:0:0:
256,128,63785,1,8,0:0:0:0:
256,128,63985,1,0,0:0:0:0:
256,128,64085,1,0,0:0:0:0:
256,128,64185,1,8,0:0:0:0:
256,128,64385,1,0,0:0:0:0:
256,128,64485,1,8,0:0:0:0:
256,128,64685,1,8,0:0:0:0:
256,128,64785,1,0,0:0:0:0:
256,128,64985,1,0,0:0:0:0:
256,128,65085,1,0,0:0:0:0:
256,128,65185,1,0,0:0:0:0:
256,128,65285,1,8,0:0:0:0:
256,128,65385,1,0,0:0:0:0:
256,128,65485,1,0,0:0:0:0:
256,128,65585,1,8,0:0:0:0:
256,128,65685,1,8,0:0:0:0:
256,128,65785,1,0,0:0:0:0:
256,128,65885,1,8,0:0:0:0:
256,128,65985,1,8,0:0:0:0:
256,128,66085,1,8,0:0:0:0:
256,128,66185,1,8,0:0:0:0:
256,128,66251,1,8,0:0:0:0:
256,128,66318,1,8,0:0:0:0:
256,128,66385,1,8,0:0:0:0:
256,128,66451,1,8,0:0:0:0:
256,128,66518,1,8,0:0:0:0:
256,128,66585,1,0,0:0:0:0:
256,128,68185,5,4,0:0:0:0:
256,128,68385,1,0,0:0:0:0:
256,128,68485,1,0,0:0:0:0:
256,128,68585,1,8,0:0:0:0:
256,128,68685,1,0,0:0:0:0:
256,128,68785,1,8,0:0:0:0:
256,128,68885,1,0,0:0:0:0:
256,128,68985,1,0,0:0:0:0:
256,128,69085,1,8,0:0:0:0:
256,128,69285,1,0,0:0:0:0:
256,128,69485,1,8,0:0:0:0:
256,128,69585,1,0,0:0:0:0:
256,128,69785,1,8,0:0:0:0:
256,128,69985,1,0,0:0:0:0:
256,128,70085,1,8,0:0:0:0:
256,128,70285,1,8,0:0:0:0:
256,128,70385,1,8,0:0:0:0:
256,128,70485,1,0,0:0:0:0:
256,128,70585,1,8,0:0:0:0:
256,128,70685,1,0,0:0:0:0:
256,128,70885,1,8,0:0:0:0:
256,128,71085,1,0,0:0:0:0:
256,128,71185,1,8,0:0:0:0:
256,128,71385,1,0,0:0:0:0:
256,128,71585,1,8,0:0:0:0:
256,128,71685,1,0,0:0:0:0:
256,128,71885,1,0,0:0:0:0:
256,128,71985,1,8,0:0:0:0:
256,128,72085,1,0,0:0:0:0:
256,128,72185,1,0,0:0:0:0:
256,128,72285,1,8,0:0:0:0:
256,128,72485,1,0,0:0:0:0:
256,128,72685,1,8,0:0:0:0:
256,128,72785,1,0,0:0:0:0:
256,128,72985,1,0,0:0:0:0:
256,128,73085,1,8,0:0:0:0:
256,128,73285,1,8,0:0:0:0:
256,128,73385,1,0,0:0:0:0:
256,128,73485,1,8,0:0:0:0:
256,128,73585,1,8,0:0:0:0:
256,128,73685,1,0,0:0:0:0:
256,128,73785,1,8,0:0:0:0:
256,128,73885,1,8,0:0:0:0:
256,128,73985,1,0,0:0:0:0:
256,128,74185,1,4,0:0:0:0:
256,128,74385,1,0,0:0:0:0:
256,128,74585,1,12,0:0:0:0:
256,128,74785,1,0,0:0:0:0:
256,128,74885,1,0,0:0:0:0:
256,128,74985,1,8,0:0:0:0:
256,128,75085,1,0,0:0:0:0:
256,128,75185,1,8,0:0:0:0:
256,128,75285,1,0,0:0:0:0:
256,128,75385,1,0,0:0:0:0:
256,128,75485,1,8,0:0:0:0:
256,128,75685,1,0,0:0:0:0:
256,128,75885,1,8,0:0:0:0:
256,128,75985,1,0,0:0:0:0:
256,128,76185,1,8,0:0:0:0:
256,128,76385,1,0,0:0:0:0:
256,128,76485,1,8,0:0:0:0:
256,128,76685,1,8,0:0:0:0:
256,128,76785,1,0,0:0:0:0:
256,128,76885,1,8,0:0:0:0:
256,128,76985,1,8,0:0:0:0:
256,128,77085,1,0,0:0:0:0:
256,128,77285,1,8,0:0:0:0:
256,128,77485,1,0,0:0:0:0:
256,128,77585,1,8,0:0:0:0:
256,128,77785,1,8,0:0:0:0:
256,128,77885,1,8,0:0:0:0:
256,128,77985,1,0,0:0:0:0:
256,128,78085,1,8,0:0:0:0:
256,128,78185,1,0,0:0:0:0:
256,128,78285,1,0,0:0:0:0:
256,128,78385,1,8,0:0:0:0:
256,128,78485,1,0,0:0:0:0:
256,128,78585,1,8,0:0:0:0:
256,128,78685,1,8,0:0:0:0:
256,128,78785,1,0,0:0:0:0:
256,128,78885,1,8,0:0:0:0:
256,128,78985,1,0,0:0:0:0:
256,128,79085,1,0,0:0:0:0:
256,128,79185,1,8,0:0:0:0:
256,128,79385,5,0,0:0:0:0:
256,128,79451,1,0,0:0:0:0:
256,128,79518,1,0,0:0:0:0:
256,128,79585,1,0,0:0:0:0:
256,128,79685,1,0,0:0:0:0:
256,128,79785,1,8,0:0:0:0:
256,128,79851,1,8,0:0:0:0:
256,128,79918,1,8,0:0:0:0:
256,128,79985,1,0,0:0:0:0:
256,128,80085,1,0,0:0:0:0:
256,128,80185,1,8,0:0:0:0:
256,128,80285,1,8,0:0:0:0:
256,128,80385,1,0,0:0:0:0:
256,128,80485,1,0,0:0:0:0:
256,128,80585,1,8,0:0:0:0:
256,128,80785,1,8,0:0:0:0:
256,128,80985,1,0,0:0:0:0:
256,128,81085,1,0,0:0:0:0:
256,128,81285,1,0,0:0:0:0:
256,128,81385,5,12,0:0:0:0:
256,128,81585,1,0,0:0:0:0:
256,128,81785,1,8,0:0:0:0:
256,128,81885,1,0,0:0:0:0:
256,128,82085,1,8,0:0:0:0:
256,128,82285,1,0,0:0:0:0:
256,128,82385,1,8,0:0:0:0:
256,128,82485,1,0,0:0:0:0:
256,128,82685,1,8,0:0:0:0:
256,128,82785,1,8,0:0:0:0:
256,128,82885,1,0,0:0:0:0:
256,128,82985,1,8,0:0:0:0:
256,128,83085,1,0,0:0:0:0:
256,128,83185,1,0,0:0:0:0:
256,128,83285,1,8,0:0:0:0:
256,128,83385,1,8,0:0:0:0:
256,128,83485,1,0,0:0:0:0:
256,128,83685,1,8,0:0:0:0:
256,128,83885,1,0,0:0:0:0:
256,128,83985,1,8,0:0:0:0:
256,128,84185,1,0,0:0:0:0:
256,128,84385,1,0,0:0:0:0:
256,128,84485,1,0,0:0:0:0:
256,128,84585,1,8,0:0:0:0:
256,128,84685,1,0,0:0:0:0:
256,128,84785,1,8,0:0:0:0:
256,128,84885,1,0,0:0:0:0:
256,128,84985,1,0,0:0:0:0:
256,128,85085,1,8,0:0:0:0:
256,128,85285,1,0,0:0:0:0:
256,128,85485,1,8,0:0:0:0:
256,128,85585,1,0,0:0:0:0:
256,128,85785,1,0,0:0:0:0:
256,128,85851,1,8,0:0:0:0:
256,128,85918,1,8,0:0:0:0:
256,128,85985,1,0,0:0:0:0:
256,128,86085,1,0,0:0:0:0:
256,128,86185,1,8,0:0:0:0:
256,128,86251,1,8,0:0:0:0:
256,128,86318,1,8,0:0:0:0:
256,128,86385,1,0,0:0:0:0:
256,128,86485,1,0,0:0:0:0:
256,128,86585,1,8,0:0:0:0:
256,128,86685,1,8,0:0:0:0:
256,128,86785,1,8,0:0:0:0:
256,128,86885,1,8,0:0:0:0:
256,128,86985,1,0,0:0:0:0:
256,128,87085,1,8,0:0:0:0:
256,128,87185,1,8,0:0:0:0:
256,128,87285,1,8,0:0:0:0:
256,128,87385,1,0,0:0:0:0:
256,128,87585,5,0,0:0:0:0:
256,128,87785,1,12,0:0:0:0:
256,128,87985,1,8,0:0:0:0:
256,128,88085,1,8,0:0:0:0:
256,128,88185,1,0,0:0:0:0:
256,128,88385,1,0,0:0:0:0:
256,128,88585,1,12,0:0:0:0:
256,128,88785,1,0,0:0:0:0:
256,128,88885,1,8,0:0:0:0:
256,128,88985,1,0,0:0:0:0:
256,128,89185,1,0,0:0:0:0:
256,128,89385,1,12,0:0:0:0:
256,128,89585,1,8,0:0:0:0:
256,128,89685,1,8,0:0:0:0:
256,128,89785,1,0,0:0:0:0:
256,128,89885,1,8,0:0:0:0:
256,128,89985,1,0,0:0:0:0:
256,128,90185,1,12,0:0:0:0:
256,128,90385,1,0,0:0:0:0:
256,128,90585,1,0,0:0:0:0:
256,128,90685,1,0,0:0:0:0:
256,128,90785,1,8,0:0:0:0:
256,128,90885,1,8,0:0:0:0:
256,128,90985,1,0,0:0:0:0:
256,128,91085,1,0,0:0:0:0:
256,128,91185,1,0,0:0:0:0:
256,128,91285,1,8,0:0:0:0:
256,128,91385,1,0,0:0:0:0:
256,128,91485,1,0,0:0:0:0:
256,128,91585,1,8,0:0:0:0:
256,128,91685,1,8,0:0:0:0:
256,128,91785,1,0,0:0:0:0:
256,128,91885,1,8,0:0:0:0:
256,128,91985,1,8,0:0:0:0:
256,128,92085,1,8,0:0:0:0:
256,128,92185,1,0,0:0:0:0:
256,128,93385,1,8,0:0:0:0:
256,128,93785,1,4,0:0:0:0:
256,128,94085,5,0,0:0:0:0:
256,128,94185,1,8,0:0:0:0:
256,128,94385,1,0,0:0:0:0:
256,128,94585,1,0,0:0:0:0:
256,128,94985,1,8,0:0:0:0:
256,128,95185,1,0,0:0:0:0:
256,128,95285,1,0,0:0:0:0:
256,128,95385,1,0,0:0:0:0:
256,128,95485,1,0,0:0:0:0:
256,128,95685,1,0,0:0:0:0:
256,128,95785,1,8,0:0:0:0:
256,128,95985,1,0,0:0:0:0:
256,128,96185,1,8,0:0:0:0:
256,128,96385,1,8,0:0:0:0:
256,128,96485,1,8,0:0:0:0:
256,128,96585,1,0,0:0:0:0:
256,128,96785,1,8,0:0:0:0:
256,128,96885,1,0,0:0:0:0:
256,128,96985,1,0,0:0:0:0:
256,128,97085,1,0,0:0:0:0:
256,128,97285,1,0,0:0:0:0:
256,128,97385,1,8,0:0:0:0:
256,128,97585,1,0,0:0:0:0:
256,128,97785,1,0,0:0:0:0:
256,128,98085,1,0,0:0:0:0:
256,128,98185,1,8,0:0:0:0:
256,128,98385,1,0,0:0:0:0:
256,128,98485,1,0,0:0:0:0:
256,128,98585,1,0,0:0:0:0:
256,128,98685,1,0,0:0:0:0:
256,128,98885,1,0,0:0:0:0:
256,128,98985,1,8,0:0:0:0:
256,128,99185,1,0,0:0:0:0:
256,128,99385,1,8,0:0:0:0:
256,128,99585,1,0,0:0:0:0:
256,128,99651,1,0,0:0:0:0:
256,128,99718,1,0,0:0:0:0:
256,128,99785,1,8,0:0:0:0:
256,128,99885,1,8,0:0:0:0:
256,128,99985,1,8,0:0:0:0:
256,128,100085,1,0,0:0:0:0:
256,128,100185,1,8,0:0:0:0:
256,128,100251,1,8,0:0:0:0:
256,128,100318,1,8,0:0:0:0:
256,128,100385,1,0,0:0:0:0:
256,128,100485,1,0,0:0:0:0:
256,128,100585,1,8,0:0:0:0:
256,128,100785,1,8,0:0:0:0:
256,128,100985,1,0,0:0:0:0:
256,128,101185,1,0,0:0:0:0:
256,128,101285,1,8,0:0:0:0:
256,128,101485,1,8,0:0:0:0:
256,128,101585,1,0,0:0:0:0:
256,128,101685,1,0,0:0:0:0:
256,128,101785,1,8,0:0:0:0:
256,128,101851,1,8,0:0:0:0:
256,128,101918,1,8,0:0:0:0:
256,128,101985,1,0,0:0:0:0:
256,128,102085,1,0,0:0:0:0:
256,128,102185,1,8,0:0:0:0:
256,128,102385,1,0,0:0:0:0:
256,128,102485,1,0,0:0:0:0:
256,128,102585,1,8,0:0:0:0:
256,128,102785,1,0,0:0:0:0:
256,128,102885,1,8,0:0:0:0:
256,128,103085,1,8,0:0:0:0:
256,128,103185,1,0,0:0:0:0:
256,128,103385,1,8,0:0:0:0:
256,128,103518,1,8,0:0:0:0:
256,128,103651,1,0,0:0:0:0:
256,128,103785,1,8,0:0:0:0:
256,128,103918,1,0,0:0:0:0:
256,128,104051,1,0,0:0:0:0:
256,128,104185,1,8,0:0:0:0:
256,128,104318,1,0,0:0:0:0:
256,128,104451,1,0,0:0:0:0:
256,128,104585,1,8,0:0:0:0:
256,128,104651,1,8,0:0:0:0:
256,128,104718,1,8,0:0:0:0:
256,128,104785,1,8,0:0:0:0:
256,128,104851,1,8,0:0:0:0:
256,128,104918,1,8,0:0:0:0:
256,128,104985,1,0,0:0:0:0:
256,128,105785,1,8,0:0:0:0:
256,128,105918,1,8,0:0:0:0:
256,128,106051,1,8,0:0:0:0:
256,128,106185,1,8,0:0:0:0:
256,128,106318,1,8,0:0:0:0:
256,128,106585,1,4,0:0:0:0:
256,128,108185,1,0,0:0:0:0:
256,128,108585,1,0,0:0:0:0:
256,128,108985,1,8,0:0:0:0:
256,128,109251,1,8,0:0:0:0:
256,128,109518,1,8,0:0:0:0:
256,128,109785,1,4,0:0:0:0:
256,128,110051,1,0,0:0:0:0:
256,128,110185,1,8,0:0:0:0:
256,128,110318,1,0,0:0:0:0:
256,128,110451,1,0,0:0:0:0:
256,128,110585,1,8,0:0:0:0:
256,128,110718,1,0,0:0:0:0:
256,128,110851,1,0,0:0:0:0:
256,128,110985,1,8,0:0:0:0:
256,128,111251,1,8,0:0:0:0:
256,128,111385,1,0,0:0:0:0:
256,128,111518,1,8,0:0:0:0:
256,128,111651,1,8,0:0:0:0:
256,128,111785,1,0,0:0:0:0:
256,128,111918,1,8,0:0:0:0:
256,128,112051,1,8,0:0:0:0:
256,128,112185,1,0,0:0:0:0:
256,128,112451,1,0,0:0:0:0:
256,128,112585,1,8,0:0:0:0:
256,128,112718,1,0,0:0:0:0:
256,128,112985,1,12,0:0:0:0:
256,128,113251,1,0,0:0:0:0:
256,128,113385,1,8,0:0:0:0:
256,128,113518,1,8,0:0:0:0:
256,128,113651,1,8,0:0:0:0:
256,128,113785,1,0,0:0:0:0:
256,128,113918,1,0,0:0:0:0:
256,128,114051,1,0,0:0:0:0:
256,128,114185,1,8,0:0:0:0:
256,128,114451,1,8,0:0:0:0:
256,128,114585,1,0,0:0:0:0:
256,128,114718,1,0,0:0:0:0:
256,128,114851,1,0,0:0:0:0:
256,128,114985,1,8,0:0:0:0:
256,128,115118,1,8,0:0:0:0:
256,128,115251,1,8,0:0:0:0:
256,128,115385,1,0,0:0:0:0:
256,128,115651,1,8,0:0:0:0:
256,128,115785,1,8,0:0:0:0:
256,128,115918,1,8,0:0:0:0:
256,128,116051,1,8,0:0:0:0:
256,128,116185,1,0,0:0:0:0:
256,128,116451,1,0,0:0:0:0:
256,128,116518,1,0,0:0:0:0:
256,128,116585,1,8,0:0:0:0:
256,128,116851,1,8,0:0:0:0:
256,128,116985,1,0,0:0:0:0:
256,128,117118,1,0,0:0:0:0:
256,128,117251,1,0,0:0:0:0:
256,128,117385,1,8,0:0:0:0:
256,128,117651,1,8,0:0:0:0:
256,128,117785,1,0,0:0:0:0:
256,128,118051,1,0,0:0:0:0:
256,128,118118,1,0,0:0:0:0:
256,128,118185,1,8,0:0:0:0:
256,128,118451,1,8,0:0:0:0:
256,128,118585,1,0,0:0:0:0:
256,128,118718,1,0,0:0:0:0:
256,128,118851,1,0,0:0:0:0:
256,128,118985,1,8,0:0:0:0:
256,128,119051,1,8,0:0:0:0:
256,128,119118,1,8,0:0:0:0:
256,128,119185,1,8,0:0:0:0:
256,128,119251,1,8,0:0:0:0:
256,128,119318,1,8,0:0:0:0:
256,128,119385,1,0,0:0:0:0:
256,128,119651,1,0,0:0:0:0:
256,128,119784,1,8,0:0:0:0:
256,128,119917,1,0,0:0:0:0:
256,128,120051,1,0,0:0:0:0:
256,128,120184,1,8,0:0:0:0:
256,128,120317,1,8,0:0:0:0:
256,128,120451,1,0,0:0:0:0:
256,128,120584,1,8,0:0:0:0:
256,128,120718,1,0,0:0:0:0:
256,128,120851,1,0,0:0:0:0:
256,128,120984,1,0,0:0:0:0:
256,128,121117,1,8,0:0:0:0:
256,128,121251,1,8,0:0:0:0:
256,128,121384,1,8,0:0:0:0:
256,128,121517,1,0,0:0:0:0:
256,128,121651,1,0,0:0:0:0:
256,128,121784,1,8,0:0:0:0:
256,128,121917,1,0,0:0:0:0:
256,128,122051,1,0,0:0:0:0:
256,128,122184,1,8,0:0:0:0:
256,128,122318,1,0,0:0:0:0:
256,128,122451,1,0,0:0:0:0:
256,128,122584,1,0,0:0:0:0:
256,128,122718,1,8,0:0:0:0:
256,128,122851,1,8,0:0:0:0:
256,128,122985,1,8,0:0:0:0:
256,128,123117,1,0,0:0:0:0:
256,128,123251,1,0,0:0:0:0:
256,128,123384,1,8,0:0:0:0:
256,128,123517,1,8,0:0:0:0:
256,128,123651,1,0,0:0:0:0:
256,128,123784,1,8,0:0:0:0:
256,128,123917,1,0,0:0:0:0:
256,128,124051,1,0,0:0:0:0:
256,128,124185,1,8,0:0:0:0:
256,128,124451,1,8,0:0:0:0:
256,128,124585,1,0,0:0:0:0:
256,128,124851,1,0,0:0:0:0:
256,128,124985,1,8,0:0:0:0:
256,128,125251,1,8,0:0:0:0:
256,128,125518,1,8,0:0:0:0:
256,128,125785,1,4,0:0:0:0:
256,128,126051,1,0,0:0:0:0:
256,128,126185,1,8,0:0:0:0:
256,128,126318,1,0,0:0:0:0:
256,128,126451,1,0,0:0:0:0:
256,128,126585,1,8,0:0:0:0:
256,128,126718,1,0,0:0:0:0:
256,128,126785,1,0,0:0:0:0:
256,128,126851,1,0,0:0:0:0:
256,128,126985,1,8,0:0:0:0:
256,128,127118,1,0,0:0:0:0:
256,128,127251,1,8,0:0:0:0:
256,128,127385,1,8,0:0:0:0:
256,128,127518,1,0,0:0:0:0:
256,128,127651,1,0,0:0:0:0:
256,128,127785,1,8,0:0:0:0:
256,128,127918,1,8,0:0:0:0:
256,128,127985,1,8,0:0:0:0:
256,128,128051,1,8,0:0:0:0:
256,128,128185,1,8,0:0:0:0:
256,128,128318,1,0,0:0:0:0:
256,128,128451,1,0,0:0:0:0:
256,128,128585,1,8,0:0:0:0:
256,128,128718,1,0,0:0:0:0:
256,128,128785,1,0,0:0:0:0:
256,128,128851,1,0,0:0:0:0:
256,128,128985,1,8,0:0:0:0:
256,128,129118,1,0,0:0:0:0:
256,128,129185,1,0,0:0:0:0:
256,128,129251,1,0,0:0:0:0:
256,128,129385,1,8,0:0:0:0:
256,128,129518,1,8,0:0:0:0:
256,128,129585,1,8,0:0:0:0:
256,128,129651,1,8,0:0:0:0:
256,128,129785,1,0,0:0:0:0:
256,128,129918,1,8,0:0:0:0:
256,128,129985,1,8,0:0:0:0:
256,128,130051,1,8,0:0:0:0:
256,128,130118,1,8,0:0:0:0:
256,128,130185,1,0,0:0:0:0:
256,128,130251,1,0,0:0:0:0:
256,128,130318,1,8,0:0:0:0:
256,128,130385,1,8,0:0:0:0:
256,128,130451,1,8,0:0:0:0:
256,128,130518,1,8,0:0:0:0:
256,128,130585,1,0,0:0:0:0:
256,128,131785,1,8,0:0:0:0:
256,128,132185,1,4,0:0:0:0:
256,128,144585,5,8,0:0:0:0:
256,128,144985,5,8,0:0:0:0:
256,128,146051,5,8,0:0:0:0:
256,128,146318,5,8,0:0:0:0:
256,128,146585,5,8,0:0:0:0:
256,128,147651,5,8,0:0:0:0:
256,128,147918,5,8,0:0:0:0:
256,128,148185,5,8,0:0:0:0:
256,128,149185,5,8,0:0:0:0:
256,128,149385,5,8,0:0:0:0:
256,128,149585,5,8,0:0:0:0:
256,128,149785,5,8,0:0:0:0:
256,128,150185,5,8,0:0:0:0:
256,128,150585,5,8,0:0:0:0:
256,128,150985,5,8,0:0:0:0:
256,128,151185,5,8,0:0:0:0:
256,128,151251,5,8,0:0:0:0:
256,128,151318,5,8,0:0:0:0:
256,128,151385,5,8,0:0:0:0:
256,128,152451,5,8,0:0:0:0:
256,128,152718,5,8,0:0:0:0:
256,128,152985,5,8,0:0:0:0:
256,128,154051,5,8,0:0:0:0:
256,128,154318,5,8,0:0:0:0:
256,128,154585,5,8,0:0:0:0:
256,128,155585,5,8,0:0:0:0:
256,128,155785,5,8,0:0:0:0:
256,128,155985,5,8,0:0:0:0:
256,128,156385,5,8,0:0:0:0:
256,128,156785,5,8,0:0:0:0:
256,128,157185,5,8,0:0:0:0:
256,128,157385,5,8,0:0:0:0:
256,128,157785,5,8,0:0:0:0:
256,128,158851,5,8,0:0:0:0:
256,128,159118,5,8,0:0:0:0:
256,128,159385,5,8,0:0:0:0:
256,128,160451,5,8,0:0:0:0:
256,128,160718,5,8,0:0:0:0:
256,128,160985,5,8,0:0:0:0:
256,128,161985,5,8,0:0:0:0:
256,128,162185,5,8,0:0:0:0:
256,128,162385,5,8,0:0:0:0:
256,128,162585,5,8,0:0:0:0:
256,128,162985,5,8,0:0:0:0:
256,128,163385,5,8,0:0:0:0:
256,128,163785,5,8,0:0:0:0:
256,128,163985,5,8,0:0:0:0:
256,128,164051,5,8,0:0:0:0:
256,128,164118,5,8,0:0:0:0:
256,128,164185,5,8,0:0:0:0:
256,192,164385,12,0,166785,0:0:0:0:
256,128,166985,5,0,0:0:0:0:
256,128,167085,5,0,0:0:0:0:
256,128,167185,5,0,0:0:0:0:
256,128,167285,5,0,0:0:0:0:
256,128,167385,5,8,0:0:0:0:
256,128,167485,5,0,0:0:0:0:
256,128,167585,5,8,0:0:0:0:
256,128,167685,5,8,0:0:0:0:
256,128,167785,5,0,0:0:0:0:
256,128,167885,5,0,0:0:0:0:
256,128,167985,5,8,0:0:0:0:
256,128,168085,5,8,0:0:0:0:
256,128,168185,5,0,0:0:0:0:
256,128,168251,5,0,0:0:0:0:
256,128,168318,5,0,0:0:0:0:
256,128,168385,5,0,0:0:0:0:
256,128,168451,5,0,0:0:0:0:
256,128,168518,5,0,0:0:0:0:
256,128,168585,5,8,0:0:0:0:
256,128,168685,5,0,0:0:0:0:
256,128,168785,5,8,0:0:0:0:
256,128,168885,5,8,0:0:0:0:
256,128,168985,5,0,0:0:0:0:
256,128,169051,5,0,0:0:0:0:
256,128,169118,5,0,0:0:0:0:
256,128,169185,5,0,0:0:0:0:
256,128,169285,5,0,0:0:0:0:
256,128,169385,5,8,0:0:0:0:
256,128,169451,5,8,0:0:0:0:
256,128,169518,5,8,0:0:0:0:
256,128,169585,5,0,0:0:0:0:
256,128,169685,5,0,0:0:0:0:
256,128,169785,5,8,0:0:0:0:
256,128,169885,5,0,0:0:0:0:
256,128,169985,5,8,0:0:0:0:
256,128,170085,5,8,0:0:0:0:
256,128,170185,5,0,0:0:0:0:
256,128,170285,5,0,0:0:0:0:
256,128,170385,5,8,0:0:0:0:
256,128,170585,5,4,0:0:0:0:
256,128,170985,5,8,0:0:0:0:
256,128,171285,5,8,0:0:0:0:
256,128,171585,5,8,0:0:0:0:
256,128,171885,5,8,0:0:0:0:
256,128,172185,1,0,0:0:0:0:
256,128,172585,5,8,0:0:0:0:
256,128,172885,5,8,0:0:0:0:
256,128,173085,5,8,0:0:0:0:
256,128,173185,5,8,0:0:0:0:
256,128,173385,5,8,0:0:0:0:
256,128,173585,5,8,0:0:0:0:
256,128,173785,5,8,0:0:0:0:
256,128,174185,5,8,0:0:0:0:
256,128,174485,5,8,0:0:0:0:
256,128,174785,5,8,0:0:0:0:
256,128,175085,5,8,0:0:0:0:
256,128,175185,1,0,0:0:0:0:
256,128,175251,1,0,0:0:0:0:
256,128,175318,1,0,0:0:0:0:
256,128,175385,1,0,0:0:0:0:
256,128,175485,1,0,0:0:0:0:
256,128,175585,1,0,0:0:0:0:
256,128,175685,1,0,0:0:0:0:
256,128,175785,1,8,0:0:0:0:
256,128,175985,1,0,0:0:0:0:
256,128,176085,1,8,0:0:0:0:
256,128,176185,1,0,0:0:0:0:
256,128,176285,1,0,0:0:0:0:
256,128,176385,1,8,0:0:0:0:
256,128,176485,1,8,0:0:0:0:
256,128,176585,1,0,0:0:0:0:
256,128,176651,1,0,0:0:0:0:
256,128,176718,1,0,0:0:0:0:
256,128,176785,1,0,0:0:0:0:
256,128,176985,1,4,0:0:0:0:
256,128,177385,5,8,0:0:0:0:
256,128,177685,5,8,0:0:0:0:
256,128,177985,5,8,0:0:0:0:
256,128,178285,5,8,0:0:0:0:
256,128,178585,1,0,0:0:0:0:
256,128,178985,5,8,0:0:0:0:
256,128,179285,5,8,0:0:0:0:
256,128,179485,5,8,0:0:0:0:
256,128,179585,5,8,0:0:0:0:
256,128,179785,5,8,0:0:0:0:
256,128,179985,5,0,0:0:0:0:
256,128,180051,1,0,0:0:0:0:
256,128,180118,1,0,0:0:0:0:
256,128,180185,1,8,0:0:0:0:
256,128,180385,1,8,0:0:0:0:
256,128,180451,1,8,0:0:0:0:
256,128,180518,1,8,0:0:0:0:
256,128,180585,1,0,0:0:0:0:
256,128,180685,1,0,0:0:0:0:
256,128,180785,1,8,0:0:0:0:
256,128,180885,1,8,0:0:0:0:
256,128,180985,1,8,0:0:0:0:
256,128,181051,1,8,0:0:0:0:
256,128,181118,1,8,0:0:0:0:
256,128,181185,1,0,0:0:0:0:
256,128,181385,1,8,0:0:0:0:
256,128,181485,1,8,0:0:0:0:
256,128,181585,1,0,0:0:0:0:
256,128,181651,1,8,0:0:0:0:
256,128,181718,1,8,0:0:0:0:
256,128,181785,1,0,0:0:0:0:
256,128,181985,1,0,0:0:0:0:
256,128,182051,1,0,0:0:0:0:
256,128,182118,1,0,0:0:0:0:
256,128,182185,1,8,0:0:0:0:
256,128,182385,1,8,0:0:0:0:
256,128,182451,1,8,0:0:0:0:
256,128,182518,1,8,0:0:0:0:
256,128,182585,1,0,0:0:0:0:
256,128,182785,1,8,0:0:0:0:
256,128,182985,1,8,0:0:0:0:
256,128,183085,1,8,0:0:0:0:
256,128,183185,1,8,0:0:0:0:
256,128,183385,5,4,0:0:0:0:
256,128,183685,1,0,0:0:0:0:
256,128,183785,1,8,0:0:0:0:
256,128,183985,1,0,0:0:0:0:
256,128,184185,1,0,0:0:0:0:
256,128,184585,1,8,0:0:0:0:
256,128,184785,1,0,0:0:0:0:
256,128,184885,1,0,0:0:0:0:
256,128,184985,1,0,0:0:0:0:
256,128,185085,1,0,0:0:0:0:
256,128,185285,1,0,0:0:0:0:
256,128,185385,1,8,0:0:0:0:
256,128,185585,1,0,0:0:0:0:
256,128,185785,1,8,0:0:0:0:
256,128,185985,1,8,0:0:0:0:
256,128,186085,1,8,0:0:0:0:
256,128,186185,1,0,0:0:0:0:
256,128,186385,1,8,0:0:0:0:
256,128,186485,1,0,0:0:0:0:
256,128,186585,1,0,0:0:0:0:
256,128,186685,1,0,0:0:0:0:
256,128,186885,1,0,0:0:0:0:
256,128,186985,1,8,0:0:0:0:
256,128,187185,1,0,0:0:0:0:
256,128,187385,1,0,0:0:0:0:
256,128,187685,1,0,0:0:0:0:
256,128,187785,1,8,0:0:0:0:
256,128,187985,1,0,0:0:0:0:
256,128,188085,1,0,0:0:0:0:
256,128,188185,1,0,0:0:0:0:
256,128,188285,1,0,0:0:0:0:
256,128,188485,1,0,0:0:0:0:
256,128,188585,1,8,0:0:0:0:
256,128,188785,1,0,0:0:0:0:
256,128,188985,1,8,0:0:0:0:
256,128,189185,1,0,0:0:0:0:
256,128,189251,1,0,0:0:0:0:
256,128,189318,1,0,0:0:0:0:
256,128,189385,1,8,0:0:0:0:
256,128,189485,1,8,0:0:0:0:
256,128,189585,1,8,0:0:0:0:
256,128,189685,1,0,0:0:0:0:
256,128,189785,1,8,0:0:0:0:
256,128,189851,1,8,0:0:0:0:
256,128,189918,1,8,0:0:0:0:
256,128,189985,1,0,0:0:0:0:
256,128,190085,1,0,0:0:0:0:
256,128,190185,1,8,0:0:0:0:
256,128,190385,1,8,0:0:0:0:
256,128,190585,1,0,0:0:0:0:
256,128,190785,1,0,0:0:0:0:
256,128,190885,1,8,0:0:0:0:
256,128,191085,1,8,0:0:0:0:
256,128,191185,1,0,0:0:0:0:
256,128,191285,1,0,0:0:0:0:
256,128,191385,1,8,0:0:0:0:
256,128,191451,1,8,0:0:0:0:
256,128,191518,1,8,0:0:0:0:
256,128,191585,1,0,0:0:0:0:
256,128,191685,1,0,0:0:0:0:
256,128,191785,1,8,0:0:0:0:
256,128,191985,1,0,0:0:0:0:
256,128,192085,1,0,0:0:0:0:
256,128,192185,1,8,0:0:0:0:
256,128,192385,1,0,0:0:0:0:
256,128,192485,1,8,0:0:0:0:
256,128,192685,1,8,0:0:0:0:
256,128,192785,1,0,0:0:0:0:
256,128,192985,1,0,0:0:0:0:
256,128,193085,1,0,0:0:0:0:
256,128,193185,1,0,0:0:0:0:
256,128,193285,1,8,0:0:0:0:
256,128,193385,1,0,0:0:0:0:
256,128,193485,1,0,0:0:0:0:
256,128,193585,1,8,0:0:0:0:
256,128,193685,1,8,0:0:0:0:
256,128,193785,1,0,0:0:0:0:
256,128,193885,1,8,0:0:0:0:
256,128,193985,1,8,0:0:0:0:
256,128,194085,1,8,0:0:0:0:
256,128,194185,1,8,0:0:0:0:
256,128,194251,1,8,0:0:0:0:
256,128,194318,1,8,0:0:0:0:
256,128,194385,1,8,0:0:0:0:
256,128,194451,1,8,0:0:0:0:
256,128,194518,1,8,0:0:0:0:
256,128,194585,1,0,0:0:0:0:
256,128,196185,5,12,0:0:0:0:
256,128,196485,1,8,0:0:0:0:
256,128,196585,1,0,0:0:0:0:
256,128,196685,1,0,0:0:0:0:
256,128,196785,1,0,0:0:0:0:
256,128,196885,1,8,0:0:0:0:
256,128,197085,1,0,0:0:0:0:
256,128,197285,1,8,0:0:0:0:
256,128,197385,1,0,0:0:0:0:
256,128,197485,1,8,0:0:0:0:
256,128,197585,1,0,0:0:0:0:
256,128,197685,1,0,0:0:0:0:
256,128,197785,1,8,0:0:0:0:
256,128,197985,1,8,0:0:0:0:
256,128,198085,1,8,0:0:0:0:
256,128,198185,1,0,0:0:0:0:
256,128,198285,1,0,0:0:0:0:
256,128,198485,1,0,0:0:0:0:
256,128,198685,1,8,0:0:0:0:
256,128,198885,1,0,0:0:0:0:
256,128,198985,1,8,0:0:0:0:
256,128,199085,1,0,0:0:0:0:
256,128,199185,1,8,0:0:0:0:
256,128,199285,1,8,0:0:0:0:
256,128,199385,1,0,0:0:0:0:
256,128,199685,1,0,0:0:0:0:
256,128,199785,1,8,0:0:0:0:
256,128,199885,1,0,0:0:0:0:
256,128,199985,1,0,0:0:0:0:
256,128,200085,1,8,0:0:0:0:
256,128,200285,1,0,0:0:0:0:
256,128,200485,1,8,0:0:0:0:
256,128,200585,1,8,0:0:0:0:
256,128,200685,1,8,0:0:0:0:
256,128,200785,1,0,0:0:0:0:
256,128,200885,1,0,0:0:0:0:
256,128,200985,1,8,0:0:0:0:
256,128,201185,1,0,0:0:0:0:
256,128,201285,1,0,0:0:0:0:
256,128,201385,1,8,0:0:0:0:
256,128,201485,1,0,0:0:0:0:
256,128,201585,1,0,0:0:0:0:
256,128,201685,1,8,0:0:0:0:
256,128,201885,1,8,0:0:0:0:
256,128,201985,1,0,0:0:0:0:
256,128,202185,1,12,0:0:0:0:
256,128,202385,1,8,0:0:0:0:
256,128,202485,1,8,0:0:0:0:
256,128,202585,1,0,0:0:0:0:
256,128,202685,1,0,0:0:0:0:
256,128,202785,1,8,0:0:0:0:
256,128,202885,1,0,0:0:0:0:
256,128,202985,1,0,0:0:0:0:
256,128,203085,1,8,0:0:0:0:
256,128,203285,1,8,0:0:0:0:
256,128,203485,1,0,0:0:0:0:
256,128,203685,1,8,0:0:0:0:
256,128,203785,1,0,0:0:0:0:
256,128,203885,1,8,0:0:0:0:
256,128,203985,1,0,0:0:0:0:
256,128,204085,1,0,0:0:0:0:
256,128,204185,1,8,0:0:0:0:
256,128,204385,1,8,0:0:0:0:
256,128,204485,1,0,0:0:0:0:
256,128,204585,1,8,0:0:0:0:
256,128,204685,1,8,0:0:0:0:
256,128,204885,1,0,0:0:0:0:
256,128,205085,1,8,0:0:0:0:
256,128,205285,1,8,0:0:0:0:
256,128,205385,1,0,0:0:0:0:
256,128,205485,1,0,0:0:0:0:
256,128,205585,1,0,0:0:0:0:
256,128,205685,1,8,0:0:0:0:
256,128,205785,1,0,0:0:0:0:
256,128,205885,1,0,0:0:0:0:
256,128,205985,1,8,0:0:0:0:
256,128,206085,1,8,0:0:0:0:
256,128,206185,1,0,0:0:0:0:
256,128,206285,1,0,0:0:0:0:
256,128,206385,1,8,0:0:0:0:
256,128,206485,1,0,0:0:0:0:
256,128,206585,1,8,0:0:0:0:
256,128,206685,1,8,0:0:0:0:
256,128,206785,1,0,0:0:0:0:
256,128,206885,1,8,0:0:0:0:
256,128,206985,1,0,0:0:0:0:
256,128,207085,1,0,0:0:0:0:
256,128,207185,1,8,0:0:0:0:
256,128,207285,1,0,0:0:0:0:
256,128,207385,1,0,0:0:0:0:
256,128,207585,1,8,0:0:0:0:
256,128,207685,1,8,0:0:0:0:
256,128,207785,1,0,0:0:0:0:
256,128,207851,1,0,0:0:0:0:
256,128,207918,1,0,0:0:0:0:
256,128,207985,1,8,0:0:0:0:
256,128,208085,1,0,0:0:0:0:
256,128,208185,1,0,0:0:0:0:
256,128,208285,1,8,0:0:0:0:
256,128,208485,1,0,0:0:0:0:
256,128,208685,1,0,0:0:0:0:
256,128,208785,1,8,0:0:0:0:
256,128,208851,1,8,0:0:0:0:
256,128,208918,1,8,0:0:0:0:
256,128,208985,1,0,0:0:0:0:
256,128,209185,1,8,0:0:0:0:
256,128,209385,1,0,0:0:0:0:
256,128,209485,1,8,0:0:0:0:
256,128,209585,1,8,0:0:0:0:
256,128,209685,1,8,0:0:0:0:
256,128,209785,1,0,0:0:0:0:
256,128,209885,1,8,0:0:0:0:
256,128,210085,1,8,0:0:0:0:
256,128,210185,1,0,0:0:0:0:
256,128,210285,1,8,0:0:0:0:
256,128,210385,1,8,0:0:0:0:
256,128,210485,1,8,0:0:0:0:
256,128,210585,1,0,0:0:0:0:
256,128,210785,1,8,0:0:0:0:
256,128,210885,1,8,0:0:0:0:
256,128,210985,1,0,0:0:0:0:
256,128,211085,1,0,0:0:0:0:
256,128,211185,1,8,0:0:0:0:
256,128,211285,1,8,0:0:0:0:
256,128,211385,1,0,0:0:0:0:
256,128,211485,1,8,0:0:0:0:
256,128,211685,1,8,0:0:0:0:
256,128,211785,1,0,0:0:0:0:
256,128,211885,1,0,0:0:0:0:
256,128,211985,1,8,0:0:0:0:
256,128,212085,1,8,0:0:0:0:
256,128,212185,1,0,0:0:0:0:
256,128,212385,1,0,0:0:0:0:
256,128,212585,1,0,0:0:0:0:
256,128,212685,1,0,0:0:0:0:
256,128,212785,1,8,0:0:0:0:
256,128,212885,1,8,0:0:0:0:
256,128,212985,1,0,0:0:0:0:
256,128,213085,1,8,0:0:0:0:
256,128,213285,1,8,0:0:0:0:
256,128,213385,1,0,0:0:0:0:
256,128,213485,1,0,0:0:0:0:
256,128,213585,1,0,0:0:0:0:
256,128,213685,1,8,0:0:0:0:
256,128,213785,1,0,0:0:0:0:
256,128,213885,1,0,0:0:0:0:
256,128,213985,1,8,0:0:0:0:
256,128,214085,1,8,0:0:0:0:
256,128,214185,1,8,0:0:0:0:
256,128,214285,1,0,0:0:0:0:
256,128,214385,1,8,0:0:0:0:
256,128,214485,1,8,0:0:0:0:
256,128,214585,1,0,0:0:0:0:
256,128,214785,1,0,0:0:0:0:
256,128,214985,1,12,0:0:0:0:
256,128,215185,1,8,0:0:0:0:
256,128,215285,1,8,0:0:0:0:
256,128,215385,2,0,L|409:129,1,105.000004005432
256,128,215785,5,8,0:0:0:0:
256,128,215851,1,8,0:0:0:0:
256,128,215918,1,8,0:0:0:0:
256,128,215985,1,0,0:0:0:0:
256,128,216085,1,8,0:0:0:0:
256,128,216185,1,0,0:0:0:0:
256,128,216285,1,8,0:0:0:0:
256,128,216385,1,0,0:0:0:0:
256,128,216485,1,0,0:0:0:0:
256,128,216585,1,8,0:0:0:0:
256,128,216685,1,0,0:0:0:0:
256,128,216785,1,8,0:0:0:0:
256,128,216885,1,8,0:0:0:0:
256,128,216985,1,0,0:0:0:0:
256,128,217051,1,0,0:0:0:0:
256,128,217118,1,0,0:0:0:0:
256,128,217185,1,0,0:0:0:0:
256,128,217285,1,0,0:0:0:0:
256,128,217385,1,8,0:0:0:0:
256,128,217485,1,0,0:0:0:0:
256,128,217585,1,0,0:0:0:0:
256,128,217685,1,8,0:0:0:0:
256,128,217785,1,0,0:0:0:0:
256,128,217885,1,8,0:0:0:0:
256,128,217985,1,0,0:0:0:0:
256,128,218085,1,0,0:0:0:0:
256,128,218185,1,8,0:0:0:0:
256,128,218285,1,0,0:0:0:0:
256,128,218385,1,8,0:0:0:0:
256,128,218485,1,8,0:0:0:0:
256,128,218585,1,0,0:0:0:0:
256,128,218685,1,0,0:0:0:0:
256,128,218785,1,0,0:0:0:0:
256,128,218885,1,8,0:0:0:0:
256,128,218985,1,0,0:0:0:0:
256,128,219085,1,0,0:0:0:0:
256,128,219185,1,8,0:0:0:0:
256,128,219285,1,8,0:0:0:0:
256,128,219385,1,0,0:0:0:0:
256,128,219485,1,8,0:0:0:0:
256,128,219585,1,8,0:0:0:0:
256,128,219685,1,8,0:0:0:0:
256,128,219785,1,8,0:0:0:0:
256,128,219851,1,8,0:0:0:0:
256,128,219918,1,8,0:0:0:0:
256,128,219985,1,8,0:0:0:0:
256,128,220051,1,8,0:0:0:0:
256,128,220118,1,8,0:0:0:0:
256,128,220185,1,0,0:0:0:0:
256,128,221385,1,8,0:0:0:0:
256,128,221785,1,4,0:0:0:0:
256,128,222085,1,8,0:0:0:0:
256,128,222185,1,0,0:0:0:0:
256,128,222285,1,8,0:0:0:0:
256,128,222385,1,8,0:0:0:0:
256,128,222485,1,0,0:0:0:0:
256,128,222585,1,0,0:0:0:0:
256,128,222685,1,8,0:0:0:0:
256,128,222885,1,8,0:0:0:0:
256,128,222985,1,0,0:0:0:0:
256,128,223085,1,8,0:0:0:0:
256,128,223185,1,0,0:0:0:0:
256,128,223285,1,0,0:0:0:0:
256,128,223385,1,8,0:0:0:0:
256,128,223585,1,0,0:0:0:0:
256,128,223685,1,8,0:0:0:0:
256,128,223785,1,8,0:0:0:0:
256,128,223885,1,0,0:0:0:0:
256,128,224085,1,8,0:0:0:0:
256,128,224285,1,8,0:0:0:0:
256,128,224385,1,0,0:0:0:0:
256,128,224485,1,0,0:0:0:0:
256,128,224585,1,8,0:0:0:0:
256,128,224685,1,0,0:0:0:0:
256,128,224785,1,8,0:0:0:0:
256,128,224885,1,8,0:0:0:0:
256,128,224985,1,0,0:0:0:0:
256,128,225285,1,0,0:0:0:0:
256,128,225385,1,8,0:0:0:0:
256,128,225485,1,0,0:0:0:0:
256,128,225585,1,0,0:0:0:0:
256,128,225685,1,8,0:0:0:0:
256,128,225785,1,8,0:0:0:0:
256,128,225885,1,0,0:0:0:0:
256,128,226085,1,8,0:0:0:0:
256,128,226185,1,0,0:0:0:0:
256,128,226285,1,0,0:0:0:0:
256,128,226385,1,8,0:0:0:0:
256,128,226485,1,0,0:0:0:0:
256,128,226585,1,8,0:0:0:0:
256,128,226785,1,8,0:0:0:0:
256,128,226885,1,8,0:0:0:0:
256,128,226985,1,0,0:0:0:0:
256,128,227085,1,8,0:0:0:0:
256,128,227185,1,0,0:0:0:0:
256,128,227385,1,8,0:0:0:0:
256,128,227485,1,0,0:0:0:0:
256,128,227685,1,12,0:0:0:0:
256,128,227885,1,8,0:0:0:0:
256,128,227985,1,8,0:0:0:0:
256,128,228085,1,8,0:0:0:0:
256,128,228185,1,0,0:0:0:0:
256,128,228385,1,0,0:0:0:0:
256,128,228485,1,0,0:0:0:0:
256,128,228585,1,8,0:0:0:0:
256,128,228685,1,0,0:0:0:0:
256,128,228785,1,0,0:0:0:0:
256,128,228885,1,8,0:0:0:0:
256,128,229085,1,0,0:0:0:0:
256,128,229285,1,8,0:0:0:0:
256,128,229385,1,0,0:0:0:0:
256,128,229485,1,8,0:0:0:0:
256,128,229585,1,0,0:0:0:0:
256,128,229685,1,0,0:0:0:0:
256,128,229785,1,8,0:0:0:0:
256,128,229985,1,0,0:0:0:0:
256,128,230085,1,0,0:0:0:0:
256,128,230185,1,8,0:0:0:0:
256,128,230285,1,0,0:0:0:0:
256,128,230485,1,8,0:0:0:0:
256,128,230685,1,0,0:0:0:0:
256,128,230785,1,8,0:0:0:0:
256,128,230885,1,8,0:0:0:0:
256,128,230985,1,0,0:0:0:0:
256,128,231085,1,0,0:0:0:0:
256,128,231185,1,8,0:0:0:0:
256,128,231385,1,4,0:0:0:0:
256,128,231585,1,4,0:0:0:0:
256,128,231785,1,8,0:0:0:0:
256,128,231985,1,0,0:0:0:0:
256,128,232185,1,4,0:0:0:0:
256,128,232385,1,0,0:0:0:0:
256,128,232585,1,12,0:0:0:0:
256,128,232985,1,0,0:0:0:0:
256,128,233085,1,0,0:0:0:0:
256,128,233185,1,8,0:0:0:0:
256,128,233285,1,0,0:0:0:0:
256,128,233385,5,8,0:0:0:0:
256,128,233485,5,0,0:0:0:0:
256,128,233585,1,0,0:0:0:0:
256,128,233685,5,8,0:0:0:0:
256,128,233885,5,8,0:0:0:0:
256,128,233985,1,0,0:0:0:0:
256,128,234085,1,0,0:0:0:0:
256,128,234185,1,8,0:0:0:0:
256,128,234251,1,8,0:0:0:0:
256,128,234318,1,8,0:0:0:0:
256,128,234385,1,0,0:0:0:0:
256,128,234485,1,0,0:0:0:0:
256,128,234585,1,8,0:0:0:0:
256,128,234685,1,8,0:0:0:0:
256,128,234785,1,0,0:0:0:0:
256,128,234885,1,0,0:0:0:0:
256,128,234985,1,8,0:0:0:0:
256,128,235085,1,0,0:0:0:0:
256,128,235185,1,0,0:0:0:0:
256,128,235285,1,8,0:0:0:0:
256,128,235385,1,0,0:0:0:0:
256,128,235485,1,8,0:0:0:0:
256,128,235585,1,0,0:0:0:0:
256,128,235685,1,0,0:0:0:0:
256,128,235785,1,8,0:0:0:0:
256,128,235885,1,0,0:0:0:0:
256,128,235985,1,8,0:0:0:0:
256,128,236085,1,8,0:0:0:0:
256,128,236185,1,0,0:0:0:0:
256,128,236285,1,0,0:0:0:0:
256,128,236385,1,8,0:0:0:0:
256,128,236485,1,0,0:0:0:0:
256,128,236585,1,8,0:0:0:0:
256,128,236685,1,0,0:0:0:0:
256,128,236785,1,0,0:0:0:0:
256,128,236885,1,8,0:0:0:0:
256,128,236985,1,0,0:0:0:0:
256,128,237085,1,8,0:0:0:0:
256,128,237185,1,8,0:0:0:0:
256,128,237285,1,8,0:0:0:0:
256,128,237385,1,0,0:0:0:0:
256,128,237485,1,0,0:0:0:0:
256,128,237585,1,8,0:0:0:0:
256,128,237685,1,0,0:0:0:0:
256,128,237785,1,8,0:0:0:0:
256,128,237885,1,8,0:0:0:0:
256,128,237985,1,0,0:0:0:0:
256,128,238085,1,0,0:0:0:0:
256,128,238185,1,8,0:0:0:0:
256,128,238285,1,0,0:0:0:0:
256,128,238385,1,0,0:0:0:0:
256,128,238485,1,8,0:0:0:0:
256,128,238585,1,0,0:0:0:0:
256,128,238685,1,8,0:0:0:0:
256,128,238785,1,0,0:0:0:0:
256,128,238885,1,0,0:0:0:0:
256,128,238985,1,8,0:0:0:0:
256,128,239085,1,0,0:0:0:0:
256,128,239185,1,8,0:0:0:0:
256,128,239285,1,8,0:0:0:0:
256,128,239385,1,0,0:0:0:0:
256,128,239451,1,0,0:0:0:0:
256,128,239518,1,0,0:0:0:0:
256,128,239585,1,0,0:0:0:0:
256,128,239685,1,0,0:0:0:0:
256,128,239785,1,8,0:0:0:0:
256,128,239851,1,8,0:0:0:0:
256,128,239918,1,8,0:0:0:0:
256,128,239985,1,0,0:0:0:0:
256,128,240085,1,0,0:0:0:0:
256,128,240185,1,8,0:0:0:0:
256,128,240285,1,0,0:0:0:0:
256,128,240385,1,8,0:0:0:0:
256,128,240485,1,8,0:0:0:0:
256,128,240585,1,0,0:0:0:0:
256,128,240685,1,0,0:0:0:0:
256,128,240785,1,0,0:0:0:0:
256,128,240885,1,0,0:0:0:0:
256,128,240985,1,8,0:0:0:0:
256,128,241085,5,0,0:0:0:0:
256,128,241185,1,0,0:0:0:0:
256,128,241285,1,8,0:0:0:0:
256,128,241385,1,0,0:0:0:0:
256,128,241485,1,0,0:0:0:0:
256,128,241585,1,8,0:0:0:0:
256,128,241685,1,8,0:0:0:0:
256,128,241785,1,0,0:0:0:0:
256,128,241885,1,0,0:0:0:0:
256,128,241985,1,0,0:0:0:0:
256,128,242085,1,8,0:0:0:0:
256,128,242185,1,0,0:0:0:0:
256,128,242285,1,0,0:0:0:0:
256,128,242385,1,8,0:0:0:0:
256,128,242485,1,0,0:0:0:0:
256,128,242585,1,8,0:0:0:0:
256,128,242685,1,0,0:0:0:0:
256,128,242785,1,0,0:0:0:0:
256,128,242885,1,8,0:0:0:0:
256,128,242985,1,0,0:0:0:0:
256,128,243085,1,8,0:0:0:0:
256,128,243185,1,8,0:0:0:0:
256,128,243285,1,0,0:0:0:0:
256,128,243385,1,8,0:0:0:0:
256,128,243485,1,8,0:0:0:0:
256,128,243585,1,0,0:0:0:0:
256,128,243685,1,8,0:0:0:0:
256,128,243785,1,0,0:0:0:0:
256,128,243885,1,0,0:0:0:0:
256,128,243985,1,8,0:0:0:0:
256,128,244085,1,8,0:0:0:0:
256,128,244185,1,0,0:0:0:0:
256,128,244285,1,0,0:0:0:0:
256,128,244385,1,0,0:0:0:0:
256,128,244485,1,8,0:0:0:0:
256,128,244585,1,0,0:0:0:0:
256,128,244685,1,0,0:0:0:0:
256,128,244785,1,8,0:0:0:0:
256,128,244885,1,8,0:0:0:0:
256,128,244985,1,0,0:0:0:0:
256,128,245085,1,8,0:0:0:0:
256,128,245185,1,8,0:0:0:0:
256,128,245285,1,8,0:0:0:0:
256,128,245385,1,8,0:0:0:0:
256,128,245451,1,8,0:0:0:0:
256,128,245518,1,8,0:0:0:0:
256,128,245585,1,8,0:0:0:0:
256,128,245651,1,8,0:0:0:0:
256,128,245718,1,8,0:0:0:0:
256,128,245785,1,0,0:0:0:0:
256,128,245985,1,4,0:0:0:0:
256,128,246185,1,4,0:0:0:0:
256,128,246385,1,12,0:0:0:0:
256,128,246585,1,12,0:0:0:0:
256,128,246785,1,4,0:0:0:0:
256,128,246985,1,12,0:0:0:0:
256,128,247385,1,4,0:0:0:0:
256,192,247485,12,0,253785,0:0:0:0:
