osu file format v14

[General]
AudioFilename: new BOIB.ogg
AudioLeadIn: 0
PreviewTime: 66585
Countdown: 0
SampleSet: Normal
StackLeniency: 0.7
Mode: 1
LetterboxInBreaks: 0
WidescreenStoryboard: 1

[Editor]
Bookmarks: 68596
DistanceSpacing: 1
BeatDivisor: 4
GridSize: 32
TimelineZoom: 1.5

[Metadata]
Title:Bring Our Ignition Back
TitleUnicode:Bring Our Ignition Back
Artist:Camellia
ArtistUnicode:かめりあ
Creator:Arrival
Version:Futsuu
Source:
Tags:voltage reignition dubcore heaxys electronic instrumental かめるかめりあ cametek kamelcamellia C.H.S Cutie & Headshaking Sounds comic market 95 comiket c95 MOTF-0009 Movement on the Floor
BeatmapID:2462235
BeatmapSetID:1133558

[Difficulty]
HPDrainRate:7
CircleSize:2
OverallDifficulty:4.5
ApproachRate:0
SliderMultiplier:1.4
SliderTickRate:1

[Events]
//Background and Video events
0,0,"bg.jpg",0,100
//Break Periods
2,132385,142785
//Storyboard Layer 0 (Background)
//Storyboard Layer 1 (Fail)
//Storyboard Layer 2 (Pass)
//Storyboard Layer 3 (Foreground)
//Storyboard Layer 4 (Overlay)
//Storyboard Sound Samples

[TimingPoints]
4185,400,4,1,0,70,1,0
30185,-98.8513473438643,4,1,0,80,0,0
30385,-97.7230528681716,4,1,0,80,0,0
30585,-96.6276934969562,4,1,0,80,0,0
30985,-95.5566172957477,4,1,0,80,0,0
31385,-92.4727205474385,4,1,0,80,0,0
31785,-91.4913083257091,4,1,0,80,0,0
31985,-90.5223137503395,4,1,0,80,0,0
32185,-89.5816536773269,4,1,0,80,0,0
32585,-86.8658790826963,4,1,0,80,0,0
32785,-85.999312005504,4,1,0,80,0,0
32985,-85.149863760218,4,1,0,80,0,0
33385,-84.3170320404722,4,1,0,80,0,0
33585,-83.4933622776989,4,1,0,80,0,0
33785,-82.6924667162821,4,1,0,80,0,0
34185,-81.906790072897,4,1,0,80,0,0
34585,-79.6305144131231,4,1,0,80,0,0
34985,-78.9016884961338,4,1,0,80,0,0
35185,-78.1799702916113,4,1,0,80,0,0
35385,-77.4773378786705,4,1,0,80,0,0
35785,-75.4375377187689,4,1,0,80,0,0
35985,-74.7831289261143,4,1,0,80,0,0
36185,-74.1399762752076,4,1,0,80,0,0
36585,-73.5023888276369,4,1,0,80,0,0
36985,-72.2700007227,4,1,0,80,0,0
37285,-71.6691750877947,4,1,0,80,0,0
37585,-71.0732054015636,4,1,0,80,0,0
37785,-70.4920344001128,4,1,0,80,0,0
38185,-69.92029086841,4,1,0,80,0,0
38585,-68.7994496044032,4,1,0,80,0,0
38885,-68.2547266398198,4,1,0,80,0,0
39185,-67.1862402579952,4,1,0,80,0,0
39385,-66.6666666666667,4,1,0,80,0,0
42585,-133.333333333333,4,1,0,80,0,0
61785,-127.665007021575,4,1,0,80,0,0
62185,-117.647058823529,4,1,0,80,0,0
62385,-113.207551441794,4,1,0,80,0,0
62585,-109.09090905124,4,1,0,80,0,0
62885,-105.263157894737,4,1,0,80,0,0
63185,-101.694918701523,4,1,0,80,0,0
63385,-98.360655415211,4,1,0,80,0,0
63785,-94.3396226415094,4,1,0,80,0,0
63985,-91.743119266055,4,1,0,80,0,0
64185,-89.2857142857143,4,1,0,80,0,0
64485,-86.9565217391304,4,1,0,80,0,0
64785,-84.0336134453781,4,1,0,80,0,0
64985,-80,4,1,0,80,0,0
68185,-66.6666666666667,4,1,0,90,0,1
80985,-86.9565217391304,4,1,0,90,0,0
81385,-83.3333333333333,4,1,0,90,0,1
81585,-82.4742268041237,4,1,0,90,0,1
81785,-81.6326530612245,4,1,0,90,0,1
82085,-80,4,1,0,90,0,1
82385,-78.4313725490196,4,1,0,90,0,1
82785,-77.6699029126214,4,1,0,90,0,1
83185,-75.4716981132076,4,1,0,90,0,1
83385,-74.6268656716418,4,1,0,90,0,1
83685,-73.394495412844,4,1,0,90,0,1
83985,-72.0720720720721,4,1,0,90,0,1
84385,-71.4285714285714,4,1,0,90,0,1
84785,-69.5652173913043,4,1,0,90,0,1
84985,-68.9655172413793,4,1,0,90,0,1
85285,-67.7966101694915,4,1,0,90,0,1
85585,-66.6666666666667,4,1,0,90,0,1
85785,-66.6666666666667,4,1,0,90,0,0
87385,-80,4,1,0,90,0,1
87785,-77.7786419849109,4,1,0,90,0,1
87985,-76.7106474378644,4,1,0,90,0,1
88185,-75.6773119418798,4,1,0,90,0,1
88585,-74.6658702307175,4,1,0,90,0,1
88985,-73.6865374696043,4,1,0,90,0,1
89185,-72.7272727272727,4,1,0,90,0,1
89385,-71.7926627898629,4,1,0,90,0,1
89585,-70.8867937903169,4,1,0,90,0,1
89985,-68.2920166632521,4,1,0,90,0,1
90185,-67.4718305107618,4,1,0,90,0,1
90585,-66.6666666666667,4,1,0,90,0,1
93785,-100,4,1,0,80,0,0
94185,-98.8513473438643,4,1,0,80,0,0
94385,-97.7230528681716,4,1,0,80,0,0
94585,-96.6276934969562,4,1,0,80,0,0
94985,-95.5566172957477,4,1,0,80,0,0
95385,-92.4727205474385,4,1,0,80,0,0
95785,-91.4913083257091,4,1,0,80,0,0
95985,-90.5223137503395,4,1,0,80,0,0
96185,-89.5816536773269,4,1,0,80,0,0
96585,-86.8658790826963,4,1,0,80,0,0
96785,-85.999312005504,4,1,0,80,0,0
96985,-85.149863760218,4,1,0,80,0,0
97385,-84.3170320404722,4,1,0,80,0,0
97585,-83.4933622776989,4,1,0,80,0,0
97785,-82.6924667162821,4,1,0,80,0,0
98185,-81.906790072897,4,1,0,80,0,0
98585,-79.6305144131231,4,1,0,80,0,0
98985,-78.9016884961338,4,1,0,80,0,0
99185,-78.1799702916113,4,1,0,80,0,0
99385,-77.4773378786705,4,1,0,80,0,0
99785,-75.4375377187689,4,1,0,80,0,0
99985,-74.7831289261143,4,1,0,80,0,0
100185,-74.1399762752076,4,1,0,80,0,0
100585,-73.5023888276369,4,1,0,80,0,0
100985,-72.2700007227,4,1,0,80,0,0
101285,-71.6691750877947,4,1,0,80,0,0
101585,-71.0732054015636,4,1,0,80,0,0
101785,-70.4920344001128,4,1,0,80,0,0
102185,-69.92029086841,4,1,0,80,0,0
102585,-68.7994496044032,4,1,0,80,0,0
102885,-68.2547266398198,4,1,0,80,0,0
103185,-67.1862402579952,4,1,0,80,0,0
103385,-66.6666666666667,4,1,0,80,0,0
106585,-44.4444444444445,4,1,0,80,0,1
108185,-133.333333333333,4,1,0,80,0,0
109785,-133.333333333333,4,1,0,90,0,1
112585,-133.333333333333,4,1,0,90,0,0
112985,-133.333333333333,4,1,0,90,0,1
118985,-133.333333333333,4,1,0,90,0,0
119385,-133.333333333333,4,1,0,90,0,1
124985,-133.333333333333,4,1,0,90,0,0
125785,-133.333333333333,4,1,0,90,0,1
126051,-130.616509926855,4,1,0,90,0,1
126185,-127.991808524254,4,1,0,90,0,1
126585,-123.076923076923,4,1,0,90,0,1
126985,-118.511495615075,4,1,0,90,0,1
127251,-116.360251338143,4,1,0,90,0,1
127385,-114.285714285714,4,1,0,90,0,1
127651,-108.471634667534,4,1,0,90,0,1
127785,-106.666666666667,4,1,0,90,0,1
128185,-104.92078480747,4,1,0,90,0,1
128585,-101.584721657863,4,1,0,90,0,1
128985,-100,4,1,0,90,0,1
130585,-100,4,1,0,90,0,0
133685,-111.111111111111,4,1,0,90,0,0
135185,-123.456790123457,4,1,0,90,0,0
136785,-136.986301369863,4,1,0,90,0,0
138185,-151.515151515152,4,1,0,90,0,0
139985,-166.666666666667,4,1,0,90,0,0
141385,-181.818181818182,4,1,0,90,0,0
143185,-192.307692307692,4,1,0,90,0,0
144585,-200,4,1,0,60,0,0
166985,-100,4,1,0,70,0,0
183385,-100,4,1,0,80,0,0
183785,-98.8513473438643,4,1,0,80,0,0
183985,-97.7230528681716,4,1,0,80,0,0
184185,-96.6276934969562,4,1,0,80,0,0
184585,-95.5566172957477,4,1,0,80,0,0
184985,-92.4727205474385,4,1,0,80,0,0
185385,-91.4913083257091,4,1,0,80,0,0
185585,-90.5223137503395,4,1,0,80,0,0
185785,-89.5816536773269,4,1,0,80,0,0
186185,-86.8658790826963,4,1,0,80,0,0
186385,-85.999312005504,4,1,0,80,0,0
186585,-85.149863760218,4,1,0,80,0,0
186985,-84.3170320404722,4,1,0,80,0,0
187185,-83.4933622776989,4,1,0,80,0,0
187385,-82.6924667162821,4,1,0,80,0,0
187785,-81.906790072897,4,1,0,80,0,0
188185,-79.6305144131231,4,1,0,80,0,0
188585,-78.9016884961338,4,1,0,80,0,0
188785,-78.1799702916113,4,1,0,80,0,0
188985,-77.4773378786705,4,1,0,80,0,0
189385,-75.4375377187689,4,1,0,80,0,0
189585,-74.7831289261143,4,1,0,80,0,0
189785,-74.1399762752076,4,1,0,80,0,0
190185,-73.5023888276369,4,1,0,80,0,0
190585,-72.2700007227,4,1,0,80,0,0
190885,-71.6691750877947,4,1,0,80,0,0
191185,-71.0732054015636,4,1,0,80,0,0
191385,-70.4920344001128,4,1,0,80,0,0
191785,-69.92029086841,4,1,0,80,0,0
192185,-68.7994496044032,4,1,0,80,0,0
192485,-68.2547266398198,4,1,0,80,0,0
192785,-67.1862402579952,4,1,0,80,0,0
192985,-66.6666666666667,4,1,0,80,0,0
196185,-66.6666666666667,4,1,0,90,0,1
208585,-66.6666666666667,4,1,0,90,0,0
208985,-66.6666666666667,4,1,0,90,0,1
221385,-66.6666666666667,4,1,0,100,0,0
221785,-66.6666666666667,4,1,0,100,0,1
233785,-66.6666666666667,4,1,0,100,0,0
234585,-66.6666666666667,4,1,0,100,0,1
239385,-66.6666666666667,4,1,0,100,0,0
240985,-80,4,1,0,100,0,1
241385,-78.1616382679381,4,1,0,100,0,1
241585,-77.2737810061046,4,1,0,100,0,1
241785,-76.4058679706601,4,1,0,100,0,1
242085,-74.7272455537289,4,1,0,100,0,1
242385,-73.915293074137,4,1,0,100,0,1
242585,-73.1207955542556,4,1,0,100,0,1
242985,-70.8315625442697,4,1,0,100,0,1
243185,-70.1016473887136,4,1,0,100,0,1
243385,-69.3866222592284,4,1,0,100,0,1
243685,-67.999456004352,4,1,0,100,0,1
243985,-67.3264660337979,4,1,0,100,0,1
244185,-66.6666666666667,4,1,0,100,0,1
247385,-66.6666666666667,4,1,0,100,0,0
247485,-66.6666666666667,4,1,0,90,0,0
248985,-80,4,1,0,80,0,0
250585,-100,4,1,0,70,0,0
252185,-133.333333333333,4,1,0,60,0,0
253785,-200,4,1,0,50,0,0

[HitObjects]
256,192,985,12,0,3785,0:0:0:0:
256,128,4185,5,4,0:0:0:0:
256,128,4985,2,0,L|480:128,1,210
256,128,5785,1,0,0:0:0:0:
256,128,6585,2,0,L|480:128,1,210
256,128,7385,1,0,0:0:0:0:
256,128,8185,2,0,L|480:128,1,210
256,128,8985,1,0,0:0:0:0:
256,128,9785,1,0,0:0:0:0:
256,128,10185,1,0,0:0:0:0:
256,128,10585,1,0,0:0:0:0:
256,128,11385,2,0,L|480:128,1,210
256,128,12185,1,0,0:0:0:0:
256,128,12985,2,0,L|480:128,1,210
256,128,13785,1,0,0:0:0:0:
256,128,14585,2,0,L|480:128,1,210
256,128,15385,1,0,0:0:0:0:
256,128,15585,1,8,0:0:0:0:
256,128,15985,1,8,0:0:0:0:
256,128,16185,1,0,0:0:0:0:
256,128,16385,1,0,0:0:0:0:
256,128,16585,1,8,0:0:0:0:
256,128,16985,1,4,0:0:0:0:
256,128,17385,1,8,0:0:0:0:
256,128,18185,1,8,0:0:0:0:
256,128,18985,1,8,0:0:0:0:
256,128,19585,1,8,0:0:0:0:
256,128,19785,1,8,0:0:0:0:
256,128,20185,1,0,0:0:0:0:
256,128,20585,1,8,0:0:0:0:
256,128,21385,1,8,0:0:0:0:
256,128,22185,1,8,0:0:0:0:
256,128,22485,1,8,0:0:0:0:
256,128,22785,1,0,0:0:0:0:
256,128,22985,1,8,0:0:0:0:
256,128,23385,1,4,0:0:0:0:
256,128,23785,1,8,0:0:0:0:
256,128,24585,1,8,0:0:0:0:
256,128,25385,1,8,0:0:0:0:
256,128,25985,1,8,0:0:0:0:
256,128,26185,1,8,0:0:0:0:
256,128,26585,1,0,0:0:0:0:
256,128,26985,1,8,0:0:0:0:
256,128,27785,1,8,0:0:0:0:
256,128,28185,1,0,0:0:0:0:
256,128,28385,1,0,0:0:0:0:
256,128,28585,1,8,0:0:0:0:
256,128,28985,1,0,0:0:0:0:
256,128,29385,1,8,0:0:0:0:
256,128,29585,1,8,0:0:0:0:
256,128,29785,1,4,0:0:0:0:
256,128,30185,5,8,0:0:0:0:
256,128,30385,1,0,0:0:0:0:
256,128,30585,1,0,0:0:0:0:
256,128,30985,1,8,0:0:0:0:
256,128,31385,1,0,0:0:0:0:
256,128,31785,1,8,0:0:0:0:
256,128,31985,1,0,0:0:0:0:
256,128,32185,1,8,0:0:0:0:
256,128,32585,1,8,0:0:0:0:
256,128,32785,1,8,0:0:0:0:
256,128,32985,1,0,0:0:0:0:
256,128,33385,1,8,0:0:0:0:
256,128,33585,1,0,0:0:0:0:
256,128,33785,1,0,0:0:0:0:
256,128,34185,1,8,0:0:0:0:
256,128,34585,1,0,0:0:0:0:
256,128,34985,1,8,0:0:0:0:
256,128,35185,1,8,0:0:0:0:
256,128,35385,1,8,0:0:0:0:
256,128,35785,1,8,0:0:0:0:
256,128,35985,1,8,0:0:0:0:
256,128,36185,1,4,0:0:0:0:
256,128,36585,1,8,0:0:0:0:
256,128,36985,1,8,0:0:0:0:
256,128,37285,1,8,0:0:0:0:
256,128,37585,1,8,0:0:0:0:
256,128,37785,1,0,0:0:0:0:
256,128,38185,1,8,0:0:0:0:
256,128,38585,1,8,0:0:0:0:
256,128,38885,1,8,0:0:0:0:
256,128,39185,1,8,0:0:0:0:
256,128,39385,2,0,L|352:130,16,52.5000020027161
256,128,42585,1,4,0:0:0:0:
256,128,42985,1,0,0:0:0:0:
256,128,43185,1,8,0:0:0:0:
256,128,43385,1,0,0:0:0:0:
256,128,43885,1,0,0:0:0:0:
256,128,44185,1,0,0:0:0:0:
256,128,44585,1,8,0:0:0:0:
256,128,44985,1,0,0:0:0:0:
256,128,45285,1,8,0:0:0:0:
256,128,45485,1,8,0:0:0:0:
256,128,45785,1,0,0:0:0:0:
256,128,46185,1,0,0:0:0:0:
256,128,46385,1,8,0:0:0:0:
256,128,46585,1,0,0:0:0:0:
256,128,47085,1,0,0:0:0:0:
256,128,47385,1,0,0:0:0:0:
256,128,47785,1,8,0:0:0:0:
256,128,48185,1,4,0:0:0:0:
256,128,48985,1,4,0:0:0:0:
256,128,49385,1,0,0:0:0:0:
256,128,49585,1,8,0:0:0:0:
256,128,49785,1,0,0:0:0:0:
256,128,50285,1,8,0:0:0:0:
256,128,50585,1,0,0:0:0:0:
256,128,50985,1,8,0:0:0:0:
256,128,51385,1,0,0:0:0:0:
256,128,51685,1,8,0:0:0:0:
256,128,51885,1,8,0:0:0:0:
256,128,52185,1,0,0:0:0:0:
256,128,52585,1,0,0:0:0:0:
256,128,52785,1,8,0:0:0:0:
256,128,52985,1,0,0:0:0:0:
256,128,53385,1,8,0:0:0:0:
256,128,53585,1,8,0:0:0:0:
256,128,53785,2,0,B|486:130,1,210.000008010865
256,128,55385,1,4,0:0:0:0:
256,128,55785,1,0,0:0:0:0:
256,128,55985,1,8,0:0:0:0:
256,128,56185,1,0,0:0:0:0:
256,128,56485,1,8,0:0:0:0:
256,128,56685,1,0,0:0:0:0:
256,128,56985,1,0,0:0:0:0:
256,128,57385,1,8,0:0:0:0:
256,128,57785,1,0,0:0:0:0:
256,128,58285,1,8,0:0:0:0:
256,128,58585,1,0,0:0:0:0:
256,128,58985,1,0,0:0:0:0:
256,128,59185,1,8,0:0:0:0:
256,128,59385,1,0,0:0:0:0:
256,128,59685,1,8,0:0:0:0:
256,128,59885,1,0,0:0:0:0:
256,128,60185,1,0,0:0:0:0:
256,128,60585,1,8,0:0:0:0:
256,128,61385,1,12,0:0:0:0:
256,128,61785,5,4,0:0:0:0:
256,128,62185,1,0,0:0:0:0:
256,128,62385,1,8,0:0:0:0:
256,128,62585,1,0,0:0:0:0:
256,128,62885,1,8,0:0:0:0:
256,128,63185,1,8,0:0:0:0:
256,128,63385,1,0,0:0:0:0:
256,128,63785,1,0,0:0:0:0:
256,128,63985,1,8,0:0:0:0:
256,128,64185,1,8,0:0:0:0:
256,128,64485,1,8,0:0:0:0:
256,128,64785,1,8,0:0:0:0:
256,128,64985,2,0,L|378:129,8,87.5
256,128,68185,1,4,0:0:0:0:
256,128,68385,1,8,0:0:0:0:
256,128,68585,1,0,0:0:0:0:
256,128,68985,1,0,0:0:0:0:
256,128,69285,1,8,0:0:0:0:
256,128,69585,1,0,0:0:0:0:
256,128,69985,1,8,0:0:0:0:
256,128,70385,1,8,0:0:0:0:
256,128,70585,1,0,0:0:0:0:
256,128,70885,1,0,0:0:0:0:
256,128,71185,1,8,0:0:0:0:
256,128,71585,1,8,0:0:0:0:
256,128,71985,1,0,0:0:0:0:
256,128,72185,1,0,0:0:0:0:
256,128,72485,1,8,0:0:0:0:
256,128,72785,1,0,0:0:0:0:
256,128,73585,1,8,0:0:0:0:
256,128,73785,1,8,0:0:0:0:
256,128,73985,1,8,0:0:0:0:
256,128,74185,1,0,0:0:0:0:
256,128,74585,1,12,0:0:0:0:
256,128,74785,1,0,0:0:0:0:
256,128,74985,1,0,0:0:0:0:
256,128,75385,1,0,0:0:0:0:
256,128,75685,1,8,0:0:0:0:
256,128,75985,1,0,0:0:0:0:
256,128,76385,1,8,0:0:0:0:
256,128,76785,1,8,0:0:0:0:
256,128,76985,1,0,0:0:0:0:
256,128,77285,1,0,0:0:0:0:
256,128,77585,1,8,0:0:0:0:
256,128,77785,1,0,0:0:0:0:
256,128,78185,1,0,0:0:0:0:
256,128,78385,1,8,0:0:0:0:
256,128,78785,1,8,0:0:0:0:
256,128,78985,1,8,0:0:0:0:
256,128,79185,1,0,0:0:0:0:
256,128,79385,2,0,L|384:128,4,105.000004005432
256,128,80985,1,0,0:0:0:0:
256,128,81385,5,12,0:0:0:0:
256,128,81585,1,0,0:0:0:0:
256,128,81785,1,8,0:0:0:0:
256,128,82085,1,8,0:0:0:0:
256,128,82385,1,0,0:0:0:0:
256,128,82785,1,8,0:0:0:0:
256,128,83185,1,0,0:0:0:0:
256,128,83385,1,0,0:0:0:0:
256,128,83685,1,8,0:0:0:0:
256,128,83985,1,0,0:0:0:0:
256,128,84385,1,0,0:0:0:0:
256,128,84785,1,8,0:0:0:0:
256,128,84985,1,0,0:0:0:0:
256,128,85285,1,0,0:0:0:0:
256,128,85585,1,8,0:0:0:0:
256,128,85785,2,0,L|403:126,6,105.000004005432
256,128,87385,5,0,0:0:0:0:
256,128,87785,1,12,0:0:0:0:
256,128,87985,1,0,0:0:0:0:
256,128,88385,1,0,0:0:0:0:
256,128,88585,1,12,0:0:0:0:
256,128,88985,1,0,0:0:0:0:
256,128,89185,1,0,0:0:0:0:
256,128,89385,1,12,0:0:0:0:
256,128,89585,1,0,0:0:0:0:
256,128,89985,1,0,0:0:0:0:
256,128,90185,1,12,0:0:0:0:
256,128,90585,2,0,L|363:126,8,105.000004005432
256,128,93785,1,4,0:0:0:0:
256,128,94185,5,8,0:0:0:0:
256,128,94385,1,0,0:0:0:0:
256,128,94585,1,0,0:0:0:0:
256,128,94985,1,8,0:0:0:0:
256,128,95385,1,0,0:0:0:0:
256,128,95785,1,8,0:0:0:0:
256,128,95985,1,0,0:0:0:0:
256,128,96185,1,8,0:0:0:0:
256,128,96585,1,8,0:0:0:0:
256,128,96785,1,8,0:0:0:0:
256,128,96985,1,0,0:0:0:0:
256,128,97385,1,8,0:0:0:0:
256,128,97585,1,0,0:0:0:0:
256,128,97785,1,0,0:0:0:0:
256,128,98185,1,8,0:0:0:0:
256,128,98585,1,0,0:0:0:0:
256,128,98985,1,8,0:0:0:0:
256,128,99185,1,8,0:0:0:0:
256,128,99385,1,8,0:0:0:0:
256,128,99785,1,8,0:0:0:0:
256,128,99985,1,8,0:0:0:0:
256,128,100185,1,4,0:0:0:0:
256,128,100585,1,8,0:0:0:0:
256,128,100985,1,8,0:0:0:0:
256,128,101285,1,8,0:0:0:0:
256,128,101585,1,8,0:0:0:0:
256,128,101785,5,0,0:0:0:0:
256,128,102185,1,8,0:0:0:0:
256,128,102585,1,8,0:0:0:0:
256,128,102885,1,8,0:0:0:0:
256,128,103185,1,8,0:0:0:0:
256,192,103385,12,0,104985,0:0:0:0:
256,128,105785,5,8,0:0:0:0:
256,128,106051,1,8,0:0:0:0:
256,128,106185,1,8,0:0:0:0:
256,128,106585,1,4,0:0:0:0:
256,128,108185,1,0,0:0:0:0:
256,128,108585,1,0,0:0:0:0:
256,128,108985,1,8,0:0:0:0:
256,128,109785,1,4,0:0:0:0:
256,128,110185,1,8,0:0:0:0:
256,128,110451,1,8,0:0:0:0:
256,128,110585,1,8,0:0:0:0:
256,128,110985,1,0,0:0:0:0:
256,128,111385,1,0,0:0:0:0:
256,128,111785,1,8,0:0:0:0:
256,128,112051,1,8,0:0:0:0:
256,128,112185,1,0,0:0:0:0:
256,128,112585,1,12,0:0:0:0:
256,128,112985,1,4,0:0:0:0:
256,128,113385,1,8,0:0:0:0:
256,128,113651,1,8,0:0:0:0:
256,128,113785,1,8,0:0:0:0:
256,128,114185,1,0,0:0:0:0:
256,128,114585,1,0,0:0:0:0:
256,128,114985,1,8,0:0:0:0:
256,128,115251,1,8,0:0:0:0:
256,128,115385,1,0,0:0:0:0:
256,128,115785,1,8,0:0:0:0:
256,128,116051,1,8,0:0:0:0:
256,128,116185,1,8,0:0:0:0:
256,128,116585,1,0,0:0:0:0:
256,128,116985,1,8,0:0:0:0:
256,128,117385,1,0,0:0:0:0:
256,128,117785,1,0,0:0:0:0:
256,128,118051,1,8,0:0:0:0:
256,128,118185,1,8,0:0:0:0:
256,128,118585,1,0,0:0:0:0:
256,128,118985,1,8,0:0:0:0:
256,128,119385,1,4,0:0:0:0:
256,128,119651,1,0,0:0:0:0:
256,128,119785,1,8,0:0:0:0:
256,128,120185,1,0,0:0:0:0:
256,128,120585,1,8,0:0:0:0:
256,128,120985,1,0,0:0:0:0:
256,128,121251,1,8,0:0:0:0:
256,128,121385,1,8,0:0:0:0:
256,128,121785,1,0,0:0:0:0:
256,128,122185,1,8,0:0:0:0:
256,128,122585,1,0,0:0:0:0:
256,128,122851,1,0,0:0:0:0:
256,128,122985,1,8,0:0:0:0:
256,128,123385,1,0,0:0:0:0:
256,128,123785,1,8,0:0:0:0:
256,128,124185,1,0,0:0:0:0:
256,128,124451,1,8,0:0:0:0:
256,128,124585,1,8,0:0:0:0:
256,128,124985,1,0,0:0:0:0:
256,128,125785,1,4,0:0:0:0:
256,128,126051,5,8,0:0:0:0:
256,128,126185,1,8,0:0:0:0:
256,128,126585,1,0,0:0:0:0:
256,128,126985,1,8,0:0:0:0:
256,128,127251,1,8,0:0:0:0:
256,128,127385,1,0,0:0:0:0:
256,128,127651,1,8,0:0:0:0:
256,128,127785,1,8,0:0:0:0:
256,128,128185,1,0,0:0:0:0:
256,128,128585,1,8,0:0:0:0:
256,192,128985,12,0,130585,0:0:0:0:
256,128,131785,5,8,0:0:0:0:
256,128,132185,1,4,0:0:0:0:
256,128,144585,5,8,0:0:0:0:
256,128,144985,1,8,0:0:0:0:
256,128,146051,1,8,0:0:0:0:
256,128,146318,1,8,0:0:0:0:
256,128,146585,1,8,0:0:0:0:
256,128,147651,1,8,0:0:0:0:
256,128,147918,1,8,0:0:0:0:
256,128,148185,1,8,0:0:0:0:
256,128,149185,1,8,0:0:0:0:
256,128,149585,1,8,0:0:0:0:
256,128,149785,1,8,0:0:0:0:
256,128,150185,1,8,0:0:0:0:
256,128,150585,1,8,0:0:0:0:
256,128,150985,1,8,0:0:0:0:
256,128,151385,1,8,0:0:0:0:
256,128,152451,1,8,0:0:0:0:
256,128,152718,1,8,0:0:0:0:
256,128,152985,1,8,0:0:0:0:
256,128,154051,1,8,0:0:0:0:
256,128,154318,1,8,0:0:0:0:
256,128,154585,1,8,0:0:0:0:
256,128,155585,1,8,0:0:0:0:
256,128,155785,1,8,0:0:0:0:
256,128,155985,1,8,0:0:0:0:
256,128,156385,1,8,0:0:0:0:
256,128,156785,1,8,0:0:0:0:
256,128,157185,1,8,0:0:0:0:
256,128,157385,1,8,0:0:0:0:
256,128,157785,1,8,0:0:0:0:
256,128,158851,1,8,0:0:0:0:
256,128,159118,1,8,0:0:0:0:
256,128,159385,1,8,0:0:0:0:
256,128,160451,1,8,0:0:0:0:
256,128,160718,1,8,0:0:0:0:
256,128,160985,1,8,0:0:0:0:
256,128,161985,1,8,0:0:0:0:
256,128,162385,1,8,0:0:0:0:
256,128,162585,1,8,0:0:0:0:
256,128,162985,1,8,0:0:0:0:
256,128,163385,1,8,0:0:0:0:
256,128,163785,1,8,0:0:0:0:
256,128,164185,1,8,0:0:0:0:
256,192,164385,12,0,166985,0:0:0:0:
256,128,167385,5,0,0:0:0:0:
256,128,167585,1,0,0:0:0:0:
256,128,167985,1,8,0:0:0:0:
256,128,168185,1,0,0:0:0:0:
256,128,168385,1,0,0:0:0:0:
256,128,168585,1,8,0:0:0:0:
256,128,168985,1,0,0:0:0:0:
256,128,169385,1,8,0:0:0:0:
256,128,169585,1,0,0:0:0:0:
256,128,169985,1,0,0:0:0:0:
256,128,170185,1,8,0:0:0:0:
256,128,170585,1,4,0:0:0:0:
256,128,170985,1,8,0:0:0:0:
256,128,171785,1,8,0:0:0:0:
256,128,172585,1,8,0:0:0:0:
256,128,173185,1,8,0:0:0:0:
256,128,173385,1,8,0:0:0:0:
256,128,173785,1,0,0:0:0:0:
256,128,174185,1,8,0:0:0:0:
256,128,174985,1,8,0:0:0:0:
256,128,175385,1,0,0:0:0:0:
256,128,175785,1,8,0:0:0:0:
256,128,175985,1,0,0:0:0:0:
256,128,176385,1,0,0:0:0:0:
256,128,176585,1,8,0:0:0:0:
256,128,176785,1,8,0:0:0:0:
256,128,176985,1,4,0:0:0:0:
256,128,177385,1,8,0:0:0:0:
256,128,178185,1,8,0:0:0:0:
256,128,178985,1,8,0:0:0:0:
256,128,179585,1,8,0:0:0:0:
256,128,179785,1,8,0:0:0:0:
256,128,180185,2,0,L|352:128,6,70
256,128,181785,1,0,0:0:0:0:
256,128,181985,1,0,0:0:0:0:
256,128,182185,1,8,0:0:0:0:
256,128,182585,1,0,0:0:0:0:
256,128,182785,1,8,0:0:0:0:
256,128,182985,1,8,0:0:0:0:
256,128,183385,1,4,0:0:0:0:
256,128,183785,5,8,0:0:0:0:
256,128,183985,1,0,0:0:0:0:
256,128,184185,1,0,0:0:0:0:
256,128,184585,1,8,0:0:0:0:
256,128,184985,1,0,0:0:0:0:
256,128,185385,1,8,0:0:0:0:
256,128,185585,1,0,0:0:0:0:
256,128,185785,1,8,0:0:0:0:
256,128,186185,1,8,0:0:0:0:
256,128,186385,1,8,0:0:0:0:
256,128,186585,1,0,0:0:0:0:
256,128,186985,1,8,0:0:0:0:
256,128,187185,1,0,0:0:0:0:
256,128,187385,1,0,0:0:0:0:
256,128,187785,1,8,0:0:0:0:
256,128,188185,1,0,0:0:0:0:
256,128,188585,1,8,0:0:0:0:
256,128,188785,1,8,0:0:0:0:
256,128,188985,1,8,0:0:0:0:
256,128,189385,1,8,0:0:0:0:
256,128,189585,1,8,0:0:0:0:
256,128,189785,1,4,0:0:0:0:
256,128,190185,1,8,0:0:0:0:
256,128,190585,1,8,0:0:0:0:
256,128,190885,1,8,0:0:0:0:
256,128,191185,1,8,0:0:0:0:
256,128,191385,5,0,0:0:0:0:
256,128,191785,1,8,0:0:0:0:
256,128,192185,1,8,0:0:0:0:
256,128,192485,1,8,0:0:0:0:
256,128,192785,1,8,0:0:0:0:
256,128,192985,2,0,L|308:127,16,52.5000020027161
256,128,196185,1,12,0:0:0:0:
256,128,196585,1,0,0:0:0:0:
256,128,196885,1,8,0:0:0:0:
256,128,197085,1,0,0:0:0:0:
256,128,197385,1,8,0:0:0:0:
256,128,197585,1,0,0:0:0:0:
256,128,197785,1,0,0:0:0:0:
256,128,198185,1,8,0:0:0:0:
256,128,198485,1,0,0:0:0:0:
256,128,198685,1,8,0:0:0:0:
256,128,198985,1,8,0:0:0:0:
256,128,199385,1,0,0:0:0:0:
256,128,199785,1,0,0:0:0:0:
256,128,200085,1,8,0:0:0:0:
256,128,200285,1,0,0:0:0:0:
256,128,200585,1,0,0:0:0:0:
256,128,200785,1,0,0:0:0:0:
256,128,200985,1,8,0:0:0:0:
256,128,201385,1,0,0:0:0:0:
256,128,201685,1,8,0:0:0:0:
256,128,201885,1,0,0:0:0:0:
256,128,202185,1,8,0:0:0:0:
256,128,202585,1,4,0:0:0:0:
256,128,202985,1,0,0:0:0:0:
256,128,203285,1,8,0:0:0:0:
256,128,203485,1,0,0:0:0:0:
256,128,203785,1,8,0:0:0:0:
256,128,203985,1,0,0:0:0:0:
256,128,204185,1,0,0:0:0:0:
256,128,204585,1,8,0:0:0:0:
256,128,204885,1,8,0:0:0:0:
256,128,205085,1,0,0:0:0:0:
256,128,205385,1,8,0:0:0:0:
256,128,205785,1,0,0:0:0:0:
256,128,206185,1,8,0:0:0:0:
256,128,206385,1,0,0:0:0:0:
256,128,206785,1,0,0:0:0:0:
256,128,206985,1,8,0:0:0:0:
256,128,207185,1,8,0:0:0:0:
256,128,207385,1,0,0:0:0:0:
256,128,207785,1,0,0:0:0:0:
256,128,208185,1,8,0:0:0:0:
256,128,208985,1,4,0:0:0:0:
256,128,209385,1,0,0:0:0:0:
256,128,209685,1,8,0:0:0:0:
256,128,209885,1,0,0:0:0:0:
256,128,210185,1,8,0:0:0:0:
256,128,210385,1,8,0:0:0:0:
256,128,210585,1,0,0:0:0:0:
256,128,210985,1,8,0:0:0:0:
256,128,211285,1,8,0:0:0:0:
256,128,211485,1,0,0:0:0:0:
256,128,211785,1,8,0:0:0:0:
256,128,212185,1,0,0:0:0:0:
256,128,212585,1,0,0:0:0:0:
256,128,212885,1,8,0:0:0:0:
256,128,213085,1,0,0:0:0:0:
256,128,213385,1,0,0:0:0:0:
256,128,213585,1,8,0:0:0:0:
256,128,213785,1,0,0:0:0:0:
256,128,214185,1,8,0:0:0:0:
256,128,214585,1,8,0:0:0:0:
256,128,214785,1,8,0:0:0:0:
256,128,214985,1,0,0:0:0:0:
256,128,215385,1,8,0:0:0:0:
256,128,215785,5,4,0:0:0:0:
256,128,216085,1,8,0:0:0:0:
256,128,216285,1,0,0:0:0:0:
256,128,216585,1,8,0:0:0:0:
256,128,216785,1,8,0:0:0:0:
256,128,216985,1,0,0:0:0:0:
256,128,217385,1,8,0:0:0:0:
256,128,217685,1,8,0:0:0:0:
256,128,217885,1,0,0:0:0:0:
256,128,218185,1,8,0:0:0:0:
256,128,218585,2,0,L|371:129,8,105.000004005432
256,128,221385,1,8,0:0:0:0:
256,128,221785,1,4,0:0:0:0:
256,128,222185,1,0,0:0:0:0:
256,128,222485,1,8,0:0:0:0:
256,128,222685,1,0,0:0:0:0:
256,128,222985,1,8,0:0:0:0:
256,128,223185,1,8,0:0:0:0:
256,128,223385,1,0,0:0:0:0:
256,128,223785,1,8,0:0:0:0:
256,128,224085,1,8,0:0:0:0:
256,128,224285,1,0,0:0:0:0:
256,128,224585,1,8,0:0:0:0:
256,128,224985,1,0,0:0:0:0:
256,128,225385,1,0,0:0:0:0:
256,128,225685,1,8,0:0:0:0:
256,128,225885,1,0,0:0:0:0:
256,128,226185,1,0,0:0:0:0:
256,128,226385,1,8,0:0:0:0:
256,128,226585,1,0,0:0:0:0:
256,128,226985,1,8,0:0:0:0:
256,128,227385,1,8,0:0:0:0:
256,128,227685,1,12,0:0:0:0:
256,128,228185,1,4,0:0:0:0:
256,128,228585,1,0,0:0:0:0:
256,128,228885,1,8,0:0:0:0:
256,128,229085,1,0,0:0:0:0:
256,128,229385,1,8,0:0:0:0:
256,128,229585,1,0,0:0:0:0:
256,128,229785,1,8,0:0:0:0:
256,128,230185,1,0,0:0:0:0:
256,128,230485,1,0,0:0:0:0:
256,128,230685,1,8,0:0:0:0:
256,128,230985,1,0,0:0:0:0:
256,128,231385,1,4,0:0:0:0:
256,128,231585,1,4,0:0:0:0:
256,128,232185,1,4,0:0:0:0:
256,128,232585,1,12,0:0:0:0:
256,128,232985,1,0,0:0:0:0:
256,128,234185,1,8,0:0:0:0:
256,128,234385,1,8,0:0:0:0:
256,128,234585,1,4,0:0:0:0:
256,128,234985,1,0,0:0:0:0:
256,128,235285,1,8,0:0:0:0:
256,128,235485,1,0,0:0:0:0:
256,128,235785,1,8,0:0:0:0:
256,128,235985,1,0,0:0:0:0:
256,128,236185,1,0,0:0:0:0:
256,128,236385,1,0,0:0:0:0:
256,128,236585,1,8,0:0:0:0:
256,128,236885,1,8,0:0:0:0:
256,128,237085,1,0,0:0:0:0:
256,128,237385,1,8,0:0:0:0:
256,128,237585,1,0,0:0:0:0:
256,128,237785,1,0,0:0:0:0:
256,128,238185,1,8,0:0:0:0:
256,128,238485,1,8,0:0:0:0:
256,128,238685,1,0,0:0:0:0:
256,128,238985,1,8,0:0:0:0:
256,128,239185,1,8,0:0:0:0:
256,128,239385,2,0,L|378:125,6,105.000004005432
256,128,240985,1,4,0:0:0:0:
256,128,241385,1,0,0:0:0:0:
256,128,241585,1,8,0:0:0:0:
256,128,241785,1,0,0:0:0:0:
256,128,242085,1,8,0:0:0:0:
256,128,242385,1,8,0:0:0:0:
256,128,242585,1,0,0:0:0:0:
256,128,242985,1,8,0:0:0:0:
256,128,243185,1,0,0:0:0:0:
256,128,243385,1,8,0:0:0:0:
256,128,243685,1,8,0:0:0:0:
256,128,243985,1,8,0:0:0:0:
256,128,244185,2,8,L|368:126,8,105.000004005432
256,128,245985,1,4,0:0:0:0:
256,128,246185,1,4,0:0:0:0:
256,128,246585,1,12,0:0:0:0:
256,128,246785,1,12,0:0:0:0:
256,128,246985,1,12,0:0:0:0:
256,128,247385,1,4,0:0:0:0:
256,192,247585,12,0,253785,0:0:0:0:
