osu file format v14

[General]
AudioFilename: audio.mp3
AudioLeadIn: 0
PreviewTime: 70361
Countdown: 0
SampleSet: Normal
StackLeniency: 0.7
Mode: 1
LetterboxInBreaks: 0
WidescreenStoryboard: 0

[Editor]
Bookmarks: 1636,19089,53997,71452,106361,123815,141270,178361,213270,230724,248179,265634,283088,304906
DistanceSpacing: 0.5
BeatDivisor: 3
GridSize: 32
TimelineZoom: 3.399999

[Metadata]
Title:Break The Silence
TitleUnicode:Break The Silence
Artist:Camellia
ArtistUnicode:Camellia
Creator:Ulqui
Version:Fractured
Source:
Tags:
BeatmapID:989859
BeatmapSetID:462222

[Difficulty]
HPDrainRate:7
CircleSize:5
OverallDifficulty:6
ApproachRate:5
SliderMultiplier:1.4
SliderTickRate:1

[Events]
//Background and Video events
0,0,"Konachan.com - 268292 sample.jpg",0,0
//Break Periods
//Storyboard Layer 0 (Background)
//Storyboard Layer 1 (Fail)
//Storyboard Layer 2 (Pass)
//Storyboard Layer 3 (Foreground)
//Storyboard Sound Samples

[TimingPoints]
1470,272.727272727273,4,1,0,100,1,0
1470,-166.666666666667,4,1,0,10,0,0
18242,-166.666666666667,4,1,0,10,0,0
18379,-161.290322580645,4,1,0,10,0,0
18515,-156.25,4,1,0,10,0,0
18651,-151.515151515152,4,1,0,10,0,0
18788,-147.058823529412,4,1,0,10,0,0
18924,-142.857142857143,4,1,0,30,0,0
35697,-138.236107271219,4,1,0,30,0,0
35833,-135.369287416071,4,1,0,30,0,0
35970,-132.618959206408,4,1,0,30,0,0
36106,-129.978163668504,4,1,0,30,0,0
36242,-127.440485293368,4,1,0,30,0,0
36379,-125,4,1,0,30,0,0
53288,-142.857142857143,4,1,0,30,0,0
53833,-154.589371980676,4,1,0,30,0,0
54106,-153.661464585834,4,1,0,31,0,0
54225,-152.744630071599,4,1,0,31,0,0
54362,-151.838671411625,4,1,0,32,0,0
54634,-150.943396226415,4,1,0,32,0,0
54771,-150.058616647128,4,1,0,33,0,0
54907,-149.184149184149,4,1,0,34,0,0
55043,-148.319814600232,4,1,0,34,0,0
55112,-147.465437788018,4,1,0,35,0,0
55180,-146.620847651775,4,1,0,35,0,0
55248,-145.785876993166,4,1,0,36,0,0
55316,-144.960362400906,4,1,0,37,0,0
55452,-144.144144144144,4,1,0,37,0,0
55725,-143.337066069429,4,1,0,38,0,0
55862,-142.538975501114,4,1,0,38,0,0
55998,-141.749723145072,4,1,0,39,0,0
56271,-140.969162995595,4,1,0,40,0,0
56407,-140.197152245345,4,1,0,40,0,0
56543,-139.433551198257,4,1,0,41,0,0
56816,-138.678223185265,4,1,0,41,0,0
56952,-137.931034482759,4,1,0,42,0,0
57089,-137.191854233655,4,1,0,43,0,0
57225,-136.460554371002,4,1,0,43,0,0
57362,-135.737009544008,4,1,0,44,0,0
57498,-135.021097046414,4,1,0,44,0,0
57634,-134.312696747114,4,1,0,45,0,0
57907,-133.611691022965,4,1,0,46,0,0
58043,-132.917964693666,4,1,0,46,0,0
58180,-132.231404958678,4,1,0,47,0,0
58452,-131.551901336074,4,1,0,48,0,0
58589,-130.879345603272,4,1,0,48,0,0
58725,-130.213631739573,4,1,0,49,0,0
58998,-129.554655870445,4,1,0,49,0,0
59134,-128.902316213494,4,1,0,50,0,0
59271,-128.256513026052,4,1,0,51,0,0
59407,-127.617148554337,4,1,0,51,0,0
59475,-126.984126984127,4,1,0,52,0,0
59543,-126.357354392892,4,1,0,52,0,0
59612,-125.73673870334,4,1,0,53,0,0
59680,-125.122189638319,4,1,0,54,0,0
59816,-124.513618677043,4,1,0,54,0,0
60089,-123.910939012585,4,1,0,55,0,0
60225,-123.314065510597,4,1,0,55,0,0
60362,-122.722914669223,4,1,0,56,0,0
60634,-122.137404580153,4,1,0,57,0,0
60702,-121.557454890788,4,1,0,57,0,0
60771,-120.982986767486,4,1,0,58,0,0
60907,-120.413922859831,4,1,0,58,0,0
61180,-119.850187265918,4,1,0,59,0,0
61316,-119.291705498602,4,1,0,60,0,0
61452,-118.73840445269,4,1,0,60,0,0
61589,-118.190212373038,4,1,0,61,0,0
61879,-117.647058823529,4,1,0,61,0,0
61998,-117.108874656908,4,1,0,62,0,0
62134,-116.575591985428,4,1,0,63,0,0
62271,-116.047144152312,4,1,0,63,0,0
62407,-115.523465703971,4,1,0,64,0,0
62543,-115.004492362983,4,1,0,64,0,0
62816,-114.490161001789,4,1,0,65,0,0
62884,-113.980409617097,4,1,0,66,0,0
62952,-113.475177304965,4,1,0,66,0,0
63089,-112.97440423654,4,1,0,67,0,0
63362,-112.478031634446,4,1,0,67,0,0
63498,-111.986001749781,4,1,0,68,0,0
63634,-111.498257839721,4,1,0,69,0,0
63771,-111.014744145707,4,1,0,69,0,0
63839,-110.535405872193,4,1,0,70,0,0
63907,-110.06018916595,4,1,0,70,0,0
63975,-109.58904109589,4,1,0,71,0,0
64043,-109.121909633419,4,1,0,72,0,0
64180,-108.658743633277,4,1,0,72,0,0
64452,-108.199492814877,4,1,0,73,0,0
64589,-107.744107744108,4,1,0,73,0,0
64725,-107.292539815591,4,1,0,74,0,0
64998,-106.844741235392,4,1,0,75,0,0
65134,-106.400665004156,4,1,0,75,0,0
65271,-105.960264900662,4,1,0,76,0,0
65339,-105.523495465787,4,1,0,76,0,0
65407,-105.090311986864,4,1,0,77,0,0
65543,-104.66067048242,4,1,0,78,0,0
65816,-104.234527687296,4,1,0,78,0,0
65952,-103.811841038118,4,1,0,79,0,0
66089,-103.392568659128,4,1,0,79,0,0
66225,-102.976669348351,4,1,0,80,0,0
66362,-102.564102564103,4,1,0,81,0,0
66498,-102.154828411812,4,1,0,81,0,0
66771,-101.748807631161,4,1,0,82,0,0
66907,-101.346001583531,4,1,0,82,0,0
67180,-100.946372239748,4,1,0,83,0,0
67316,-100.549882168107,4,1,0,84,0,0
67452,-100.156494522692,4,1,0,84,0,0
67572,-99.7661730319563,4,1,0,85,0,0
67657,-99.3788819875776,4,1,0,86,0,0
67725,-98.9945862335653,4,1,0,86,0,0
67793,-98.613251155624,4,1,0,87,0,0
67862,-98.2348426707598,4,1,0,87,0,0
67998,-97.8593272171254,4,1,0,88,0,0
68134,-97.4866717440975,4,1,0,89,0,0
68202,-97.1168437025797,4,1,0,89,0,0
68271,-96.7498110355253,4,1,0,90,0,0
68339,-96.3855421686747,4,1,0,90,0,0
68407,-96.0240060015004,4,1,0,91,0,0
68475,-95.6651718983558,4,1,0,92,0,0
68543,-95.3090096798213,4,1,0,92,0,0
68612,-94.9554896142433,4,1,0,93,0,0
68680,-94.6045824094604,4,1,0,93,0,0
68816,-94.2562592047128,4,1,0,94,0,0
68952,-93.9104915627293,4,1,0,95,0,0
69021,-93.5672514619883,4,1,0,95,0,0
69089,-93.2265112891478,4,1,0,96,0,0
69225,-92.8882438316401,4,1,0,96,0,0
69362,-92.5524222704266,4,1,0,97,0,0
69498,-92.2190201729107,4,1,0,98,0,0
69634,-91.8880114860014,4,1,0,98,0,0
69771,-91.5593705293276,4,1,0,99,0,0
69907,-91.2330719885959,4,1,0,99,0,0
70043,-90.9090909090909,4,1,0,100,0,0
71288,-83.3333333333333,4,1,0,100,0,1
78924,-83.3333333333333,4,1,0,100,0,1
78992,-85.9375,4,1,0,100,0,1
79060,-88.7096774193548,4,1,0,100,0,1
79112,-91.6666666666667,4,1,0,100,0,1
79180,-94.8275862068966,4,1,0,100,0,1
79248,-98.2142857142857,4,1,0,100,0,1
79316,-101.851851851852,4,1,0,100,0,1
79384,-105.769230769231,4,1,0,100,0,1
79452,-110,4,1,0,100,0,1
79538,-114.583333333333,4,1,0,100,0,1
79623,-119.565217391304,4,1,0,100,0,1
79725,-125,4,1,0,100,0,0
80015,-125,4,1,0,100,0,0
80151,-111.111111111111,4,1,0,100,0,0
80288,-100,4,1,0,100,0,0
80424,-90.9090909090909,4,1,0,100,0,0
80560,-83.3333333333333,4,1,0,100,0,1
83970,-83.3333333333333,4,1,0,100,0,1
84021,-77.9220779220779,4,1,0,100,0,1
84089,-73.1707317073171,4,1,0,100,0,1
84157,-68.9655172413793,4,1,0,100,0,1
84225,-65.2173913043478,4,1,0,100,0,1
84293,-61.8556701030928,4,1,0,100,0,1
84379,-58.8235294117647,4,1,0,100,0,0
84651,-83.3333333333333,4,1,0,100,0,1
86560,-83.3333333333333,4,1,0,100,0,0
86680,-86.2068965517241,4,1,0,100,0,0
86816,-89.2857142857143,4,1,0,100,0,0
86952,-92.5925925925926,4,1,0,100,0,0
87021,-96.1538461538461,4,1,0,100,0,0
87089,-100,4,1,0,100,0,0
87157,-104.166666666667,4,1,0,100,0,0
87225,-108.695652173913,4,1,0,100,0,0
87362,-113.636363636364,4,1,0,100,0,0
87498,-119.047619047619,4,1,0,100,0,0
87634,-125,4,1,0,100,0,0
87771,-131.578947368421,4,1,0,100,0,0
87907,-138.888888888889,4,1,0,100,0,0
88043,-147.058823529412,4,1,0,100,0,0
88299,-156.25,4,1,0,100,0,0
88452,-166.666666666667,4,1,0,100,0,0
88742,-83.3333333333333,4,1,0,100,0,1
106197,-83.3333333333333,4,1,0,100,0,0
106470,-166.666666666667,4,1,0,20,0,0
116424,-166.666666666667,4,1,0,20,0,0
116560,-164.179104477612,4,1,0,21,0,0
116697,-161.764705882353,4,1,0,23,0,0
116833,-159.420289855072,4,1,0,24,0,0
116970,-157.142857142857,4,1,0,26,0,0
117106,-154.929577464789,4,1,0,27,0,0
117242,-152.777777777778,4,1,0,29,0,0
117379,-150.684931506849,4,1,0,30,0,0
117515,-148.648648648649,4,1,0,32,0,0
117583,-146.666666666667,4,1,0,33,0,0
117651,-144.736842105263,4,1,0,35,0,0
117720,-142.857142857143,4,1,0,36,0,0
117788,-141.025641025641,4,1,0,37,0,0
117924,-139.240506329114,4,1,0,39,0,0
118060,-137.5,4,1,0,40,0,0
118197,-135.802469135802,4,1,0,42,0,0
118333,-134.146341463415,4,1,0,43,0,0
118470,-132.530120481928,4,1,0,45,0,0
118606,-130.952380952381,4,1,0,46,0,0
118674,-129.411764705882,4,1,0,48,0,0
118810,-127.906976744186,4,1,0,49,0,0
118879,-126.436781609195,4,1,0,51,0,0
119015,-125,4,1,0,52,0,0
119083,-123.595505617978,4,1,0,53,0,0
119151,-122.222222222222,4,1,0,55,0,0
119220,-120.879120879121,4,1,0,56,0,0
119288,-119.565217391304,4,1,0,58,0,0
119424,-118.279569892473,4,1,0,59,0,0
119560,-117.021276595745,4,1,0,61,0,0
119697,-115.789473684211,4,1,0,62,0,0
119765,-114.583333333333,4,1,0,64,0,0
119833,-113.40206185567,4,1,0,65,0,0
119901,-112.244897959184,4,1,0,67,0,0
119970,-111.111111111111,4,1,0,68,0,0
120106,-110,4,1,0,69,0,0
120242,-108.910891089109,4,1,0,71,0,0
120379,-107.843137254902,4,1,0,72,0,0
120447,-106.796116504854,4,1,0,74,0,0
120515,-105.769230769231,4,1,0,75,0,0
120651,-104.761904761905,4,1,0,77,0,0
120788,-103.77358490566,4,1,0,78,0,0
120924,-102.803738317757,4,1,0,80,0,0
121060,-101.851851851852,4,1,0,81,0,0
121129,-100.917431192661,4,1,0,83,0,0
121197,-100,4,1,0,84,0,0
121333,-99.0990990990991,4,1,0,85,0,0
121401,-98.2142857142857,4,1,0,87,0,0
121470,-97.3451327433628,4,1,0,88,0,0
121606,-96.4912280701754,4,1,0,90,0,0
121742,-95.6521739130435,4,1,0,91,0,0
121879,-94.8275862068965,4,1,0,93,0,0
122015,-94.017094017094,4,1,0,94,0,0
122083,-93.2203389830509,4,1,0,96,0,0
122151,-92.436974789916,4,1,0,97,0,0
122288,-91.6666666666667,4,1,0,99,0,0
122424,-50,4,1,0,100,0,0
123651,-83.3333333333333,4,1,0,100,0,1
131560,-90.9090909090909,4,1,0,100,0,1
131651,-95.2380952380952,4,1,0,100,0,1
131742,-100,4,1,0,100,0,1
131833,-105.263157894737,4,1,0,100,0,1
131924,-111.111111111111,4,1,0,100,0,1
132015,-117.647058823529,4,1,0,100,0,1
132106,-125,4,1,0,100,0,1
132242,-133.333333333333,4,1,0,100,0,1
132379,-83.3333333333333,4,1,0,100,0,1
138924,-83.3333333333333,4,1,0,100,0,1
139197,-86.9565217391304,4,1,0,100,0,1
139333,-90.9090909090909,4,1,0,100,0,1
139606,-95.2380952380952,4,1,0,100,0,1
139742,-100,4,1,0,100,0,1
140015,-105.263157894737,4,1,0,100,0,1
140560,-111.111111111111,4,1,0,100,0,1
141106,-83.3333333333333,4,1,0,100,0,0
141924,-125,4,1,0,20,0,0
143288,-50,4,1,0,20,0,0
144106,-125,4,1,0,20,0,0
145470,-50,4,1,0,20,0,0
146560,-125,4,1,0,20,0,0
147651,-50,4,1,0,20,0,0
148665,-125,4,1,0,20,0,0
149833,-50,4,1,0,20,0,0
150542,-125,4,1,0,20,0,0
152015,-50,4,1,0,20,0,0
152688,-125,4,1,0,20,0,0
154197,-50,4,1,0,20,0,0
155288,-125,4,1,0,20,0,0
156379,-50,4,1,0,20,0,0
157037,-125,4,1,0,20,0,0
158560,-50,4,1,0,20,0,0
159651,-125,4,1,0,20,0,0
160742,-50,4,1,0,20,0,0
161833,-125,4,1,0,20,0,0
162924,-50,4,1,0,20,0,0
164015,-125,4,1,0,20,0,0
167288,-125,4,1,0,20,0,0
167424,-123.636363636364,4,1,0,22,0,0
167560,-122.302158273381,4,1,0,25,0,0
167697,-120.996441281139,4,1,0,27,0,0
167833,-119.718309859155,4,1,0,29,0,0
167970,-118.466898954704,4,1,0,32,0,0
168106,-117.241379310345,4,1,0,34,0,0
168242,-116.040955631399,4,1,0,36,0,0
168379,-114.864864864865,4,1,0,39,0,0
168515,-113.71237458194,4,1,0,41,0,0
168583,-112.582781456954,4,1,0,44,0,0
168651,-111.475409836066,4,1,0,46,0,0
168720,-110.38961038961,4,1,0,48,0,0
168788,-109.324758842444,4,1,0,51,0,0
168924,-108.28025477707,4,1,0,53,0,0
169060,-107.255520504732,4,1,0,55,0,0
169197,-106.25,4,1,0,58,0,0
169470,-105.263157894737,4,1,0,60,0,0
169742,-104.294478527607,4,1,0,62,0,0
169879,-103.343465045593,4,1,0,65,0,0
170151,-102.409638554217,4,1,0,67,0,0
170288,-101.492537313433,4,1,0,69,0,0
170356,-100.591715976331,4,1,0,72,0,0
170424,-99.7067448680352,4,1,0,74,0,0
170560,-98.8372093023256,4,1,0,76,0,0
170697,-97.9827089337176,4,1,0,79,0,0
170833,-97.1428571428571,4,1,0,81,0,0
170901,-96.3172804532578,4,1,0,84,0,0
170970,-95.5056179775281,4,1,0,86,0,0
171106,-94.7075208913649,4,1,0,88,0,0
171242,-93.9226519337016,4,1,0,91,0,0
171379,-93.1506849315068,4,1,0,93,0,0
171515,-92.3913043478261,4,1,0,95,0,0
171583,-91.644204851752,4,1,0,98,0,0
171651,-90.9090909090909,4,1,0,100,0,0
171924,-87.9120879120879,4,1,0,100,0,0
172197,-85.1063829787234,4,1,0,100,0,0
172470,-82.4742268041237,4,1,0,100,0,0
172742,-80,4,1,0,100,0,0
173015,-77.6699029126214,4,1,0,100,0,0
173288,-75.4716981132076,4,1,0,100,0,0
173560,-73.3944954128441,4,1,0,100,0,0
173833,-71.4285714285714,4,1,0,100,0,0
173970,-70.1754385964912,4,1,0,100,0,0
174106,-68.9655172413793,4,1,0,100,0,0
174242,-67.7966101694915,4,1,0,100,0,0
174379,-66.6666666666667,4,1,0,100,0,0
174515,-65.5737704918033,4,1,0,100,0,0
174651,-64.5161290322581,4,1,0,100,0,0
174788,-63.4920634920635,4,1,0,100,0,0
174924,-62.5,4,1,0,100,0,0
174992,-62.015503875969,4,1,0,100,0,0
175060,-61.5384615384615,4,1,0,100,0,0
175129,-61.0687022900763,4,1,0,100,0,0
175197,-60.6060606060606,4,1,0,100,0,0
175265,-60.1503759398496,4,1,0,100,0,0
175333,-59.7014925373134,4,1,0,100,0,0
175401,-59.2592592592593,4,1,0,100,0,0
175470,-58.8235294117647,4,1,0,100,0,0
175538,-58.3941605839416,4,1,0,100,0,0
175606,-57.9710144927536,4,1,0,100,0,0
175674,-57.5539568345324,4,1,0,100,0,0
175742,-57.1428571428571,4,1,0,100,0,0
175810,-56.7375886524823,4,1,0,100,0,0
175879,-56.3380281690141,4,1,0,100,0,0
175947,-55.9440559440559,4,1,0,100,0,0
176015,-55.5555555555556,4,1,0,100,0,0
177106,-125,4,1,0,100,0,0
177174,-121.212121212121,4,1,0,100,0,0
177242,-117.647058823529,4,1,0,100,0,0
177310,-114.285714285714,4,1,0,100,0,0
177379,-111.111111111111,4,1,0,100,0,0
177447,-108.108108108108,4,1,0,100,0,0
177515,-105.263157894737,4,1,0,100,0,0
177583,-102.564102564103,4,1,0,100,0,0
177651,-100,4,1,0,100,0,0
177720,-97.5609756097561,4,1,0,100,0,0
177788,-95.2380952380952,4,1,0,100,0,0
177856,-93.0232558139535,4,1,0,100,0,0
177924,-90.9090909090909,4,1,0,100,0,0
177992,-88.8888888888889,4,1,0,100,0,0
178060,-86.9565217391304,4,1,0,100,0,0
178129,-85.1063829787234,4,1,0,100,0,0
178197,-83.3333333333333,4,1,0,100,0,1
205401,-66.6666666666667,4,1,0,100,0,1
206015,-83.3333333333333,4,1,0,100,0,1
213106,-83.3333333333333,4,1,0,100,0,0
213379,-125,4,1,0,100,0,0
221833,-125,4,1,0,20,0,0
221970,-124.293785310734,4,1,0,21,0,0
222106,-123.595505617978,4,1,0,22,0,0
222242,-122.905027932961,4,1,0,24,0,0
222379,-122.222222222222,4,1,0,25,0,0
222515,-121.546961325967,4,1,0,26,0,0
222651,-120.879120879121,4,1,0,27,0,0
222788,-120.218579234973,4,1,0,28,0,0
222924,-119.565217391304,4,1,0,30,0,0
223060,-118.918918918919,4,1,0,31,0,0
223197,-118.279569892473,4,1,0,32,0,0
223333,-117.647058823529,4,1,0,33,0,0
223470,-117.021276595745,4,1,0,35,0,0
223538,-116.402116402116,4,1,0,36,0,0
223606,-115.789473684211,4,1,0,37,0,0
223742,-115.183246073298,4,1,0,38,0,0
223879,-114.583333333333,4,1,0,39,0,0
223947,-113.989637305699,4,1,0,41,0,0
224015,-113.40206185567,4,1,0,42,0,0
224151,-112.820512820513,4,1,0,43,0,0
224288,-112.244897959184,4,1,0,44,0,0
224424,-111.675126903553,4,1,0,45,0,0
224560,-111.111111111111,4,1,0,47,0,0
224629,-110.552763819095,4,1,0,48,0,0
224697,-110,4,1,0,49,0,0
224833,-109.452736318408,4,1,0,50,0,0
224970,-108.910891089109,4,1,0,52,0,0
225106,-108.374384236453,4,1,0,53,0,0
225242,-107.843137254902,4,1,0,54,0,0
225379,-107.317073170732,4,1,0,55,0,0
225515,-106.796116504854,4,1,0,56,0,0
225651,-106.280193236715,4,1,0,58,0,0
225788,-105.769230769231,4,1,0,59,0,0
225924,-105.263157894737,4,1,0,60,0,0
226060,-104.761904761905,4,1,0,61,0,0
226197,-104.265402843602,4,1,0,62,0,0
226333,-103.77358490566,4,1,0,64,0,0
226470,-103.286384976526,4,1,0,65,0,0
226606,-102.803738317757,4,1,0,66,0,0
226742,-102.325581395349,4,1,0,67,0,0
226879,-101.851851851852,4,1,0,68,0,0
226947,-101.382488479263,4,1,0,70,0,0
227015,-100.917431192661,4,1,0,71,0,0
227083,-100.456621004566,4,1,0,72,0,0
227151,-100,4,1,0,73,0,0
227288,-99.5475113122172,4,1,0,75,0,0
227424,-99.0990990990991,4,1,0,76,0,0
227492,-98.6547085201794,4,1,0,77,0,0
227560,-98.2142857142857,4,1,0,78,0,0
227697,-97.7777777777778,4,1,0,79,0,0
227765,-97.3451327433628,4,1,0,81,0,0
227833,-96.9162995594714,4,1,0,82,0,0
227970,-96.4912280701754,4,1,0,83,0,0
228106,-96.0698689956332,4,1,0,84,0,0
228242,-95.6521739130435,4,1,0,85,0,0
228310,-95.2380952380952,4,1,0,87,0,0
228379,-94.8275862068965,4,1,0,88,0,0
228515,-94.4206008583691,4,1,0,89,0,0
228651,-94.017094017094,4,1,0,90,0,0
228788,-93.6170212765957,4,1,0,92,0,0
228856,-93.2203389830509,4,1,0,93,0,0
228924,-92.8270042194093,4,1,0,94,0,0
228992,-92.436974789916,4,1,0,95,0,0
229060,-92.0502092050209,4,1,0,96,0,0
229197,-91.6666666666667,4,1,0,98,0,0
229333,-91.2863070539419,4,1,0,99,0,0
229470,-90.9090909090909,4,1,0,100,0,0
230560,-83.3333333333333,4,1,0,100,0,1
243242,-76.9230769230769,4,1,0,100,0,1
243310,-74.0740740740741,4,1,0,100,0,1
243379,-71.4285714285714,4,1,0,100,0,1
243447,-68.9655172413793,4,1,0,100,0,1
243515,-66.6666666666667,4,1,0,100,0,1
243583,-64.5161290322581,4,1,0,100,0,1
243651,-62.5,4,1,0,100,0,1
243924,-83.3333333333333,4,1,0,100,0,1
245833,-83.3333333333333,4,1,0,100,0,1
245970,-86.9565217391304,4,1,0,100,0,1
246106,-90.9090909090909,4,1,0,100,0,1
246242,-95.2380952380952,4,1,0,100,0,1
246379,-100,4,1,0,100,0,1
246515,-105.263157894737,4,1,0,100,0,1
246651,-111.111111111111,4,1,0,100,0,1
246788,-117.647058823529,4,1,0,100,0,1
246924,-100,4,1,0,100,0,1
246992,-95.2380952380952,4,1,0,100,0,1
247060,-90.9090909090909,4,1,0,100,0,1
247129,-86.9565217391304,4,1,0,100,0,1
247197,-83.3333333333333,4,1,0,100,0,1
247265,-80,4,1,0,100,0,1
247333,-76.9230769230769,4,1,0,100,0,1
247401,-74.0740740740741,4,1,0,100,0,1
247470,-71.4285714285714,4,1,0,100,0,1
247504,-68.9655172413793,4,1,0,100,0,1
247606,-66.6666666666667,4,1,0,100,0,1
247674,-64.5161290322581,4,1,0,100,0,1
247742,-62.5,4,1,0,100,0,1
247810,-60.6060606060606,4,1,0,100,0,1
247879,-58.8235294117647,4,1,0,100,0,1
247947,-57.1428571428571,4,1,0,100,0,1
248015,-55.5555555555556,4,1,0,100,0,1
248151,-83.3333333333333,4,1,0,100,0,1
255833,-76.9230769230769,4,1,0,100,0,1
256015,-71.4285714285714,4,1,0,100,0,1
256197,-66.6666666666667,4,1,0,100,0,1
256379,-62.5,4,1,0,100,0,1
256560,-58.8235294117647,4,1,0,100,0,1
256742,-55.5555555555556,4,1,0,100,0,1
257015,-83.3333333333333,4,1,0,100,0,1
265470,-83.3333333333333,4,1,0,100,0,0
265742,-83.3333333333333,4,1,0,100,0,0
265879,-83.8383838383838,4,1,0,99,0,0
265947,-84.349593495935,4,1,0,98,0,0
266015,-84.8670756646217,4,1,0,97,0,0
266151,-85.3909465020576,4,1,0,96,0,0
266288,-85.9213250517598,4,1,0,95,0,0
266424,-86.4583333333333,4,1,0,94,0,0
266492,-87.0020964360587,4,1,0,93,0,0
266560,-87.5527426160338,4,1,0,92,0,0
266833,-88.1104033970276,4,1,0,91,0,0
266970,-88.6752136752137,4,1,0,90,0,0
267106,-89.247311827957,4,1,0,89,0,0
267379,-89.8268398268398,4,1,0,88,0,0
267515,-90.4139433551198,4,1,0,87,0,0
267651,-91.0087719298246,4,1,0,87,0,0
267924,-91.6114790286976,4,1,0,86,0,0
268060,-92.2222222222222,4,1,0,85,0,0
268129,-92.841163310962,4,1,0,84,0,0
268197,-93.4684684684685,4,1,0,83,0,0
268265,-94.1043083900227,4,1,0,82,0,0
268333,-94.7488584474886,4,1,0,81,0,0
268470,-95.4022988505747,4,1,0,80,0,0
268606,-96.0648148148148,4,1,0,79,0,0
268742,-96.7365967365967,4,1,0,78,0,0
268810,-97.4178403755869,4,1,0,77,0,0
268879,-98.1087470449173,4,1,0,76,0,0
269015,-98.8095238095238,4,1,0,75,0,0
269151,-99.5203836930456,4,1,0,74,0,0
269424,-100.24154589372,4,1,0,73,0,0
269560,-100.973236009732,4,1,0,72,0,0
269833,-101.71568627451,4,1,0,71,0,0
269970,-102.469135802469,4,1,0,70,0,0
270038,-103.233830845771,4,1,0,69,0,0
270106,-104.010025062657,4,1,0,68,0,0
270242,-104.79797979798,4,1,0,67,0,0
270515,-105.59796437659,4,1,0,66,0,0
270651,-106.410256410256,4,1,0,65,0,0
270924,-107.235142118863,4,1,0,64,0,0
271060,-108.072916666667,4,1,0,63,0,0
271129,-108.923884514436,4,1,0,62,0,0
271197,-109.78835978836,4,1,0,61,0,0
271333,-110.666666666667,4,1,0,60,0,0
271470,-111.559139784946,4,1,0,60,0,0
271606,-112.466124661247,4,1,0,59,0,0
271742,-113.387978142077,4,1,0,58,0,0
272015,-114.325068870523,4,1,0,57,0,0
272151,-115.277777777778,4,1,0,56,0,0
272288,-116.24649859944,4,1,0,55,0,0
272424,-117.231638418079,4,1,0,54,0,0
272697,-118.233618233618,4,1,0,53,0,0
272833,-119.252873563218,4,1,0,52,0,0
273106,-120.289855072464,4,1,0,51,0,0
273379,-121.345029239766,4,1,0,50,0,0
273515,-122.418879056047,4,1,0,49,0,0
273651,-123.511904761905,4,1,0,48,0,0
273788,-124.624624624625,4,1,0,47,0,0
273924,-125.757575757576,4,1,0,46,0,0
274197,-126.911314984709,4,1,0,45,0,0
274333,-128.086419753086,4,1,0,44,0,0
274470,-129.283489096573,4,1,0,43,0,0
274606,-130.503144654088,4,1,0,42,0,0
274879,-131.746031746032,4,1,0,41,0,0
275151,-133.012820512821,4,1,0,40,0,0
275424,-134.304207119741,4,1,0,39,0,0
276106,-135.62091503268,4,1,0,38,0,0
277197,-136.963696369637,4,1,0,37,0,0
277742,-138.333333333333,4,1,0,36,0,0
278015,-139.73063973064,4,1,0,35,0,0
278288,-141.156462585034,4,1,0,34,0,0
278560,-142.611683848797,4,1,0,33,0,0
278697,-144.097222222222,4,1,0,33,0,0
278833,-145.614035087719,4,1,0,32,0,0
278970,-147.163120567376,4,1,0,31,0,0
279242,-148.745519713262,4,1,0,30,0,0
279515,-150.36231884058,4,1,0,29,0,0
279924,-152.014652014652,4,1,0,28,0,0
280197,-153.703703703704,4,1,0,27,0,0
280470,-155.430711610487,4,1,0,26,0,0
280742,-157.19696969697,4,1,0,25,0,0
281151,-159.003831417625,4,1,0,24,0,0
281560,-160.852713178295,4,1,0,23,0,0
281833,-162.745098039216,4,1,0,22,0,0
282379,-164.68253968254,4,1,0,21,0,0
282924,-166.666666666667,4,1,0,20,0,0

[HitObjects]
158,165,1470,5,0,0:0:0:0:
136,122,1606,1,8,0:0:0:0:
158,165,1742,1,8,0:0:0:0:
136,122,1879,1,0,0:0:0:0:
144,134,2151,1,0,0:0:0:0:
210,100,2185,1,0,0:0:0:0:
144,134,2424,1,8,0:0:0:0:
144,134,2697,1,0,0:0:0:0:
176,98,3379,1,8,0:0:0:0:
200,165,4470,1,0,0:0:0:0:
183,163,5833,1,0,0:0:0:0:
183,163,5970,1,0,0:0:0:0:
183,163,6106,1,0,0:0:0:0:
187,165,6242,1,8,0:0:0:0:
185,84,6515,1,0,0:0:0:0:
184,106,6788,1,8,0:0:0:0:
184,106,7060,1,0,0:0:0:0:
178,147,7742,1,8,0:0:0:0:
176,147,8833,1,0,0:0:0:0:
177,152,10197,1,0,0:0:0:0:
177,152,10333,1,8,0:0:0:0:
180,156,10470,1,8,0:0:0:0:
180,157,10606,1,0,0:0:0:0:
181,166,10879,1,0,0:0:0:0:
181,166,11151,1,8,0:0:0:0:
182,167,11424,1,0,0:0:0:0:
210,122,12106,1,8,0:0:0:0:
190,137,13197,1,0,0:0:0:0:
191,137,14560,1,0,0:0:0:0:
196,138,14697,1,0,0:0:0:0:
196,139,14833,1,0,0:0:0:0:
197,140,14970,1,8,0:0:0:0:
198,140,15242,1,0,0:0:0:0:
176,71,15515,1,8,0:0:0:0:
177,76,15788,1,0,0:0:0:0:
185,103,16470,1,8,0:0:0:0:
185,135,17560,1,0,0:0:0:0:
185,135,18242,1,0,0:0:0:0:
185,135,18379,1,0,0:0:0:0:
185,135,18515,1,0,0:0:0:0:
185,135,18651,1,8,0:0:0:0:
185,135,18788,1,8,0:0:0:0:
158,165,18924,5,0,0:0:0:0:
186,67,19197,1,0,0:0:0:0:
183,156,19333,1,0,0:0:0:0:
183,156,19470,1,8,0:0:0:0:
87,175,19651,1,0,0:0:0:0:
87,175,19833,1,0,0:0:0:0:
151,120,20015,1,8,0:0:0:0:
126,138,20197,1,8,0:0:0:0:
126,138,20379,1,0,0:0:0:0:
158,116,20560,1,8,0:0:0:0:
158,116,20833,1,0,0:0:0:0:
158,116,20970,1,0,0:0:0:0:
158,116,21106,1,8,0:0:0:0:
186,123,21288,1,0,0:0:0:0:
186,123,21515,1,0,0:0:0:0:
186,123,21651,1,8,0:0:0:0:
185,111,21924,1,0,0:0:0:0:
189,50,22060,1,0,0:0:0:0:
185,111,22197,1,8,0:0:0:0:
184,111,22333,1,0,0:0:0:0:
182,112,22470,1,8,0:0:0:0:
151,117,22742,1,8,0:0:0:0:
151,117,23015,1,8,0:0:0:0:
168,116,23288,1,0,0:0:0:0:
218,143,23424,1,0,0:0:0:0:
212,72,23697,1,0,0:0:0:0:
218,143,23833,1,8,0:0:0:0:
188,105,23970,1,8,0:0:0:0:
218,143,24106,1,0,0:0:0:0:
212,72,24379,1,8,0:0:0:0:
178,98,24560,1,0,0:0:0:0:
178,98,24742,1,0,0:0:0:0:
178,98,24924,1,8,0:0:0:0:
170,134,25197,1,0,0:0:0:0:
170,134,25470,1,8,0:0:0:0:
170,134,25651,1,0,0:0:0:0:
170,134,25833,1,0,0:0:0:0:
196,47,26015,1,8,0:0:0:0:
184,112,26151,1,8,0:0:0:0:
174,114,26288,1,0,0:0:0:0:
136,131,26560,1,8,0:0:0:0:
136,131,26833,1,0,0:0:0:0:
136,131,26970,1,0,0:0:0:0:
136,131,27106,1,8,0:0:0:0:
136,131,27242,1,0,0:0:0:0:
136,131,27379,1,8,0:0:0:0:
136,131,27651,1,8,0:0:0:0:
161,118,27924,1,0,0:0:0:0:
161,118,28060,1,0,0:0:0:0:
161,118,28197,1,8,0:0:0:0:
197,38,28333,1,0,0:0:0:0:
161,118,28470,1,0,0:0:0:0:
188,109,28742,1,8,0:0:0:0:
185,110,28924,1,0,0:0:0:0:
185,110,29106,1,0,0:0:0:0:
126,121,29288,1,8,0:0:0:0:
126,121,29560,1,0,0:0:0:0:
126,121,29697,1,0,0:0:0:0:
126,121,29833,1,8,0:0:0:0:
141,108,30015,1,0,0:0:0:0:
141,108,30197,1,0,0:0:0:0:
172,126,30379,1,8,0:0:0:0:
172,126,30651,1,0,0:0:0:0:
172,126,30788,1,0,0:0:0:0:
170,88,30924,1,8,0:0:0:0:
170,88,31197,1,0,0:0:0:0:
170,88,31470,1,8,0:0:0:0:
278,78,31606,1,0,0:0:0:0:
164,128,31742,1,8,0:0:0:0:
150,135,32015,1,0,0:0:0:0:
51,240,32151,1,0,0:0:0:0:
172,99,32288,1,8,0:0:0:0:
172,99,32424,1,0,0:0:0:0:
172,99,32697,1,8,0:0:0:0:
172,112,32833,1,0,0:0:0:0:
201,19,32970,1,0,0:0:0:0:
172,112,33106,1,8,0:0:0:0:
133,107,33379,1,0,0:0:0:0:
160,72,33515,1,0,0:0:0:0:
165,72,33651,1,8,0:0:0:0:
180,85,33924,1,8,0:0:0:0:
180,86,34197,1,0,0:0:0:0:
167,61,34379,1,0,0:0:0:0:
167,61,34560,1,0,0:0:0:0:
196,43,34742,1,8,0:0:0:0:
180,80,35015,1,0,0:0:0:0:
180,80,35288,1,8,0:0:0:0:
179,81,35470,1,0,0:0:0:0:
185,135,35696,5,8,0:0:0:0:
185,135,35833,1,0,0:0:0:0:
185,135,35970,1,0,0:0:0:0:
185,135,36106,1,8,0:0:0:0:
185,135,36242,1,8,0:0:0:0:
152,89,36379,1,0,0:0:0:0:
211,196,36651,1,8,0:0:0:0:
211,196,36788,1,0,0:0:0:0:
143,131,37060,1,0,0:0:0:0:
143,131,37197,1,8,0:0:0:0:
143,131,37470,1,0,0:0:0:0:
143,131,37606,1,8,0:0:0:0:
143,131,37742,1,0,0:0:0:0:
134,127,38015,1,8,0:0:0:0:
181,100,38288,1,0,0:0:0:0:
181,100,38424,1,8,0:0:0:0:
181,100,38560,1,0,0:0:0:0:
181,107,38833,1,8,0:0:0:0:
181,107,38970,1,0,0:0:0:0:
166,92,39242,1,0,0:0:0:0:
166,93,39379,1,8,0:0:0:0:
194,139,39651,1,0,0:0:0:0:
194,139,39788,1,0,0:0:0:0:
194,139,39924,1,8,0:0:0:0:
194,139,40197,1,8,0:0:0:0:
144,114,40470,1,0,0:0:0:0:
144,114,40742,1,0,0:0:0:0:
153,106,40879,1,0,0:0:0:0:
130,133,41015,1,8,0:0:0:0:
130,133,41151,1,0,0:0:0:0:
185,67,41424,1,0,0:0:0:0:
167,93,41560,1,8,0:0:0:0:
134,114,41833,1,8,0:0:0:0:
134,114,41970,1,0,0:0:0:0:
134,114,42106,1,8,0:0:0:0:
179,112,42379,1,8,0:0:0:0:
177,124,42651,1,0,0:0:0:0:
177,124,42788,1,0,0:0:0:0:
189,80,42924,1,8,0:0:0:0:
186,135,43197,1,0,0:0:0:0:
178,137,43333,1,8,0:0:0:0:
177,102,43606,1,0,0:0:0:0:
177,102,43742,1,0,0:0:0:0:
166,140,44015,1,8,0:0:0:0:
157,120,44288,1,0,0:0:0:0:
157,120,44424,1,0,0:0:0:0:
157,120,44560,1,8,0:0:0:0:
157,120,44697,1,0,0:0:0:0:
157,120,44833,1,8,0:0:0:0:
156,98,45106,1,8,0:0:0:0:
157,120,45242,1,0,0:0:0:0:
157,120,45379,1,0,0:0:0:0:
157,120,45515,1,8,0:0:0:0:
186,66,45788,1,0,0:0:0:0:
186,66,45924,1,8,0:0:0:0:
205,37,46197,1,0,0:0:0:0:
202,46,46333,1,8,0:0:0:0:
196,57,46470,1,0,0:0:0:0:
162,52,46742,1,8,0:0:0:0:
201,91,47015,1,8,0:0:0:0:
201,91,47288,1,0,0:0:0:0:
172,92,47560,1,8,0:0:0:0:
167,99,47697,1,0,0:0:0:0:
155,84,47970,1,0,0:0:0:0:
155,84,48106,1,8,0:0:0:0:
192,88,48379,1,0,0:0:0:0:
192,88,48515,1,0,0:0:0:0:
192,88,48651,1,8,0:0:0:0:
187,71,48924,1,8,0:0:0:0:
187,72,49197,1,0,0:0:0:0:
187,92,49470,1,0,0:0:0:0:
187,92,49606,1,0,0:0:0:0:
187,92,49742,1,8,0:0:0:0:
187,92,49879,1,0,0:0:0:0:
164,72,50151,1,8,0:0:0:0:
164,72,50288,1,0,0:0:0:0:
202,58,50560,1,0,0:0:0:0:
202,58,50697,1,0,0:0:0:0:
202,58,50833,1,8,0:0:0:0:
211,75,51106,1,8,0:0:0:0:
174,106,51379,1,0,0:0:0:0:
174,106,51651,1,8,0:0:0:0:
168,110,51924,1,0,0:0:0:0:
169,109,52060,1,8,0:0:0:0:
141,100,52333,1,0,0:0:0:0:
141,100,52470,1,8,0:0:0:0:
204,72,52742,1,0,0:0:0:0:
201,65,53288,1,8,0:0:0:0:
66,230,53833,5,0,0:0:0:0:
194,144,54106,1,0,0:0:0:0:
194,144,54242,1,8,0:0:0:0:
194,144,54379,1,0,0:0:0:0:
181,150,54651,1,0,0:0:0:0:
216,107,54788,1,8,0:0:0:0:
194,144,54924,1,0,0:0:0:0:
194,144,55060,1,0,0:0:0:0:
194,144,55129,1,0,0:0:0:0:
194,144,55197,1,8,0:0:0:0:
201,52,55265,1,8,0:0:0:0:
216,107,55333,1,0,0:0:0:0:
216,107,55470,1,8,0:0:0:0:
184,77,55742,1,8,0:0:0:0:
184,77,55879,1,8,0:0:0:0:
184,77,56015,1,0,0:0:0:0:
183,83,56288,1,0,0:0:0:0:
183,83,56424,1,8,0:0:0:0:
183,83,56560,1,0,0:0:0:0:
196,83,56833,1,8,0:0:0:0:
196,83,56970,1,8,0:0:0:0:
196,83,57106,1,0,0:0:0:0:
206,107,57242,1,8,0:0:0:0:
206,106,57379,1,0,0:0:0:0:
206,93,57515,1,0,0:0:0:0:
206,93,57651,1,8,0:0:0:0:
207,93,57924,1,8,0:0:0:0:
209,96,58060,1,8,0:0:0:0:
209,97,58197,1,0,0:0:0:0:
209,100,58470,1,0,0:0:0:0:
209,102,58606,1,8,0:0:0:0:
210,102,58742,1,0,0:0:0:0:
197,85,59015,1,8,0:0:0:0:
196,83,59151,1,8,0:0:0:0:
197,82,59288,1,0,0:0:0:0:
200,81,59424,1,8,0:0:0:0:
201,77,59492,1,8,0:0:0:0:
200,81,59560,1,8,0:0:0:0:
201,76,59629,1,8,0:0:0:0:
201,76,59697,1,0,0:0:0:0:
204,79,59833,1,8,0:0:0:0:
208,84,60106,1,8,0:0:0:0:
212,86,60242,1,8,0:0:0:0:
215,87,60379,1,0,0:0:0:0:
228,100,60651,1,0,0:0:0:0:
228,100,60788,1,8,0:0:0:0:
231,101,60924,1,0,0:0:0:0:
203,122,61197,1,8,0:0:0:0:
203,122,61333,1,8,0:0:0:0:
203,122,61470,1,0,0:0:0:0:
220,123,61606,1,8,0:0:0:0:
246,38,61879,1,0,0:0:0:0:
217,133,62015,1,8,0:0:0:0:
174,96,62151,1,0,0:0:0:0:
226,138,62288,1,8,0:0:0:0:
229,139,62424,1,8,0:0:0:0:
229,139,62560,1,0,0:0:0:0:
236,158,62833,1,0,0:0:0:0:
238,159,62970,1,8,0:0:0:0:
239,160,63106,1,0,0:0:0:0:
250,173,63379,1,8,0:0:0:0:
252,171,63515,1,8,0:0:0:0:
210,77,63651,1,0,0:0:0:0:
196,98,63788,1,8,0:0:0:0:
190,100,63856,1,0,0:0:0:0:
196,98,63924,1,8,0:0:0:0:
189,98,63992,1,8,0:0:0:0:
195,97,64060,1,0,0:0:0:0:
181,114,64197,1,8,0:0:0:0:
181,113,64470,1,8,0:0:0:0:
167,86,64606,1,8,0:0:0:0:
167,86,64742,1,0,0:0:0:0:
169,102,65015,1,0,0:0:0:0:
171,103,65151,1,8,0:0:0:0:
171,103,65288,1,0,0:0:0:0:
171,103,65356,1,8,0:0:0:0:
172,103,65424,1,0,0:0:0:0:
171,103,65560,1,8,0:0:0:0:
157,81,65833,1,0,0:0:0:0:
155,101,65970,1,0,0:0:0:0:
156,99,66106,1,8,0:0:0:0:
183,92,66242,1,0,0:0:0:0:
183,92,66379,1,8,0:0:0:0:
171,103,66515,1,8,0:0:0:0:
175,102,66788,1,8,0:0:0:0:
175,102,66924,1,0,0:0:0:0:
176,102,67197,1,8,0:0:0:0:
177,100,67333,1,0,0:0:0:0:
177,100,67470,1,8,0:0:0:0:
180,116,67606,1,0,0:0:0:0:
184,118,67674,1,0,0:0:0:0:
185,118,67742,1,0,0:0:0:0:
187,120,67810,1,0,0:0:0:0:
188,122,67879,1,8,0:0:0:0:
193,141,68015,1,0,0:0:0:0:
194,143,68151,1,8,0:0:0:0:
176,23,68220,1,0,0:0:0:0:
196,150,68288,1,8,0:0:0:0:
202,150,68356,1,8,0:0:0:0:
154,75,68424,1,0,0:0:0:0:
201,150,68492,1,0,0:0:0:0:
201,150,68560,1,0,0:0:0:0:
151,120,68629,1,0,0:0:0:0:
151,120,68697,1,8,0:0:0:0:
151,120,68833,1,8,0:0:0:0:
179,78,68970,1,8,0:0:0:0:
186,73,69038,1,8,0:0:0:0:
187,73,69106,1,0,0:0:0:0:
201,113,69242,1,0,0:0:0:0:
201,113,69379,1,8,0:0:0:0:
203,117,69515,1,8,0:0:0:0:
204,117,69651,1,0,0:0:0:0:
192,113,69788,1,0,0:0:0:0:
193,113,69924,1,8,0:0:0:0:
196,115,70060,1,8,0:0:0:0:
198,123,70197,1,0,0:0:0:0:
173,96,70265,1,8,0:0:0:0:
173,96,70333,1,0,0:0:0:0:
173,96,70401,1,0,0:0:0:0:
196,128,70470,1,8,0:0:0:0:
173,96,70538,1,8,0:0:0:0:
173,96,70606,1,0,0:0:0:0:
167,94,70674,1,0,0:0:0:0:
173,96,70742,1,8,0:0:0:0:
167,94,70810,1,0,0:0:0:0:
176,50,70879,1,8,0:0:0:0:
167,94,70947,1,8,0:0:0:0:
256,192,71015,12,0,71288,0:0:0:0:
224,96,71288,5,12,0:0:0:0:
192,128,71424,1,0,0:0:0:0:
192,128,71492,1,0,0:0:0:0:
192,128,71560,1,0,0:0:0:0:
192,128,71629,1,0,0:0:0:0:
192,128,71697,1,8,0:0:0:0:
96,64,71833,1,0,0:0:0:0:
96,64,71970,1,0,0:0:0:0:
160,96,72038,1,0,0:0:0:0:
96,64,72106,1,0,0:0:0:0:
192,64,72242,1,8,0:0:0:0:
192,64,72379,1,8,0:0:0:0:
160,64,72447,1,8,0:0:0:0:
160,64,72515,1,0,0:0:0:0:
160,64,72583,1,0,0:0:0:0:
160,64,72651,1,8,0:0:0:0:
190,126,72697,1,8,0:0:0:0:
190,126,72742,1,8,0:0:0:0:
160,64,72788,1,0,0:0:0:0:
160,96,72856,1,8,0:0:0:0:
160,64,72924,1,0,0:0:0:0:
160,128,73060,1,8,0:0:0:0:
160,128,73129,1,0,0:0:0:0:
160,128,73197,1,8,0:0:0:0:
160,128,73265,1,0,0:0:0:0:
160,128,73333,1,8,0:0:0:0:
160,128,73470,1,0,0:0:0:0:
160,128,73742,1,8,0:0:0:0:
128,160,73879,1,8,0:0:0:0:
128,160,73947,1,8,0:0:0:0:
128,160,74015,1,8,0:0:0:0:
128,160,74083,1,8,0:0:0:0:
128,160,74151,1,0,0:0:0:0:
160,128,74288,1,0,0:0:0:0:
160,128,74424,1,8,0:0:0:0:
192,128,74560,1,0,0:0:0:0:
192,128,74629,1,0,0:0:0:0:
192,128,74697,1,0,0:0:0:0:
160,128,74833,1,8,0:0:0:0:
288,128,74879,1,8,0:0:0:0:
176,47,74924,1,8,0:0:0:0:
178,51,74970,1,0,0:0:0:0:
160,96,75038,1,0,0:0:0:0:
160,128,75106,1,8,0:0:0:0:
160,96,75242,1,0,0:0:0:0:
160,64,75310,1,0,0:0:0:0:
160,64,75379,1,8,0:0:0:0:
160,96,75447,1,8,0:0:0:0:
224,64,75515,1,0,0:0:0:0:
224,64,75583,1,0,0:0:0:0:
224,64,75651,1,8,0:0:0:0:
192,128,75788,1,0,0:0:0:0:
192,128,75856,1,0,0:0:0:0:
192,128,75924,1,8,0:0:0:0:
192,128,75992,1,8,0:0:0:0:
192,128,76060,1,0,0:0:0:0:
192,128,76197,1,0,0:0:0:0:
192,128,76265,1,8,0:0:0:0:
192,96,76333,1,0,0:0:0:0:
192,96,76470,1,0,0:0:0:0:
160,96,76606,1,8,0:0:0:0:
160,128,76742,1,0,0:0:0:0:
160,128,76879,1,0,0:0:0:0:
160,128,77015,1,8,0:0:0:0:
169,60,77060,1,0,0:0:0:0:
224,64,77106,1,0,0:0:0:0:
224,64,77151,1,8,0:0:0:0:
224,64,77220,1,8,0:0:0:0:
224,64,77288,1,0,0:0:0:0:
160,96,77424,1,8,0:0:0:0:
289,67,77458,1,8,0:0:0:0:
160,96,77560,1,0,0:0:0:0:
278,82,77595,1,0,0:0:0:0:
160,96,77697,1,8,0:0:0:0:
160,96,77833,1,0,0:0:0:0:
192,128,77970,1,0,0:0:0:0:
192,128,78038,1,0,0:0:0:0:
192,128,78106,1,8,0:0:0:0:
160,96,78242,1,0,0:0:0:0:
160,96,78310,1,0,0:0:0:0:
160,96,78379,1,0,0:0:0:0:
160,96,78447,1,8,0:0:0:0:
160,96,78515,1,0,0:0:0:0:
160,96,78651,1,0,0:0:0:0:
160,96,78720,1,0,0:0:0:0:
160,96,78788,1,8,0:0:0:0:
160,96,78924,1,8,0:0:0:0:
160,128,78992,1,8,0:0:0:0:
160,128,79060,1,0,0:0:0:0:
160,128,79129,1,0,0:0:0:0:
160,128,79197,1,8,0:0:0:0:
160,128,79265,1,8,0:0:0:0:
160,128,79333,1,0,0:0:0:0:
160,128,79401,1,0,0:0:0:0:
160,128,79470,1,8,0:0:0:0:
192,160,79560,1,8,0:0:0:0:
192,160,79651,1,8,0:0:0:0:
192,160,79742,1,8,0:0:0:0:
160,160,80015,1,8,0:0:0:0:
160,160,80151,1,0,0:0:0:0:
160,160,80288,1,0,0:0:0:0:
160,160,80424,1,8,0:0:0:0:
160,160,80560,1,0,0:0:0:0:
128,96,80629,1,8,0:0:0:0:
128,64,80697,1,8,0:0:0:0:
128,96,80765,1,8,0:0:0:0:
128,64,80833,1,0,0:0:0:0:
160,96,80970,1,8,0:0:0:0:
160,96,81038,1,8,0:0:0:0:
160,96,81106,1,0,0:0:0:0:
160,96,81242,1,0,0:0:0:0:
160,96,81379,1,8,0:0:0:0:
160,64,81515,1,8,0:0:0:0:
160,64,81560,1,8,0:0:0:0:
196,54,81606,1,8,0:0:0:0:
160,32,81651,1,0,0:0:0:0:
160,32,81720,1,8,0:0:0:0:
160,96,81788,1,0,0:0:0:0:
160,96,81856,1,8,0:0:0:0:
160,96,81924,1,0,0:0:0:0:
160,32,81992,1,0,0:0:0:0:
160,64,82060,1,8,0:0:0:0:
160,64,82197,1,0,0:0:0:0:
160,64,82333,1,0,0:0:0:0:
160,64,82470,1,8,0:0:0:0:
160,96,82606,1,0,0:0:0:0:
160,96,82674,1,8,0:0:0:0:
160,96,82742,1,0,0:0:0:0:
160,96,82810,1,8,0:0:0:0:
160,96,82879,1,0,0:0:0:0:
192,64,83015,1,0,0:0:0:0:
192,64,83151,1,8,0:0:0:0:
160,128,83288,1,0,0:0:0:0:
160,128,83356,1,8,0:0:0:0:
160,128,83424,1,0,0:0:0:0:
192,96,83560,5,8,0:0:0:0:
160,128,83629,1,0,0:0:0:0:
192,128,83697,1,8,0:0:0:0:
160,128,83731,1,8,0:0:0:0:
160,128,83833,1,0,0:0:0:0:
160,64,83970,1,0,0:0:0:0:
160,64,84038,1,0,0:0:0:0:
160,64,84106,1,8,0:0:0:0:
160,64,84174,1,8,0:0:0:0:
160,32,84242,1,8,0:0:0:0:
160,64,84310,1,8,0:0:0:0:
161,116,84651,5,8,0:0:0:0:
178,73,84788,1,8,0:0:0:0:
204,23,84833,1,8,0:0:0:0:
192,118,84879,1,8,0:0:0:0:
178,73,84924,1,8,0:0:0:0:
192,118,84992,1,8,0:0:0:0:
125,140,85060,1,0,0:0:0:0:
174,76,85197,1,0,0:0:0:0:
174,76,85333,1,8,0:0:0:0:
120,112,85470,1,8,0:0:0:0:
206,112,85538,1,8,0:0:0:0:
206,112,85606,1,0,0:0:0:0:
206,112,85674,1,0,0:0:0:0:
206,112,85742,1,8,0:0:0:0:
161,108,85879,1,8,0:0:0:0:
213,107,86015,1,0,0:0:0:0:
209,116,86151,1,8,0:0:0:0:
209,116,86220,1,0,0:0:0:0:
201,50,86288,1,8,0:0:0:0:
201,14,86333,1,8,0:0:0:0:
166,77,86379,1,8,0:0:0:0:
166,77,86424,1,0,0:0:0:0:
166,77,86492,1,0,0:0:0:0:
166,89,86560,1,8,0:0:0:0:
171,65,86697,1,0,0:0:0:0:
135,77,86833,1,8,0:0:0:0:
173,94,86970,1,0,0:0:0:0:
166,102,87038,1,0,0:0:0:0:
173,94,87106,1,0,0:0:0:0:
166,102,87174,1,8,0:0:0:0:
167,97,87242,1,0,0:0:0:0:
205,64,87379,1,0,0:0:0:0:
205,64,87515,1,8,0:0:0:0:
165,114,87651,1,8,0:0:0:0:
147,82,87788,1,0,0:0:0:0:
141,110,87924,1,8,0:0:0:0:
141,110,88060,1,0,0:0:0:0:
147,82,88333,1,0,0:0:0:0:
147,82,88470,1,8,0:0:0:0:
141,78,88742,1,12,0:0:0:0:
212,86,88879,1,0,0:0:0:0:
141,142,88947,1,0,0:0:0:0:
212,86,89015,1,8,0:0:0:0:
243,55,89049,1,8,0:0:0:0:
141,142,89151,1,8,0:0:0:0:
141,142,89220,1,8,0:0:0:0:
141,142,89288,1,0,0:0:0:0:
178,139,89356,1,0,0:0:0:0:
178,139,89424,1,8,0:0:0:0:
226,27,89458,1,8,0:0:0:0:
178,139,89560,1,0,0:0:0:0:
216,104,89629,1,0,0:0:0:0:
216,104,89697,1,8,0:0:0:0:
216,104,89833,1,8,0:0:0:0:
151,78,89901,1,8,0:0:0:0:
151,78,89970,1,0,0:0:0:0:
151,78,90038,1,8,0:0:0:0:
151,78,90106,1,0,0:0:0:0:
170,67,90174,1,0,0:0:0:0:
170,67,90242,1,8,0:0:0:0:
170,67,90379,1,0,0:0:0:0:
189,52,90515,1,8,0:0:0:0:
188,52,90583,1,0,0:0:0:0:
141,54,90651,1,8,0:0:0:0:
141,54,90720,1,0,0:0:0:0:
141,54,90788,1,8,0:0:0:0:
189,52,90924,1,0,0:0:0:0:
160,128,91197,1,8,0:0:0:0:
160,128,91288,1,8,0:0:0:0:
160,128,91379,1,8,0:0:0:0:
128,64,91470,1,0,0:0:0:0:
192,32,91538,1,8,0:0:0:0:
160,128,91606,1,0,0:0:0:0:
128,64,91674,1,8,0:0:0:0:
160,128,91742,1,0,0:0:0:0:
160,64,91879,1,8,0:0:0:0:
160,64,91947,1,8,0:0:0:0:
160,64,92015,1,8,0:0:0:0:
224,96,92038,1,8,0:0:0:0:
192,32,92151,1,0,0:0:0:0:
192,32,92288,1,8,0:0:0:0:
192,96,92424,1,0,0:0:0:0:
192,96,92492,1,0,0:0:0:0:
160,32,92629,1,0,0:0:0:0:
160,32,92697,1,0,0:0:0:0:
160,64,92833,1,8,0:0:0:0:
241,81,92867,1,8,0:0:0:0:
160,64,92970,1,0,0:0:0:0:
241,87,93004,1,0,0:0:0:0:
192,64,93106,1,8,0:0:0:0:
192,64,93242,1,8,0:0:0:0:
160,64,93310,1,0,0:0:0:0:
192,64,93379,1,8,0:0:0:0:
192,64,93447,1,8,0:0:0:0:
160,64,93515,1,0,0:0:0:0:
160,64,93651,1,0,0:0:0:0:
160,64,93788,1,8,0:0:0:0:
160,96,93856,1,8,0:0:0:0:
160,64,93924,1,0,0:0:0:0:
160,64,94060,1,8,0:0:0:0:
192,96,94197,1,0,0:0:0:0:
160,96,94265,1,0,0:0:0:0:
160,96,94333,1,0,0:0:0:0:
160,96,94470,1,8,0:0:0:0:
219,47,94504,1,8,0:0:0:0:
160,64,94606,1,8,0:0:0:0:
160,64,94674,1,8,0:0:0:0:
160,64,94742,1,0,0:0:0:0:
160,64,94810,1,8,0:0:0:0:
160,64,94879,1,0,0:0:0:0:
160,64,94947,1,8,0:0:0:0:
160,64,95015,1,0,0:0:0:0:
192,64,95083,1,0,0:0:0:0:
160,32,95151,1,8,0:0:0:0:
160,32,95288,1,0,0:0:0:0:
160,96,95424,1,0,0:0:0:0:
160,128,95492,1,0,0:0:0:0:
160,96,95560,1,8,0:0:0:0:
128,128,95629,1,0,0:0:0:0:
286,88,95663,1,0,0:0:0:0:
160,96,95765,1,8,0:0:0:0:
160,96,95833,1,0,0:0:0:0:
286,88,95867,1,0,0:0:0:0:
128,128,95970,1,8,0:0:0:0:
128,96,96038,1,8,0:0:0:0:
128,128,96106,1,0,0:0:0:0:
160,128,96242,1,8,0:0:0:0:
160,128,96379,1,0,0:0:0:0:
160,128,96515,1,8,0:0:0:0:
160,128,96583,1,0,0:0:0:0:
192,96,96651,1,8,0:0:0:0:
160,128,96788,1,0,0:0:0:0:
160,128,96924,1,8,0:0:0:0:
192,64,96992,1,0,0:0:0:0:
160,128,97060,1,8,0:0:0:0:
160,96,97197,1,8,0:0:0:0:
160,96,97470,1,4,0:0:0:0:
160,192,97606,1,4,0:0:0:0:
160,192,97742,1,4,0:0:0:0:
160,192,97879,1,4,0:0:0:0:
160,192,98015,1,4,0:0:0:0:
160,192,98151,1,12,0:0:0:0:
160,192,98288,1,4,0:0:0:0:
160,96,98424,1,4,0:0:0:0:
160,96,98560,1,4,0:0:0:0:
160,96,98697,1,0,0:0:0:0:
192,96,98731,1,0,0:0:0:0:
160,64,98833,1,0,0:0:0:0:
160,128,98867,1,0,0:0:0:0:
160,128,98970,1,8,0:0:0:0:
160,128,99106,1,0,0:0:0:0:
160,96,99174,1,0,0:0:0:0:
160,96,99242,1,8,0:0:0:0:
160,96,99310,1,0,0:0:0:0:
160,96,99379,1,8,0:0:0:0:
160,64,99515,1,8,0:0:0:0:
160,64,99651,1,0,0:0:0:0:
160,64,99788,1,8,0:0:0:0:
160,64,99856,1,0,0:0:0:0:
160,64,99992,1,8,0:0:0:0:
160,64,100060,1,0,0:0:0:0:
160,96,100197,1,8,0:0:0:0:
192,96,100265,1,0,0:0:0:0:
192,96,100401,1,8,0:0:0:0:
160,64,100470,1,0,0:0:0:0:
128,64,100515,1,0,0:0:0:0:
168,22,100560,1,0,0:0:0:0:
128,64,100606,1,0,0:0:0:0:
160,64,100742,1,8,0:0:0:0:
160,64,100810,1,8,0:0:0:0:
128,64,100879,1,0,0:0:0:0:
160,96,100947,1,0,0:0:0:0:
128,64,101015,1,8,0:0:0:0:
160,96,101151,1,0,0:0:0:0:
288,96,101197,1,0,0:0:0:0:
288,96,101242,1,0,0:0:0:0:
160,96,101288,1,8,0:0:0:0:
160,96,101356,1,0,0:0:0:0:
160,96,101424,1,8,0:0:0:0:
160,64,101560,1,0,0:0:0:0:
160,64,101697,1,8,0:0:0:0:
160,64,101833,1,0,0:0:0:0:
160,64,101879,1,8,0:0:0:0:
160,64,101924,1,8,0:0:0:0:
160,64,101970,1,0,0:0:0:0:
160,64,102038,1,0,0:0:0:0:
160,64,102106,1,8,0:0:0:0:
128,64,102242,1,0,0:0:0:0:
201,50,102310,1,0,0:0:0:0:
128,64,102379,1,8,0:0:0:0:
160,64,102447,1,0,0:0:0:0:
160,64,102515,1,8,0:0:0:0:
192,64,102583,1,8,0:0:0:0:
160,64,102651,1,0,0:0:0:0:
160,64,102788,1,8,0:0:0:0:
160,64,102924,1,0,0:0:0:0:
160,96,103060,1,0,0:0:0:0:
160,64,103129,1,0,0:0:0:0:
160,96,103197,1,8,0:0:0:0:
160,64,103242,1,8,0:0:0:0:
160,64,103288,1,8,0:0:0:0:
201,29,103333,1,0,0:0:0:0:
185,93,103401,1,8,0:0:0:0:
160,64,103470,1,0,0:0:0:0:
160,64,103538,1,8,0:0:0:0:
160,64,103606,1,0,0:0:0:0:
160,64,103742,1,0,0:0:0:0:
192,32,103810,1,0,0:0:0:0:
192,64,103879,1,8,0:0:0:0:
192,64,104015,1,8,0:0:0:0:
160,64,104151,1,0,0:0:0:0:
160,64,104220,1,0,0:0:0:0:
160,64,104288,1,8,0:0:0:0:
160,96,104424,1,8,0:0:0:0:
160,96,104560,1,0,0:0:0:0:
160,96,104629,1,0,0:0:0:0:
160,96,104697,1,8,0:0:0:0:
192,32,104731,1,8,0:0:0:0:
160,64,104833,1,0,0:0:0:0:
160,64,104970,1,8,0:0:0:0:
160,64,105038,1,0,0:0:0:0:
160,64,105106,1,8,0:0:0:0:
160,128,105174,1,8,0:0:0:0:
160,32,105242,1,0,0:0:0:0:
160,128,105310,1,8,0:0:0:0:
160,32,105379,1,0,0:0:0:0:
160,96,105447,1,0,0:0:0:0:
160,128,105515,1,8,0:0:0:0:
160,96,105583,1,0,0:0:0:0:
160,128,105651,1,8,0:0:0:0:
160,96,105720,1,8,0:0:0:0:
160,128,105788,1,0,0:0:0:0:
160,96,105856,1,0,0:0:0:0:
160,128,105924,1,8,0:0:0:0:
160,96,105992,1,8,0:0:0:0:
160,96,106060,1,8,0:0:0:0:
160,96,106129,1,8,0:0:0:0:
160,96,106197,1,0,0:0:0:0:
161,165,106470,1,8,0:0:0:0:
161,165,106606,1,0,0:0:0:0:
161,165,106879,1,0,0:0:0:0:
161,165,107015,1,8,0:0:0:0:
156,171,107151,1,8,0:0:0:0:
156,171,107424,1,0,0:0:0:0:
191,116,108106,1,8,0:0:0:0:
193,121,109197,1,0,0:0:0:0:
152,132,109742,1,8,0:0:0:0:
152,132,110015,1,8,0:0:0:0:
152,132,110288,1,0,0:0:0:0:
152,132,110560,1,0,0:0:0:0:
152,132,110697,1,0,0:0:0:0:
152,132,110833,1,8,0:0:0:0:
152,132,110970,1,0,0:0:0:0:
152,132,111242,1,8,0:0:0:0:
146,129,111515,1,8,0:0:0:0:
146,129,111788,1,0,0:0:0:0:
139,133,112470,1,0,0:0:0:0:
139,133,112742,1,8,0:0:0:0:
139,133,113560,1,0,0:0:0:0:
139,133,113833,1,0,0:0:0:0:
139,133,114242,1,8,0:0:0:0:
139,133,114379,1,8,0:0:0:0:
139,133,114515,1,0,0:0:0:0:
139,133,114651,1,8,0:0:0:0:
139,133,114924,1,0,0:0:0:0:
139,133,115060,1,0,0:0:0:0:
139,133,115197,1,0,0:0:0:0:
139,133,115333,1,8,0:0:0:0:
139,133,115606,1,0,0:0:0:0:
139,133,115879,1,0,0:0:0:0:
139,133,116151,1,8,0:0:0:0:
163,112,116424,1,8,0:0:0:0:
163,112,116560,1,0,0:0:0:0:
170,109,116697,1,0,0:0:0:0:
139,133,116833,1,8,0:0:0:0:
182,75,116970,1,8,0:0:0:0:
182,75,117106,1,0,0:0:0:0:
184,83,117242,1,0,0:0:0:0:
184,83,117379,1,8,0:0:0:0:
182,75,117515,1,0,0:0:0:0:
182,75,117583,1,8,0:0:0:0:
182,75,117651,1,0,0:0:0:0:
182,75,117720,1,8,0:0:0:0:
182,75,117788,1,0,0:0:0:0:
144,137,117924,1,0,0:0:0:0:
182,65,118060,1,8,0:0:0:0:
182,65,118197,1,8,0:0:0:0:
166,52,118333,1,8,0:0:0:0:
179,110,118470,1,0,0:0:0:0:
167,32,118606,1,8,0:0:0:0:
194,18,118674,1,0,0:0:0:0:
165,27,118810,1,8,0:0:0:0:
196,51,118879,1,0,0:0:0:0:
173,110,119015,1,0,0:0:0:0:
191,65,119083,1,0,0:0:0:0:
213,71,119151,1,8,0:0:0:0:
191,65,119220,1,8,0:0:0:0:
235,173,119288,1,0,0:0:0:0:
199,85,119424,1,0,0:0:0:0:
186,185,119560,1,8,0:0:0:0:
180,181,119697,1,0,0:0:0:0:
186,185,119765,1,0,0:0:0:0:
180,181,119833,1,0,0:0:0:0:
186,185,119901,1,0,0:0:0:0:
181,83,119970,1,8,0:0:0:0:
186,185,120106,1,0,0:0:0:0:
201,100,120242,1,8,0:0:0:0:
201,100,120379,1,8,0:0:0:0:
190,87,120447,1,8,0:0:0:0:
190,87,120515,1,0,0:0:0:0:
183,93,120651,1,8,0:0:0:0:
183,93,120788,1,8,0:0:0:0:
183,93,120924,1,0,0:0:0:0:
206,140,121060,1,8,0:0:0:0:
206,140,121129,1,0,0:0:0:0:
176,133,121197,1,8,0:0:0:0:
179,148,121333,1,0,0:0:0:0:
179,148,121401,1,0,0:0:0:0:
179,148,121470,1,8,0:0:0:0:
181,141,121742,1,8,0:0:0:0:
181,141,121879,1,0,0:0:0:0:
181,140,122015,1,0,0:0:0:0:
211,24,122083,1,0,0:0:0:0:
181,141,122151,1,0,0:0:0:0:
176,137,122288,1,0,0:0:0:0:
176,137,122424,1,8,0:0:0:0:
256,192,122560,12,0,123379,0:0:0:0:
176,137,123651,5,8,0:0:0:0:
191,163,123788,1,0,0:0:0:0:
183,165,123924,1,8,0:0:0:0:
181,84,123992,1,0,0:0:0:0:
181,84,124060,1,8,0:0:0:0:
163,82,124197,1,0,0:0:0:0:
163,82,124333,1,8,0:0:0:0:
161,81,124401,1,8,0:0:0:0:
161,81,124470,1,0,0:0:0:0:
167,69,124606,1,8,0:0:0:0:
167,69,124742,1,0,0:0:0:0:
153,63,124879,1,8,0:0:0:0:
204,140,124913,1,8,0:0:0:0:
153,63,125015,1,0,0:0:0:0:
203,133,125083,1,0,0:0:0:0:
153,64,125151,1,8,0:0:0:0:
152,44,125288,1,0,0:0:0:0:
153,77,125356,1,0,0:0:0:0:
154,51,125424,1,8,0:0:0:0:
153,77,125492,1,8,0:0:0:0:
154,53,125560,1,0,0:0:0:0:
143,88,125629,1,0,0:0:0:0:
157,90,125697,1,8,0:0:0:0:
157,90,125833,1,0,0:0:0:0:
144,87,126106,1,8,0:0:0:0:
144,87,126242,1,8,0:0:0:0:
187,79,126310,1,0,0:0:0:0:
187,79,126379,1,8,0:0:0:0:
187,79,126447,1,8,0:0:0:0:
187,79,126515,1,0,0:0:0:0:
181,46,126651,1,0,0:0:0:0:
181,46,126788,1,8,0:0:0:0:
183,17,126924,1,0,0:0:0:0:
181,46,126992,1,0,0:0:0:0:
181,46,127060,1,0,0:0:0:0:
181,46,127129,1,0,0:0:0:0:
181,46,127197,1,8,0:0:0:0:
193,47,127333,1,0,0:0:0:0:
192,47,127470,1,8,0:0:0:0:
141,50,127538,1,8,0:0:0:0:
137,46,127606,1,0,0:0:0:0:
162,99,127674,1,0,0:0:0:0:
137,46,127742,1,8,0:0:0:0:
151,66,127810,1,8,0:0:0:0:
151,65,127879,1,8,0:0:0:0:
151,66,127947,1,8,0:0:0:0:
151,65,128015,1,0,0:0:0:0:
207,67,128151,1,8,0:0:0:0:
179,60,128220,1,8,0:0:0:0:
181,60,128288,1,8,0:0:0:0:
181,60,128356,1,0,0:0:0:0:
181,60,128424,1,8,0:0:0:0:
192,45,128560,1,0,0:0:0:0:
177,50,128629,1,0,0:0:0:0:
192,45,128697,1,0,0:0:0:0:
177,50,128833,1,0,0:0:0:0:
166,62,128970,1,8,0:0:0:0:
172,52,129106,1,0,0:0:0:0:
161,94,129151,1,0,0:0:0:0:
161,94,129197,1,0,0:0:0:0:
161,94,129242,1,0,0:0:0:0:
161,94,129288,1,0,0:0:0:0:
161,94,129333,1,0,0:0:0:0:
172,52,129379,1,8,0:0:0:0:
246,41,129447,1,8,0:0:0:0:
165,50,129515,1,8,0:0:0:0:
173,49,129583,1,8,0:0:0:0:
164,51,129651,1,0,0:0:0:0:
144,99,129788,1,8,0:0:0:0:
144,96,129856,1,0,0:0:0:0:
157,173,129924,1,8,0:0:0:0:
144,96,129992,1,0,0:0:0:0:
144,96,130060,1,8,0:0:0:0:
154,92,130197,1,0,0:0:0:0:
165,106,130333,1,0,0:0:0:0:
191,26,130401,1,0,0:0:0:0:
165,106,130470,1,8,0:0:0:0:
156,55,130606,1,8,0:0:0:0:
173,58,130674,1,0,0:0:0:0:
156,55,130742,1,8,0:0:0:0:
173,58,130879,1,8,0:0:0:0:
179,41,131015,1,0,0:0:0:0:
207,62,131151,1,0,0:0:0:0:
207,62,131220,1,0,0:0:0:0:
207,62,131288,1,8,0:0:0:0:
156,55,131560,1,0,0:0:0:0:
151,87,131651,1,0,0:0:0:0:
151,87,131742,1,0,0:0:0:0:
151,87,131833,1,8,0:0:0:0:
48,212,131924,1,8,0:0:0:0:
48,212,132015,1,8,0:0:0:0:
48,212,132106,1,8,0:0:0:0:
166,38,132242,1,0,0:0:0:0:
166,38,132379,1,0,0:0:0:0:
194,97,132515,1,0,0:0:0:0:
194,97,132651,1,8,0:0:0:0:
132,105,132720,1,8,0:0:0:0:
132,105,132788,1,8,0:0:0:0:
132,105,132924,1,0,0:0:0:0:
178,67,133060,1,8,0:0:0:0:
178,67,133129,1,8,0:0:0:0:
178,67,133197,1,0,0:0:0:0:
156,64,133333,1,8,0:0:0:0:
155,64,133470,1,0,0:0:0:0:
153,72,133538,1,0,0:0:0:0:
151,71,133606,1,8,0:0:0:0:
153,72,133674,1,8,0:0:0:0:
151,71,133742,1,0,0:0:0:0:
184,22,133879,1,8,0:0:0:0:
139,123,133924,1,8,0:0:0:0:
135,130,133970,1,0,0:0:0:0:
123,136,134015,1,8,0:0:0:0:
242,69,134083,1,0,0:0:0:0:
196,35,134151,1,8,0:0:0:0:
196,35,134220,1,8,0:0:0:0:
196,35,134288,1,0,0:0:0:0:
196,89,134424,1,8,0:0:0:0:
196,89,134560,1,0,0:0:0:0:
212,102,134833,1,8,0:0:0:0:
212,102,134970,1,0,0:0:0:0:
211,102,135038,1,8,0:0:0:0:
212,102,135106,1,0,0:0:0:0:
208,46,135174,1,8,0:0:0:0:
208,46,135242,1,0,0:0:0:0:
186,52,135379,1,0,0:0:0:0:
186,52,135515,1,8,0:0:0:0:
184,52,135651,1,0,0:0:0:0:
185,51,135720,1,0,0:0:0:0:
184,52,135788,1,0,0:0:0:0:
184,52,135924,1,8,0:0:0:0:
171,79,136060,1,0,0:0:0:0:
171,79,136129,1,8,0:0:0:0:
171,79,136197,1,0,0:0:0:0:
171,79,136333,1,8,0:0:0:0:
201,155,136367,1,8,0:0:0:0:
193,37,136470,1,0,0:0:0:0:
193,37,136606,1,8,0:0:0:0:
201,155,136640,1,8,0:0:0:0:
193,37,136742,1,0,0:0:0:0:
198,117,136879,1,0,0:0:0:0:
198,117,137015,1,8,0:0:0:0:
158,165,137083,1,0,0:0:0:0:
158,165,137151,1,0,0:0:0:0:
161,168,137220,1,0,0:0:0:0:
158,165,137288,1,8,0:0:0:0:
179,97,137424,1,0,0:0:0:0:
179,97,137560,1,0,0:0:0:0:
179,97,137697,1,8,0:0:0:0:
188,81,137833,1,8,0:0:0:0:
188,81,137901,1,8,0:0:0:0:
188,80,137970,1,0,0:0:0:0:
188,81,138038,1,8,0:0:0:0:
188,80,138106,1,0,0:0:0:0:
188,87,138174,1,0,0:0:0:0:
187,87,138242,1,8,0:0:0:0:
188,87,138310,1,8,0:0:0:0:
187,87,138379,1,0,0:0:0:0:
181,65,138515,1,8,0:0:0:0:
181,65,138583,1,0,0:0:0:0:
181,65,138651,1,8,0:0:0:0:
176,47,138788,1,8,0:0:0:0:
176,47,138924,1,0,0:0:0:0:
130,95,139197,1,0,0:0:0:0:
130,95,139333,1,8,0:0:0:0:
149,97,139606,1,8,0:0:0:0:
149,97,139742,1,0,0:0:0:0:
187,61,140015,1,0,0:0:0:0:
186,70,140560,1,8,0:0:0:0:
186,70,141106,1,4,0:0:0:0:
155,159,141924,1,8,0:0:0:0:
155,159,142060,1,0,0:0:0:0:
154,156,143015,1,8,0:0:0:0:
154,156,143151,1,0,0:0:0:0:
154,148,143288,1,12,0:0:0:0:
154,148,143697,1,12,0:0:0:0:
149,94,144106,1,8,0:0:0:0:
149,94,144242,1,0,0:0:0:0:
148,97,145197,1,0,0:0:0:0:
148,97,145333,1,8,0:0:0:0:
148,97,145470,1,12,0:0:0:0:
148,97,145879,1,12,0:0:0:0:
148,97,147106,1,0,0:0:0:0:
148,97,147651,1,12,0:0:0:0:
148,97,148060,1,12,0:0:0:0:
148,97,148742,1,8,0:0:0:0:
147,95,149833,1,12,0:0:0:0:
147,95,150242,1,12,0:0:0:0:
147,95,150651,1,8,0:0:0:0:
147,95,150788,1,0,0:0:0:0:
146,93,151742,1,8,0:0:0:0:
146,93,151879,1,0,0:0:0:0:
146,93,152015,1,12,0:0:0:0:
146,93,152424,1,12,0:0:0:0:
122,213,152833,1,8,0:0:0:0:
122,213,152970,1,0,0:0:0:0:
141,199,153924,1,0,0:0:0:0:
141,199,154060,1,8,0:0:0:0:
141,199,154197,1,12,0:0:0:0:
141,199,154606,1,12,0:0:0:0:
161,192,155833,1,0,0:0:0:0:
161,192,156379,1,12,0:0:0:0:
161,192,156788,1,12,0:0:0:0:
161,192,157106,1,8,0:0:0:0:
156,57,157288,1,0,0:0:0:0:
156,57,157470,1,8,0:0:0:0:
181,49,158197,1,0,0:0:0:0:
181,49,158379,1,8,0:0:0:0:
181,49,158560,1,12,0:0:0:0:
156,98,158970,1,12,0:0:0:0:
172,96,160060,1,0,0:0:0:0:
172,96,160401,1,8,0:0:0:0:
172,96,160742,1,12,0:0:0:0:
170,105,161151,1,12,0:0:0:0:
165,103,162242,1,8,0:0:0:0:
165,103,162583,1,0,0:0:0:0:
165,103,162924,1,12,0:0:0:0:
172,117,163333,1,12,0:0:0:0:
148,123,164424,1,0,0:0:0:0:
148,123,164765,1,8,0:0:0:0:
148,123,165106,1,0,0:0:0:0:
181,130,166197,1,0,0:0:0:0:
168,150,166742,1,8,0:0:0:0:
168,150,167288,1,0,0:0:0:0:
176,69,167560,1,8,0:0:0:0:
166,89,167697,1,0,0:0:0:0:
176,69,167970,1,0,0:0:0:0:
176,69,168106,1,8,0:0:0:0:
176,69,168242,1,0,0:0:0:0:
176,69,168379,1,0,0:0:0:0:
174,68,168515,1,8,0:0:0:0:
175,70,168583,1,8,0:0:0:0:
176,69,168651,1,8,0:0:0:0:
176,69,168720,1,8,0:0:0:0:
150,97,168788,1,0,0:0:0:0:
171,107,168924,1,0,0:0:0:0:
168,107,169060,1,0,0:0:0:0:
150,97,169197,1,8,0:0:0:0:
150,97,169470,1,0,0:0:0:0:
191,47,169742,1,8,0:0:0:0:
195,132,169879,1,0,0:0:0:0:
163,78,170151,1,0,0:0:0:0:
162,79,170288,1,8,0:0:0:0:
161,81,170356,1,8,0:0:0:0:
163,78,170424,1,0,0:0:0:0:
163,78,170560,1,0,0:0:0:0:
163,78,170697,1,0,0:0:0:0:
163,78,170833,1,8,0:0:0:0:
152,76,170901,1,8,0:0:0:0:
161,82,170970,1,8,0:0:0:0:
162,79,171106,1,0,0:0:0:0:
161,89,171242,1,0,0:0:0:0:
161,89,171379,1,8,0:0:0:0:
161,89,171515,1,0,0:0:0:0:
161,89,171583,1,0,0:0:0:0:
191,72,171651,1,8,0:0:0:0:
201,120,171924,1,8,0:0:0:0:
221,115,172197,1,8,0:0:0:0:
191,83,172470,1,8,0:0:0:0:
191,83,172742,1,8,0:0:0:0:
191,83,173015,1,8,0:0:0:0:
204,112,173288,1,8,0:0:0:0:
176,75,173560,1,8,0:0:0:0:
184,72,173833,1,8,0:0:0:0:
184,72,173970,1,8,0:0:0:0:
184,72,174106,1,8,0:0:0:0:
184,72,174242,1,8,0:0:0:0:
184,72,174379,1,8,0:0:0:0:
184,72,174515,1,8,0:0:0:0:
184,72,174651,1,8,0:0:0:0:
184,72,174788,1,8,0:0:0:0:
184,72,174924,1,8,0:0:0:0:
184,72,174992,1,8,0:0:0:0:
191,79,175060,1,8,0:0:0:0:
191,79,175129,1,8,0:0:0:0:
191,80,175197,1,0,0:0:0:0:
184,72,175265,1,0,0:0:0:0:
191,79,175333,1,0,0:0:0:0:
184,72,175401,1,0,0:0:0:0:
191,79,175470,1,8,0:0:0:0:
191,80,175538,1,8,0:0:0:0:
190,82,175606,1,8,0:0:0:0:
184,72,175674,1,8,0:0:0:0:
191,80,175742,1,0,0:0:0:0:
190,82,175810,1,0,0:0:0:0:
184,72,175879,1,0,0:0:0:0:
191,79,175947,1,0,0:0:0:0:
184,72,176015,1,8,0:0:0:0:
156,106,177106,1,0,0:0:0:0:
156,106,177174,1,0,0:0:0:0:
156,106,177242,1,8,0:0:0:0:
156,106,177310,1,8,0:0:0:0:
156,106,177379,1,0,0:0:0:0:
156,106,177447,1,0,0:0:0:0:
151,106,177515,1,0,0:0:0:0:
156,106,177583,1,0,0:0:0:0:
151,106,177651,1,8,0:0:0:0:
156,106,177720,1,8,0:0:0:0:
151,106,177788,1,0,0:0:0:0:
156,106,177856,1,0,0:0:0:0:
151,106,177924,1,8,0:0:0:0:
156,106,177992,1,8,0:0:0:0:
151,106,178060,1,8,0:0:0:0:
156,106,178129,1,8,0:0:0:0:
151,106,178197,1,0,0:0:0:0:
126,106,178333,1,0,0:0:0:0:
173,80,178470,1,8,0:0:0:0:
126,106,178606,1,0,0:0:0:0:
126,106,178674,1,0,0:0:0:0:
126,106,178742,1,8,0:0:0:0:
126,106,178810,1,8,0:0:0:0:
126,106,178879,1,0,0:0:0:0:
166,41,179015,1,0,0:0:0:0:
166,41,179151,1,8,0:0:0:0:
157,55,179288,1,0,0:0:0:0:
157,55,179424,1,0,0:0:0:0:
157,55,179560,1,8,0:0:0:0:
176,47,179697,1,8,0:0:0:0:
179,52,179765,1,8,0:0:0:0:
176,47,179833,1,0,0:0:0:0:
176,47,179970,1,0,0:0:0:0:
169,93,180106,1,8,0:0:0:0:
160,71,180242,1,8,0:0:0:0:
160,71,180379,1,0,0:0:0:0:
168,56,180651,1,8,0:0:0:0:
199,62,180788,1,8,0:0:0:0:
199,62,180856,1,0,0:0:0:0:
199,62,180924,1,8,0:0:0:0:
199,62,180992,1,8,0:0:0:0:
199,62,181060,1,0,0:0:0:0:
214,36,181197,1,0,0:0:0:0:
214,36,181333,1,8,0:0:0:0:
214,36,181470,1,0,0:0:0:0:
187,70,181538,1,8,0:0:0:0:
186,63,181606,1,0,0:0:0:0:
167,62,181742,1,8,0:0:0:0:
194,81,181879,1,0,0:0:0:0:
187,70,181947,1,8,0:0:0:0:
187,70,182015,1,0,0:0:0:0:
194,81,182083,1,0,0:0:0:0:
188,74,182151,1,8,0:0:0:0:
193,39,182220,1,0,0:0:0:0:
195,76,182288,1,8,0:0:0:0:
192,86,182356,1,8,0:0:0:0:
190,84,182424,1,8,0:0:0:0:
207,48,182492,1,8,0:0:0:0:
195,76,182560,1,0,0:0:0:0:
229,68,182697,1,0,0:0:0:0:
164,97,182765,1,0,0:0:0:0:
229,68,182833,1,8,0:0:0:0:
162,90,182901,1,8,0:0:0:0:
164,97,182970,1,0,0:0:0:0:
176,56,183106,1,0,0:0:0:0:
176,56,183242,1,8,0:0:0:0:
192,58,183379,1,0,0:0:0:0:
180,72,183447,1,0,0:0:0:0:
190,59,183515,1,8,0:0:0:0:
179,72,183583,1,0,0:0:0:0:
179,72,183651,1,8,0:0:0:0:
179,105,183720,1,8,0:0:0:0:
198,54,183788,1,0,0:0:0:0:
179,105,183856,1,0,0:0:0:0:
198,54,183924,1,8,0:0:0:0:
198,54,183992,1,8,0:0:0:0:
198,54,184060,1,8,0:0:0:0:
211,112,184106,1,8,0:0:0:0:
211,112,184151,1,8,0:0:0:0:
198,54,184197,1,0,0:0:0:0:
216,57,184265,1,0,0:0:0:0:
226,52,184333,1,8,0:0:0:0:
177,37,184401,1,8,0:0:0:0:
226,52,184470,1,0,0:0:0:0:
177,37,184538,1,0,0:0:0:0:
177,37,184606,1,8,0:0:0:0:
214,38,184742,1,0,0:0:0:0:
214,39,184879,1,0,0:0:0:0:
214,39,185015,1,8,0:0:0:0:
185,51,185151,1,8,0:0:0:0:
186,51,185220,1,8,0:0:0:0:
186,48,185288,1,0,0:0:0:0:
186,48,185424,1,0,0:0:0:0:
184,42,185492,1,0,0:0:0:0:
186,44,185560,1,0,0:0:0:0:
184,42,185629,1,0,0:0:0:0:
186,44,185697,1,8,0:0:0:0:
186,44,185833,1,0,0:0:0:0:
171,46,185970,1,8,0:0:0:0:
171,46,186106,1,0,0:0:0:0:
176,19,186174,1,0,0:0:0:0:
172,55,186242,1,0,0:0:0:0:
172,55,186379,1,0,0:0:0:0:
172,55,186515,1,8,0:0:0:0:
207,46,186651,1,8,0:0:0:0:
186,41,186924,1,0,0:0:0:0:
188,38,186970,1,0,0:0:0:0:
174,68,187015,1,0,0:0:0:0:
173,70,187060,1,0,0:0:0:0:
174,68,187129,1,0,0:0:0:0:
173,70,187197,1,8,0:0:0:0:
172,72,187333,1,8,0:0:0:0:
172,76,187401,1,0,0:0:0:0:
174,68,187470,1,8,0:0:0:0:
172,76,187538,1,0,0:0:0:0:
174,68,187606,1,8,0:0:0:0:
194,98,187674,1,8,0:0:0:0:
174,68,187742,1,0,0:0:0:0:
194,98,187879,1,8,0:0:0:0:
189,45,187947,1,8,0:0:0:0:
194,98,188015,1,0,0:0:0:0:
185,72,188151,1,0,0:0:0:0:
185,72,188288,1,8,0:0:0:0:
208,61,188424,1,8,0:0:0:0:
207,61,188560,1,0,0:0:0:0:
149,100,188629,1,0,0:0:0:0:
151,90,188697,1,8,0:0:0:0:
149,100,188765,1,0,0:0:0:0:
149,100,188833,1,8,0:0:0:0:
230,153,188901,1,0,0:0:0:0:
160,124,188970,1,8,0:0:0:0:
160,124,189106,1,0,0:0:0:0:
178,91,189242,1,0,0:0:0:0:
178,91,189379,1,8,0:0:0:0:
185,90,189515,1,0,0:0:0:0:
185,90,189583,1,0,0:0:0:0:
185,90,189651,1,8,0:0:0:0:
183,93,189720,1,8,0:0:0:0:
183,94,189788,1,0,0:0:0:0:
160,124,189924,1,0,0:0:0:0:
160,124,190060,1,8,0:0:0:0:
160,124,190197,1,0,0:0:0:0:
178,91,190265,1,0,0:0:0:0:
180,80,190333,1,0,0:0:0:0:
180,80,190470,1,8,0:0:0:0:
192,58,190606,1,0,0:0:0:0:
196,57,190674,1,0,0:0:0:0:
153,53,190810,1,0,0:0:0:0:
153,53,190879,1,0,0:0:0:0:
153,53,191015,1,8,0:0:0:0:
162,31,191083,1,8,0:0:0:0:
186,55,191151,1,0,0:0:0:0:
164,42,191220,1,8,0:0:0:0:
186,55,191288,1,0,0:0:0:0:
162,31,191356,1,0,0:0:0:0:
162,31,191424,1,8,0:0:0:0:
162,31,191492,1,0,0:0:0:0:
162,31,191560,1,8,0:0:0:0:
207,37,191697,1,0,0:0:0:0:
207,37,191765,1,0,0:0:0:0:
193,60,191833,1,0,0:0:0:0:
193,60,191970,1,8,0:0:0:0:
342,87,192038,1,8,0:0:0:0:
174,60,192106,1,0,0:0:0:0:
204,44,192174,1,0,0:0:0:0:
173,61,192242,1,8,0:0:0:0:
173,61,192379,1,8,0:0:0:0:
150,67,192447,1,8,0:0:0:0:
149,69,192515,1,0,0:0:0:0:
150,67,192651,1,8,0:0:0:0:
156,46,192720,1,0,0:0:0:0:
156,49,192788,1,8,0:0:0:0:
156,46,192856,1,8,0:0:0:0:
156,49,192924,1,0,0:0:0:0:
156,46,192992,1,0,0:0:0:0:
192,67,193060,1,8,0:0:0:0:
152,74,193197,1,0,0:0:0:0:
165,22,193265,1,0,0:0:0:0:
211,51,193333,1,8,0:0:0:0:
211,51,193470,1,8,0:0:0:0:
157,71,193606,1,0,0:0:0:0:
157,70,193674,1,0,0:0:0:0:
157,70,193742,1,0,0:0:0:0:
194,52,193879,1,8,0:0:0:0:
170,15,193947,1,8,0:0:0:0:
170,80,194015,1,0,0:0:0:0:
170,80,194083,1,0,0:0:0:0:
170,80,194151,1,8,0:0:0:0:
170,80,194288,1,0,0:0:0:0:
191,58,194424,1,8,0:0:0:0:
186,67,194560,1,0,0:0:0:0:
213,39,194629,1,0,0:0:0:0:
185,67,194697,1,0,0:0:0:0:
185,66,194765,1,8,0:0:0:0:
185,67,194833,1,0,0:0:0:0:
213,39,194901,1,0,0:0:0:0:
187,86,194970,1,8,0:0:0:0:
187,86,195106,1,0,0:0:0:0:
188,34,195174,1,0,0:0:0:0:
188,36,195242,1,0,0:0:0:0:
188,34,195310,1,0,0:0:0:0:
188,34,195379,1,8,0:0:0:0:
182,57,195515,1,0,0:0:0:0:
183,74,195651,1,4,0:0:0:0:
224,87,195788,1,0,0:0:0:0:
224,87,195856,1,0,0:0:0:0:
224,87,195924,1,0,0:0:0:0:
191,55,195992,1,0,0:0:0:0:
188,55,196060,1,8,0:0:0:0:
183,80,196197,1,8,0:0:0:0:
187,92,196333,1,8,0:0:0:0:
187,92,196470,1,0,0:0:0:0:
187,92,196606,1,0,0:0:0:0:
205,31,196674,1,0,0:0:0:0:
205,31,196742,1,8,0:0:0:0:
216,50,196810,1,8,0:0:0:0:
187,115,196879,1,0,0:0:0:0:
180,123,196947,1,0,0:0:0:0:
187,115,197015,1,8,0:0:0:0:
176,126,197083,1,8,0:0:0:0:
187,115,197151,1,8,0:0:0:0:
176,126,197220,1,8,0:0:0:0:
176,126,197288,1,0,0:0:0:0:
172,134,197424,1,8,0:0:0:0:
176,126,197492,1,0,0:0:0:0:
176,126,197560,1,8,0:0:0:0:
173,134,197629,1,0,0:0:0:0:
176,126,197697,1,8,0:0:0:0:
173,134,197833,1,0,0:0:0:0:
205,106,198106,1,8,0:0:0:0:
206,87,198242,1,8,0:0:0:0:
206,87,198310,1,8,0:0:0:0:
206,87,198379,1,0,0:0:0:0:
206,87,198447,1,8,0:0:0:0:
206,87,198515,1,0,0:0:0:0:
205,29,198651,1,0,0:0:0:0:
205,29,198788,1,8,0:0:0:0:
205,81,198924,1,8,0:0:0:0:
205,81,199060,1,0,0:0:0:0:
205,81,199197,1,8,0:0:0:0:
200,77,199333,1,0,0:0:0:0:
196,82,199401,1,0,0:0:0:0:
200,77,199470,1,0,0:0:0:0:
196,82,199538,1,0,0:0:0:0:
200,77,199606,1,0,0:0:0:0:
175,48,199674,1,0,0:0:0:0:
201,87,199742,1,8,0:0:0:0:
175,48,199879,1,8,0:0:0:0:
175,48,200015,1,0,0:0:0:0:
187,111,200151,1,8,0:0:0:0:
187,111,200220,1,0,0:0:0:0:
187,111,200288,1,8,0:0:0:0:
187,111,200356,1,8,0:0:0:0:
187,111,200424,1,0,0:0:0:0:
67,148,200470,1,0,0:0:0:0:
81,146,200515,1,0,0:0:0:0:
161,60,200560,1,8,0:0:0:0:
179,19,200629,1,8,0:0:0:0:
161,60,200697,1,0,0:0:0:0:
161,60,200833,1,8,0:0:0:0:
169,79,200901,1,8,0:0:0:0:
169,79,200970,1,0,0:0:0:0:
169,79,201038,1,0,0:0:0:0:
169,79,201106,1,8,0:0:0:0:
166,39,201174,1,0,0:0:0:0:
159,45,201242,1,8,0:0:0:0:
166,39,201310,1,0,0:0:0:0:
159,45,201379,1,8,0:0:0:0:
166,40,201447,1,8,0:0:0:0:
151,46,201515,1,0,0:0:0:0:
150,45,201583,1,8,0:0:0:0:
151,46,201651,1,0,0:0:0:0:
132,37,201720,1,0,0:0:0:0:
132,37,201788,1,8,0:0:0:0:
132,37,201856,1,0,0:0:0:0:
132,37,201924,1,8,0:0:0:0:
185,46,201992,1,0,0:0:0:0:
183,45,202060,1,8,0:0:0:0:
184,46,202197,1,0,0:0:0:0:
164,63,202333,1,0,0:0:0:0:
166,62,202401,1,0,0:0:0:0:
164,63,202470,1,8,0:0:0:0:
201,54,202606,1,0,0:0:0:0:
197,56,202674,1,0,0:0:0:0:
201,54,202742,1,8,0:0:0:0:
197,56,202810,1,8,0:0:0:0:
200,54,202879,1,0,0:0:0:0:
200,54,203015,1,0,0:0:0:0:
200,20,203151,1,8,0:0:0:0:
200,20,203288,1,0,0:0:0:0:
189,52,203424,1,0,0:0:0:0:
187,52,203492,1,0,0:0:0:0:
189,52,203560,1,8,0:0:0:0:
154,66,203697,1,0,0:0:0:0:
152,74,203765,1,8,0:0:0:0:
154,66,203833,1,8,0:0:0:0:
154,66,203901,1,0,0:0:0:0:
152,74,203970,1,8,0:0:0:0:
151,77,204038,1,0,0:0:0:0:
205,71,204106,1,8,0:0:0:0:
203,73,204174,1,8,0:0:0:0:
207,25,204242,1,0,0:0:0:0:
205,71,204379,1,0,0:0:0:0:
198,92,204515,1,0,0:0:0:0:
198,92,204651,1,0,0:0:0:0:
198,92,204788,1,8,0:0:0:0:
181,81,204924,1,0,0:0:0:0:
181,81,204992,1,0,0:0:0:0:
181,81,205060,1,8,0:0:0:0:
181,81,205129,1,8,0:0:0:0:
181,81,205197,1,0,0:0:0:0:
159,75,205333,1,8,0:0:0:0:
159,75,205470,1,4,0:0:0:0:
176,58,206151,1,0,0:0:0:0:
185,33,206197,1,0,0:0:0:0:
167,117,206242,1,0,0:0:0:0:
176,58,206288,1,0,0:0:0:0:
176,58,206424,1,8,0:0:0:0:
176,58,206560,1,0,0:0:0:0:
177,69,206697,1,0,0:0:0:0:
177,69,206833,1,8,0:0:0:0:
177,69,206970,1,0,0:0:0:0:
153,67,207038,1,8,0:0:0:0:
156,62,207106,1,0,0:0:0:0:
148,77,207174,1,8,0:0:0:0:
178,26,207242,1,0,0:0:0:0:
163,65,207379,1,0,0:0:0:0:
177,47,207515,1,8,0:0:0:0:
177,47,207651,1,8,0:0:0:0:
148,163,207720,1,8,0:0:0:0:
200,31,207788,1,0,0:0:0:0:
200,31,207924,1,8,0:0:0:0:
147,171,208060,1,0,0:0:0:0:
147,171,208129,1,0,0:0:0:0:
160,119,208265,1,0,0:0:0:0:
160,119,208333,1,0,0:0:0:0:
160,119,208470,1,0,0:0:0:0:
160,119,208538,1,0,0:0:0:0:
160,119,208606,1,8,0:0:0:0:
160,119,208674,1,8,0:0:0:0:
160,119,208742,1,0,0:0:0:0:
154,79,209015,1,8,0:0:0:0:
154,79,209151,1,8,0:0:0:0:
170,52,209220,1,0,0:0:0:0:
172,48,209288,1,8,0:0:0:0:
172,48,209356,1,8,0:0:0:0:
170,52,209424,1,0,0:0:0:0:
209,49,209560,1,0,0:0:0:0:
209,49,209697,1,8,0:0:0:0:
174,74,209833,1,8,0:0:0:0:
174,79,209901,1,8,0:0:0:0:
174,74,209970,1,0,0:0:0:0:
174,79,210038,1,0,0:0:0:0:
174,74,210106,1,8,0:0:0:0:
186,77,210242,1,8,0:0:0:0:
185,75,210379,1,0,0:0:0:0:
185,75,210447,1,0,0:0:0:0:
163,57,210515,1,0,0:0:0:0:
165,57,210583,1,0,0:0:0:0:
165,57,210651,1,8,0:0:0:0:
183,60,210788,1,0,0:0:0:0:
186,54,210856,1,8,0:0:0:0:
183,60,210924,1,0,0:0:0:0:
178,81,211060,1,0,0:0:0:0:
178,81,211197,1,8,0:0:0:0:
155,68,211333,1,0,0:0:0:0:
155,71,211401,1,8,0:0:0:0:
155,68,211470,1,0,0:0:0:0:
155,71,211538,1,8,0:0:0:0:
155,68,211606,1,0,0:0:0:0:
166,44,211674,1,0,0:0:0:0:
186,70,211742,1,0,0:0:0:0:
166,44,211810,1,0,0:0:0:0:
186,70,211879,1,8,0:0:0:0:
186,70,212015,1,8,0:0:0:0:
174,59,212151,1,8,0:0:0:0:
174,59,212288,1,8,0:0:0:0:
209,46,212424,1,8,0:0:0:0:
209,46,212492,1,8,0:0:0:0:
209,46,212560,1,0,0:0:0:0:
178,40,212697,1,0,0:0:0:0:
178,40,212765,1,0,0:0:0:0:
183,41,212833,1,8,0:0:0:0:
182,41,212901,1,0,0:0:0:0:
183,41,212970,1,8,0:0:0:0:
184,57,213038,1,8,0:0:0:0:
182,41,213106,1,0,0:0:0:0:
186,114,213379,1,8,0:0:0:0:
186,114,213651,1,8,0:0:0:0:
186,114,213788,1,8,0:0:0:0:
186,114,214470,1,8,0:0:0:0:
186,114,214879,1,8,0:0:0:0:
212,108,215015,1,8,0:0:0:0:
170,127,215287,1,8,0:0:0:0:
170,127,215423,1,8,0:0:0:0:
170,127,215560,1,8,0:0:0:0:
189,89,216106,1,8,0:0:0:0:
181,75,216515,1,8,0:0:0:0:
181,75,216651,1,8,0:0:0:0:
189,89,216924,1,8,0:0:0:0:
196,77,217060,1,8,0:0:0:0:
188,87,217333,1,8,0:0:0:0:
189,89,217606,1,8,0:0:0:0:
189,89,217742,1,8,0:0:0:0:
189,93,218015,1,8,0:0:0:0:
189,93,218151,1,8,0:0:0:0:
189,93,218833,1,8,0:0:0:0:
189,93,219242,1,8,0:0:0:0:
189,93,219379,1,8,0:0:0:0:
203,76,219924,1,8,0:0:0:0:
203,76,220470,1,8,0:0:0:0:
203,81,220742,1,8,0:0:0:0:
203,81,220879,1,8,0:0:0:0:
203,81,221015,1,8,0:0:0:0:
203,81,221151,1,8,0:0:0:0:
203,81,221288,1,8,0:0:0:0:
203,81,221424,1,8,0:0:0:0:
203,81,221560,1,8,0:0:0:0:
203,81,221697,1,8,0:0:0:0:
203,81,221833,1,0,0:0:0:0:
218,122,222106,1,8,0:0:0:0:
276,76,222242,1,0,0:0:0:0:
218,122,222379,1,8,0:0:0:0:
218,122,222515,1,8,0:0:0:0:
260,117,222651,1,0,0:0:0:0:
260,117,222788,1,8,0:0:0:0:
260,117,222924,1,0,0:0:0:0:
224,138,223197,1,8,0:0:0:0:
224,138,223333,1,0,0:0:0:0:
224,138,223470,1,0,0:0:0:0:
224,138,223538,1,0,0:0:0:0:
224,138,223606,1,8,0:0:0:0:
180,89,223742,1,8,0:0:0:0:
180,89,223879,1,0,0:0:0:0:
179,67,223947,1,0,0:0:0:0:
179,67,224015,1,0,0:0:0:0:
181,110,224151,1,8,0:0:0:0:
181,110,224288,1,8,0:0:0:0:
165,112,224560,1,0,0:0:0:0:
176,42,224629,1,0,0:0:0:0:
177,50,224697,1,8,0:0:0:0:
165,112,224833,1,8,0:0:0:0:
175,51,224970,1,0,0:0:0:0:
173,36,225242,1,0,0:0:0:0:
173,36,225379,1,8,0:0:0:0:
179,93,225515,1,0,0:0:0:0:
179,93,225651,1,0,0:0:0:0:
179,93,225788,1,0,0:0:0:0:
186,59,225924,1,8,0:0:0:0:
188,111,226197,1,0,0:0:0:0:
188,111,226333,1,8,0:0:0:0:
188,111,226470,1,8,0:0:0:0:
182,74,226606,1,0,0:0:0:0:
182,74,226742,1,8,0:0:0:0:
182,74,226879,1,0,0:0:0:0:
189,53,226947,1,0,0:0:0:0:
182,74,227015,1,0,0:0:0:0:
177,70,227083,1,0,0:0:0:0:
186,29,227151,1,8,0:0:0:0:
180,97,227288,1,0,0:0:0:0:
180,98,227424,1,0,0:0:0:0:
208,46,227492,1,0,0:0:0:0:
180,98,227560,1,8,0:0:0:0:
201,56,227697,1,0,0:0:0:0:
198,58,227765,1,0,0:0:0:0:
201,56,227833,1,0,0:0:0:0:
201,56,227970,1,8,0:0:0:0:
164,64,228106,1,8,0:0:0:0:
164,64,228242,1,0,0:0:0:0:
156,31,228310,1,0,0:0:0:0:
156,31,228379,1,0,0:0:0:0:
160,60,228515,1,0,0:0:0:0:
160,60,228651,1,8,0:0:0:0:
160,60,228788,1,0,0:0:0:0:
171,36,228856,1,0,0:0:0:0:
171,36,228924,1,0,0:0:0:0:
171,36,228992,1,0,0:0:0:0:
171,32,229060,1,8,0:0:0:0:
165,44,229197,1,8,0:0:0:0:
165,44,229333,1,0,0:0:0:0:
256,192,229470,12,0,230424,0:0:0:0:
166,110,230560,5,12,0:0:0:0:
172,106,230697,1,0,0:0:0:0:
172,106,230833,1,8,0:0:0:0:
172,105,230970,1,0,0:0:0:0:
171,108,231038,1,0,0:0:0:0:
171,106,231106,1,0,0:0:0:0:
171,109,231174,1,8,0:0:0:0:
171,109,231242,1,0,0:0:0:0:
171,107,231379,1,0,0:0:0:0:
166,110,231447,1,8,0:0:0:0:
172,106,231515,1,0,0:0:0:0:
172,106,231583,1,0,0:0:0:0:
172,106,231651,1,8,0:0:0:0:
172,105,231720,1,8,0:0:0:0:
172,105,231788,1,0,0:0:0:0:
168,102,231856,1,0,0:0:0:0:
171,108,231924,1,8,0:0:0:0:
168,102,231992,1,0,0:0:0:0:
171,109,232060,1,8,0:0:0:0:
171,109,232129,1,0,0:0:0:0:
171,107,232197,1,8,0:0:0:0:
166,118,232265,1,8,0:0:0:0:
166,122,232333,1,0,0:0:0:0:
166,118,232401,1,8,0:0:0:0:
166,118,232470,1,0,0:0:0:0:
166,122,232538,1,0,0:0:0:0:
166,119,232606,1,8,0:0:0:0:
166,122,232674,1,8,0:0:0:0:
168,102,232742,1,0,0:0:0:0:
164,127,232879,1,0,0:0:0:0:
164,127,233015,1,8,0:0:0:0:
164,127,233151,1,0,0:0:0:0:
164,127,233220,1,8,0:0:0:0:
203,44,233288,1,0,0:0:0:0:
163,128,233356,1,8,0:0:0:0:
179,103,233424,1,0,0:0:0:0:
181,101,233560,1,8,0:0:0:0:
181,103,233629,1,8,0:0:0:0:
181,101,233697,1,0,0:0:0:0:
181,103,233765,1,0,0:0:0:0:
181,101,233833,1,8,0:0:0:0:
179,103,233901,1,8,0:0:0:0:
181,103,233970,1,0,0:0:0:0:
186,109,234038,1,8,0:0:0:0:
181,103,234106,1,0,0:0:0:0:
186,109,234174,1,0,0:0:0:0:
181,103,234242,1,8,0:0:0:0:
186,109,234310,1,8,0:0:0:0:
181,101,234379,1,0,0:0:0:0:
181,103,234447,1,0,0:0:0:0:
186,109,234515,1,8,0:0:0:0:
186,109,234583,1,0,0:0:0:0:
186,109,234651,1,0,0:0:0:0:
181,103,234720,1,8,0:0:0:0:
186,109,234788,1,0,0:0:0:0:
181,103,234856,1,0,0:0:0:0:
186,109,234924,1,8,0:0:0:0:
186,109,235060,1,0,0:0:0:0:
186,108,235129,1,8,0:0:0:0:
186,109,235265,1,0,0:0:0:0:
186,109,235333,1,8,0:0:0:0:
181,77,235470,1,0,0:0:0:0:
181,77,235606,1,8,0:0:0:0:
179,61,235674,1,8,0:0:0:0:
181,77,235742,1,0,0:0:0:0:
225,95,235810,1,0,0:0:0:0:
179,61,235879,1,0,0:0:0:0:
180,60,235947,1,8,0:0:0:0:
179,61,236015,1,0,0:0:0:0:
180,60,236151,1,0,0:0:0:0:
180,60,236288,1,8,0:0:0:0:
180,60,236424,1,8,0:0:0:0:
179,61,236492,1,8,0:0:0:0:
180,60,236560,1,0,0:0:0:0:
190,82,236629,1,0,0:0:0:0:
189,81,236697,1,8,0:0:0:0:
190,82,236765,1,0,0:0:0:0:
189,81,236833,1,8,0:0:0:0:
190,82,236901,1,0,0:0:0:0:
190,82,236970,1,8,0:0:0:0:
180,60,237038,1,8,0:0:0:0:
188,45,237106,1,0,0:0:0:0:
151,117,237242,1,0,0:0:0:0:
199,19,237310,1,0,0:0:0:0:
151,117,237379,1,8,0:0:0:0:
184,59,237515,1,8,0:0:0:0:
184,66,237583,1,0,0:0:0:0:
184,59,237651,1,8,0:0:0:0:
184,66,237720,1,8,0:0:0:0:
184,59,237788,1,0,0:0:0:0:
184,76,237924,1,0,0:0:0:0:
184,76,238060,1,8,0:0:0:0:
184,76,238197,1,0,0:0:0:0:
186,82,238470,1,8,0:0:0:0:
193,93,238538,1,8,0:0:0:0:
186,82,238606,1,0,0:0:0:0:
193,93,238674,1,0,0:0:0:0:
186,82,238742,1,8,0:0:0:0:
193,93,238810,1,8,0:0:0:0:
186,82,238879,1,0,0:0:0:0:
193,93,238947,1,0,0:0:0:0:
186,82,239015,1,8,0:0:0:0:
193,93,239083,1,8,0:0:0:0:
193,93,239151,1,8,0:0:0:0:
193,93,239220,1,8,0:0:0:0:
193,93,239288,1,0,0:0:0:0:
206,99,239424,1,0,0:0:0:0:
205,98,239560,1,8,0:0:0:0:
206,99,239697,1,0,0:0:0:0:
206,100,239765,1,0,0:0:0:0:
206,99,239833,1,8,0:0:0:0:
206,99,239970,1,0,0:0:0:0:
175,9,240038,1,0,0:0:0:0:
199,67,240106,1,8,0:0:0:0:
199,67,240174,1,8,0:0:0:0:
199,67,240242,1,0,0:0:0:0:
199,67,240310,1,8,0:0:0:0:
199,67,240379,1,0,0:0:0:0:
214,39,240447,1,0,0:0:0:0:
214,39,240515,1,8,0:0:0:0:
214,39,240583,1,8,0:0:0:0:
214,39,240651,1,0,0:0:0:0:
187,23,240720,1,0,0:0:0:0:
187,23,240788,1,8,0:0:0:0:
187,23,240856,1,0,0:0:0:0:
187,23,240924,1,8,0:0:0:0:
179,24,240992,1,8,0:0:0:0:
179,24,241060,1,0,0:0:0:0:
179,24,241129,1,8,0:0:0:0:
179,24,241197,1,0,0:0:0:0:
208,47,241265,1,0,0:0:0:0:
208,47,241333,1,8,0:0:0:0:
208,47,241401,1,8,0:0:0:0:
208,47,241470,1,0,0:0:0:0:
179,45,241606,1,0,0:0:0:0:
179,45,241742,1,8,0:0:0:0:
156,42,241879,1,0,0:0:0:0:
156,37,241947,1,0,0:0:0:0:
156,38,242015,1,0,0:0:0:0:
161,11,242151,1,8,0:0:0:0:
197,67,242185,1,8,0:0:0:0:
161,11,242288,1,0,0:0:0:0:
179,45,242356,1,8,0:0:0:0:
161,11,242424,1,0,0:0:0:0:
190,54,242492,1,0,0:0:0:0:
191,40,242560,1,8,0:0:0:0:
125,91,242606,1,8,0:0:0:0:
125,91,242651,1,8,0:0:0:0:
191,40,242697,1,0,0:0:0:0:
186,30,242765,1,0,0:0:0:0:
189,48,242833,1,8,0:0:0:0:
189,48,242901,1,0,0:0:0:0:
189,48,242970,1,8,0:0:0:0:
189,48,243038,1,8,0:0:0:0:
189,48,243106,1,0,0:0:0:0:
188,52,243242,1,8,0:0:0:0:
176,63,243310,1,8,0:0:0:0:
190,54,243379,1,8,0:0:0:0:
166,101,243447,1,8,0:0:0:0:
180,71,243515,1,8,0:0:0:0:
156,74,243583,1,8,0:0:0:0:
166,101,243651,1,0,0:0:0:0:
171,97,243924,1,8,0:0:0:0:
157,107,244060,1,0,0:0:0:0:
158,106,244129,1,8,0:0:0:0:
157,107,244197,1,8,0:0:0:0:
158,106,244265,1,8,0:0:0:0:
157,107,244333,1,0,0:0:0:0:
183,32,244470,1,0,0:0:0:0:
183,32,244606,1,8,0:0:0:0:
183,32,244742,1,8,0:0:0:0:
169,48,244810,1,8,0:0:0:0:
168,49,244879,1,0,0:0:0:0:
187,46,245015,1,8,0:0:0:0:
187,46,245083,1,0,0:0:0:0:
187,46,245151,1,8,0:0:0:0:
187,46,245220,1,8,0:0:0:0:
187,46,245288,1,0,0:0:0:0:
183,32,245356,1,0,0:0:0:0:
183,27,245424,1,8,0:0:0:0:
183,32,245492,1,8,0:0:0:0:
183,27,245560,1,0,0:0:0:0:
162,8,245629,1,0,0:0:0:0:
183,27,245697,1,8,0:0:0:0:
181,8,245833,1,0,0:0:0:0:
181,8,245970,1,8,0:0:0:0:
175,66,246106,1,8,0:0:0:0:
175,66,246242,1,8,0:0:0:0:
175,66,246379,1,8,0:0:0:0:
175,66,246515,1,8,0:0:0:0:
175,66,246651,1,8,0:0:0:0:
153,59,246788,1,8,0:0:0:0:
153,59,246924,1,8,0:0:0:0:
194,47,246992,1,8,0:0:0:0:
193,52,247060,1,0,0:0:0:0:
194,47,247129,1,0,0:0:0:0:
193,52,247197,1,8,0:0:0:0:
192,52,247265,1,8,0:0:0:0:
192,52,247333,1,8,0:0:0:0:
172,104,247401,1,8,0:0:0:0:
166,107,247470,1,0,0:0:0:0:
264,103,247504,1,0,0:0:0:0:
166,107,247606,1,8,0:0:0:0:
166,107,247674,1,8,0:0:0:0:
166,107,247742,1,0,0:0:0:0:
166,107,247810,1,0,0:0:0:0:
166,107,247879,1,8,0:0:0:0:
192,52,248015,5,4,0:0:0:0:
198,86,248288,1,8,0:0:0:0:
187,104,248424,1,0,0:0:0:0:
181,107,248492,1,0,0:0:0:0:
185,105,248560,1,0,0:0:0:0:
176,118,248629,1,0,0:0:0:0:
175,118,248697,1,8,0:0:0:0:
174,119,248833,1,8,0:0:0:0:
174,119,248970,1,0,0:0:0:0:
166,52,249038,1,0,0:0:0:0:
174,119,249106,1,0,0:0:0:0:
166,52,249242,1,8,0:0:0:0:
166,52,249310,1,0,0:0:0:0:
180,104,249447,1,8,0:0:0:0:
231,52,249515,1,0,0:0:0:0:
180,104,249651,1,8,0:0:0:0:
242,46,249788,1,8,0:0:0:0:
242,46,249856,1,8,0:0:0:0:
173,77,249924,1,0,0:0:0:0:
177,72,249992,1,0,0:0:0:0:
177,72,250060,1,8,0:0:0:0:
177,72,250197,1,0,0:0:0:0:
181,53,250470,1,8,0:0:0:0:
186,67,250606,1,8,0:0:0:0:
185,70,250674,1,8,0:0:0:0:
186,67,250742,1,8,0:0:0:0:
186,67,250810,1,8,0:0:0:0:
185,70,250879,1,0,0:0:0:0:
167,50,251015,1,0,0:0:0:0:
167,50,251151,1,8,0:0:0:0:
167,50,251288,1,0,0:0:0:0:
181,53,251424,1,8,0:0:0:0:
181,53,251492,1,0,0:0:0:0:
167,50,251629,1,8,0:0:0:0:
167,50,251697,1,0,0:0:0:0:
166,77,251833,1,8,0:0:0:0:
172,89,251901,1,8,0:0:0:0:
172,89,251970,1,0,0:0:0:0:
172,89,252038,1,0,0:0:0:0:
172,89,252106,1,8,0:0:0:0:
181,53,252242,1,8,0:0:0:0:
181,53,252379,1,0,0:0:0:0:
175,67,252651,1,8,0:0:0:0:
177,87,252788,1,0,0:0:0:0:
172,89,252924,1,8,0:0:0:0:
172,89,252992,1,0,0:0:0:0:
174,89,253060,1,0,0:0:0:0:
175,45,253129,1,0,0:0:0:0:
175,45,253197,1,0,0:0:0:0:
159,26,253333,1,8,0:0:0:0:
159,26,253470,1,0,0:0:0:0:
180,57,253606,1,0,0:0:0:0:
180,57,253742,1,8,0:0:0:0:
246,98,253810,1,0,0:0:0:0:
192,62,253879,1,8,0:0:0:0:
182,54,253947,1,0,0:0:0:0:
192,62,254015,1,8,0:0:0:0:
171,56,254083,1,8,0:0:0:0:
192,62,254151,1,8,0:0:0:0:
167,61,254220,1,8,0:0:0:0:
148,52,254288,1,0,0:0:0:0:
160,40,254356,1,0,0:0:0:0:
160,40,254424,1,8,0:0:0:0:
194,44,254560,1,0,0:0:0:0:
194,44,254697,1,0,0:0:0:0:
201,20,254765,1,0,0:0:0:0:
194,44,254833,1,8,0:0:0:0:
177,74,254970,1,0,0:0:0:0:
177,71,255038,1,8,0:0:0:0:
177,74,255106,1,0,0:0:0:0:
177,74,255174,1,8,0:0:0:0:
177,74,255242,1,0,0:0:0:0:
186,43,255379,1,0,0:0:0:0:
185,45,255515,1,8,0:0:0:0:
182,47,255651,1,4,0:0:0:0:
191,129,255833,1,4,0:0:0:0:
191,129,256015,1,4,0:0:0:0:
191,129,256197,1,4,0:0:0:0:
191,129,256379,1,4,0:0:0:0:
191,129,256560,1,4,0:0:0:0:
191,129,256742,1,4,0:0:0:0:
171,126,257015,1,8,0:0:0:0:
173,127,257151,1,0,0:0:0:0:
243,80,257197,1,8,0:0:0:0:
243,80,257242,1,8,0:0:0:0:
313,56,257288,1,0,0:0:0:0:
304,57,257356,1,8,0:0:0:0:
174,127,257424,1,0,0:0:0:0:
165,33,257492,1,0,0:0:0:0:
165,33,257560,1,8,0:0:0:0:
164,41,257697,1,8,0:0:0:0:
164,42,257765,1,8,0:0:0:0:
164,41,257833,1,0,0:0:0:0:
198,52,257970,1,0,0:0:0:0:
198,52,258106,1,8,0:0:0:0:
161,62,258140,1,8,0:0:0:0:
167,47,258242,1,8,0:0:0:0:
161,62,258276,1,8,0:0:0:0:
166,47,258379,1,0,0:0:0:0:
164,17,258413,1,0,0:0:0:0:
146,74,258515,1,8,0:0:0:0:
158,54,258549,1,8,0:0:0:0:
146,74,258651,1,0,0:0:0:0:
187,29,258685,1,0,0:0:0:0:
193,12,258788,1,8,0:0:0:0:
156,34,258924,1,0,0:0:0:0:
176,97,259060,1,0,0:0:0:0:
176,97,259197,1,8,0:0:0:0:
152,73,259333,1,0,0:0:0:0:
153,73,259401,1,8,0:0:0:0:
152,73,259470,1,0,0:0:0:0:
153,73,259538,1,8,0:0:0:0:
152,73,259606,1,0,0:0:0:0:
170,72,259742,1,0,0:0:0:0:
173,50,259810,1,0,0:0:0:0:
170,72,259879,1,8,0:0:0:0:
170,72,260015,1,8,0:0:0:0:
143,31,260083,1,8,0:0:0:0:
160,63,260151,1,0,0:0:0:0:
160,63,260288,1,8,0:0:0:0:
216,112,260424,1,0,0:0:0:0:
216,112,260492,1,8,0:0:0:0:
161,65,260629,1,0,0:0:0:0:
161,67,260697,1,8,0:0:0:0:
171,109,260833,1,0,0:0:0:0:
171,109,260924,1,8,0:0:0:0:
199,57,261015,1,8,0:0:0:0:
199,57,261106,1,0,0:0:0:0:
199,57,261197,1,8,0:0:0:0:
199,57,261288,1,8,0:0:0:0:
199,57,261379,1,0,0:0:0:0:
136,73,261515,1,8,0:0:0:0:
207,42,261549,1,8,0:0:0:0:
136,73,261651,1,0,0:0:0:0:
171,60,261788,1,8,0:0:0:0:
171,60,261822,1,8,0:0:0:0:
171,60,261924,1,0,0:0:0:0:
174,74,262060,1,8,0:0:0:0:
226,43,262095,1,8,0:0:0:0:
174,74,262197,1,8,0:0:0:0:
166,79,262333,1,0,0:0:0:0:
166,79,262470,1,8,0:0:0:0:
252,97,262515,1,8,0:0:0:0:
252,97,262560,1,8,0:0:0:0:
161,82,262606,1,0,0:0:0:0:
161,82,262674,1,0,0:0:0:0:
161,82,262742,1,8,0:0:0:0:
204,101,262879,1,0,0:0:0:0:
204,101,263015,1,0,0:0:0:0:
204,101,263083,1,0,0:0:0:0:
204,101,263151,1,0,0:0:0:0:
204,101,263220,1,0,0:0:0:0:
204,101,263288,1,8,0:0:0:0:
196,78,263424,1,0,0:0:0:0:
121,98,263492,1,0,0:0:0:0:
195,79,263560,1,0,0:0:0:0:
169,75,263697,1,8,0:0:0:0:
121,98,263833,1,0,0:0:0:0:
120,105,263901,1,0,0:0:0:0:
121,98,263970,1,0,0:0:0:0:
120,105,264038,1,0,0:0:0:0:
122,103,264106,1,8,0:0:0:0:
166,81,264242,1,0,0:0:0:0:
186,29,264310,1,0,0:0:0:0:
161,77,264379,1,0,0:0:0:0:
156,85,264515,1,8,0:0:0:0:
173,77,264651,1,0,0:0:0:0:
197,28,264720,1,0,0:0:0:0:
173,77,264788,1,0,0:0:0:0:
173,77,264924,1,8,0:0:0:0:
176,69,265060,1,0,0:0:0:0:
175,70,265197,1,8,0:0:0:0:
176,53,265333,1,8,0:0:0:0:
176,53,265470,1,4,0:0:0:0:
234,193,265742,1,8,0:0:0:0:
234,193,265879,1,0,0:0:0:0:
146,100,265947,1,8,0:0:0:0:
153,94,266015,1,0,0:0:0:0:
176,69,266151,1,0,0:0:0:0:
176,69,266288,1,8,0:0:0:0:
177,92,266424,1,0,0:0:0:0:
177,92,266492,1,0,0:0:0:0:
177,92,266560,1,0,0:0:0:0:
176,95,266833,1,0,0:0:0:0:
177,92,266970,1,8,0:0:0:0:
177,92,267106,1,0,0:0:0:0:
146,100,267379,1,8,0:0:0:0:
146,100,267515,1,8,0:0:0:0:
146,100,267651,1,0,0:0:0:0:
157,110,267924,1,8,0:0:0:0:
157,110,268060,1,0,0:0:0:0:
157,110,268129,1,8,0:0:0:0:
157,110,268197,1,0,0:0:0:0:
176,43,268265,1,8,0:0:0:0:
176,43,268333,1,0,0:0:0:0:
177,65,268470,1,0,0:0:0:0:
176,51,268606,1,8,0:0:0:0:
173,77,268742,1,0,0:0:0:0:
173,79,268810,1,0,0:0:0:0:
183,33,268879,1,0,0:0:0:0:
173,79,269015,1,8,0:0:0:0:
183,63,269151,1,0,0:0:0:0:
183,63,269424,1,0,0:0:0:0:
191,53,269560,1,8,0:0:0:0:
178,75,269833,1,0,0:0:0:0:
176,16,269970,1,0,0:0:0:0:
191,7,270038,1,0,0:0:0:0:
176,82,270106,1,8,0:0:0:0:
165,63,270242,1,8,0:0:0:0:
151,42,270515,1,0,0:0:0:0:
151,44,270651,1,8,0:0:0:0:
156,44,270924,1,0,0:0:0:0:
166,73,271060,1,0,0:0:0:0:
166,73,271129,1,0,0:0:0:0:
166,73,271197,1,0,0:0:0:0:
144,58,271333,1,8,0:0:0:0:
151,44,271470,1,0,0:0:0:0:
156,44,271606,1,0,0:0:0:0:
164,37,271742,1,8,0:0:0:0:
162,108,272015,1,0,0:0:0:0:
162,108,272151,1,0,0:0:0:0:
162,108,272288,1,8,0:0:0:0:
147,82,272424,1,0,0:0:0:0:
147,82,272697,1,0,0:0:0:0:
147,82,272833,1,8,0:0:0:0:
147,82,273106,1,0,0:0:0:0:
142,90,273379,1,0,0:0:0:0:
142,90,273515,1,8,0:0:0:0:
142,90,273651,1,8,0:0:0:0:
142,90,273788,1,0,0:0:0:0:
142,90,273924,1,8,0:0:0:0:
155,97,274197,1,0,0:0:0:0:
166,93,274333,1,0,0:0:0:0:
166,93,274470,1,8,0:0:0:0:
166,93,274606,1,0,0:0:0:0:
166,94,274879,1,0,0:0:0:0:
166,93,275151,1,0,0:0:0:0:
166,93,275424,1,8,0:0:0:0:
146,74,276106,1,8,0:0:0:0:
160,68,277197,1,0,0:0:0:0:
156,90,277742,1,0,0:0:0:0:
156,90,278015,1,8,0:0:0:0:
156,90,278288,1,0,0:0:0:0:
156,90,278560,1,0,0:0:0:0:
156,90,278697,1,0,0:0:0:0:
156,90,278833,1,0,0:0:0:0:
156,90,278970,1,8,0:0:0:0:
141,67,279242,1,0,0:0:0:0:
141,67,279515,1,8,0:0:0:0:
156,48,279924,1,0,0:0:0:0:
156,48,280197,1,0,0:0:0:0:
156,48,280470,1,8,0:0:0:0:
156,48,280742,1,8,0:0:0:0:
166,79,281151,1,0,0:0:0:0:
166,79,281560,1,8,0:0:0:0:
166,79,281833,1,0,0:0:0:0:
166,79,282379,1,8,0:0:0:0:
159,174,282924,1,4,0:0:0:0:
260,192,283288,1,0,0:0:0:0:
232,86,283470,1,8,0:0:0:0:
232,86,283651,1,0,0:0:0:0:
214,96,284015,1,8,0:0:0:0:
214,96,284197,1,0,0:0:0:0:
214,96,284379,1,0,0:0:0:0:
214,96,284560,1,8,0:0:0:0:
214,96,284742,1,0,0:0:0:0:
214,96,285106,1,8,0:0:0:0:
214,96,285288,1,0,0:0:0:0:
214,96,285470,1,0,0:0:0:0:
214,96,285651,1,8,0:0:0:0:
214,96,285833,1,0,0:0:0:0:
214,96,286197,1,8,0:0:0:0:
214,96,286379,1,0,0:0:0:0:
214,96,286560,1,0,0:0:0:0:
214,96,286742,1,8,0:0:0:0:
214,96,286924,1,0,0:0:0:0:
210,100,287106,1,0,0:0:0:0:
214,96,287288,1,8,0:0:0:0:
214,96,287470,1,0,0:0:0:0:
214,96,287651,1,0,0:0:0:0:
214,96,287833,1,8,0:0:0:0:
210,100,288015,1,0,0:0:0:0:
210,100,288379,1,8,0:0:0:0:
208,101,288560,1,0,0:0:0:0:
216,49,288742,1,0,0:0:0:0:
210,100,288924,1,8,0:0:0:0:
210,100,289106,1,0,0:0:0:0:
206,103,289470,1,8,0:0:0:0:
206,103,289651,1,0,0:0:0:0:
217,61,289833,1,0,0:0:0:0:
204,104,290015,1,8,0:0:0:0:
206,103,290197,1,0,0:0:0:0:
204,104,290560,1,8,0:0:0:0:
204,104,290742,1,0,0:0:0:0:
200,51,290924,1,0,0:0:0:0:
201,108,291106,1,8,0:0:0:0:
100,135,291242,1,0,0:0:0:0:
100,135,291379,1,0,0:0:0:0:
100,135,291515,1,8,0:0:0:0:
