osu file format v14

[General]
AudioFilename: audio.mp3
AudioLeadIn: 0
PreviewTime: 70335
Countdown: 0
SampleSet: Normal
StackLeniency: 0.4
Mode: 0
LetterboxInBreaks: 0
WidescreenStoryboard: 1

[Editor]
Bookmarks: 19062,53971,71426,106335,141244,178335,213244,248153,283062
DistanceSpacing: 0.9
BeatDivisor: 4
GridSize: 4
TimelineZoom: 3.199999

[Metadata]
Title:Break The Silence
TitleUnicode:Break The Silence
Artist:Camellia
ArtistUnicode:かめりあ
Creator:Krimek
Version:eXscape
Source:
Tags:INSANE INFLAME KamelCamellia cametek breakcore
BeatmapID:969286
BeatmapSetID:451832

[Difficulty]
HPDrainRate:5.5
CircleSize:4.5
OverallDifficulty:9.2
ApproachRate:9.8
SliderMultiplier:2
SliderTickRate:1

[Events]
//Background and Video events
0,0,"bg.jpg",0,0
//Break Periods
//Storyboard Layer 0 (Background)
//Storyboard Layer 1 (Fail)
//Storyboard Layer 2 (Pass)
//Storyboard Layer 3 (Foreground)
//Storyboard Sound Samples

[TimingPoints]
1608,272.727272727273,4,2,1,30,1,0
1608,-222.222222222222,4,2,1,30,0,0
1880,-285.714285714286,4,2,1,30,0,0
2289,-400,4,2,1,30,0,0
5971,-222.222222222222,4,2,1,30,0,0
6244,-285.714285714286,4,2,1,30,0,0
6517,-400,4,2,1,30,0,0
10335,-222.222222222222,4,2,1,30,0,0
10608,-285.714285714286,4,2,1,30,0,0
11017,-400,4,2,1,30,0,0
14698,-222.222222222222,4,2,1,30,0,0
14971,-285.714285714286,4,2,1,30,0,0
15380,-400,4,2,1,30,0,0
17562,-400,4,2,1,5,0,0
17698,-400,4,2,1,30,0,0
19062,-200,4,2,1,30,0,0
20153,-200,4,2,1,30,0,0
20698,-250,4,2,1,30,0,0
21244,-333.333333333333,4,2,1,30,0,0
21789,-500,4,2,1,30,0,0
21994,-500,4,2,1,5,0,0
22062,-200,4,2,1,30,0,0
22539,-200,4,2,1,5,0,0
22608,-200,4,2,1,30,0,0
23426,-200,4,2,1,30,0,0
24380,-400,4,2,1,30,0,0
26698,-200,4,2,1,30,0,0
27039,-200,4,2,1,5,0,0
27108,-200,4,2,1,30,0,0
27789,-200,4,2,1,30,0,0
28608,-400,4,2,1,30,0,0
31335,-200,4,2,1,30,0,0
32153,-200,4,2,1,30,0,0
32835,-400,4,2,1,30,0,0
32971,-400,4,2,1,5,0,0
33108,-200,4,2,1,30,0,0
34335,-200,4,2,1,30,0,0
35017,-400,4,2,1,30,0,0
35153,-400,4,2,1,5,0,0
35289,-400,4,2,1,30,0,0
35562,-200,4,2,1,30,0,0
35835,-200,4,2,1,35,0,0
35971,-200,4,2,1,40,0,0
36108,-200,4,2,1,45,0,0
36244,-200,4,2,1,50,0,0
36517,-200,4,2,1,30,0,0
38153,-200,4,2,1,30,0,0
38698,-250,4,2,1,30,0,0
39244,-333.333333333333,4,2,1,30,0,0
39517,-200,4,2,1,30,0,0
39994,-200,4,2,1,5,0,0
40062,-200,4,2,1,30,0,0
40539,-200,4,2,1,5,0,0
40608,-200,4,2,1,30,0,0
41562,-400,4,2,1,30,0,0
43880,-200,4,2,1,30,0,0
44494,-200,4,2,1,5,0,0
44562,-200,4,2,1,30,0,0
46062,-400,4,2,1,30,0,0
48789,-200,4,2,1,30,0,0
50289,-400,4,2,1,30,0,0
50903,-400,4,2,1,5,0,0
50971,-200,4,2,1,30,0,0
52130,-200,4,2,1,5,0,0
52198,-200,4,2,1,30,0,0
52539,-200,4,2,1,5,0,0
52608,-200,4,2,1,30,0,0
52812,-200,4,2,1,5,0,0
52880,-200,4,2,1,30,0,0
53971,-200,4,2,1,35,0,0
55062,-200,4,2,2,35,0,0
55608,-200,4,2,1,35,0,0
58062,-200,4,2,2,35,0,0
58335,-166.666666666667,4,2,1,40,0,0
59562,-166.666666666667,4,2,2,40,0,0
59971,-166.666666666667,4,2,1,40,0,0
62698,-142.857142857143,4,2,1,45,0,0
63926,-142.857142857143,4,2,2,45,0,0
64880,-142.857142857143,4,2,1,45,0,0
66244,-142.857142857143,4,2,2,45,0,0
67062,-125,4,2,2,50,0,0
70335,-125,4,2,1,50,0,0
71426,-100,4,1,1,60,0,1
72517,-100,4,1,2,60,0,1
73812,-100,4,1,2,5,0,1
73880,-100,4,1,1,60,0,1
75585,-100,4,1,2,60,0,1
75789,-100,4,1,1,60,0,1
75926,-100,4,1,2,60,0,1
76880,-100,4,1,1,60,0,1
77153,-100,4,1,2,60,0,1
77835,-100,4,1,1,60,0,1
79062,-125,4,1,1,60,0,0
79130,-125,4,1,1,40,0,0
80153,-100,4,1,1,60,0,1
80289,-100,4,1,1,60,0,0
80562,-100,4,1,1,60,0,1
80698,-100,4,1,2,60,0,1
81312,-100,4,1,2,5,0,1
81380,-100,4,1,1,60,0,1
81448,-100,4,1,1,5,0,1
81517,-100,4,1,1,60,0,1
83017,-100,4,1,2,60,0,1
83289,-100,4,1,1,60,0,1
84517,-125,4,2,1,50,0,1
84789,-125,4,1,1,50,0,1
85198,-125,4,1,2,50,0,0
85471,-125,4,1,1,50,0,1
86426,-125,4,1,1,50,0,1
86630,-125,4,1,1,50,0,1
86698,-166.666666666667,4,1,2,40,0,0
87789,-125,4,1,2,40,0,0
88608,-125,4,1,2,45,0,0
88744,-125,4,1,2,50,0,0
88812,-125,4,1,2,55,0,0
88880,-100,4,1,1,60,0,1
89153,-100,4,1,2,60,0,1
89630,-100,4,1,2,5,0,1
89698,-100,4,1,2,60,0,1
90926,-100,4,1,1,60,0,1
90994,-100,4,1,1,5,0,1
91062,-100,4,1,2,60,0,1
91335,-100,4,1,1,60,0,1
92767,-100,4,1,2,60,0,1
93176,-100,4,1,2,5,0,1
93244,-100,4,1,2,60,0,1
93994,-100,4,1,2,5,0,1
94062,-100,4,1,1,60,0,1
94880,-100,4,1,2,60,0,1
95289,-100,4,1,1,60,0,1
95494,-100,4,1,2,60,0,1
95698,-100,4,1,1,60,0,1
95971,-100,4,1,2,60,0,1
97198,-200,4,1,2,60,0,0
97539,-200,4,1,2,5,0,0
97608,-100,4,1,1,60,0,1
98289,-100,4,1,2,60,0,1
98835,-100,4,1,1,60,0,0
99039,-100,4,1,1,5,0,0
99108,-100,4,1,1,60,0,1
99244,-133.333333333333,4,1,1,60,0,1
99517,-80,4,1,1,60,0,1
99789,-100,4,1,1,60,0,1
100812,-100,4,1,1,5,0,1
100880,-100,4,1,1,60,0,1
101426,-100,4,1,2,60,0,1
101971,-125,4,1,1,60,0,1
102653,-125,4,1,2,60,0,1
103608,-125,4,1,1,60,0,1
104153,-125,4,1,2,60,0,1
105244,-125,4,2,1,60,0,0
106335,-200,4,2,1,55,0,0
106812,-200,4,2,1,50,0,0
107289,-200,4,2,1,45,0,0
107767,-200,4,2,1,40,0,0
108244,-200,4,2,1,35,0,0
110698,-166.666666666667,4,2,1,40,0,0
111926,-166.666666666667,4,2,2,40,0,0
112608,-166.666666666667,4,2,1,40,0,0
112812,-166.666666666667,4,2,1,5,0,0
112880,-166.666666666667,4,2,1,40,0,0
113630,-166.666666666667,4,2,1,5,0,0
113698,-166.666666666667,4,2,1,40,0,0
115062,-142.857142857143,4,2,1,35,0,0
116426,-142.857142857143,4,2,2,35,0,0
119426,-125,4,2,2,45,0,0
120108,-200,4,2,2,45,0,0
120380,-125,4,2,2,50,0,0
121608,-125,4,2,1,55,0,0
122698,-250,4,2,1,55,0,0
123721,-250,4,2,1,5,0,0
123789,-100,4,1,1,60,0,1
125017,-100,4,1,2,60,0,1
126176,-100,4,1,2,5,0,1
126244,-100,4,1,1,60,0,1
126653,-100,4,1,2,60,0,1
127335,-100,4,1,1,60,0,1
128289,-100,4,1,1,50,0,1
128562,-100,4,1,2,60,0,1
129244,-100,4,1,1,60,0,1
129517,-100,4,1,2,60,0,1
130335,-100,4,1,1,60,0,1
131426,-125,4,1,1,60,0,0
131494,-125,4,1,1,40,0,0
132176,-125,4,1,1,5,0,0
132244,-125,4,1,1,60,0,1
132312,-125,4,1,1,60,0,0
132380,-125,4,1,1,60,0,1
132448,-125,4,1,1,60,0,0
132517,-100,4,1,1,60,0,1
133608,-100,4,1,2,60,0,1
134903,-100,4,1,2,5,0,1
134971,-100,4,1,1,60,0,1
135789,-100,4,1,2,60,0,1
135994,-100,4,1,1,60,0,1
136335,-100,4,1,2,60,0,1
137971,-100,4,1,1,60,0,1
138244,-100,4,1,2,60,0,1
138994,-100,4,1,2,5,0,1
139062,-200,4,2,1,60,0,0
139608,-153.846153846154,4,2,1,60,0,0
140085,-153.846153846154,4,2,1,5,0,0
140153,-83.3333333333333,4,2,1,60,0,0
140289,-83.3333333333333,4,2,1,5,0,0
140426,-125,4,2,1,60,0,0
141244,-200,4,2,1,60,0,0
141789,-200,4,2,1,55,0,0
142335,-200,4,2,1,50,0,0
142880,-200,4,2,1,45,0,0
143426,-200,4,2,1,40,0,0
144653,-200,4,2,1,30,0,0
145335,-200,4,2,1,40,0,0
145948,-200,4,2,1,5,0,0
146017,-200,4,2,1,40,0,0
146835,-200,4,2,2,40,0,0
147244,-200,4,2,1,40,0,0
147721,-200,4,2,1,5,0,0
147789,-200,4,2,1,40,0,0
148130,-200,4,2,1,5,0,0
148198,-200,4,2,1,40,0,0
148608,-200,4,2,1,30,0,0
148880,-200,4,2,1,40,0,0
149835,-200,4,2,1,30,0,0
149971,-200,4,2,1,40,0,0
150312,-200,4,2,1,5,0,0
150380,-200,4,2,1,50,0,0
150721,-200,4,2,1,5,0,0
150789,-200,4,2,1,50,0,0
151130,-200,4,2,1,5,0,0
151198,-200,4,2,2,25,0,0
151608,-200,4,2,1,50,0,0
152494,-200,4,2,1,5,0,0
152562,-200,4,2,1,50,0,0
152903,-200,4,2,1,5,0,0
152971,-200,4,2,1,50,0,0
154676,-200,4,2,1,5,0,0
154744,-200,4,2,1,50,0,0
155562,-200,4,2,2,30,0,0
155971,-200,4,2,1,50,0,0
156858,-200,4,2,1,5,0,0
156926,-200,4,2,1,50,0,0
159039,-200,4,2,1,5,0,0
159108,-200,4,2,1,50,0,0
159448,-200,4,2,1,5,0,0
159517,-200,4,2,1,50,0,0
159926,-200,4,2,2,35,0,0
160130,-200,4,2,1,50,0,0
160403,-200,4,2,1,5,0,0
160471,-200,4,2,1,50,0,0
160812,-200,4,2,1,5,0,0
160880,-200,4,2,1,50,0,0
161221,-200,4,2,1,5,0,0
161289,-200,4,2,1,50,0,0
161630,-200,4,2,1,5,0,0
161698,-200,4,2,1,50,0,0
162653,-200,4,2,1,5,0,0
162721,-200,4,2,1,50,0,0
162994,-200,4,2,1,5,0,0
163062,-200,4,2,1,50,0,0
163403,-200,4,2,1,5,0,0
163471,-200,4,2,1,50,0,0
163812,-200,4,2,1,5,0,0
163880,-200,4,2,1,50,0,0
164289,-200,4,2,2,40,0,0
164494,-200,4,2,1,50,0,0
164767,-200,4,2,1,5,0,0
164835,-200,4,2,1,50,0,0
165176,-200,4,2,1,5,0,0
165244,-200,4,2,1,50,0,0
166198,-200,4,2,1,30,0,0
166335,-200,4,2,1,50,0,0
167426,-200,4,2,1,50,0,0
167767,-200,4,2,1,5,0,0
167835,-200,4,2,1,50,0,0
168517,-200,4,2,2,45,0,0
168789,-200,4,2,1,50,0,0
169130,-200,4,2,1,5,0,0
169198,-200,4,2,1,50,0,0
169539,-200,4,2,1,5,0,0
169608,-166.666666666667,4,2,1,50,0,0
169948,-166.666666666667,4,2,1,5,0,0
170017,-166.666666666667,4,2,1,50,0,0
170358,-166.666666666667,4,2,1,5,0,0
170426,-166.666666666667,4,2,2,50,0,0
171789,-142.857142857143,4,2,2,50,0,0
172335,-142.857142857143,4,2,2,50,0,0
173971,-125,4,2,2,50,0,0
175880,-200,4,2,2,50,0,0
176153,-125,4,2,2,50,0,0
176426,-125,4,2,1,50,0,0
177244,-125,4,2,1,55,0,0
177789,-125,4,2,1,60,0,0
178335,-100,4,1,1,60,0,1
179426,-100,4,1,2,60,0,1
180926,-100,4,1,1,60,0,1
181198,-100,4,1,2,60,0,1
181608,-100,4,1,1,60,0,1
181676,-100,4,1,1,5,0,1
181744,-100,4,1,1,60,0,1
181812,-100,4,1,1,5,0,1
181880,-100,4,1,1,60,0,1
182017,-100,4,1,2,60,0,1
183517,-100,4,1,1,60,0,1
184880,-100,4,1,2,60,0,1
185153,-100,4,1,1,60,0,1
185426,-100,4,1,2,60,0,1
186789,-125,4,1,2,60,0,1
186994,-125,4,1,2,5,0,1
187062,-100,4,1,1,60,0,1
187539,-100,4,1,2,60,0,1
188358,-100,4,1,2,5,0,1
188426,-100,4,1,2,60,0,1
189244,-100,4,1,1,60,0,1
189653,-100,4,1,2,60,0,1
190335,-100,4,1,1,60,0,1
191426,-100,4,1,2,60,0,1
191835,-100,4,1,1,60,0,1
192517,-100,4,1,2,60,0,1
193880,-100,4,1,1,60,0,1
194289,-100,4,1,2,60,0,1
194698,-100,4,1,2,60,0,0
194903,-133.333333333333,4,1,2,60,0,0
195108,-80,4,1,2,60,0,0
195244,-100,4,1,1,60,0,1
195789,-125,4,1,1,60,0,1
196267,-125,4,1,1,5,0,1
196335,-100,4,1,1,60,0,1
200562,-125,4,1,1,60,0,1
200835,-125,4,1,1,60,0,1
200971,-100,4,1,1,60,0,1
205608,-200,4,1,1,60,0,0
205812,-200,4,1,1,5,0,0
205880,-166.666666666667,4,1,1,60,0,0
206085,-166.666666666667,4,1,1,5,0,0
206153,-142.857142857143,4,1,1,60,0,0
206221,-142.857142857143,4,1,1,5,0,0
206289,-125,4,1,1,60,0,0
206698,-100,4,1,1,60,0,1
208880,-125,4,1,1,60,0,1
209153,-100,4,1,1,60,0,1
209562,-125,4,1,2,60,0,1
209835,-100,4,1,1,60,0,1
211062,-125,4,1,1,60,0,0
211335,-100,4,1,1,60,0,1
213244,-200,4,2,1,55,0,0
213721,-200,4,2,1,50,0,0
214198,-200,4,2,1,45,0,0
214676,-200,4,2,1,40,0,0
215153,-200,4,2,1,35,0,0
215426,-200,4,2,1,35,0,0
220880,-166.666666666667,4,2,1,40,0,0
221153,-142.857142857143,4,2,1,40,0,0
221426,-125,4,2,1,45,0,0
221698,-111.111111111111,4,2,1,45,0,0
221767,-111.111111111111,4,2,2,45,0,0
221835,-111.111111111111,4,2,1,45,0,0
221971,-100,4,2,2,50,0,0
229608,-100,4,2,1,50,0,0
230698,-83.3333333333333,4,1,1,60,0,1
230903,-83.3333333333333,4,1,1,5,0,1
230971,-83.3333333333333,4,1,1,60,0,1
238335,-125,4,1,1,60,0,0
238539,-125,4,1,1,5,0,0
238608,-111.111111111111,4,1,1,60,0,1
238880,-100,4,1,1,60,0,1
239153,-90.9090909090909,4,1,1,60,0,1
239426,-83.3333333333333,4,1,1,60,0,1
240653,-166.666666666667,4,1,1,60,0,1
240858,-83.3333333333333,4,1,1,60,0,1
241812,-83.3333333333333,4,1,1,5,0,1
241880,-83.3333333333333,4,1,1,60,0,1
243380,-111.111111111111,4,1,1,60,0,1
243517,-100,4,1,1,60,0,1
243653,-90.9090909090909,4,1,1,60,0,1
243789,-83.3333333333333,4,1,1,60,0,0
244062,-83.3333333333333,4,1,1,60,0,1
245971,-100,4,2,1,60,0,1
247062,-83.3333333333333,4,1,1,60,0,0
247608,-83.3333333333333,4,2,1,60,0,0
248153,-100,4,1,1,60,0,1
256880,-100,4,1,2,60,0,0
257153,-100,4,1,1,60,0,1
263426,-100,4,1,1,55,0,0
264517,-100,4,1,1,50,0,0
265608,-125,4,2,2,50,0,0
267448,-125,4,2,2,5,0,0
267517,-125,4,2,2,50,0,0
269971,-142.857142857143,4,2,2,45,0,0
274335,-166.666666666667,4,2,1,40,0,0
278698,-200,4,2,1,35,0,0
283062,-200,4,2,1,30,0,0
285244,-200,4,2,1,25,0,0
287426,-200,4,2,1,20,0,0
289608,-200,4,2,1,15,0,0
290971,-200,4,2,1,5,0,0
291244,-222.222222222222,4,2,1,30,0,0
291517,-285.714285714286,4,2,1,30,0,0
291789,-400,4,2,1,30,0,0
299562,-400,4,2,1,5,0,0

[Colours]
Combo1 : 169,179,192
Combo2 : 181,218,103
Combo3 : 228,235,146
Combo4 : 116,140,94

[HitObjects]
88,88,1608,6,0,P|102:105|121:117,1,44.999998626709
192,148,1880,2,0,P|208:152|226:152,1,34.9999989318848
428,192,2289,6,0,P|403:189|379:195,1,50
304,248,2835,2,0,B|272:280|280:336|312:360|312:360|280:336|240:336|240:336|188:372|124:336,1,325
88,88,5971,6,0,P|102:105|121:117,1,44.999998626709
192,148,6244,2,0,P|208:152|226:152,1,34.9999989318848
152,240,6517,6,0,B|112:248|68:220|68:220|72:256|104:264,1,150
296,320,7880,2,0,B|340:308|376:344|376:344|408:300|476:296,1,200,2|0,0:0|0:0,0:0:0:0:
216,56,10335,6,0,L|220:112,1,44.999998626709
256,172,10608,2,0,L|253:206,1,34.9999989318848
97,312,11017,6,0,P|96:287|103:263,1,50
253,206,11562,2,0,B|252:256|216:296|168:296|168:296|200:328|272:312|272:312|296:336|344:336,1,325
216,56,14698,6,0,L|220:112,1,44.999998626709
256,172,14971,2,0,L|253:206,1,34.9999989318848
414,312,15380,6,0,P|415:287|408:263,1,50
300,96,15926,2,0,P|336:56|444:192,1,300
380,132,17698,5,2,0:0:0:0:
256,320,18380,5,0,0:0:0:0:
160,288,18517,1,0,0:0:0:0:
56,280,18653,5,0,0:0:0:0:
157,273,18789,1,0,0:0:0:0:
252,240,18926,1,0,0:0:0:0:
335,183,19062,6,0,P|356:172|388:168,1,50
467,259,19335,2,0,P|442:255|421:244,1,50
338,301,19608,1,0,0:0:0:0:
152,196,19880,2,0,P|127:199|105:211,1,50
252,240,20153,6,0,P|264:208|267:172,2,66.6666666666667
157,273,20698,2,0,P|152:296|155:334,2,53.3333333333333
56,279,21244,2,0,P|64:262|70:242,2,39.9999987792969
141,168,21789,6,0,P|144:182|151:195,1,30
170,223,22062,2,0,B|120:216|70:243|70:243|60:208|68:172,1,175
100,104,22608,5,0,0:0:0:0:
320,52,22880,1,0,0:0:0:0:
390,275,23153,1,0,0:0:0:0:
170,223,23426,6,0,P|191:212|223:208,1,50
302,300,23698,2,0,P|278:296|256:284,1,50
198,123,24108,5,0,0:0:0:0:
390,275,24380,2,0,B|380:308|388:348|388:348|360:300|360:228|404:192|404:192|376:160|380:108,1,325
468,48,26426,5,0,0:0:0:0:
404,192,26698,2,0,P|356:192|304:136,1,125
380,116,27108,1,0,0:0:0:0:
482,238,27244,1,0,0:0:0:0:
476,141,27380,1,0,0:0:0:0:
390,275,27517,1,0,0:0:0:0:
278,191,27789,6,0,P|303:192|326:198,1,50
236,268,28062,2,0,P|212:274|187:275,1,50
48,216,28335,1,0,0:0:0:0:
40,192,28471,1,0,0:0:0:0:
136,52,28608,6,0,B|152:148|120:232|120:232|164:240|200:208|200:208|216:160|212:104|212:104|232:124,1,400
390,275,31335,5,0,0:0:0:0:
120,232,31608,1,0,0:0:0:0:
468,48,31880,1,0,0:0:0:0:
229,121,32153,6,0,L|235:170,1,50
120,232,32426,2,0,L|112:296,1,50
136,52,32835,6,0,L|132:79,1,25
216,136,33108,2,0,L|223:185,2,50
307,244,33517,5,0,0:0:0:0:
48,336,33789,1,0,0:0:0:0:
40,44,34062,1,0,0:0:0:0:
283,121,34335,6,0,L|276:170,1,50
392,232,34608,2,0,L|400:296,1,50
376,52,35017,6,0,L|380:79,1,25
296,136,35289,1,0,0:0:0:0:
376,244,35426,1,0,0:0:0:0:
256,348,35562,5,0,0:0:0:0:
240,344,35630,1,0,0:0:0:0:
224,340,35698,1,0,0:0:0:0:
208,336,35767,1,0,0:0:0:0:
192,332,35835,2,0,L|164:336,1,25
68,296,35971,2,0,L|96:300,1,25
161,252,36108,5,0,0:0:0:0:
176,236,36176,1,0,0:0:0:0:
188,216,36244,1,0,0:0:0:0:
194,195,36312,1,0,0:0:0:0:
194,172,36380,1,0,0:0:0:0:
188,151,36448,1,0,0:0:0:0:
176,132,36517,6,0,L|168:68,1,50,4|0,0:0|0:0,0:0:0:0:
288,40,36789,2,0,L|281:89,1,50
400,132,37062,1,0,0:0:0:0:
408,340,37335,6,0,P|404:256|472:304,1,200
312,292,38153,6,0,P|320:252|340:224,2,66.6666666666667
191,279,38698,2,0,P|194:305|191:331,2,53.3333333333333
70,239,39244,6,0,P|72:216|80:192,1,44.999998626709
95,168,39517,2,0,P|108:86|40:39,1,175
40,116,40062,5,0,0:0:0:0:
259,238,40335,2,0,L|339:230,1,75
400,192,40608,1,0,0:0:0:0:
272,324,40880,6,0,P|247:323|224:317,1,50
119,232,41153,2,0,P|94:232|69:238,1,50
184,112,41562,5,0,0:0:0:0:
292,160,41835,1,0,0:0:0:0:
360,128,41971,6,0,B|380:124,6,12.5
292,160,42517,2,0,B|264:208|292:256|292:256|316:300|292:352,1,200
40,116,43880,5,0,0:0:0:0:
224,303,44153,2,0,P|182:348|122:347,1,125
68,296,44562,5,0,0:0:0:0:
292,160,44698,1,0,0:0:0:0:
224,304,44835,1,0,0:0:0:0:
163,48,44971,1,0,0:0:0:0:
292,160,45244,6,0,L|340:148,1,50
415,240,45517,2,0,L|464:252,1,50
364,336,45789,1,0,0:0:0:0:
340,331,45925,1,0,0:0:0:0:
256,232,46062,6,0,B|214:194|162:212|162:212|112:232|68:196,2,200
468,44,48789,5,0,0:0:0:0:
340,331,49062,1,0,0:0:0:0:
268,92,49335,1,0,0:0:0:0:
463,251,49608,6,0,L|455:303,1,50
340,331,49880,2,0,L|332:281,1,50
268,92,50289,2,0,L|253:203,1,112.5
240,280,50971,5,0,0:0:0:0:
48,48,51244,1,0,0:0:0:0:
268,92,51517,1,0,0:0:0:0:
223,360,51789,6,0,P|171:330|158:271,1,125
252,203,52198,2,0,B|256:240|240:280|240:280|256:260|276:252,1,125,2|0,0:0|0:0,0:0:0:0:
303,332,52608,2,0,P|340:316|384:316,1,75
456,328,52880,1,0,0:0:0:0:
62,295,53426,1,0,0:0:0:0:
400,91,53971,6,0,L|400:291,1,200
256,192,54789,2,0,P|284:176|308:172,1,50
212,304,55062,6,0,L|188:296,3,25
114,260,55335,2,0,L|90:267,2,25
140,168,55608,2,0,P|138:217|114:260,1,100
256,192,56153,5,0,0:0:0:0:
256,192,56289,2,0,B|228:72|228:72|288:132,1,200
348,192,56971,5,0,0:0:0:0:
348,192,57108,2,0,P|417:216|487:192,1,150
124,94,57789,6,0,L|144:186,1,75
159,246,58062,2,0,L|153:270,2,25
280,128,58335,5,0,0:0:0:0:
288,136,58471,2,0,B|352:156|417:129|417:129|480:144,1,179.999994506836
232,352,59153,5,0,0:0:0:0:
224,360,59289,2,0,B|145:340,1,59.9999981689454
100,284,59562,2,0,L|91:255,4,29.9999990844727
40,324,59971,1,0,0:0:0:0:
232,64,60517,5,0,0:0:0:0:
240,88,60653,2,0,B|230:159|230:159|212:192|212:192|204:262,1,179.999994506836
472,344,61335,5,0,0:0:0:0:
488,328,61471,2,0,P|476:244|332:268,1,239.999992675781
256,356,62289,5,0,0:0:0:0:
412,296,62426,1,0,0:0:0:0:
248,112,62562,1,4,0:0:0:0:
316,272,62698,5,0,0:0:0:0:
344,244,62835,2,0,L|368:16,1,209.999993591309
68,320,63517,5,0,0:0:0:0:
40,347,63653,2,0,P|72:335|107:339,1,69.9999978637696
208,288,63926,2,0,L|199:321,4,34.9999989318848
276,264,64335,2,0,L|266:194,1,69.9999978637696
248,88,64608,1,0,0:0:0:0:
344,244,64744,1,0,0:0:0:0:
208,288,64880,5,0,0:0:0:0:
264,336,65017,2,0,L|48:308,1,209.999993591309
312,48,65698,5,0,0:0:0:0:
248,88,65835,2,0,L|260:160,1,69.9999978637696
208,288,66108,1,0,0:0:0:0:
344,244,66244,1,0,0:0:0:0:
374,236,66312,1,0,0:0:0:0:
404,228,66380,2,0,L|415:158,1,69.9999978637696
312,48,66653,1,0,0:0:0:0:
480,116,66789,1,0,0:0:0:0:
276,264,66926,1,0,0:0:0:0:
108,196,67062,6,0,P|74:174|35:169,1,80
234,84,67335,5,0,0:0:0:0:
260,80,67403,1,0,0:0:0:0:
288,69,67471,1,0,0:0:0:0:
312,54,67539,1,0,0:0:0:0:
336,36,67608,2,0,P|352:28|384:24,1,40
480,116,67744,5,0,0:0:0:0:
452,124,67812,1,0,0:0:0:0:
424,132,67880,2,0,P|404:128|386:119,1,40
256,192,68017,2,0,P|273:183|293:179,1,40
424,252,68153,5,0,0:0:0:0:
256,312,68289,2,0,P|236:308|218:299,1,40
136,256,68426,1,0,0:0:0:0:
108,260,68494,1,0,0:0:0:0:
80,264,68562,1,0,0:0:0:0:
52,268,68630,1,0,0:0:0:0:
28,256,68698,6,0,L|36:208,1,40
120,104,68835,2,0,L|126:143,1,40
218,299,68971,1,0,0:0:0:0:
432,120,69108,1,0,0:0:0:0:
460,116,69176,1,0,0:0:0:0:
484,128,69244,6,0,L|476:176,1,40
392,280,69380,2,0,L|385:240,1,40
294,85,69517,1,0,0:0:0:0:
70,126,69653,1,0,0:0:0:0:
218,299,69789,5,0,0:0:0:0:
232,274,69858,1,0,0:0:0:0:
240,248,69926,1,0,0:0:0:0:
242,220,69994,1,0,0:0:0:0:
237,192,70062,2,0,P|224:155|234:117,1,80
420,40,70335,5,0,0:0:0:0:
431,65,70403,1,0,0:0:0:0:
434,93,70471,1,0,0:0:0:0:
427,120,70539,1,0,0:0:0:0:
412,143,70608,5,2,0:0:0:0:
391,161,70676,1,0,0:0:0:0:
365,171,70744,1,0,0:0:0:0:
337,172,70812,1,0,0:0:0:0:
310,164,70880,5,0,0:0:0:0:
300,198,70948,1,0,0:0:0:0:
300,234,71017,1,0,0:0:0:0:
310,268,71085,1,0,0:0:0:0:
329,299,71153,6,0,P|344:312|363:319,1,40,4|0,0:0|0:0,0:0:0:0:
449,299,71289,2,0,P|467:292|483:279,1,40
412,143,71426,6,0,L|393:241,1,100,4|0,0:0|0:0,0:0:0:0:
261,337,71698,5,0,0:0:0:0:
256,312,71767,1,0,0:0:0:0:
251,287,71835,2,0,P|262:260|279:241,1,50
128,308,71971,2,0,P|104:325|80:333,1,50
228,140,72176,1,0,0:0:0:0:
234,116,72244,2,0,L|224:67,1,50,2|0,0:0|0:0,0:0:0:0:
365,127,72380,2,0,P|387:139|412:143,1,50,8|0,0:0|0:0,0:0:0:0:
449,299,72517,6,0,L|453:323,2,25,8|0|8,0:0|0:0|0:0,0:0:0:0:
480,104,72653,1,8,0:0:0:0:
392,241,72789,2,0,L|388:265,4,25,8|0|0|0|0,0:0|0:0|0:0|0:0|0:0,0:0:0:0:
227,140,73062,6,0,P|214:160|208:184,1,50,2|0,0:0|0:0,0:0:0:0:
118,190,73198,2,0,P|123:214|135:235,1,50
75,303,73335,2,0,P|95:316|119:322,1,50
244,304,73471,1,8,0:0:0:0:
478,250,73608,6,0,P|492:177|480:104,1,150
412,56,73880,6,0,L|416:32,2,25,8|0|0,0:0|0:0|0:0,0:0:0:0:
365,127,74017,2,0,L|369:151,2,25,0|0|8,0:0|0:0|0:0,0:0:0:0:
324,52,74153,2,0,L|328:28,2,25,0|0|8,0:0|0:0|0:0,0:0:0:0:
277,123,74289,6,0,L|224:140,1,50,2|0,0:0|0:0,0:0:0:0:
72,88,74426,2,0,L|120:104,1,50,2|0,0:0|0:0,0:0:0:0:
236,48,74562,1,8,0:0:0:0:
369,151,74698,5,0,0:0:0:0:
373,175,74767,1,8,0:0:0:0:
377,199,74835,1,2,0:0:0:0:
244,304,74971,2,0,L|240:328,4,25,0|0|8|0|0,0:0|0:0|0:0|0:0|0:0,0:0:0:0:
236,220,75176,6,0,P|211:226|190:240,1,50,2|0,0:0|0:0,0:0:0:0:
456,328,75380,2,0,P|462:303|461:279,1,50,2|0,0:0|0:0,0:0:0:0:
420,188,75517,1,8,0:0:0:0:
407,159,75585,1,0,0:0:0:0:
401,124,75653,1,0,0:0:0:0:
402,90,75721,1,0,0:0:0:0:
412,56,75789,6,0,P|423:29|440:10,1,50,10|0,0:0|0:0,0:0:0:0:
324,52,75926,1,0,0:0:0:0:
304,80,75994,1,0,0:0:0:0:
277,103,76062,1,0,0:0:0:0:
247,119,76130,1,0,0:0:0:0:
212,129,76198,1,0,0:0:0:0:
178,131,76267,1,0,0:0:0:0:
144,120,76335,6,0,P|120:104|104:84,1,50
0,152,76471,2,0,P|21:165|37:184,1,50,2|0,0:0|0:0,0:0:0:0:
136,264,76608,2,0,P|152:282|173:296,1,50,2|0,0:0|0:0,0:0:0:0:
69,362,76744,2,0,P|52:343|31:329,1,50,8|0,0:0|0:0,0:0:0:0:
257,306,76880,5,2,0:0:0:0:
376,144,77017,1,2,0:0:0:0:
456,328,77153,6,0,L|460:352,2,25,8|0|0,0:0|0:0|0:0,0:0:0:0:
379,262,77289,2,0,L|395:150,1,100,0|2,0:0|0:0,0:0:0:0:
296,28,77494,1,0,0:0:0:0:
280,48,77562,2,0,L|294:146,1,100,0|2,0:0|0:0,0:0:0:0:
184,282,77835,2,0,P|163:268|147:250,1,50,8|0,0:0|0:0,0:0:0:0:
106,87,77971,5,2,0:0:0:0:
140,84,78039,1,0,0:0:0:0:
173,95,78108,1,0,0:0:0:0:
200,118,78176,1,0,0:0:0:0:
216,148,78244,1,8,0:0:0:0:
224,184,78312,1,0,0:0:0:0:
244,212,78380,2,0,P|264:226|288:227,1,50,0|8,0:0|0:0,0:0:0:0:
448,164,78517,2,0,P|464:182|469:206,1,50,0|8,0:0|0:0,0:0:0:0:
456,328,78653,6,0,P|431:326|411:312,1,50,2|0,0:0|0:0,0:0:0:0:
396,212,78789,2,0,P|379:193|375:168,1,50,2|0,0:0|0:0,0:0:0:0:
440,92,78926,1,8,0:0:0:0:
283,63,79062,6,2,B|205:50|128:92|128:92|52:76|52:76|128:96|151:127|164:164|144:212|144:212|140:180|128:160,1,480,6|2,0:0|0:0,0:0:0:0:
452,107,80153,6,0,L|440:208,1,100,2|0,0:0|0:0,0:0:0:0:
52,218,80562,6,0,P|84:180|131:164,1,100,8|0,0:0|0:0,0:0:0:0:
164,172,80767,1,0,0:0:0:0:
197,180,80835,1,0,0:0:0:0:
231,172,80903,1,0,0:0:0:0:
259,151,80971,1,0,0:0:0:0:
380,48,81108,1,0,0:0:0:0:
366,80,81176,1,0,0:0:0:0:
358,114,81244,6,0,P|356:138|363:163,1,50,2|0,0:0|0:0,0:0:0:0:
412,228,81380,2,0,L|405:278,1,50
499,313,81517,1,8,0:0:0:0:
275,227,81653,2,0,L|282:277,1,50,8|0,0:0|0:0,0:0:0:0:
188,312,81789,1,0,0:0:0:0:
157,329,81858,1,0,0:0:0:0:
123,335,81926,1,0,0:0:0:0:
92,328,81994,1,0,0:0:0:0:
68,316,82062,1,0,0:0:0:0:
52,300,82130,1,0,0:0:0:0:
44,284,82198,6,2,L|56:184,1,100,10|2,0:0|0:0,0:0:0:0:
72,40,82471,1,2,0:0:0:0:
126,246,82608,6,2,P|169:221|218:213,1,100,8|2,0:0|0:0,0:0:0:0:
326,233,82812,2,2,P|276:224|233:200,1,100,8|2,0:0|0:0,0:0:0:0:
215,66,83017,2,0,P|208:48|208:16,1,50,2|0,0:0|0:0,0:0:0:0:
376,128,83153,2,0,P|376:152|368:176,1,50,2|0,0:0|0:0,0:0:0:0:
260,336,83289,6,0,P|304:356|356:352,1,100,8|0,0:0|0:0,0:0:0:0:
456,348,83494,1,0,0:0:0:0:
480,352,83562,1,2,0:0:0:0:
326,233,83698,1,8,0:0:0:0:
142,306,83835,6,0,L|116:300,2,25
48,352,83971,2,0,L|23:357,2,25,2|0|0,0:0|0:0|0:0,0:0:0:0:
90,218,84108,1,2,0:0:0:0:
260,336,84244,6,0,P|282:350|306:357,1,50,8|0,0:0|0:0,0:0:0:0:
444,220,84380,2,0,P|420:227|398:240,1,50,8|0,0:0|0:0,0:0:0:0:
320,272,84517,6,0,L|329:192,1,80
344,60,84789,1,8,0:0:0:0:
464,236,84926,2,0,L|483:240,4,20
304,264,85198,6,0,P|220:248|144:316,1,160,6|0,0:0|0:0,0:0:0:0:
32,348,85608,5,2,0:0:0:0:
47,325,85676,1,0,0:0:0:0:
58,299,85744,1,0,0:0:0:0:
64,271,85812,1,0,0:0:0:0:
63,243,85880,2,0,P|59:224|51:206,1,40,2|0,0:0|0:0,0:0:0:0:
144,60,86017,2,0,P|136:78|131:97,1,40
244,336,86153,1,2,0:0:0:0:
398,239,86289,2,0,L|437:247,1,40
304,264,86426,6,2,P|328:200|320:148,1,120
268,96,86698,6,0,L|184:112,1,59.9999981689454,2|0,0:0|0:0,0:0:0:0:
160,286,86971,1,8,0:0:0:0:
328,249,87108,1,0,0:0:0:0:
348,241,87176,1,2,0:0:0:0:
368,233,87244,2,0,L|400:239,2,29.9999990844727,0|0|2,0:0|0:0|0:0,0:0:0:0:
160,286,87517,2,0,L|219:298,1,59.9999981689454,2|0,0:0|0:0,0:0:0:0:
4,254,87789,6,0,L|82:238,1,80
189,109,88062,2,0,L|84:88,1,80
256,192,88335,5,0,0:0:0:0:
268,184,88403,1,0,0:0:0:0:
281,176,88471,1,0,0:0:0:0:
295,168,88539,1,0,0:0:0:0:
311,163,88608,1,0,0:0:0:0:
329,158,88676,1,0,0:0:0:0:
348,155,88744,1,0,0:0:0:0:
369,155,88812,1,0,0:0:0:0:
408,180,88880,6,0,P|452:164|508:168,1,100,6|2,0:0|0:0,0:0:0:0:
344,236,89153,2,0,L|320:231,2,25
436,312,89289,2,0,L|460:307,2,25
276,288,89426,5,0,0:0:0:0:
256,272,89494,2,0,P|206:267|159:284,1,100,2|0,0:0|0:0,0:0:0:0:
47,336,89698,2,0,P|55:312|57:287,1,50,8|8,0:0|0:0,0:0:0:0:
25,85,89835,1,8,0:0:0:0:
64,360,89971,6,0,P|72:336|74:311,1,50,8|0,0:0|0:0,0:0:0:0:
159,283,90108,2,0,P|147:260|131:242,1,50,8|0,0:0|0:0,0:0:0:0:
176,164,90244,2,0,P|151:156|127:154,1,50,8|0,0:0|0:0,0:0:0:0:
16,208,90380,1,8,0:0:0:0:
199,305,90517,5,0,0:0:0:0:
233,301,90586,1,0,0:0:0:0:
264,286,90654,1,0,0:0:0:0:
292,264,90721,1,0,0:0:0:0:
323,248,90789,1,0,0:0:0:0:
357,245,90858,1,0,0:0:0:0:
391,253,90926,2,0,P|413:265|431:283,1,50,8|0,0:0|0:0,0:0:0:0:
400,272,91062,2,0,P|417:289|430:311,1,50,2|0,0:0|0:0,0:0:0:0:
369,155,91335,6,0,L|373:131,2,25,8|0|0,0:0|0:0|0:0,0:0:0:0:
440,80,91471,2,0,L|435:56,2,25,8|0|0,0:0|0:0|0:0,0:0:0:0:
351,8,91608,6,0,P|342:31|339:55,1,50,8|0,0:0|0:0,0:0:0:0:
384,160,91744,2,0,B|372:220|372:220|391:252,1,100,2|2,0:0|0:0,0:0:0:0:
356,364,92017,2,0,P|353:339|344:315,1,50,8|8,0:0|0:0,0:0:0:0:
292,264,92153,2,0,L|296:240,2,25,8|0|0,0:0|0:0|0:0,0:0:0:0:
168,300,92289,5,2,0:0:0:0:
356,319,92426,2,0,P|365:343|368:368,1,50,8|0,0:0|0:0,0:0:0:0:
317,209,92562,5,0,0:0:0:0:
304,216,92630,2,0,P|294:239|292:264,1,50,2|0,0:0|0:0,0:0:0:0:
344,100,92767,5,0,0:0:0:0:
356,110,92835,2,0,P|364:133|367:158,1,50,2|0,0:0|0:0,0:0:0:0:
303,5,92971,6,2,P|284:28|344:116,1,150
436,154,93244,5,2,0:0:0:0:
401,151,93312,1,0,0:0:0:0:
367,158,93380,1,8,0:0:0:0:
336,174,93448,1,0,0:0:0:0:
310,197,93517,1,0,0:0:0:0:
279,213,93585,1,0,0:0:0:0:
245,220,93653,2,0,P|200:224|128:208,1,100
72,56,93926,2,0,P|95:48|120:45,1,50,8|0,0:0|0:0,0:0:0:0:
76,152,94062,6,0,P|76:100|112:56,1,100,2|0,0:0|0:0,0:0:0:0:
338,56,94335,1,2,0:0:0:0:
164,132,94471,1,2,0:0:0:0:
391,253,94608,2,0,L|415:248,6,25,8|0|0|0|0|0|0,0:0|0:0|0:0|0:0|0:0|0:0|0:0,0:0:0:0:
304,215,94880,6,0,P|294:239|292:264,1,50
200,288,95017,2,0,P|209:312|226:331,1,50
292,220,95153,6,0,P|284:244|284:269,1,50
192,300,95289,2,0,P|203:323|221:340,1,50
316,360,95426,5,2,0:0:0:0:
340,355,95494,1,0,0:0:0:0:
365,350,95562,1,0,0:0:0:0:
389,345,95630,1,0,0:0:0:0:
412,340,95698,6,0,P|428:340|445:343,2,33.3333333333333,8|0|0,0:0|0:0|0:0,0:0:0:0:
276,276,95903,1,8,0:0:0:0:
200,344,95971,6,0,L|224:349,2,25
135,302,96108,2,0,L|37:323,1,100,2|2,0:0|0:0,0:0:0:0:
174,164,96380,1,8,0:0:0:0:
316,191,96517,2,0,P|364:208|413:212,1,100,2|0,0:0|0:0,0:0:0:0:
440,208,96721,1,0,0:0:0:0:
464,203,96789,1,8,0:0:0:0:
216,80,96926,6,0,P|238:69|262:63,1,50,2|0,0:0|0:0,0:0:0:0:
128,148,97062,2,0,P|150:158|175:165,1,50
39,80,97198,6,0,B|76:44|132:44|132:44|112:68,1,125,14|0,0:0|0:0,0:0:0:0:
120,160,97608,6,0,P|142:170|166:176,1,50,2|0,0:0|0:0,0:0:0:0:
254,75,97744,2,0,P|229:81|207:91,1,50,2|0,0:0|0:0,0:0:0:0:
176,260,97880,6,0,P|199:251|220:238,1,50,2|0,0:0|0:0,0:0:0:0:
146,33,98017,2,0,P|133:54|125:78,1,50,2|0,0:0|0:0,0:0:0:0:
286,291,98153,5,2,0:0:0:0:
39,80,98289,1,2,0:0:0:0:
361,29,98426,1,2,0:0:0:0:
204,376,98562,1,2,0:0:0:0:
128,148,98698,5,2,0:0:0:0:
255,163,98835,2,2,P|327:163|369:105,1,150
361,29,99108,1,8,0:0:0:0:
301,190,99244,6,0,P|349:165|372:114,1,112.500004291535,2|0,0:0|0:0,0:0:0:0:
347,217,99517,2,0,B|371:194|375:158,1,62.5
440,64,99653,2,0,B|448:96|477:117,1,62.5,8|0,0:0|0:0,0:0:0:0:
480,208,99789,6,0,L|408:220,1,50,2|0,0:0|0:0,0:0:0:0:
276,280,99926,5,0,0:0:0:0:
286,291,99994,2,0,L|358:303,1,50,2|0,0:0|0:0,0:0:0:0:
292,112,100130,5,0,0:0:0:0:
282,101,100198,2,0,L|210:89,1,50,2|0,0:0|0:0,0:0:0:0:
78,173,100335,5,0,0:0:0:0:
88,184,100403,2,0,L|160:172,1,50,2|0,0:0|0:0,0:0:0:0:
192,340,100539,5,0,0:0:0:0:
182,351,100608,2,2,B|120:344|120:344|88:352|88:352|33:345,1,150
240,244,100880,1,0,0:0:0:0:
258,262,100948,1,0,0:0:0:0:
276,280,101017,2,0,L|348:268,1,50,2|0,0:0|0:0,0:0:0:0:
480,208,101153,2,0,L|408:196,1,50,8|0,0:0|0:0,0:0:0:0:
282,101,101289,2,0,L|278:77,2,25,2|2|2,0:0|0:0|0:0,0:0:0:0:
336,180,101426,5,2,0:0:0:0:
428,68,101562,1,2,0:0:0:0:
268,68,101698,5,2,0:0:0:0:
344,192,101835,2,0,L|336:252,1,50,8|0,0:0|0:0,0:0:0:0:
288,304,101971,6,0,L|294:353,2,40,8|0|0,0:0|0:0|0:0,0:0:0:0:
276,280,102176,1,0,0:0:0:0:
258,262,102244,2,0,P|227:239|187:236,1,80,8|0,0:0|0:0,0:0:0:0:
24,224,102517,2,0,P|43:224|94:195,1,80,2|2,0:0|0:0,0:0:0:0:
108,172,102722,1,0,0:0:0:0:
119,146,102790,1,0,0:0:0:0:
122,118,102858,1,0,0:0:0:0:
116,91,102926,1,8,0:0:0:0:
255,138,103062,6,0,B|296:156|332:152|332:152|364:184,1,120,2|0,0:0|0:0,0:0:0:0:
400,264,103335,2,0,L|396:283,4,20
423,41,103608,1,8,0:0:0:0:
428,68,103676,1,0,0:0:0:0:
433,95,103744,1,2,0:0:0:0:
250,165,103880,1,2,0:0:0:0:
255,138,103948,1,0,0:0:0:0:
260,111,104017,1,8,0:0:0:0:
71,95,104153,6,0,L|78:134,1,40,2|0,0:0|0:0,0:0:0:0:
187,232,104289,2,0,L|179:271,1,40
70,368,104426,2,0,P|48:336|44:296,1,80
68,260,104630,2,0,L|60:299,1,40,2|2,0:0|0:0,0:0:0:0:
92,136,104835,2,0,L|88:117,4,20
187,232,105108,1,2,0:0:0:0:
182,251,105176,1,0,0:0:0:0:
180,272,105244,5,0,0:0:0:0:
189,298,105312,1,0,0:0:0:0:
207,319,105380,1,0,0:0:0:0:
232,332,105448,1,0,0:0:0:0:
259,337,105517,1,0,0:0:0:0:
286,332,105585,1,0,0:0:0:0:
316,324,105653,5,0,0:0:0:0:
346,317,105721,1,0,0:0:0:0:
380,321,105789,1,0,0:0:0:0:
412,336,105858,1,0,0:0:0:0:
440,360,105926,1,0,0:0:0:0:
476,376,105994,1,0,0:0:0:0:
512,360,106062,6,0,P|493:352|473:353,1,40,2|0,0:0|0:0,0:0:0:0:
297,343,106198,2,0,P|277:344|259:337,1,40
83,325,106335,5,4,0:0:0:0:
256,192,106403,12,0,108244,0:0:0:0:
430,216,109335,5,0,0:0:0:0:
80,344,109880,1,0,0:0:0:0:
424,200,110153,1,2,0:0:0:0:
140,48,110426,1,0,0:0:0:0:
268,200,110698,6,0,L|257:259,1,59.9999981689454
160,356,110971,2,0,L|149:296,1,59.9999981689454
60,120,111380,1,0,0:0:0:0:
368,147,111653,2,0,P|326:188|268:200,1,119.999996337891
180,164,111994,2,0,L|151:153,2,29.9999990844727
64,319,112608,6,0,P|104:299|149:296,1,89.9999972534181
236,324,112880,2,0,B|284:360|328:340|364:308|356:256|356:256|384:316|448:324|448:324|480:276,1,329.9999899292
452,220,113698,1,0,0:0:0:0:
230,169,113971,2,0,P|241:227|284:268,1,119.999996337891
456,316,114380,5,0,0:0:0:0:
276,284,114517,1,0,0:0:0:0:
92,320,114653,5,0,0:0:0:0:
268,300,114789,1,0,0:0:0:0:
296,96,115062,6,0,P|282:63|258:39,1,69.9999978637696
128,124,115335,2,0,P|162:128|195:119,1,69.9999978637696
424,116,115744,1,0,0:0:0:0:
268,168,116017,2,0,P|220:140|124:148,1,139.999995727539
64,195,116426,6,0,P|58:205|55:217,2,23.3333326212565
60,232,116562,2,0,P|56:243|56:254,2,23.3333326212565
68,272,116698,2,0,P|60:315|33:353,1,69.9999978637696
148,228,116971,2,0,P|141:193|145:159,1,69.9999978637696,2|0,0:0|0:0,0:0:0:0:
70,115,117244,6,0,P|62:71|35:33,1,69.9999978637696
232,132,117517,2,0,L|264:152,2,34.9999989318848
308,100,117721,1,0,0:0:0:0:
320,88,117789,2,0,L|356:99,2,34.9999989318848
472,44,118062,5,2,0:0:0:0:
407,152,118198,2,0,P|400:167|398:185,1,34.9999989318848
472,344,118335,2,0,P|469:326|462:310,1,34.9999989318848
356,260,118471,5,0,0:0:0:0:
212,324,118608,2,0,P|164:328|120:308,1,69.9999978637696
124,308,118812,1,0,0:0:0:0:
108,288,118880,1,0,0:0:0:0:
68,164,119017,2,0,P|70:146|77:130,1,34.9999989318848
168,64,119153,1,0,0:0:0:0:
184,59,119221,1,0,0:0:0:0:
202,58,119289,1,0,0:0:0:0:
219,59,119358,1,0,0:0:0:0:
236,64,119426,6,0,P|268:86|308:87,1,80
468,44,119698,1,0,0:0:0:0:
407,152,119835,2,0,P|379:144|363:136,1,40
236,160,119971,2,0,P|212:148|197:133,1,40
71,92,120108,6,2,P|95:97|116:112,1,50,6|0,0:1|0:0,0:1:0:0:
200,340,120380,6,0,P|194:317|202:260,1,80
229,253,120585,1,0,0:0:0:0:
257,245,120653,1,0,0:0:0:0:
400,284,120789,6,0,P|437:272|468:246,1,80
468,44,121062,1,0,0:0:0:0:
322,249,121198,2,0,P|303:244|285:237,1,40
218,165,121335,1,0,0:0:0:0:
190,158,121403,1,0,0:0:0:0:
162,155,121471,1,0,0:0:0:0:
135,157,121539,1,0,0:0:0:0:
106,163,121608,6,0,P|81:193|64:232,1,80
47,337,121880,1,0,0:0:0:0:
192,296,122017,1,0,0:0:0:0:
208,292,122085,1,0,0:0:0:0:
220,283,122153,2,0,P|227:265|228:245,1,40
190,158,122289,2,0,L|182:98,1,40
312,216,122426,2,0,P|315:234|326:252,1,40
472,344,122562,1,0,0:0:0:0:
476,64,122698,6,2,B|388:12|264:132|264:132|260:104|276:72,1,300,4|0,0:0|0:1,0:1:0:0:
328,184,123789,6,0,P|334:208|304:284,1,100,6|0,0:0|0:0,0:0:0:0:
115,111,124063,1,0,0:0:0:0:
120,86,124130,1,0,0:0:0:0:
125,61,124198,1,0,0:0:0:0:
173,217,124335,1,0,0:0:0:0:
275,74,124471,1,0,0:0:0:0:
280,49,124539,1,0,0:0:0:0:
285,24,124607,1,0,0:0:0:0:
380,304,124744,2,0,P|394:324|400:348,1,50,8|2,0:0|0:0,0:0:0:0:
281,378,124880,5,2,0:0:0:0:
318,233,125017,2,0,L|328:183,1,50
168,192,125153,2,0,L|158:142,1,50
364,38,125289,1,8,0:0:0:0:
168,0,125426,6,0,P|154:20|148:45,1,50,2|0,0:0|0:0,0:0:0:0:
52,64,125562,2,0,P|59:87|73:108,1,50
40,192,125698,2,0,P|64:197|89:194,1,50
232,60,125835,1,8,0:0:0:0:
300,304,125971,6,0,P|344:244|339:171,1,150
305,99,126244,6,0,P|294:106|285:115,2,25,8|0|0,0:0|0:0|0:0,0:0:0:0:
270,187,126380,2,0,P|274:212|267:235,1,50,8|0,0:0|0:0,0:0:0:0:
224,300,126517,2,0,L|160:316,1,50,8|0,0:0|0:0,0:0:0:0:
300,304,126653,2,0,L|364:320,1,50,2|0,0:0|0:0,0:0:0:0:
192,228,126789,2,0,L|95:253,1,100,2|0,0:0|0:0,0:0:0:0:
52,64,127062,5,0,0:0:0:0:
66,67,127130,1,0,0:0:0:0:
81,71,127198,1,0,0:0:0:0:
286,116,127335,2,2,P|335:113|380:92,1,100
224,56,127608,5,8,0:0:0:0:
211,77,127676,1,0,0:0:0:0:
204,101,127744,1,0,0:0:0:0:
204,126,127812,1,0,0:0:0:0:
256,192,127880,5,0,0:0:0:0:
268,213,127948,1,0,0:0:0:0:
275,237,128017,1,8,0:0:0:0:
275,262,128085,1,0,0:0:0:0:
268,288,128153,6,0,P|248:303|224:309,1,50,2|0,0:0|0:0,0:0:0:0:
80,264,128289,1,8,0:0:0:0:
113,274,128358,1,0,0:0:0:0:
139,296,128426,1,0,0:0:0:0:
154,328,128494,1,0,0:0:0:0:
169,359,128562,6,0,P|188:374|212:380,1,50
349,316,128698,1,0,0:0:0:0:
353,291,128767,1,0,0:0:0:0:
358,267,128835,1,0,0:0:0:0:
363,242,128903,1,0,0:0:0:0:
368,218,128971,6,0,P|387:202|411:196,1,50,2|0,0:0|0:0,0:0:0:0:
468,340,129108,2,0,P|443:334|424:318,1,50,8|0,0:0|0:0,0:0:0:0:
280,197,129244,6,0,L|254:191,2,25,2|0|0,0:0|0:0|0:0,0:0:0:0:
192,228,129380,2,0,L|167:233,2,25,2|0|0,0:0|0:0|0:0,0:0:0:0:
112,148,129517,2,2,B|72:140|72:140|8:156,1,100,0|2,0:0|0:0,0:0:0:0:
28,157,129721,1,0,0:0:0:0:
43,161,129789,1,0,0:0:0:0:
143,235,129926,6,0,P|161:254|172:276,1,50
320,356,130062,2,0,P|330:333|348:315,1,50
504,252,130198,1,8,0:0:0:0:
353,210,130335,6,0,L|241:188,1,100,2|0,0:0|0:0,0:0:0:0:
112,148,130539,1,0,0:0:0:0:
104,172,130608,2,0,P|148:151|198:151,1,100,8|0,0:0|0:0,0:0:0:0:
256,56,130812,1,0,0:0:0:0:
264,80,130880,2,0,P|284:93|308:101,1,50
476,64,131017,2,0,P|452:71|431:85,1,50
353,210,131153,2,0,L|329:336,1,100,2|0,0:0|0:0,0:0:0:0:
144,236,131426,6,2,B|209:265|277:225|277:225|261:297|261:297|213:333|133:305|133:305|81:297|49:333,1,440,6|2,0:0|0:0,0:0:0:0:
36,348,132244,6,0,P|55:348|74:342,1,40,2|0,0:0|0:0,0:0:0:0:
156,224,132380,2,0,P|136:218|117:218,1,40,2|0,0:0|0:0,0:0:0:0:
36,100,132517,6,0,P|85:104|129:82,1,100,2|0,0:0|0:0,0:0:0:0:
374,94,132789,1,0,0:0:0:0:
360,126,132858,1,0,0:0:0:0:
351,160,132926,2,0,P|349:184|352:209,1,50
388,380,133062,5,2,0:0:0:0:
168,144,133198,2,0,P|189:133|209:118,1,50
340,1,133335,5,2,0:0:0:0:
246,311,133471,2,0,P|226:297|203:287,1,50,8|0,0:0|0:0,0:0:0:0:
36,233,133608,5,0,0:0:0:0:
70,236,133676,1,0,0:0:0:0:
97,215,133744,1,0,0:0:0:0:
104,182,133812,1,0,0:0:0:0:
92,152,133880,1,0,0:0:0:0:
94,117,133948,1,0,0:0:0:0:
114,88,134017,6,0,L|141:69,2,33.3333333333333,2|0|0,0:0|0:0|0:0,0:0:0:0:
168,144,134153,2,0,L|199:134,1,33.3333333333333
246,311,134289,5,0,0:0:0:0:
251,286,134358,1,0,0:0:0:0:
256,262,134426,1,0,0:0:0:0:
261,237,134494,1,0,0:0:0:0:
266,212,134562,2,0,P|285:196|309:190,1,50,8|0,0:0|0:0,0:0:0:0:
470,262,134698,6,0,B|383:295|383:295|328:284,1,150
246,311,134971,6,0,B|191:322,1,50,8|0,0:0|0:0,0:0:0:0:
32,348,135108,1,0,0:0:0:0:
20,316,135176,1,0,0:0:0:0:
28,282,135244,1,0,0:0:0:0:
52,258,135312,1,0,0:0:0:0:
86,250,135380,5,2,0:0:0:0:
110,254,135448,1,0,0:0:0:0:
135,260,135517,2,0,B|184:250,1,50
348,221,135653,1,8,0:0:0:0:
211,44,135789,6,0,P|197:24|192:0,1,50,8|0,0:0|0:0,0:0:0:0:
296,60,135926,2,0,P|290:85|276:105,1,50,8|0,0:0|0:0,0:0:0:0:
200,132,136062,6,0,P|220:184|208:224,1,100,8|0,0:0|0:0,0:0:0:0:
184,250,136267,1,0,0:0:0:0:
180,284,136335,1,2,0:0:0:0:
348,348,136471,2,0,L|380:361,2,25
264,180,136608,5,0,0:0:0:0:
96,243,136744,2,0,L|64:256,2,25
180,76,136880,6,0,P|199:121|189:169,1,100,2|0,0:0|0:0,0:0:0:0:
96,336,137153,1,8,0:0:0:0:
125,126,137289,2,0,B|96:164|49:168|49:168|52:158,1,100
240,32,137562,1,2,0:0:0:0:
347,220,137698,2,0,P|397:216|439:190,1,100,2|8,0:0|0:0,0:0:0:0:
232,314,137971,1,0,0:0:0:0:
216,282,138039,1,0,0:0:0:0:
192,257,138108,1,0,0:0:0:0:
161,241,138176,1,0,0:0:0:0:
126,235,138244,5,0,0:0:0:0:
94,238,138312,1,0,0:0:0:0:
64,243,138380,1,0,0:0:0:0:
37,242,138448,1,0,0:0:0:0:
13,235,138517,6,0,P|29:216|53:208,1,50
141,153,138653,2,0,P|162:166|186:168,1,50
288,196,138789,2,0,B|326:184|362:208|362:208|398:232|430:220,1,150
312,280,139062,6,0,B|264:280|232:312|232:312|200:312|174:292,1,150,2|0,0:0|0:0,0:0:0:0:
32,222,139539,1,0,0:0:0:0:
13,235,139608,2,0,B|64:252|124:236|124:236|160:180|144:124,1,227.499989585877
91,59,140153,6,0,P|60:108|70:167,1,120
176,292,140426,1,0,0:0:0:0:
193,270,140494,1,0,0:0:0:0:
207,245,140562,1,0,0:0:0:0:
216,219,140630,1,0,0:0:0:0:
224,192,140698,1,0,0:0:0:0:
226,163,140767,1,0,0:0:0:0:
224,132,140835,1,0,0:0:0:0:
217,101,140903,1,0,0:0:0:0:
219,67,140971,1,0,0:0:0:0:
234,38,141039,1,0,0:0:0:0:
259,13,141108,1,0,0:0:0:0:
294,0,141176,1,0,0:0:0:0:
344,7,141244,5,4,0:2:0:0:
256,192,141312,12,0,143426,0:0:0:0:
36,40,144244,5,0,0:0:0:0:
88,100,144380,2,0,L|76:200,1,100
376,344,145335,1,0,0:0:0:0:
452,312,145471,1,0,0:0:0:0:
300,248,145608,6,0,B|292:200|292:200|314:127,1,125
304,104,146017,2,0,B|276:180|276:180|208:156|152:168|152:168|128:192|96:200,1,250
44,224,146835,2,0,L|20:220,3,25
117,192,147244,2,0,B|132:248|92:299|92:299|128:296|136:264,1,175
192,216,147789,6,0,B|320:236,1,125
328,252,148198,2,0,P|256:264|223:329,1,150
88,124,148880,2,0,B|176:164|256:120|256:120|340:72|424:128,1,350
421,258,149971,6,0,P|372:280|296:280,1,125
276,272,150380,2,0,P|213:271|156:295,1,125
140,312,150789,5,0,0:0:0:0:
47,191,150926,2,0,P|64:224|64:264,1,75
32,328,151198,2,0,L|40:360,4,25
155,175,151608,5,0,0:0:0:0:
248,296,151744,1,0,0:0:0:0:
256,120,151880,1,0,0:0:0:0:
147,351,152017,1,0,0:0:0:0:
362,319,152153,6,0,P|424:314|477:345,1,125
472,356,152562,2,0,L|460:220,1,125
476,152,152971,5,0,0:0:0:0:
380,240,153108,2,0,P|332:248|285:231,1,100
405,112,153517,1,0,0:0:0:0:
112,228,154062,1,0,0:0:0:0:
40,268,154198,1,0,0:0:0:0:
188,328,154335,6,0,B|268:348|268:348|308:335,1,125
340,308,154744,2,0,P|380:336|429:342,1,100
356,220,155153,2,0,P|306:225|266:254,1,100
228,324,155562,2,0,L|221:348,4,25
184,188,155971,5,0,0:0:0:0:
452,60,156517,6,0,L|437:184,1,125
408,212,156926,2,0,P|430:265|424:322,1,116.666666666667
316,284,157426,1,0,0:0:0:0:
360,126,157608,1,0,0:0:0:0:
368,144,158335,1,0,0:0:0:0:
324,302,158517,1,0,0:0:0:0:
165,257,158698,6,0,P|103:252|50:283,1,125
36,284,159108,2,0,P|71:232|70:171,1,125
144,180,159517,5,0,0:0:0:0:
44,44,159653,1,0,0:0:0:0:
204,95,159789,2,0,L|256:84,1,50
324,48,159994,2,0,L|352:54,1,25
416,88,160130,2,0,B|454:91|482:75|482:75|482:95|466:111,1,100
423,172,160471,2,0,P|400:229|402:291,1,125
459,344,160880,6,0,P|404:368|348:344,1,125
308,276,161289,2,0,L|186:305,1,125
94,336,161698,1,0,0:0:0:0:
46,173,161835,1,0,0:0:0:0:
209,212,161971,5,0,0:0:0:0:
22,268,162108,1,0,0:0:0:0:
139,144,162244,1,0,0:0:0:0:
154,156,162312,2,0,P|216:133|265:157,1,125
284,232,162721,2,0,L|380:209,1,100
456,188,163062,6,0,L|436:328,1,125
301,355,163471,2,0,L|283:231,1,125
265,157,163880,5,0,0:0:0:0:
216,95,164017,1,0,0:0:0:0:
139,80,164153,1,0,0:0:0:0:
64,104,164289,2,0,P|66:116|72:127,2,25
88,144,164494,2,0,P|96:192|81:240,1,100
68,256,164835,2,0,L|88:388,1,125
160,344,165244,6,0,B|216:252|328:256|328:256|368:292|420:292|420:292|468:272,1,350
396,2,166335,2,0,P|371:97|403:190,1,200
114,382,167426,6,0,P|138:324|135:262,1,125
108,151,167835,2,0,P|103:201|119:248,1,100
200,336,168244,6,0,L|268:320,1,50
339,282,168517,2,0,L|364:288,3,25
440,264,168789,2,0,B|359:272|359:272|299:252,1,125
256,204,169198,2,0,P|240:144|255:84,1,125
164,44,169608,6,0,P|172:88|88:92,1,149.999995422363
20,164,170017,2,0,P|28:97|94:112,1,149.999995422363
108,208,170426,2,0,L|94:266,1,59.9999981689454
200,336,170698,5,0,0:0:0:0:
220,331,170766,1,0,0:0:0:0:
240,326,170834,1,0,0:0:0:0:
324,275,170971,2,0,P|353:278|381:289,1,59.9999981689454
256,216,171244,2,0,P|278:196|306:184,1,59.9999981689454
165,221,171517,2,0,P|167:191|178:163,1,59.9999981689454
198,152,171721,1,0,0:0:0:0:
218,140,171789,6,0,P|243:76|221:11,1,139.999995727539
120,76,172198,2,0,P|102:79|86:86,1,34.9999989318848
36,156,172335,2,0,P|62:178|95:189,1,69.9999978637696
284,124,172608,2,0,P|249:125|218:140,1,69.9999978637696
216,340,172880,6,0,P|245:321|265:292,1,69.9999978637696
276,270,173085,1,0,0:0:0:0:
280,246,173153,2,0,L|271:209,2,34.9999989318848
392,240,173426,2,0,P|418:262|451:273,1,69.9999978637696
284,124,173698,2,0,P|249:125|218:140,1,69.9999978637696
48,336,173971,5,0,0:0:0:0:
271,211,174108,1,0,0:0:0:0:
60,64,174244,1,0,0:0:0:0:
180,220,174380,1,0,0:0:0:0:
403,95,174517,5,0,0:0:0:0:
124,144,174653,1,0,0:0:0:0:
306,362,174789,1,0,0:0:0:0:
296,40,174926,1,0,0:0:0:0:
180,220,175062,5,0,0:0:0:0:
185,247,175130,1,0,0:0:0:0:
190,274,175198,1,0,0:0:0:0:
196,302,175266,1,0,0:0:0:0:
201,329,175335,6,0,P|215:315|223:297,1,40
310,54,175471,2,0,P|296:68|288:86,1,40
306,362,175608,2,0,P|310:342|308:322,1,40
205,21,175744,2,0,P|200:40|202:60,1,40
368,200,175880,6,0,L|466:184,1,100,6|8,0:1|0:0,0:0:0:0:
212,120,176426,6,0,P|225:97|245:79,1,53.3333333333333
368,200,176608,2,0,P|381:223|386:249,1,53.3333333333333
223,296,176789,2,0,P|196:295|171:287,1,53.3333333333333
116,228,176971,5,0,0:0:0:0:
97,212,177039,1,0,0:0:0:0:
76,197,177107,1,0,0:0:0:0:
50,186,177175,1,0,0:0:0:0:
20,181,177244,5,0,0:0:0:0:
47,199,177312,1,0,0:0:0:0:
80,207,177380,1,0,0:0:0:0:
115,205,177448,1,0,0:0:0:0:
148,192,177516,1,0,0:0:0:0:
176,168,177584,1,0,0:0:0:0:
192,134,177653,5,0,0:0:0:0:
200,96,177721,1,0,0:0:0:0:
220,60,177789,1,0,0:0:0:0:
252,34,177857,1,0,0:0:0:0:
292,22,177925,1,0,0:0:0:0:
336,25,177993,1,0,0:0:0:0:
375,48,178062,6,0,P|393:56|412:57,1,40,4|0,0:0|0:0,0:0:0:0:
225,114,178198,2,0,P|206:120|192:134,1,40
95,307,178335,6,0,P|68:266|63:217,1,100,6|0,0:0|0:0,0:0:0:0:
55,64,178608,1,8,0:0:0:0:
250,183,178744,1,0,0:0:0:0:
280,165,178812,1,0,0:0:0:0:
297,135,178880,1,0,0:0:0:0:
298,101,178948,1,0,0:0:0:0:
287,67,179017,2,0,P|277:45|275:20,1,50,2|0,0:0|0:0,0:0:0:0:
457,117,179153,6,0,P|455:141|445:164,1,50
512,220,179289,2,0,P|493:236|469:245,1,50
402,300,179426,5,0,0:0:0:0:
377,299,179494,1,0,0:0:0:0:
353,290,179562,1,0,0:0:0:0:
333,275,179630,1,0,0:0:0:0:
318,255,179698,1,2,0:0:0:0:
225,114,179835,2,0,P|188:148|174:194,1,100,8|0,0:0|0:0,0:0:0:0:
80,320,180108,6,0,P|80:288|68:256,1,50,2|0,0:0|0:0,0:0:0:0:
8,128,180244,2,0,P|8:96|20:64,1,50
152,0,180380,1,8,0:0:0:0:
298,226,180517,6,0,B|364:256|424:208|424:208|420:168|388:157,1,200,2|0,0:0|0:0,0:0:0:0:
352,152,180858,1,0,0:0:0:0:
317,153,180926,1,0,0:0:0:0:
283,143,180994,1,0,0:0:0:0:
254,124,181062,1,0,0:0:0:0:
236,97,181130,1,0,0:0:0:0:
258,70,181198,6,0,P|281:62|306:60,1,50,2|2,0:0|0:0,0:0:0:0:
432,92,181335,2,0,P|454:103|473:119,1,50,2|2,0:0|0:0,0:0:0:0:
298,226,181471,1,0,0:0:0:0:
136,152,181608,6,0,L|86:158,1,50,8|0,0:0|0:0,0:0:0:0:
20,176,181744,2,0,L|69:182,1,50,8|0,0:0|0:0,0:0:0:0:
188,216,181880,2,0,L|138:222,1,50,8|0,0:0|0:0,0:0:0:0:
28,316,182017,5,0,0:0:0:0:
44,336,182085,2,0,L|93:342,1,50,2|0,0:0|0:0,0:0:0:0:
168,324,182221,5,0,0:0:0:0:
197,343,182289,1,0,0:0:0:0:
231,350,182357,1,0,0:0:0:0:
265,345,182425,1,0,0:0:0:0:
295,328,182494,1,0,0:0:0:0:
325,311,182562,1,0,0:0:0:0:
359,306,182630,1,0,0:0:0:0:
392,312,182698,6,0,P|416:320|441:320,1,50,2|0,0:0|0:0,0:0:0:0:
389,157,182835,5,8,0:0:0:0:
364,153,182903,1,0,0:0:0:0:
339,150,182971,1,0,0:0:0:0:
292,132,183039,5,0,0:0:0:0:
267,135,183108,1,0,0:0:0:0:
243,139,183176,1,0,0:0:0:0:
196,120,183244,6,0,P|146:123|101:101,1,100,0|2,0:0|0:0,0:0:0:0:
8,8,183517,1,2,0:0:0:0:
33,45,183585,1,0,0:0:0:0:
48,87,183653,1,0,0:0:0:0:
52,132,183721,1,0,0:0:0:0:
44,176,183789,1,8,0:0:0:0:
40,220,183857,1,0,0:0:0:0:
58,261,183925,1,2,0:0:0:0:
92,289,183993,1,0,0:0:0:0:
135,298,184062,6,0,P|160:297|185:290,1,50,2|0,0:0|0:0,0:0:0:0:
284,224,184198,2,0,P|309:225|334:232,1,50,8|0,0:0|0:0,0:0:0:0:
460,328,184335,5,2,0:0:0:0:
441,311,184403,1,0,0:0:0:0:
427,289,184471,1,2,0:0:0:0:
414,264,184539,1,0,0:0:0:0:
406,236,184607,1,0,0:0:0:0:
402,206,184675,1,8,0:0:0:0:
405,174,184744,1,0,0:0:0:0:
417,142,184812,1,0,0:0:0:0:
435,111,184880,6,0,P|446:89|452:65,1,50,2|0,0:0|0:0,0:0:0:0:
289,13,185017,2,0,P|294:37|306:59,1,50
332,231,185153,6,0,P|308:224|284:224,1,50,8|0,0:0|0:0,0:0:0:0:
135,298,185289,2,0,P|159:297|183:290,1,50,2|0,0:0|0:0,0:0:0:0:
196,188,185426,1,0,0:0:0:0:
202,163,185494,1,0,0:0:0:0:
204,138,185562,1,0,0:0:0:0:
201,114,185630,1,0,0:0:0:0:
194,90,185698,1,0,0:0:0:0:
183,67,185766,1,0,0:0:0:0:
167,48,185835,5,0,0:0:0:0:
143,61,185903,1,0,0:0:0:0:
124,82,185971,1,0,0:0:0:0:
107,107,186039,1,0,0:0:0:0:
96,137,186107,1,0,0:0:0:0:
88,169,186175,1,0,0:0:0:0:
90,203,186244,6,0,P|91:227|88:252,1,50
32,352,186380,2,0,P|52:338|75:328,1,50
297,313,186517,6,0,P|274:301|254:286,1,50,2|0,0:0|0:0,0:0:0:0:
196,188,186653,2,0,P|197:212|194:237,1,50
167,323,186789,6,0,P|159:264|172:206,1,120,8|0,0:0|0:0,0:0:0:0:
236,112,187062,6,0,L|213:95,1,25,8|0,0:0|0:0,0:0:0:0:
242,92,187130,2,0,L|216:79,1,25,8|0,0:0|0:0,0:0:0:0:
245,74,187198,2,0,L|217:65,1,25,8|0,0:0|0:0,0:0:0:0:
244,55,187267,2,0,L|215:51,1,25,2|0,0:0|0:0,0:0:0:0:
240,35,187335,2,0,B|236:20|236:20|272:48|316:40,1,100,8|8,0:0|0:0,0:0:0:0:
456,124,187539,5,0,0:0:0:0:
434,110,187608,2,0,P|411:103|386:103,1,50
400,184,187745,2,0,P|377:195|360:212,1,50
426,260,187881,2,0,P|418:283|418:308,1,50
432,340,188018,1,0,0:0:0:0:
452,367,188086,1,0,0:0:0:0:
483,383,188153,2,0,P|444:322|372:315,1,150,2|0,0:0|0:0,0:0:0:0:
304,360,188426,6,0,P|279:360|254:357,1,50
56,319,188562,2,0,P|92:319|124:311,1,50
296,347,188698,6,0,P|271:343|248:334,1,50,2|0,0:0|0:0,0:0:0:0:
68,311,188835,2,0,P|92:307|115:297,1,50
196,188,188971,2,0,P|210:167|219:144,1,50
198,10,189108,1,8,0:0:0:0:
80,300,189244,5,2,0:0:0:0:
391,258,189380,1,2,0:0:0:0:
247,326,189517,1,8,0:0:0:0:
214,313,189585,1,0,0:0:0:0:
190,288,189653,1,0,0:0:0:0:
180,255,189721,1,0,0:0:0:0:
185,221,189789,1,0,0:0:0:0:
196,188,189858,1,0,0:0:0:0:
198,153,189926,6,0,P|192:129|181:107,1,50,2|0,0:0|0:0,0:0:0:0:
185,4,190062,2,0,P|163:17|144:33,1,50,2|0,0:0|0:0,0:0:0:0:
55,79,190198,2,0,P|77:92|101:100,1,50,8|0,0:0|0:0,0:0:0:0:
248,60,190335,1,8,0:0:0:0:
272,55,190403,1,0,0:0:0:0:
297,51,190471,5,2,0:0:0:0:
464,160,190608,2,0,P|418:140|368:137,1,100
284,200,190812,5,2,0:0:0:0:
296,223,190880,2,0,P|316:232|344:231,1,50
446,67,191017,5,2,0:0:0:0:
297,51,191153,1,0,0:0:0:0:
272,52,191221,1,0,0:0:0:0:
248,60,191289,1,0,0:0:0:0:
225,73,191357,1,0,0:0:0:0:
207,88,191426,6,0,P|190:107|167:118,1,50
92,144,191562,2,0,P|68:151|43:150,1,50
200,199,191698,2,0,P|250:203|296:223,1,100,0|2,0:0|0:0,0:0:0:0:
424,308,191971,5,0,0:0:0:0:
428,324,192039,1,0,0:0:0:0:
432,340,192108,1,2,0:0:0:0:
284,200,192244,2,0,P|238:180|188:176,1,100
39,231,192517,6,0,P|18:217|2:197,2,50,0|0|2,0:0|0:0|0:0,0:0:0:0:
208,292,192789,1,2,0:0:0:0:
92,144,192926,2,0,P|85:120|86:95,1,50
192,21,193062,5,2,0:0:0:0:
193,45,193130,1,0,0:0:0:0:
187,70,193198,1,0,0:0:0:0:
175,91,193266,1,0,0:0:0:0:
156,108,193334,5,8,0:0:0:0:
165,142,193403,1,0,0:0:0:0:
156,176,193471,2,0,P|143:196|123:211,1,50,8|0,0:0|0:0,0:0:0:0:
8,216,193608,6,0,B|52:209|52:209|106:221,1,100
208,292,193812,1,0,0:0:0:0:
240,300,193880,6,0,B|284:307|284:307|383:285,1,100,8|0,0:0|0:0,0:0:0:0:
368,280,194085,1,0,0:0:0:0:
399,265,194153,1,0,0:0:0:0:
433,265,194221,1,0,0:0:0:0:
465,280,194289,2,0,P|480:300|489:323,1,50,2|0,0:0|0:0,0:0:0:0:
407,188,194426,6,0,P|409:163|419:140,1,50,2|0,0:0|0:0,0:0:0:0:
339,75,194562,2,0,P|356:57|379:46,1,50,8|0,0:0|0:0,0:0:0:0:
276,191,194698,6,0,L|160:168,1,100,8|0,0:0|0:0,0:0:0:0:
39,231,194903,2,0,P|75:236|109:222,1,75.0000028610231,8|0,0:0|0:0,0:0:0:0:
240,300,195108,2,0,P|210:291|179:292,1,62.5,8|0,0:0|0:0,0:0:0:0:
369,376,195244,5,2,0:0:0:0:
403,368,195312,1,0,0:0:0:0:
437,361,195380,1,0,0:0:0:0:
471,354,195448,1,0,0:0:0:0:
505,346,195517,2,0,P|482:338|457:338,1,50,8|0,0:0|0:0,0:0:0:0:
353,277,195653,2,0,P|377:270|397:256,1,50
448,68,195789,6,0,B|464:44|460:20|460:20|432:28|408:76|412:112,1,160,4|0,0:0|0:0,0:0:0:0:
424,136,196130,1,0,0:0:0:0:
440,160,196198,2,0,P|440:179|433:204,1,40
353,277,196335,6,0,L|237:254,1,100
40,344,196608,1,0,0:0:0:0:
168,152,196744,2,0,L|216:142,1,50
64,48,196880,6,0,L|39:43,6,25
92,68,197153,6,0,L|140:58,1,50
291,130,197289,2,0,L|340:140,1,50
318,24,197426,6,0,L|270:15,1,50
119,87,197562,2,0,L|70:96,1,50
49,212,197698,6,0,L|97:202,1,50
313,159,197835,2,0,L|361:168,1,50
468,340,197971,6,0,B|402:370|342:322|342:322|304:320|272:340,1,200
248,356,198312,1,0,0:0:0:0:
217,371,198380,1,0,0:0:0:0:
182,370,198448,1,0,0:0:0:0:
152,353,198516,1,0,0:0:0:0:
134,323,198584,1,0,0:0:0:0:
133,288,198653,5,0,0:0:0:0:
248,176,198789,2,0,P|271:182|292:197,1,50
204,300,198926,1,0,0:0:0:0:
56,140,199062,6,0,L|37:41,1,100
256,12,199335,1,0,0:0:0:0:
151,189,199471,1,0,0:0:0:0:
147,214,199539,1,0,0:0:0:0:
142,238,199607,1,0,0:0:0:0:
137,263,199675,1,0,0:0:0:0:
133,288,199743,1,0,0:0:0:0:
279,334,199880,6,0,P|278:310|270:286,1,50
151,189,200017,2,0,P|151:164|159:140,1,50
256,12,200153,1,0,0:0:0:0:
267,14,200221,1,0,0:0:0:0:
269,25,200289,1,0,0:0:0:0:
259,30,200357,1,0,0:0:0:0:
251,22,200426,2,0,P|250:46|258:70,1,50
362,168,200562,6,0,P|356:240|272:272,1,160
248,265,200903,1,0,0:0:0:0:
212,270,200971,1,0,0:0:0:0:
180,286,201039,1,0,0:0:0:0:
157,314,201108,6,0,P|145:335|141:359,1,50
288,196,201244,2,0,P|284:171|271:150,1,50
139,31,201380,5,0,0:0:0:0:
49,212,201517,1,0,0:0:0:0:
83,218,201585,1,0,0:0:0:0:
117,213,201653,1,0,0:0:0:0:
147,196,201721,1,0,0:0:0:0:
169,168,201789,5,0,0:0:0:0:
183,135,201857,1,0,0:0:0:0:
205,104,201926,1,0,0:0:0:0:
237,82,201994,1,0,0:0:0:0:
277,70,202062,1,0,0:0:0:0:
320,73,202130,1,0,0:0:0:0:
359,93,202198,1,0,0:0:0:0:
474,291,202335,6,0,P|472:324|468:340,2,50
467,257,202539,1,0,0:0:0:0:
445,230,202607,1,0,0:0:0:0:
304,144,202744,2,0,P|279:145|256:156,1,50
202,287,202880,2,0,P|224:297|249:299,1,50
376,304,203017,5,0,0:0:0:0:
496,96,203153,1,0,0:0:0:0:
346,207,203289,1,0,0:0:0:0:
458,357,203426,5,0,0:0:0:0:
472,325,203494,1,0,0:0:0:0:
473,290,203562,1,0,0:0:0:0:
467,257,203630,1,0,0:0:0:0:
445,230,203698,1,0,0:0:0:0:
256,155,203835,5,0,0:0:0:0:
238,125,203903,1,0,0:0:0:0:
237,91,203971,1,0,0:0:0:0:
252,60,204039,1,0,0:0:0:0:
280,40,204107,1,0,0:0:0:0:
315,37,204175,1,0,0:0:0:0:
348,52,204244,1,0,0:0:0:0:
377,70,204312,1,0,0:0:0:0:
411,76,204380,1,0,0:0:0:0:
445,68,204448,1,0,0:0:0:0:
472,47,204517,6,0,P|448:40|423:44,1,50
305,106,204653,2,0,P|280:110|256:103,1,50
164,68,204789,2,0,P|139:63|115:70,1,50
48,115,204926,6,0,P|28:156|28:212,1,100
48,240,205130,1,0,0:0:0:0:
62,271,205198,1,0,0:0:0:0:
65,306,205266,1,0,0:0:0:0:
56,340,205335,2,0,P|92:304|160:320,1,100
168,324,205539,1,0,0:0:0:0:
196,348,205608,6,0,B|224:356|244:348|244:348|252:340|256:324,1,75
304,104,205880,6,0,B|274:123|274:155|274:155|279:170|288:178,1,89.9999972534181
431,280,206153,6,0,P|414:278|397:282,1,34.9999989318848
316,264,206289,2,0,P|389:253|399:179,1,160
187,74,206698,6,0,P|183:124|200:171,1,100
121,351,206971,2,0,P|132:328|137:304,1,50
57,117,207108,1,0,0:0:0:0:
52,141,207176,1,0,0:0:0:0:
53,166,207244,1,0,0:0:0:0:
59,190,207312,1,0,0:0:0:0:
70,213,207380,6,0,P|94:216|119:214,1,50
229,315,207517,2,0,P|251:328|269:346,1,50
397,282,207653,2,0,P|415:265|437:254,1,50
440,114,207789,5,0,0:0:0:0:
422,98,207857,1,0,0:0:0:0:
399,86,207926,2,0,P|349:84|303:103,1,100
152,155,208198,5,0,0:0:0:0:
175,166,208267,2,0,P|199:169|224:167,1,50
398,257,208403,5,0,0:0:0:0:
375,246,208472,2,0,P|350:242|325:244,1,50
248,309,208608,5,0,0:0:0:0:
223,312,208676,1,0,0:0:0:0:
198,310,208744,1,0,0:0:0:0:
174,303,208812,1,0,0:0:0:0:
152,291,208880,6,0,P|76:275|48:347,1,160
336,224,209289,2,0,P|360:222|385:226,1,50
260,328,209426,2,0,P|235:330|210:327,1,50
27,327,209562,6,0,P|64:260|140:261,1,160,4|0,0:0|0:0,0:0:0:0:
272,347,209971,6,0,P|296:343|319:331,2,50
101,325,210243,1,0,0:0:0:0:
264,236,210380,2,0,P|280:217|290:194,1,50
153,65,210517,5,0,0:0:0:0:
152,89,210585,1,0,0:0:0:0:
157,114,210653,1,0,0:0:0:0:
167,136,210721,1,0,0:0:0:0:
184,156,210789,2,0,P|139:134|90:136,1,100
4,244,210994,1,0,0:0:0:0:
20,266,211062,6,0,P|78:272|120:232,1,120
264,236,211335,6,0,P|275:259|280:283,1,50
184,156,211471,2,0,P|189:131|199:109,1,50
344,156,211608,1,0,0:0:0:0:
364,144,211676,1,0,0:0:0:0:
388,132,211744,6,0,P|399:109|404:85,1,50
468,212,211880,2,0,P|473:236|483:258,1,50
403,339,212017,1,0,0:0:0:0:
173,67,212153,6,0,P|162:89|157:113,1,50
65,133,212289,2,0,P|73:156|86:177,1,50
30,249,212426,2,0,P|52:259|76:264,1,50
86,345,212562,2,0,P|109:336|130:323,1,50
198,225,212698,5,0,0:0:0:0:
229,209,212766,1,0,0:0:0:0:
265,205,212834,1,0,0:0:0:0:
302,215,212902,1,0,0:0:0:0:
333,239,212970,1,0,0:0:0:0:
359,272,213039,1,0,0:0:0:0:
397,290,213107,1,0,0:0:0:0:
440,293,213175,1,0,0:0:0:0:
481,276,213243,5,4,0:0:0:0:
256,192,213312,12,0,215153,0:0:0:0:
31,108,215426,6,0,B|36:164|89:183|89:183|72:204|68:228|68:228|88:268|76:336|76:336|112:292|144:280|144:280|150:252|140:228,1,400
396,40,217062,1,0,0:0:0:0:
412,52,217198,2,0,P|416:112|396:152,1,100
336,200,217608,6,0,B|400:136|484:168|484:168|476:228|420:240|420:240|400:280|400:280|348:312|312:296,1,400
96,96,219653,1,0,0:0:0:0:
168,128,219789,6,0,P|244:128|280:64,2,150
63,256,220880,6,0,P|62:285|72:314,1,59.9999981689454
175,196,221153,2,0,P|177:161|168:128,1,69.9999978637696
300,30,221426,2,0,P|281:64|277:104,1,80
432,192,221698,2,0,L|476:184,2,44.999998626709
308,296,221971,6,0,L|204:284,1,100
48,300,222244,1,0,0:0:0:0:
60,320,222312,1,0,0:0:0:0:
72,340,222380,2,0,L|124:333,1,50
244,204,222517,1,0,0:0:0:0:
210,196,222585,1,0,0:0:0:0:
175,202,222653,1,0,0:0:0:0:
146,221,222721,1,0,0:0:0:0:
127,250,222789,2,0,P|120:232|100:207,1,50
36,160,222926,2,0,P|25:137|22:112,1,50
32,32,223062,5,0,0:0:0:0:
257,156,223198,2,0,P|253:180|243:203,1,50
168,127,223335,2,0,P|157:104|154:79,1,50
300,30,223471,1,0,0:0:0:0:
324,36,223539,1,0,0:0:0:0:
348,42,223608,1,0,0:0:0:0:
372,48,223676,1,0,0:0:0:0:
396,54,223744,2,0,L|460:40,1,50
305,166,223880,2,0,L|257:156,1,50
395,278,224017,2,0,L|443:267,1,50
256,376,224153,5,0,0:0:0:0:
256,376,224289,2,0,P|208:344|164:340,1,100
51,229,224562,5,0,0:0:0:0:
75,228,224630,1,0,0:0:0:0:
100,221,224698,1,0,0:0:0:0:
121,209,224766,1,0,0:0:0:0:
140,192,224835,1,0,0:0:0:0:
158,175,224903,1,0,0:0:0:0:
180,162,224971,1,0,0:0:0:0:
204,156,225039,1,0,0:0:0:0:
229,155,225108,2,0,P|239:177|242:202,1,50
324,312,225244,5,0,0:0:0:0:
318,278,225312,1,0,0:0:0:0:
327,245,225380,2,0,P|341:224|361:209,1,50
500,192,225517,5,0,0:0:0:0:
356,116,225653,2,0,P|331:113|308:104,1,50
156,92,225789,2,0,P|179:82|203:80,1,50
356,92,225926,2,0,P|331:96|306:93,1,50
153,80,226062,2,0,P|173:65|248:56,1,100
395,278,226335,5,0,0:0:0:0:
166,339,226608,5,0,0:0:0:0:
154,317,226676,1,0,0:0:0:0:
147,292,226744,1,0,0:0:0:0:
147,268,226812,1,0,0:0:0:0:
210,226,226880,5,0,0:0:0:0:
210,201,226948,1,0,0:0:0:0:
217,176,227016,1,0,0:0:0:0:
229,155,227084,1,0,0:0:0:0:
308,132,227153,6,0,P|330:121|355:119,1,50
500,192,227289,1,0,0:0:0:0:
282,339,227426,1,0,0:0:0:0:
318,109,227562,6,0,P|342:104|366:108,1,50
487,215,227698,1,0,0:0:0:0:
475,237,227766,1,0,0:0:0:0:
456,253,227834,1,0,0:0:0:0:
435,266,227902,1,0,0:0:0:0:
410,272,227970,1,0,0:0:0:0:
386,273,228038,1,0,0:0:0:0:
361,267,228108,6,0,P|336:262|312:267,1,50
152,336,228244,2,0,P|176:340|200:336,1,50
217,223,228380,1,0,0:0:0:0:
220,198,228448,1,0,0:0:0:0:
224,173,228517,6,0,L|239:271,1,100
68,132,228789,2,0,P|68:104|75:82,1,50
171,290,228926,2,0,P|163:317|150:335,1,50
152,120,229062,6,0,P|166:95|183:81,1,50
288,28,229198,2,0,P|315:20|337:22,1,50
480,88,229335,2,0,P|499:107|509:128,1,50
460,332,229471,1,0,0:0:0:0:
217,223,229608,6,0,P|216:200|224:172,1,50
204,192,229744,2,0,P|212:164|223:144,1,50
74,83,229880,6,0,P|67:107|68:132,1,50
104,228,230017,2,0,P|98:252|85:273,1,50
95,375,230153,5,0,0:0:0:0:
152,120,230289,2,0,P|166:95|183:81,1,50
336,136,230426,5,4,0:0:0:0:
300,144,230494,1,0,0:0:0:0:
267,152,230562,1,0,0:0:0:0:
232,158,230630,1,0,0:0:0:0:
158,205,230698,6,0,P|80:168|74:82,1,179.999994506836,4|0,0:0|0:0,0:0:0:0:
44,40,230971,2,0,P|54:67|52:97,1,59.9999981689454
136,252,231108,2,0,P|154:228|181:216,1,59.9999981689454
356,232,231244,2,0,P|384:224|407:204,1,59.9999981689454
468,40,231380,1,0,0:0:0:0:
267,228,231517,1,0,0:0:0:0:
273,269,231585,1,0,0:0:0:0:
297,302,231653,1,0,0:0:0:0:
335,321,231721,1,0,0:0:0:0:
376,324,231789,5,0,0:0:0:0:
324,339,231857,1,0,0:0:0:0:
271,335,231925,1,0,0:0:0:0:
220,312,231994,1,0,0:0:0:0:
178,278,232062,1,0,0:0:0:0:
126,265,232130,1,0,0:0:0:0:
73,275,232198,1,0,0:0:0:0:
30,306,232266,1,0,0:0:0:0:
4,353,232334,5,0,0:0:0:0:
66,322,232403,1,0,0:0:0:0:
109,269,232471,1,0,0:0:0:0:
127,203,232539,1,0,0:0:0:0:
118,136,232607,1,0,0:0:0:0:
81,78,232675,1,0,0:0:0:0:
25,38,232744,2,0,P|12:65|13:95,1,59.9999981689454
144,261,232880,6,0,B|184:229|204:169|192:113|192:113|232:136|224:193,1,239.999992675781
476,266,233289,2,0,P|460:241|456:212,1,59.9999981689454
356,81,233426,2,0,P|351:110|335:135,1,59.9999981689454
248,256,233562,1,0,0:0:0:0:
248,300,233630,1,0,0:0:0:0:
265,338,233698,1,0,0:0:0:0:
307,310,233766,1,0,0:0:0:0:
325,263,233834,1,0,0:0:0:0:
313,214,233902,1,0,0:0:0:0:
272,182,233970,5,0,0:0:0:0:
235,128,234039,1,0,0:0:0:0:
238,63,234108,2,0,P|220:52|200:44,1,29.9999990844727
277,12,234175,1,0,0:0:0:0:
340,0,234243,1,0,0:0:0:0:
401,16,234311,1,0,0:0:0:0:
438,75,234380,5,0,0:0:0:0:
456,84,234448,2,0,P|486:80|511:64,1,59.9999981689454
248,256,234585,1,0,0:0:0:0:
229,247,234653,2,0,P|200:251|173:270,1,59.9999981689454
40,344,234789,6,0,P|44:328|44:300,1,29.9999990844727
63,309,234858,2,0,P|64:288|55:265,1,29.9999990844727
76,269,234926,2,0,P|72:248|57:228,1,29.9999990844727
79,227,234994,2,0,P|74:212|65:201,1,29.9999990844727
70,185,235062,6,0,P|57:159|56:129,1,59.9999981689454
248,24,235198,5,0,0:0:0:0:
260,49,235267,2,0,P|258:78|245:105,1,59.9999981689454
216,264,235403,5,0,0:0:0:0:
210,237,235471,2,0,P|219:208|240:187,1,59.9999981689454
444,140,235607,5,0,0:0:0:0:
429,164,235676,2,0,P|407:184|378:193,1,59.9999981689454
264,380,235812,5,0,0:0:0:0:
280,357,235880,2,0,P|306:343|336:342,1,59.9999981689454
512,332,236017,5,0,0:0:0:0:
492,352,236085,1,0,0:0:0:0:
467,364,236153,2,0,P|437:362|410:349,1,59.9999981689454
316,244,236289,2,0,P|301:217|300:187,1,59.9999981689454
460,116,236426,6,0,L|465:86,4,29.9999990844727
512,185,236631,1,0,0:0:0:0:
474,218,236699,1,0,0:0:0:0:
421,221,236767,1,0,0:0:0:0:
378,192,236835,2,0,P|378:161|392:134,1,59.9999981689454
247,280,236971,2,0,P|263:305|289:321,1,59.9999981689454
444,140,237108,5,0,0:0:0:0:
199,53,237244,5,0,0:0:0:0:
152,28,237312,1,0,0:0:0:0:
100,37,237380,1,0,0:0:0:0:
64,75,237448,1,0,0:0:0:0:
56,128,237517,2,0,P|81:142|111:144,1,59.9999981689454
284,24,237653,5,0,0:0:0:0:
332,48,237721,2,0,P|361:47|387:33,1,59.9999981689454
199,53,237858,5,0,0:0:0:0:
219,87,237926,1,0,0:0:0:0:
228,127,237994,1,0,0:0:0:0:
223,167,238062,1,0,0:0:0:0:
218,207,238130,1,0,0:0:0:0:
227,247,238198,1,0,0:0:0:0:
248,281,238266,1,0,0:0:0:0:
277,308,238335,6,0,B|292:328|289:347|289:347|256:372|216:356,1,120
136,356,238608,1,0,0:0:0:0:
105,363,238676,1,0,0:0:0:0:
75,356,238744,1,0,0:0:0:0:
52,335,238812,1,0,0:0:0:0:
42,306,238880,6,0,L|51:256,1,50
108,200,239017,2,0,L|98:150,1,50
56,72,239153,2,0,L|162:97,1,110.000003356934
188,88,239358,1,0,0:0:0:0:
216,79,239426,6,0,B|274:46|328:88|328:88|320:120|296:136,1,179.999994506836
208,180,239698,2,0,P|200:208|205:238,1,59.9999981689454
395,115,239835,2,0,P|400:86|392:57,1,59.9999981689454
362,211,239971,2,0,L|435:228,1,59.9999981689454
163,97,240108,1,0,0:0:0:0:
280,212,240244,1,0,0:0:0:0:
282,253,240312,1,0,0:0:0:0:
263,290,240380,1,0,0:0:0:0:
229,313,240448,1,0,0:0:0:0:
187,314,240517,5,0,0:0:0:0:
135,300,240585,1,0,0:0:0:0:
82,303,240653,2,0,L|88:289,1,14.9999995422363
37,335,240721,1,0,0:0:0:0:
6,378,240789,1,0,0:0:0:0:
12,360,240858,5,0,0:0:0:0:
43,317,240926,1,0,0:0:0:0:
88,289,240994,1,0,0:0:0:0:
140,280,241062,5,0,0:0:0:0:
187,315,241130,1,0,0:0:0:0:
234,350,241198,2,0,P|260:363|290:365,1,59.9999981689454
420,224,241335,2,0,P|391:232|369:252,1,59.9999981689454
204,208,241471,2,0,P|228:191|244:166,1,59.9999981689454
82,53,241608,6,0,P|80:120|176:144,1,179.999994506836
168,37,241880,2,0,P|149:59|140:88,1,59.9999981689454
192,295,242017,5,0,0:0:0:0:
440,72,242153,1,0,0:0:0:0:
240,76,242289,2,0,L|212:88,2,29.9999990844727
336,36,242426,1,0,0:0:0:0:
344,84,242494,1,0,0:0:0:0:
333,125,242562,5,0,0:0:0:0:
380,150,242631,1,0,0:0:0:0:
414,200,242698,2,0,P|403:189|391:180,1,29.9999990844727
421,260,242767,2,0,P|416:245|409:232,1,29.9999990844727
397,316,242835,2,0,P|398:301|397:286,1,29.9999990844727
351,355,242903,2,0,P|358:342|364:328,1,29.9999990844727
291,365,242971,2,0,P|314:347|330:322,1,59.9999981689454
315,206,243108,5,0,0:0:0:0:
316,152,243176,1,0,0:0:0:0:
342,106,243244,1,0,0:0:0:0:
386,76,243312,1,0,0:0:0:0:
440,72,243380,6,0,P|428:91|411:105,1,44.999998626709
409,232,243517,2,0,P|387:244|362:245,1,50,0|0,0:0|0:0,3:0:0:0:
291,365,243653,2,0,P|263:365|240:350,1,55.0000016784668
40,148,243789,6,0,B|62:108|101:102|101:102|131:176|81:254,1,239.999992675781
64,292,244130,1,0,0:0:0:0:
75,331,244198,1,0,0:0:0:0:
112,349,244266,1,0,0:0:0:0:
150,336,244334,1,0,0:0:0:0:
168,299,244402,1,0,0:0:0:0:
192,264,244471,2,0,P|214:249|248:248,1,59.9999981689454
476,348,244608,5,0,0:0:0:0:
244,326,244744,1,0,0:0:0:0:
424,286,244880,1,0,0:0:0:0:
448,269,244948,1,0,0:0:0:0:
467,246,245016,1,0,0:0:0:0:
478,218,245084,1,0,0:0:0:0:
479,188,245153,5,0,0:0:0:0:
443,166,245221,1,0,0:0:0:0:
419,132,245289,1,0,0:0:0:0:
410,91,245357,1,0,0:0:0:0:
418,50,245425,1,0,0:0:0:0:
442,16,245493,1,0,0:0:0:0:
483,0,245562,5,0,0:0:0:0:
499,47,245630,1,0,0:0:0:0:
484,96,245698,1,0,0:0:0:0:
444,126,245766,1,0,0:0:0:0:
393,127,245834,1,0,0:0:0:0:
352,98,245902,1,0,0:0:0:0:
343,144,245971,6,0,P|332:166|314:182,1,50,2|0,0:0|0:0,0:0:0:0:
77,302,246108,2,0,P|72:277|78:253,1,50
200,18,246244,2,0,P|217:35|227:58,1,50
267,320,246380,2,0,P|242:316|220:303,1,50,2|0,0:0|0:0,0:0:0:0:
35,115,246517,2,0,P|57:103|81:101,1,50
292,252,246653,2,0,P|316:256|340:250,1,50
472,15,246789,6,0,P|486:23|503:28,2,33.3333333333333,2|0|0,0:0|0:0|0:0,0:0:0:0:
412,52,246926,2,0,P|422:65|435:76,2,33.3333333333333,2|0|0,0:0|0:0|0:0,0:0:0:0:
342,66,247062,5,0,0:0:0:0:
353,106,247130,1,0,0:0:0:0:
340,148,247198,1,0,0:0:0:0:
306,183,247267,1,0,0:0:0:0:
258,191,247334,1,0,0:0:0:0:
208,172,247402,1,0,0:0:0:0:
180,116,247471,1,0,0:0:0:0:
196,48,247539,1,0,0:0:0:0:
268,56,247608,5,2,0:0:0:0:
273,80,247676,1,0,0:0:0:0:
274,109,247744,1,0,0:0:0:0:
272,135,247812,1,0,0:0:0:0:
268,163,247880,1,0,0:0:0:0:
258,191,247949,1,0,0:0:0:0:
242,218,248017,1,0,0:0:0:0:
223,244,248085,1,0,0:0:0:0:
196,268,248153,6,0,L|92:284,1,100,4|0,0:2|0:0,0:0:0:0:
267,320,248426,5,0,0:0:0:0:
291,323,248494,1,0,0:0:0:0:
316,327,248562,1,0,0:0:0:0:
341,331,248630,1,0,0:0:0:0:
365,334,248698,2,0,L|414:326,1,50,0|0,0:2|0:0,0:0:0:0:
484,228,248835,2,0,L|434:220,1,50,0|0,0:2|0:0,0:0:0:0:
360,248,248971,6,0,L|458:232,1,100,0|0,0:2|0:0,0:0:0:0:
384,172,249176,1,0,0:0:0:0:
362,160,249244,2,0,L|412:152,1,50,0|0,0:2|0:0,0:0:0:0:
289,308,249380,1,0,0:0:0:0:
267,320,249448,2,0,L|217:312,1,50,0|0,0:2|0:0,0:0:0:0:
36,232,249585,1,0,0:0:0:0:
58,244,249653,2,0,L|108:236,1,50,0|0,0:2|0:0,0:0:0:0:
232,196,249789,5,0,0:0:0:0:
237,171,249857,1,0,0:0:0:0:
237,146,249925,1,0,0:0:0:0:
233,121,249993,1,0,0:0:0:0:
225,98,250061,1,0,0:0:0:0:
213,76,250129,1,0,0:0:0:0:
196,56,250198,2,0,P|175:44|151:39,1,50
107,236,250335,2,0,P|160:191|152:111,1,150
80,76,250608,6,0,L|55:71,2,25
88,156,250744,2,0,L|63:151,2,25
107,236,250880,2,0,L|82:231,2,25
170,302,251017,5,0,0:0:0:0:
199,320,251085,1,0,0:0:0:0:
233,327,251153,1,0,0:0:0:0:
267,320,251221,1,0,0:0:0:0:
296,302,251289,2,0,P|320:292|344:291,1,50
472,344,251426,6,0,P|447:342|424:333,1,50
232,236,251562,5,0,0:0:0:0:
240,212,251630,2,0,P|255:192|276:178,1,50
473,162,251767,5,0,0:0:0:0:
482,190,251835,2,0,P|478:214|467:237,1,50
341,360,251971,5,0,0:0:0:0:
336,323,252039,1,0,0:0:0:0:
344,291,252107,1,0,0:0:0:0:
368,263,252175,1,0,0:0:0:0:
398,250,252244,2,0,L|388:308,1,50
276,178,252380,2,0,L|267:128,1,50
480,36,252517,6,0,L|464:134,1,100
155,116,252789,1,0,0:0:0:0:
372,84,252926,1,0,0:0:0:0:
295,310,253130,1,0,0:0:0:0:
299,335,253198,1,0,0:0:0:0:
303,360,253266,1,0,0:0:0:0:
307,384,253335,2,0,L|315:334,1,50
170,224,253471,2,0,L|179:274,1,50
48,336,253608,5,0,0:0:0:0:
466,237,253744,1,0,0:0:0:0:
260,152,253880,6,0,L|236:143,6,25
352,92,254153,2,0,L|375:83,6,25
440,32,254426,5,0,0:0:0:0:
456,62,254494,1,0,0:0:0:0:
459,97,254562,1,0,0:0:0:0:
446,129,254630,1,0,0:0:0:0:
400,196,254698,5,0,0:0:0:0:
388,229,254766,1,0,0:0:0:0:
391,263,254834,1,0,0:0:0:0:
409,293,254902,1,0,0:0:0:0:
438,314,254971,6,0,P|462:319|486:316,1,50
291,286,255108,2,0,P|267:292|247:308,1,50
48,336,255244,2,0,P|69:323|84:303,1,50
144,152,255380,5,0,0:0:0:0:
147,176,255448,1,0,0:0:0:0:
151,201,255516,1,0,0:0:0:0:
155,226,255584,1,0,0:0:0:0:
159,250,255652,1,0,0:0:0:0:
162,275,255720,1,0,0:0:0:0:
166,300,255789,6,0,P|162:333|146:361,1,66.6666666666667
276,178,255971,2,0,P|249:158|232:129,1,66.6666666666667
327,333,256153,2,0,P|357:319|390:319,1,66.6666666666667
84,303,256335,6,0,L|18:292,1,66.6666666666667
276,178,256517,2,0,L|341:167,1,66.6666666666667
104,48,256698,2,0,L|38:37,1,66.6666666666667
372,84,256880,6,0,L|421:74,1,50,6|0,0:0|0:0,0:0:0:0:
151,201,257153,5,0,0:0:0:0:
126,196,257221,1,0,0:0:0:0:
102,191,257289,1,0,0:0:0:0:
77,186,257358,1,0,0:0:0:0:
136,124,257426,5,0,0:0:0:0:
170,118,257494,1,0,0:0:0:0:
205,112,257562,1,0,0:0:0:0:
239,106,257630,1,0,0:0:0:0:
276,178,257698,6,0,P|276:202|269:226,1,50
244,344,257835,2,0,P|236:320|237:295,1,50
362,272,257971,5,0,0:0:0:0:
151,201,258108,1,0,0:0:0:0:
401,151,258244,6,0,P|392:126|378:106,1,50
112,322,258380,2,0,P|120:346|134:366,1,50
102,191,258517,1,0,0:0:0:0:
126,196,258585,1,0,0:0:0:0:
151,201,258653,6,0,P|204:144|204:68,1,150
83,71,258926,2,0,P|97:91|116:108,1,50
324,167,259062,2,0,P|299:169|276:178,1,50
112,322,259198,2,0,P|122:299|127:275,1,50
204,148,259335,5,0,0:0:0:0:
198,182,259403,1,0,0:0:0:0:
208,215,259471,1,0,0:0:0:0:
231,241,259539,1,0,0:0:0:0:
263,255,259608,1,0,0:0:0:0:
294,268,259676,1,0,0:0:0:0:
317,294,259744,1,0,0:0:0:0:
327,327,259812,1,0,0:0:0:0:
322,362,259880,2,0,L|223:342,1,100
280,176,260153,5,0,0:0:0:0:
305,181,260221,1,0,0:0:0:0:
330,186,260289,2,0,L|428:166,1,100
468,96,260494,1,0,0:0:0:0:
443,91,260562,2,0,L|393:100,1,50
288,56,260698,1,0,0:0:0:0:
259,61,260766,2,0,L|209:51,1,50
25,21,260971,5,0,0:0:0:0:
95,18,261061,1,0,0:0:0:0:
139,73,261152,5,0,0:0:0:0:
120,144,261244,1,0,0:0:0:0:
100,214,261336,5,0,0:0:0:0:
144,269,261427,1,0,0:0:0:0:
216,260,261517,6,0,L|289:231,1,50
412,296,261653,2,0,L|444:309,2,25
172,200,261789,6,0,L|218:181,1,50
447,228,261925,2,0,L|479:241,2,25
120,144,262062,6,0,L|193:115,1,50
482,160,262198,2,0,L|514:173,2,25
259,319,262335,5,0,0:0:0:0:
67,87,262471,1,0,0:0:0:0:
363,36,262608,2,0,L|386:26,2,25
282,71,262744,2,0,L|259:61,2,25
353,124,262880,6,0,P|356:196|336:273,1,150
256,360,263153,2,0,L|244:260,1,100
192,152,263358,1,0,0:0:0:0:
168,160,263426,6,0,P|160:184|162:209,1,50
330,222,263562,2,0,P|338:246|336:271,1,50
256,360,263698,1,0,0:0:0:0:
112,116,263835,6,0,P|98:137|93:161,1,50
386,178,263971,2,0,P|399:199|404:223,1,50
256,360,264107,1,0,0:0:0:0:
69,59,264244,6,0,P|50:75|39:98,1,50
429,121,264380,2,0,P|447:137|458:160,1,50
256,360,264516,1,0,0:0:0:0:
248,16,264653,6,0,B|229:81|229:81|247:161,1,150
268,236,264926,1,0,0:0:0:0:
168,148,265062,1,0,0:0:0:0:
429,121,265198,1,0,0:0:0:0:
256,360,265335,1,0,0:0:0:0:
69,59,265471,1,0,0:2:0:0:
347,179,265608,6,0,P|362:216|363:256,1,80,4|0,0:0|0:0,0:0:0:0:
256,360,265880,2,0,P|247:321|251:281,1,80
257,258,266085,1,0,0:0:0:0:
268,236,266153,2,0,L|216:244,1,40
152,300,266289,2,0,L|112:293,1,40
36,232,266426,5,0,0:0:0:0:
144,116,266562,1,0,0:0:0:0:
156,132,266630,1,0,0:0:0:0:
168,148,266698,2,0,P|207:151|246:142,1,80
312,96,266903,2,0,P|331:92|351:92,1,40
476,36,267108,6,0,B|444:80|464:132|464:132|484:184|452:228,1,200
380,272,267517,2,0,P|360:271|340:268,1,40
436,348,267653,2,0,P|455:344|475:344,1,40
271,313,267789,5,0,0:0:0:0:
69,98,268062,6,0,L|60:60,1,40
158,186,268198,2,0,L|167:147,1,40
69,273,268335,2,0,L|59:234,1,40
157,360,268471,1,0,0:0:0:0:
272,228,268608,6,0,P|200:216|152:280,1,160
224,284,268948,1,0,0:0:0:0:
228,303,269016,1,0,0:0:0:0:
320,172,269153,6,0,P|323:152|330:133,1,40
391,176,269289,2,0,P|388:195|381:214,1,40
252,136,269426,6,0,P|263:98|290:68,1,80
459,211,269698,2,0,P|447:248|420:278,1,80
158,186,269971,6,0,P|126:171|91:167,1,69.9999978637696
0,96,270244,2,0,P|34:91|66:77,1,69.9999978637696
156,4,270517,1,0,0:0:0:0:
220,96,270653,2,0,B|228:144|228:144|212:188|212:188|220:232,1,139.999995727539
132,300,271062,6,0,P|100:314|65:318,1,69.9999978637696
232,340,271335,1,0,0:0:0:0:
249,340,271403,1,0,0:0:0:0:
266,344,271471,1,0,0:0:0:0:
283,350,271539,1,0,0:0:0:0:
298,358,271608,2,0,P|313:365|330:369,1,34.9999989318848
416,372,271744,2,0,P|433:370|450:365,1,34.9999989318848
379,213,271880,2,0,P|346:205|312:211,1,69.9999978637696
132,300,272153,6,0,P|220:232|160:144,1,209.999993591309
100,83,272698,2,0,P|81:113|75:147,1,69.9999978637696
144,220,272971,1,0,0:0:0:0:
390,176,273244,2,0,P|458:185|493:242,1,139.999995727539
415,252,273654,1,0,0:0:0:0:
313,130,273790,1,0,0:0:0:0:
319,227,273926,1,0,0:0:0:0:
405,93,274063,1,0,0:0:0:0:
144,219,274335,6,0,P|114:223|84:212,1,59.9999981689454
184,111,274608,2,0,P|211:100|240:102,1,59.9999981689454
440,312,275017,1,0,0:0:0:0:
372,380,275153,6,0,B|332:328|356:268|356:268|380:204|340:152,1,239.999992675781
86,213,275971,1,0,0:0:0:0:
256,308,276244,6,0,P|309:282|368:286,1,119.999996337891
144,288,276721,5,0,0:0:0:0:
128,300,276789,2,0,P|68:304|15:278,1,119.999996337891
180,4,277267,5,0,0:0:0:0:
192,20,277335,2,0,B|208:92|208:92|188:180|188:180|208:256,1,239.999992675781
440,312,278153,1,0,0:0:0:0:
375,82,278426,1,0,0:0:0:0:
255,307,278698,6,0,P|235:320|210:325,1,50
122,230,278971,2,0,P|146:235|167:248,1,50
36,348,279380,1,0,0:0:0:0:
252,216,279653,6,0,P|274:171|275:122,1,100
248,44,280062,1,0,0:0:0:0:
117,322,280335,1,0,0:0:0:0:
424,296,280608,1,0,0:0:0:0:
180,148,280880,6,0,P|130:150|86:174,1,100
160,248,281289,2,0,P|187:289|229:315,1,100
251,216,281698,2,0,P|266:195|274:172,1,50
328,60,281971,2,0,L|356:260,1,200,0|2,0:0|0:0,0:0:0:0:
116,316,283062,5,6,0:0:0:0:
256,192,283130,12,0,290971,0:0:0:0:
424,296,291244,6,0,P|410:279|391:267,1,44.999998626709
320,236,291516,2,0,P|298:231|275:232,1,44.999998626709
84,192,291789,6,0,B|160:196|232:144|224:88|224:28|224:28|152:12|84:64|84:64|176:68|232:144|232:144|160:196|189:272|189:272|224:344|324:324|324:324|372:296|424:296|424:296|368:232|276:232|276:232|336:200|340:132|316:96|316:96|340:72|372:76|372:76|380:108|360:128,1,1425
