osu file format v14

[General]
AudioFilename: audio110.mp3
AudioLeadIn: 0
PreviewTime: -1
Countdown: 1
SampleSet: None
StackLeniency: 0.7
Mode: 3
LetterboxInBreaks: 0
SpecialStyle: 0
WidescreenStoryboard: 0

[Editor]
DistanceSpacing: 0.8
BeatDivisor: 4
GridSize: 32
TimelineZoom: 2.5

[Metadata]
Title:Blastix Riotz
TitleUnicode:Blastix Riotz
Artist:Camellia
ArtistUnicode:かめりあ
Creator:loafusofbread
Version:BREADSTICKS RIOTZ [1.1x Rate]
Source:SOUND VOLTEX IV HEAVENLY HEAVEN
Tags:
BeatmapID:2249167
BeatmapSetID:970395

[Difficulty]
HPDrainRate:9
CircleSize:4
OverallDifficulty:9
ApproachRate:5
SliderMultiplier:1.4
SliderTickRate:1

[Events]
//Background and Video events
0,0,"RIOT.jpg",0,0
//Break Periods
//Storyboard Layer 0 (Background)
//Storyboard Layer 1 (Fail)
//Storyboard Layer 2 (Pass)
//Storyboard Layer 3 (Foreground)
//Storyboard Layer 4 (Overlay)
//Storyboard Sound Samples

[TimingPoints]
571,213.068181818182,4,1,1,40,1,0

[HitObjects]
64,192,571,5,0,0:0:0:0:
192,192,571,1,0,0:0:0:0:
320,192,571,1,0,0:0:0:0:
192,192,677,1,0,0:0:0:0:
448,192,784,1,0,0:0:0:0:
320,192,890,1,0,0:0:0:0:
192,192,890,1,0,0:0:0:0:
64,192,890,1,0,0:0:0:0:
64,192,996,1,0,0:0:0:0:
320,192,1103,1,0,0:0:0:0:
192,192,1210,1,0,0:0:0:0:
64,192,1316,1,0,0:0:0:0:
192,192,1369,1,0,0:0:0:0:
320,192,1423,1,0,0:0:0:0:
64,192,1529,1,0,0:0:0:0:
192,192,1635,1,0,0:0:0:0:
64,192,1743,1,0,0:0:0:0:
320,192,1849,1,0,0:0:0:0:
192,192,1849,1,0,0:0:0:0:
64,192,1902,1,0,0:0:0:0:
448,192,1955,1,0,0:0:0:0:
320,192,1955,1,0,0:0:0:0:
448,192,2062,1,0,0:0:0:0:
192,192,2062,1,0,0:0:0:0:
448,192,2168,1,0,0:0:0:0:
64,192,2168,1,0,0:0:0:0:
448,192,2275,1,0,0:0:0:0:
320,192,2275,1,0,0:0:0:0:
64,192,2275,1,0,0:0:0:0:
192,192,2382,1,0,0:0:0:0:
448,192,2488,1,0,0:0:0:0:
448,192,2595,1,0,0:0:0:0:
320,192,2595,1,0,0:0:0:0:
64,192,2595,1,0,0:0:0:0:
64,192,2701,1,0,0:0:0:0:
320,192,2807,1,0,0:0:0:0:
192,192,2915,1,0,0:0:0:0:
64,192,3021,1,0,0:0:0:0:
192,192,3074,1,0,0:0:0:0:
320,192,3127,1,0,0:0:0:0:
448,192,3234,1,0,0:0:0:0:
320,192,3340,1,0,0:0:0:0:
192,192,3447,1,0,0:0:0:0:
64,192,3447,1,0,0:0:0:0:
320,192,3500,1,0,0:0:0:0:
448,192,3554,1,0,0:0:0:0:
448,192,3660,1,0,0:0:0:0:
320,192,3714,1,0,0:0:0:0:
64,192,3766,1,0,0:0:0:0:
192,192,3766,1,0,0:0:0:0:
320,192,3873,1,0,0:0:0:0:
448,192,3980,1,0,0:0:0:0:
320,192,3980,1,0,0:0:0:0:
192,192,3980,1,0,0:0:0:0:
192,192,4086,1,0,0:0:0:0:
448,192,4193,1,0,0:0:0:0:
448,192,4299,1,0,0:0:0:0:
192,192,4299,1,0,0:0:0:0:
320,192,4299,1,0,0:0:0:0:
64,192,4405,1,0,0:0:0:0:
320,192,4512,1,0,0:0:0:0:
192,192,4619,1,0,0:0:0:0:
64,192,4725,1,0,0:0:0:0:
192,192,4778,1,0,0:0:0:0:
448,192,4832,1,0,0:0:0:0:
64,192,4938,1,0,0:0:0:0:
192,192,5045,1,0,0:0:0:0:
64,192,5152,1,0,0:0:0:0:
192,192,5258,1,0,0:0:0:0:
64,192,5258,1,0,0:0:0:0:
448,192,5365,1,0,0:0:0:0:
320,192,5365,1,0,0:0:0:0:
192,192,5471,1,0,0:0:0:0:
448,192,5471,1,0,0:0:0:0:
64,192,5577,1,0,0:0:0:0:
448,192,5577,1,0,0:0:0:0:
192,192,5685,1,0,0:0:0:0:
64,192,5685,1,0,0:0:0:0:
448,192,5685,1,0,0:0:0:0:
192,192,5791,128,0,5897:0:0:0:0:
448,192,5897,1,0,0:0:0:0:
64,192,6004,1,0,0:0:0:0:
192,192,6004,1,0,0:0:0:0:
448,192,6004,1,0,0:0:0:0:
64,192,6110,128,0,6216:0:0:0:0:
320,192,6216,128,0,6324:0:0:0:0:
192,192,6324,128,0,6430:0:0:0:0:
64,192,6430,1,0,0:0:0:0:
192,192,6483,1,0,0:0:0:0:
320,192,6536,1,0,0:0:0:0:
448,192,6536,1,0,0:0:0:0:
192,192,6590,1,0,0:0:0:0:
64,192,6590,1,0,0:0:0:0:
448,192,6643,1,0,0:0:0:0:
320,192,6696,1,0,0:0:0:0:
192,192,6749,1,0,0:0:0:0:
64,192,6749,1,0,0:0:0:0:
320,192,6803,1,0,0:0:0:0:
448,192,6803,1,0,0:0:0:0:
192,192,6856,1,0,0:0:0:0:
64,192,6909,1,0,0:0:0:0:
448,192,6963,1,0,0:0:0:0:
320,192,6963,1,0,0:0:0:0:
192,192,7015,1,0,0:0:0:0:
64,192,7015,1,0,0:0:0:0:
448,192,7069,1,0,0:0:0:0:
320,192,7069,1,0,0:0:0:0:
192,192,7123,1,0,0:0:0:0:
64,192,7123,1,0,0:0:0:0:
448,192,7175,128,0,7335:0:0:0:0:
64,192,7389,1,0,0:0:0:0:
448,192,7389,1,0,0:0:0:0:
192,192,7442,1,0,0:0:0:0:
448,192,7495,1,0,0:0:0:0:
320,192,7495,1,0,0:0:0:0:
192,192,7548,1,0,0:0:0:0:
448,192,7602,1,0,0:0:0:0:
320,192,7602,1,0,0:0:0:0:
64,192,7655,1,0,0:0:0:0:
448,192,7708,1,0,0:0:0:0:
320,192,7708,1,0,0:0:0:0:
192,192,7762,1,0,0:0:0:0:
448,192,7815,1,0,0:0:0:0:
64,192,7815,1,0,0:0:0:0:
320,192,7868,1,0,0:0:0:0:
64,192,7921,1,0,0:0:0:0:
192,192,7921,1,0,0:0:0:0:
448,192,7975,1,0,0:0:0:0:
64,192,8028,1,0,0:0:0:0:
192,192,8055,1,0,0:0:0:0:
320,192,8081,1,0,0:0:0:0:
448,192,8108,1,0,0:0:0:0:
64,192,8135,1,0,0:0:0:0:
192,192,8161,1,0,0:0:0:0:
320,192,8187,1,0,0:0:0:0:
64,192,8241,1,0,0:0:0:0:
448,192,8241,1,0,0:0:0:0:
320,192,8295,1,0,0:0:0:0:
192,192,8347,1,0,0:0:0:0:
64,192,8347,1,0,0:0:0:0:
320,192,8401,1,0,0:0:0:0:
192,192,8454,1,0,0:0:0:0:
64,192,8454,1,0,0:0:0:0:
448,192,8507,1,0,0:0:0:0:
192,192,8561,1,0,0:0:0:0:
64,192,8561,1,0,0:0:0:0:
320,192,8614,1,0,0:0:0:0:
448,192,8667,1,0,0:0:0:0:
64,192,8667,1,0,0:0:0:0:
192,192,8720,1,0,0:0:0:0:
320,192,8774,1,0,0:0:0:0:
448,192,8774,1,0,0:0:0:0:
64,192,8827,1,0,0:0:0:0:
448,192,8880,1,0,0:0:0:0:
320,192,8906,1,0,0:0:0:0:
192,192,8934,1,0,0:0:0:0:
64,192,8960,1,0,0:0:0:0:
448,192,8986,1,0,0:0:0:0:
320,192,9014,1,0,0:0:0:0:
192,192,9040,1,0,0:0:0:0:
64,192,9094,1,0,0:0:0:0:
320,192,9094,1,0,0:0:0:0:
192,192,9146,1,0,0:0:0:0:
448,192,9200,1,0,0:0:0:0:
320,192,9200,1,0,0:0:0:0:
64,192,9253,1,0,0:0:0:0:
448,192,9306,1,0,0:0:0:0:
320,192,9306,1,0,0:0:0:0:
192,192,9359,1,0,0:0:0:0:
448,192,9413,1,0,0:0:0:0:
320,192,9413,1,0,0:0:0:0:
64,192,9466,1,0,0:0:0:0:
192,192,9519,1,0,0:0:0:0:
448,192,9519,1,0,0:0:0:0:
320,192,9573,1,0,0:0:0:0:
192,192,9625,1,0,0:0:0:0:
64,192,9625,1,0,0:0:0:0:
448,192,9679,1,0,0:0:0:0:
64,192,9733,1,0,0:0:0:0:
192,192,9759,1,0,0:0:0:0:
320,192,9785,1,0,0:0:0:0:
448,192,9813,1,0,0:0:0:0:
64,192,9839,1,0,0:0:0:0:
192,192,9865,1,0,0:0:0:0:
320,192,9892,1,0,0:0:0:0:
192,192,9945,1,0,0:0:0:0:
448,192,9945,1,0,0:0:0:0:
320,192,9999,1,0,0:0:0:0:
192,192,10052,1,0,0:0:0:0:
64,192,10052,1,0,0:0:0:0:
448,192,10105,1,0,0:0:0:0:
192,192,10158,1,0,0:0:0:0:
64,192,10158,1,0,0:0:0:0:
320,192,10212,1,0,0:0:0:0:
192,192,10265,1,0,0:0:0:0:
64,192,10265,1,0,0:0:0:0:
448,192,10318,1,0,0:0:0:0:
320,192,10372,1,0,0:0:0:0:
64,192,10372,1,0,0:0:0:0:
192,192,10372,1,0,0:0:0:0:
448,192,10478,1,0,0:0:0:0:
64,192,10532,1,0,0:0:0:0:
192,192,10532,1,0,0:0:0:0:
320,192,10532,1,0,0:0:0:0:
64,192,10638,1,0,0:0:0:0:
192,192,10691,1,0,0:0:0:0:
320,192,10691,1,0,0:0:0:0:
448,192,10691,1,0,0:0:0:0:
448,192,10798,1,0,0:0:0:0:
64,192,10798,1,0,0:0:0:0:
192,192,10851,1,0,0:0:0:0:
448,192,10905,1,0,0:0:0:0:
320,192,10905,1,0,0:0:0:0:
192,192,10957,1,0,0:0:0:0:
64,192,10957,1,0,0:0:0:0:
320,192,11011,1,0,0:0:0:0:
448,192,11064,1,0,0:0:0:0:
64,192,11064,1,0,0:0:0:0:
192,192,11117,1,0,0:0:0:0:
320,192,11117,1,0,0:0:0:0:
64,192,11171,1,0,0:0:0:0:
448,192,11224,1,0,0:0:0:0:
320,192,11224,1,0,0:0:0:0:
192,192,11277,1,0,0:0:0:0:
64,192,11277,1,0,0:0:0:0:
320,192,11330,1,0,0:0:0:0:
192,192,11384,1,0,0:0:0:0:
64,192,11384,1,0,0:0:0:0:
448,192,11437,1,0,0:0:0:0:
320,192,11464,1,0,0:0:0:0:
192,192,11490,1,0,0:0:0:0:
64,192,11517,1,0,0:0:0:0:
448,192,11544,1,0,0:0:0:0:
320,192,11570,1,0,0:0:0:0:
192,192,11596,1,0,0:0:0:0:
64,192,11650,1,0,0:0:0:0:
448,192,11650,1,0,0:0:0:0:
320,192,11704,1,0,0:0:0:0:
64,192,11756,1,0,0:0:0:0:
192,192,11756,1,0,0:0:0:0:
320,192,11810,1,0,0:0:0:0:
448,192,11810,1,0,0:0:0:0:
192,192,11863,1,0,0:0:0:0:
64,192,11916,1,0,0:0:0:0:
448,192,11916,1,0,0:0:0:0:
320,192,11970,1,0,0:0:0:0:
192,192,11970,1,0,0:0:0:0:
448,192,12023,1,0,0:0:0:0:
64,192,12076,1,0,0:0:0:0:
192,192,12076,1,0,0:0:0:0:
320,192,12129,1,0,0:0:0:0:
448,192,12129,1,0,0:0:0:0:
192,192,12183,1,0,0:0:0:0:
320,192,12236,1,0,0:0:0:0:
448,192,12236,1,0,0:0:0:0:
64,192,12289,1,0,0:0:0:0:
192,192,12315,1,0,0:0:0:0:
320,192,12343,1,0,0:0:0:0:
448,192,12369,1,0,0:0:0:0:
64,192,12395,1,0,0:0:0:0:
192,192,12423,1,0,0:0:0:0:
320,192,12449,1,0,0:0:0:0:
448,192,12503,1,0,0:0:0:0:
64,192,12503,1,0,0:0:0:0:
320,192,12555,1,0,0:0:0:0:
64,192,12609,1,0,0:0:0:0:
192,192,12609,1,0,0:0:0:0:
320,192,12662,1,0,0:0:0:0:
448,192,12662,1,0,0:0:0:0:
64,192,12715,1,0,0:0:0:0:
192,192,12768,1,0,0:0:0:0:
448,192,12768,1,0,0:0:0:0:
320,192,12822,1,0,0:0:0:0:
64,192,12822,1,0,0:0:0:0:
448,192,12875,1,0,0:0:0:0:
64,192,12928,1,0,0:0:0:0:
192,192,12928,1,0,0:0:0:0:
320,192,12982,1,0,0:0:0:0:
448,192,12982,1,0,0:0:0:0:
192,192,13035,1,0,0:0:0:0:
64,192,13088,1,0,0:0:0:0:
320,192,13088,1,0,0:0:0:0:
192,192,13142,1,0,0:0:0:0:
448,192,13142,1,0,0:0:0:0:
320,192,13195,1,0,0:0:0:0:
64,192,13248,1,0,0:0:0:0:
192,192,13248,1,0,0:0:0:0:
448,192,13301,1,0,0:0:0:0:
320,192,13301,1,0,0:0:0:0:
64,192,13355,128,0,14207:0:0:0:0:
192,192,13355,1,0,0:0:0:0:
192,192,13567,1,0,0:0:0:0:
320,192,13621,1,0,0:0:0:0:
448,192,13675,1,0,0:0:0:0:
320,192,13727,1,0,0:0:0:0:
192,192,13781,1,0,0:0:0:0:
320,192,13834,1,0,0:0:0:0:
192,192,13887,1,0,0:0:0:0:
448,192,13941,1,0,0:0:0:0:
320,192,13994,1,0,0:0:0:0:
448,192,14047,1,0,0:0:0:0:
192,192,14100,1,0,0:0:0:0:
320,192,14154,1,0,0:0:0:0:
192,192,14207,1,0,0:0:0:0:
448,192,14207,1,0,0:0:0:0:
192,192,14314,1,0,0:0:0:0:
64,192,14366,1,0,0:0:0:0:
448,192,14420,1,0,0:0:0:0:
320,192,14420,1,0,0:0:0:0:
192,192,14526,1,0,0:0:0:0:
320,192,14580,1,0,0:0:0:0:
192,192,14633,1,0,0:0:0:0:
64,192,14633,1,0,0:0:0:0:
320,192,14686,1,0,0:0:0:0:
448,192,14739,1,0,0:0:0:0:
64,192,14793,1,0,0:0:0:0:
320,192,14846,1,0,0:0:0:0:
192,192,14846,1,0,0:0:0:0:
448,192,14846,128,0,15059:0:0:0:0:
320,192,15059,1,0,0:0:0:0:
192,192,15059,1,0,0:0:0:0:
64,192,15059,1,0,0:0:0:0:
192,192,15165,1,0,0:0:0:0:
64,192,15165,1,0,0:0:0:0:
448,192,15219,1,0,0:0:0:0:
192,192,15272,1,0,0:0:0:0:
64,192,15272,1,0,0:0:0:0:
320,192,15325,1,0,0:0:0:0:
64,192,15379,1,0,0:0:0:0:
448,192,15379,1,0,0:0:0:0:
192,192,15379,1,0,0:0:0:0:
448,192,15485,1,0,0:0:0:0:
64,192,15485,1,0,0:0:0:0:
320,192,15592,1,0,0:0:0:0:
448,192,15592,1,0,0:0:0:0:
192,192,15698,1,0,0:0:0:0:
64,192,15698,1,0,0:0:0:0:
448,192,15805,1,0,0:0:0:0:
64,192,15805,1,0,0:0:0:0:
448,192,15912,1,0,0:0:0:0:
64,192,15912,1,0,0:0:0:0:
448,192,16018,1,0,0:0:0:0:
192,192,16018,1,0,0:0:0:0:
320,192,16125,1,0,0:0:0:0:
64,192,16125,1,0,0:0:0:0:
448,192,16231,1,0,0:0:0:0:
320,192,16231,1,0,0:0:0:0:
448,192,16337,1,0,0:0:0:0:
64,192,16337,1,0,0:0:0:0:
448,192,16444,1,0,0:0:0:0:
192,192,16444,1,0,0:0:0:0:
64,192,16551,1,0,0:0:0:0:
320,192,16551,1,0,0:0:0:0:
192,192,16657,1,0,0:0:0:0:
64,192,16657,1,0,0:0:0:0:
448,192,16710,1,0,0:0:0:0:
192,192,16764,1,0,0:0:0:0:
64,192,16764,1,0,0:0:0:0:
320,192,16764,1,0,0:0:0:0:
448,192,16870,1,0,0:0:0:0:
320,192,16870,1,0,0:0:0:0:
192,192,16924,1,0,0:0:0:0:
64,192,16924,1,0,0:0:0:0:
448,192,16976,1,0,0:0:0:0:
320,192,16976,1,0,0:0:0:0:
192,192,17030,1,0,0:0:0:0:
448,192,17084,1,0,0:0:0:0:
320,192,17084,1,0,0:0:0:0:
64,192,17084,1,0,0:0:0:0:
320,192,17190,1,0,0:0:0:0:
64,192,17190,1,0,0:0:0:0:
320,192,17296,1,0,0:0:0:0:
64,192,17296,1,0,0:0:0:0:
448,192,17403,1,0,0:0:0:0:
320,192,17403,1,0,0:0:0:0:
192,192,17509,1,0,0:0:0:0:
64,192,17509,1,0,0:0:0:0:
64,192,17616,1,0,0:0:0:0:
448,192,17616,1,0,0:0:0:0:
192,192,17616,1,0,0:0:0:0:
448,192,17723,1,0,0:0:0:0:
64,192,17723,1,0,0:0:0:0:
320,192,17829,1,0,0:0:0:0:
192,192,17829,1,0,0:0:0:0:
448,192,17935,1,0,0:0:0:0:
64,192,17935,1,0,0:0:0:0:
192,192,17989,1,0,0:0:0:0:
448,192,18042,1,0,0:0:0:0:
320,192,18042,1,0,0:0:0:0:
64,192,18095,1,0,0:0:0:0:
192,192,18095,1,0,0:0:0:0:
448,192,18148,1,0,0:0:0:0:
320,192,18148,1,0,0:0:0:0:
64,192,18255,1,0,0:0:0:0:
448,192,18255,1,0,0:0:0:0:
320,192,18308,1,0,0:0:0:0:
192,192,18362,1,0,0:0:0:0:
64,192,18362,1,0,0:0:0:0:
448,192,18415,1,0,0:0:0:0:
192,192,18468,1,0,0:0:0:0:
64,192,18468,1,0,0:0:0:0:
320,192,18468,1,0,0:0:0:0:
448,192,18575,1,0,0:0:0:0:
320,192,18575,1,0,0:0:0:0:
64,192,18628,1,0,0:0:0:0:
448,192,18681,1,0,0:0:0:0:
320,192,18681,1,0,0:0:0:0:
192,192,18735,1,0,0:0:0:0:
448,192,18788,1,0,0:0:0:0:
320,192,18788,1,0,0:0:0:0:
64,192,18788,1,0,0:0:0:0:
320,192,18895,1,0,0:0:0:0:
64,192,18895,1,0,0:0:0:0:
320,192,19001,1,0,0:0:0:0:
64,192,19001,1,0,0:0:0:0:
448,192,19107,1,0,0:0:0:0:
320,192,19107,1,0,0:0:0:0:
192,192,19214,1,0,0:0:0:0:
64,192,19214,1,0,0:0:0:0:
192,192,19321,1,0,0:0:0:0:
64,192,19321,1,0,0:0:0:0:
448,192,19321,1,0,0:0:0:0:
320,192,19427,1,0,0:0:0:0:
192,192,19427,1,0,0:0:0:0:
448,192,19534,1,0,0:0:0:0:
64,192,19534,1,0,0:0:0:0:
64,192,19640,1,0,0:0:0:0:
320,192,19640,1,0,0:0:0:0:
192,192,19746,1,0,0:0:0:0:
64,192,19746,1,0,0:0:0:0:
448,192,19746,1,0,0:0:0:0:
448,192,19853,1,0,0:0:0:0:
320,192,19853,1,0,0:0:0:0:
64,192,19960,1,0,0:0:0:0:
192,192,19986,1,0,0:0:0:0:
320,192,20013,1,0,0:0:0:0:
448,192,20040,1,0,0:0:0:0:
192,192,20066,1,0,0:0:0:0:
64,192,20093,1,0,0:0:0:0:
448,192,20119,1,0,0:0:0:0:
320,192,20146,1,0,0:0:0:0:
192,192,20173,1,0,0:0:0:0:
64,192,20173,1,0,0:0:0:0:
448,192,20226,1,0,0:0:0:0:
64,192,20279,1,0,0:0:0:0:
192,192,20305,1,0,0:0:0:0:
320,192,20333,1,0,0:0:0:0:
448,192,20359,1,0,0:0:0:0:
64,192,20385,1,0,0:0:0:0:
192,192,20413,1,0,0:0:0:0:
320,192,20439,1,0,0:0:0:0:
448,192,20465,1,0,0:0:0:0:
192,192,20493,1,0,0:0:0:0:
64,192,20493,1,0,0:0:0:0:
320,192,20545,1,0,0:0:0:0:
64,192,20599,1,0,0:0:0:0:
448,192,20599,1,0,0:0:0:0:
192,192,20652,1,0,0:0:0:0:
320,192,20652,1,0,0:0:0:0:
448,192,20705,1,0,0:0:0:0:
64,192,20759,1,0,0:0:0:0:
192,192,20759,1,0,0:0:0:0:
448,192,20812,1,0,0:0:0:0:
320,192,20812,1,0,0:0:0:0:
64,192,20918,1,0,0:0:0:0:
192,192,20918,1,0,0:0:0:0:
320,192,20972,1,0,0:0:0:0:
448,192,20972,1,0,0:0:0:0:
192,192,21025,1,0,0:0:0:0:
448,192,21078,1,0,0:0:0:0:
192,192,21132,1,0,0:0:0:0:
64,192,21132,1,0,0:0:0:0:
320,192,21132,1,0,0:0:0:0:
448,192,21238,1,0,0:0:0:0:
320,192,21238,1,0,0:0:0:0:
192,192,21238,1,0,0:0:0:0:
64,192,21291,1,0,0:0:0:0:
448,192,21345,1,0,0:0:0:0:
320,192,21398,1,0,0:0:0:0:
192,192,21398,1,0,0:0:0:0:
64,192,21398,1,0,0:0:0:0:
448,192,21451,1,0,0:0:0:0:
64,192,21505,1,0,0:0:0:0:
448,192,21557,1,0,0:0:0:0:
320,192,21557,1,0,0:0:0:0:
192,192,21557,1,0,0:0:0:0:
64,192,21611,1,0,0:0:0:0:
320,192,21665,1,0,0:0:0:0:
448,192,21717,1,0,0:0:0:0:
64,192,21771,1,0,0:0:0:0:
192,192,21771,1,0,0:0:0:0:
320,192,21824,1,0,0:0:0:0:
192,192,21877,128,0,21984:0:0:0:0:
64,192,21877,128,0,21984:0:0:0:0:
448,192,21877,128,0,21984:0:0:0:0:
192,192,22090,1,0,0:0:0:0:
448,192,22090,1,0,0:0:0:0:
320,192,22090,1,0,0:0:0:0:
320,192,22197,1,0,0:0:0:0:
64,192,22197,1,0,0:0:0:0:
192,192,22304,1,0,0:0:0:0:
64,192,22304,1,0,0:0:0:0:
448,192,22304,1,0,0:0:0:0:
320,192,22410,1,0,0:0:0:0:
192,192,22410,1,0,0:0:0:0:
448,192,22516,1,0,0:0:0:0:
320,192,22516,1,0,0:0:0:0:
192,192,22570,1,0,0:0:0:0:
64,192,22570,1,0,0:0:0:0:
320,192,22623,1,0,0:0:0:0:
448,192,22623,1,0,0:0:0:0:
64,192,22676,1,0,0:0:0:0:
448,192,22730,1,0,0:0:0:0:
320,192,22730,1,0,0:0:0:0:
192,192,22730,1,0,0:0:0:0:
192,192,22836,1,0,0:0:0:0:
64,192,22836,1,0,0:0:0:0:
448,192,22889,1,0,0:0:0:0:
320,192,22943,1,0,0:0:0:0:
192,192,22943,1,0,0:0:0:0:
64,192,22943,1,0,0:0:0:0:
448,192,23049,1,0,0:0:0:0:
320,192,23049,1,0,0:0:0:0:
64,192,23103,1,0,0:0:0:0:
448,192,23155,1,0,0:0:0:0:
320,192,23155,1,0,0:0:0:0:
192,192,23155,1,0,0:0:0:0:
64,192,23262,1,0,0:0:0:0:
192,192,23262,1,0,0:0:0:0:
320,192,23262,1,0,0:0:0:0:
448,192,23475,1,0,0:0:0:0:
320,192,23475,1,0,0:0:0:0:
192,192,23475,1,0,0:0:0:0:
64,192,23475,1,0,0:0:0:0:
320,192,23582,1,0,0:0:0:0:
64,192,23582,1,0,0:0:0:0:
448,192,23582,1,0,0:0:0:0:
192,192,23688,1,0,0:0:0:0:
320,192,23688,1,0,0:0:0:0:
448,192,23742,1,0,0:0:0:0:
192,192,23795,1,0,0:0:0:0:
64,192,23795,1,0,0:0:0:0:
192,192,23902,1,0,0:0:0:0:
64,192,23902,1,0,0:0:0:0:
448,192,23902,1,0,0:0:0:0:
320,192,24008,1,0,0:0:0:0:
192,192,24008,1,0,0:0:0:0:
64,192,24061,1,0,0:0:0:0:
448,192,24115,1,0,0:0:0:0:
320,192,24115,1,0,0:0:0:0:
448,192,24221,1,0,0:0:0:0:
320,192,24221,1,0,0:0:0:0:
64,192,24221,1,0,0:0:0:0:
64,192,24327,1,0,0:0:0:0:
192,192,24327,1,0,0:0:0:0:
448,192,24381,1,0,0:0:0:0:
320,192,24381,1,0,0:0:0:0:
64,192,24435,1,0,0:0:0:0:
192,192,24487,1,0,0:0:0:0:
448,192,24541,1,0,0:0:0:0:
320,192,24541,1,0,0:0:0:0:
64,192,24594,1,0,0:0:0:0:
192,192,24594,1,0,0:0:0:0:
448,192,24647,1,0,0:0:0:0:
320,192,24647,1,0,0:0:0:0:
192,192,24700,1,0,0:0:0:0:
448,192,24754,1,0,0:0:0:0:
64,192,24754,1,0,0:0:0:0:
320,192,24807,1,0,0:0:0:0:
64,192,24860,1,0,0:0:0:0:
192,192,24860,1,0,0:0:0:0:
320,192,24914,1,0,0:0:0:0:
64,192,24966,1,0,0:0:0:0:
192,192,24966,1,0,0:0:0:0:
448,192,24966,1,0,0:0:0:0:
192,192,25074,128,0,25180:0:0:0:0:
320,192,25074,128,0,25180:0:0:0:0:
448,192,25074,128,0,25286:0:0:0:0:
320,192,25286,1,0,0:0:0:0:
192,192,25286,1,0,0:0:0:0:
64,192,25286,1,0,0:0:0:0:
320,192,25393,1,0,0:0:0:0:
192,192,25393,1,0,0:0:0:0:
64,192,25393,1,0,0:0:0:0:
448,192,25499,128,0,25606:0:0:0:0:
64,192,25606,1,0,0:0:0:0:
192,192,25659,1,0,0:0:0:0:
448,192,25713,1,0,0:0:0:0:
320,192,25713,1,0,0:0:0:0:
192,192,25765,1,0,0:0:0:0:
64,192,25765,1,0,0:0:0:0:
448,192,25819,1,0,0:0:0:0:
320,192,25819,1,0,0:0:0:0:
192,192,25925,128,0,26139:0:0:0:0:
320,192,25925,128,0,26139:0:0:0:0:
448,192,26139,1,0,0:0:0:0:
64,192,26139,1,0,0:0:0:0:
320,192,26192,1,0,0:0:0:0:
192,192,26192,1,0,0:0:0:0:
448,192,26245,128,0,26458:0:0:0:0:
64,192,26245,128,0,26458:0:0:0:0:
320,192,26298,1,0,0:0:0:0:
192,192,26298,1,0,0:0:0:0:
192,192,26565,1,0,0:0:0:0:
64,192,26565,1,0,0:0:0:0:
448,192,26565,1,0,0:0:0:0:
320,192,26618,1,0,0:0:0:0:
192,192,26671,1,0,0:0:0:0:
64,192,26671,1,0,0:0:0:0:
448,192,26725,1,0,0:0:0:0:
320,192,26725,1,0,0:0:0:0:
64,192,26778,1,0,0:0:0:0:
320,192,26831,1,0,0:0:0:0:
192,192,26885,1,0,0:0:0:0:
448,192,26937,1,0,0:0:0:0:
192,192,26991,1,0,0:0:0:0:
64,192,26991,1,0,0:0:0:0:
320,192,27045,1,0,0:0:0:0:
448,192,27045,1,0,0:0:0:0:
64,192,27097,1,0,0:0:0:0:
192,192,27151,1,0,0:0:0:0:
448,192,27204,1,0,0:0:0:0:
320,192,27204,1,0,0:0:0:0:
64,192,27257,1,0,0:0:0:0:
320,192,27311,1,0,0:0:0:0:
192,192,27311,1,0,0:0:0:0:
448,192,27364,1,0,0:0:0:0:
64,192,27364,1,0,0:0:0:0:
320,192,27417,1,0,0:0:0:0:
192,192,27470,1,0,0:0:0:0:
448,192,27524,1,0,0:0:0:0:
64,192,27524,1,0,0:0:0:0:
320,192,27577,1,0,0:0:0:0:
192,192,27630,1,0,0:0:0:0:
64,192,27630,1,0,0:0:0:0:
448,192,27684,1,0,0:0:0:0:
320,192,27684,1,0,0:0:0:0:
64,192,27736,1,0,0:0:0:0:
192,192,27790,1,0,0:0:0:0:
448,192,27844,1,0,0:0:0:0:
320,192,27844,1,0,0:0:0:0:
192,192,27896,1,0,0:0:0:0:
64,192,27896,1,0,0:0:0:0:
448,192,27950,1,0,0:0:0:0:
320,192,28003,1,0,0:0:0:0:
192,192,28003,1,0,0:0:0:0:
448,192,28056,1,0,0:0:0:0:
64,192,28056,1,0,0:0:0:0:
192,192,28109,1,0,0:0:0:0:
448,192,28163,1,0,0:0:0:0:
320,192,28163,1,0,0:0:0:0:
192,192,28216,1,0,0:0:0:0:
64,192,28216,1,0,0:0:0:0:
320,192,28269,1,0,0:0:0:0:
192,192,28323,1,0,0:0:0:0:
64,192,28323,1,0,0:0:0:0:
320,192,28375,1,0,0:0:0:0:
448,192,28375,1,0,0:0:0:0:
192,192,28429,1,0,0:0:0:0:
448,192,28483,1,0,0:0:0:0:
320,192,28483,1,0,0:0:0:0:
64,192,28483,1,0,0:0:0:0:
448,192,28695,1,0,0:0:0:0:
320,192,28695,1,0,0:0:0:0:
448,192,28802,1,0,0:0:0:0:
320,192,28802,1,0,0:0:0:0:
448,192,28908,1,0,0:0:0:0:
320,192,28908,1,0,0:0:0:0:
192,192,28908,1,0,0:0:0:0:
64,192,28908,1,0,0:0:0:0:
192,192,29015,1,0,0:0:0:0:
320,192,29015,1,0,0:0:0:0:
448,192,29068,1,0,0:0:0:0:
64,192,29068,1,0,0:0:0:0:
64,192,29228,1,0,0:0:0:0:
448,192,29228,1,0,0:0:0:0:
448,192,29335,1,0,0:0:0:0:
320,192,29335,1,0,0:0:0:0:
64,192,29335,1,0,0:0:0:0:
192,192,29335,1,0,0:0:0:0:
320,192,29405,1,0,0:0:0:0:
192,192,29405,1,0,0:0:0:0:
64,192,29548,1,0,0:0:0:0:
448,192,29548,1,0,0:0:0:0:
448,192,29655,1,0,0:0:0:0:
64,192,29655,1,0,0:0:0:0:
448,192,29761,1,0,0:0:0:0:
320,192,29761,1,0,0:0:0:0:
192,192,29761,1,0,0:0:0:0:
64,192,29761,1,0,0:0:0:0:
448,192,29867,1,0,0:0:0:0:
64,192,29867,1,0,0:0:0:0:
192,192,29921,1,0,0:0:0:0:
320,192,29921,1,0,0:0:0:0:
320,192,30080,1,0,0:0:0:0:
192,192,30080,1,0,0:0:0:0:
448,192,30187,1,0,0:0:0:0:
64,192,30187,1,0,0:0:0:0:
192,192,30187,1,0,0:0:0:0:
320,192,30240,1,0,0:0:0:0:
64,192,30294,1,0,0:0:0:0:
448,192,30346,1,0,0:0:0:0:
320,192,30346,1,0,0:0:0:0:
192,192,30400,1,0,0:0:0:0:
64,192,30400,1,0,0:0:0:0:
192,192,30506,1,0,0:0:0:0:
64,192,30506,1,0,0:0:0:0:
448,192,30613,1,0,0:0:0:0:
320,192,30613,1,0,0:0:0:0:
192,192,30613,1,0,0:0:0:0:
64,192,30613,1,0,0:0:0:0:
448,192,30720,1,0,0:0:0:0:
320,192,30720,1,0,0:0:0:0:
64,192,30773,1,0,0:0:0:0:
192,192,30773,1,0,0:0:0:0:
192,192,30933,1,0,0:0:0:0:
64,192,30933,1,0,0:0:0:0:
320,192,31039,1,0,0:0:0:0:
448,192,31039,1,0,0:0:0:0:
192,192,31039,1,0,0:0:0:0:
64,192,31039,1,0,0:0:0:0:
64,192,31110,1,0,0:0:0:0:
448,192,31110,1,0,0:0:0:0:
192,192,31181,1,0,0:0:0:0:
320,192,31253,1,0,0:0:0:0:
448,192,31253,1,0,0:0:0:0:
320,192,31359,1,0,0:0:0:0:
448,192,31359,1,0,0:0:0:0:
448,192,31465,1,0,0:0:0:0:
320,192,31465,1,0,0:0:0:0:
64,192,31465,1,0,0:0:0:0:
192,192,31465,1,0,0:0:0:0:
192,192,31572,1,0,0:0:0:0:
64,192,31572,1,0,0:0:0:0:
448,192,31625,1,0,0:0:0:0:
320,192,31625,1,0,0:0:0:0:
448,192,31785,1,0,0:0:0:0:
320,192,31785,1,0,0:0:0:0:
448,192,31892,1,0,0:0:0:0:
320,192,31892,1,0,0:0:0:0:
64,192,31892,1,0,0:0:0:0:
192,192,31945,1,0,0:0:0:0:
320,192,31998,1,0,0:0:0:0:
192,192,32051,1,0,0:0:0:0:
64,192,32051,1,0,0:0:0:0:
448,192,32105,1,0,0:0:0:0:
320,192,32105,1,0,0:0:0:0:
448,192,32211,1,0,0:0:0:0:
320,192,32211,1,0,0:0:0:0:
448,192,32317,1,0,0:0:0:0:
320,192,32317,1,0,0:0:0:0:
192,192,32317,1,0,0:0:0:0:
64,192,32317,1,0,0:0:0:0:
448,192,32425,1,0,0:0:0:0:
64,192,32425,1,0,0:0:0:0:
192,192,32477,1,0,0:0:0:0:
320,192,32477,1,0,0:0:0:0:
320,192,32637,1,0,0:0:0:0:
192,192,32637,1,0,0:0:0:0:
448,192,32744,1,0,0:0:0:0:
320,192,32744,1,0,0:0:0:0:
64,192,32744,1,0,0:0:0:0:
192,192,32744,1,0,0:0:0:0:
448,192,32815,1,0,0:0:0:0:
64,192,32815,1,0,0:0:0:0:
320,192,32957,1,0,0:0:0:0:
192,192,32957,1,0,0:0:0:0:
320,192,33064,1,0,0:0:0:0:
192,192,33064,1,0,0:0:0:0:
448,192,33170,1,0,0:0:0:0:
320,192,33170,1,0,0:0:0:0:
192,192,33170,1,0,0:0:0:0:
64,192,33170,1,0,0:0:0:0:
448,192,33276,1,0,0:0:0:0:
64,192,33276,1,0,0:0:0:0:
320,192,33330,1,0,0:0:0:0:
192,192,33330,1,0,0:0:0:0:
320,192,33489,1,0,0:0:0:0:
192,192,33489,1,0,0:0:0:0:
448,192,33596,1,0,0:0:0:0:
64,192,33596,1,0,0:0:0:0:
192,192,33596,1,0,0:0:0:0:
320,192,33649,1,0,0:0:0:0:
64,192,33703,1,0,0:0:0:0:
448,192,33755,1,0,0:0:0:0:
320,192,33755,1,0,0:0:0:0:
192,192,33809,1,0,0:0:0:0:
64,192,33809,1,0,0:0:0:0:
192,192,33915,1,0,0:0:0:0:
64,192,33915,1,0,0:0:0:0:
448,192,34022,1,0,0:0:0:0:
320,192,34022,1,0,0:0:0:0:
192,192,34022,1,0,0:0:0:0:
64,192,34022,1,0,0:0:0:0:
448,192,34129,1,0,0:0:0:0:
320,192,34129,1,0,0:0:0:0:
64,192,34182,1,0,0:0:0:0:
192,192,34182,1,0,0:0:0:0:
192,192,34342,1,0,0:0:0:0:
64,192,34342,1,0,0:0:0:0:
320,192,34448,1,0,0:0:0:0:
448,192,34448,1,0,0:0:0:0:
192,192,34448,1,0,0:0:0:0:
64,192,34448,1,0,0:0:0:0:
448,192,34519,1,0,0:0:0:0:
64,192,34519,1,0,0:0:0:0:
320,192,34590,1,0,0:0:0:0:
192,192,34662,1,0,0:0:0:0:
64,192,34662,1,0,0:0:0:0:
192,192,34768,1,0,0:0:0:0:
64,192,34768,1,0,0:0:0:0:
448,192,34875,1,0,0:0:0:0:
320,192,34875,1,0,0:0:0:0:
64,192,34875,1,0,0:0:0:0:
192,192,34875,1,0,0:0:0:0:
448,192,34981,1,0,0:0:0:0:
192,192,35035,1,0,0:0:0:0:
320,192,35035,1,0,0:0:0:0:
64,192,35035,1,0,0:0:0:0:
448,192,35087,1,0,0:0:0:0:
192,192,35141,1,0,0:0:0:0:
64,192,35141,1,0,0:0:0:0:
448,192,35194,1,0,0:0:0:0:
320,192,35194,1,0,0:0:0:0:
64,192,35247,1,0,0:0:0:0:
448,192,35301,1,0,0:0:0:0:
320,192,35301,1,0,0:0:0:0:
192,192,35301,1,0,0:0:0:0:
64,192,35354,1,0,0:0:0:0:
448,192,35407,1,0,0:0:0:0:
192,192,35460,1,0,0:0:0:0:
320,192,35460,1,0,0:0:0:0:
448,192,35514,1,0,0:0:0:0:
64,192,35514,1,0,0:0:0:0:
320,192,35620,1,0,0:0:0:0:
448,192,35620,1,0,0:0:0:0:
192,192,35674,1,0,0:0:0:0:
448,192,35726,1,0,0:0:0:0:
320,192,35726,1,0,0:0:0:0:
64,192,35726,1,0,0:0:0:0:
448,192,35834,1,0,0:0:0:0:
320,192,35834,1,0,0:0:0:0:
64,192,35834,1,0,0:0:0:0:
64,192,35940,1,0,0:0:0:0:
192,192,35940,1,0,0:0:0:0:
320,192,35993,1,0,0:0:0:0:
64,192,36046,1,0,0:0:0:0:
192,192,36046,1,0,0:0:0:0:
448,192,36046,1,0,0:0:0:0:
192,192,36153,1,0,0:0:0:0:
64,192,36153,1,0,0:0:0:0:
448,192,36153,1,0,0:0:0:0:
448,192,36259,1,0,0:0:0:0:
320,192,36259,1,0,0:0:0:0:
64,192,36313,1,0,0:0:0:0:
448,192,36366,1,0,0:0:0:0:
320,192,36366,1,0,0:0:0:0:
192,192,36366,1,0,0:0:0:0:
192,192,36473,1,0,0:0:0:0:
64,192,36473,1,0,0:0:0:0:
448,192,36525,1,0,0:0:0:0:
320,192,36579,1,0,0:0:0:0:
192,192,36579,1,0,0:0:0:0:
64,192,36579,1,0,0:0:0:0:
192,192,36685,1,0,0:0:0:0:
64,192,36685,1,0,0:0:0:0:
448,192,36739,1,0,0:0:0:0:
320,192,36739,1,0,0:0:0:0:
64,192,36792,1,0,0:0:0:0:
448,192,36845,1,0,0:0:0:0:
320,192,36898,1,0,0:0:0:0:
192,192,36952,1,0,0:0:0:0:
448,192,37005,128,0,37218:0:0:0:0:
64,192,37218,1,0,0:0:0:0:
320,192,37218,1,0,0:0:0:0:
192,192,37218,1,0,0:0:0:0:
448,192,37325,1,0,0:0:0:0:
64,192,37325,1,0,0:0:0:0:
320,192,37378,1,0,0:0:0:0:
448,192,37431,1,0,0:0:0:0:
192,192,37431,1,0,0:0:0:0:
64,192,37431,1,0,0:0:0:0:
448,192,37538,1,0,0:0:0:0:
64,192,37538,1,0,0:0:0:0:
192,192,37538,1,0,0:0:0:0:
64,192,37645,1,0,0:0:0:0:
448,192,37645,1,0,0:0:0:0:
192,192,37697,1,0,0:0:0:0:
448,192,37751,1,0,0:0:0:0:
320,192,37751,1,0,0:0:0:0:
64,192,37751,1,0,0:0:0:0:
448,192,37857,1,0,0:0:0:0:
320,192,37857,1,0,0:0:0:0:
64,192,37857,1,0,0:0:0:0:
448,192,37964,1,0,0:0:0:0:
320,192,37964,1,0,0:0:0:0:
192,192,38017,1,0,0:0:0:0:
64,192,38017,1,0,0:0:0:0:
448,192,38071,1,0,0:0:0:0:
320,192,38071,1,0,0:0:0:0:
320,192,38142,1,0,0:0:0:0:
64,192,38142,1,0,0:0:0:0:
192,192,38213,1,0,0:0:0:0:
64,192,38213,1,0,0:0:0:0:
448,192,38284,1,0,0:0:0:0:
320,192,38284,1,0,0:0:0:0:
448,192,38355,1,0,0:0:0:0:
192,192,38355,1,0,0:0:0:0:
64,192,38425,1,0,0:0:0:0:
192,192,38425,1,0,0:0:0:0:
448,192,38496,128,0,38710:0:0:0:0:
192,192,38603,1,0,0:0:0:0:
320,192,38656,1,0,0:0:0:0:
64,192,38710,5,0,0:0:0:0:
192,192,38736,1,0,0:0:0:0:
320,192,38763,1,0,0:0:0:0:
448,192,38781,1,0,0:0:0:0:
64,192,38816,1,0,0:0:0:0:
192,192,38843,1,0,0:0:0:0:
320,192,38869,1,0,0:0:0:0:
448,192,38896,1,0,0:0:0:0:
192,192,38923,1,0,0:0:0:0:
64,192,38923,1,0,0:0:0:0:
448,192,39029,1,0,0:0:0:0:
320,192,39029,1,0,0:0:0:0:
64,192,39083,1,0,0:0:0:0:
448,192,39135,1,0,0:0:0:0:
320,192,39135,1,0,0:0:0:0:
192,192,39135,1,0,0:0:0:0:
192,192,39243,1,0,0:0:0:0:
64,192,39243,1,0,0:0:0:0:
448,192,39243,1,0,0:0:0:0:
192,192,39349,1,0,0:0:0:0:
64,192,39349,1,0,0:0:0:0:
448,192,39402,1,0,0:0:0:0:
320,192,39455,1,0,0:0:0:0:
192,192,39455,1,0,0:0:0:0:
64,192,39455,1,0,0:0:0:0:
448,192,39562,1,0,0:0:0:0:
320,192,39562,1,0,0:0:0:0:
192,192,39562,1,0,0:0:0:0:
448,192,39668,1,0,0:0:0:0:
320,192,39668,1,0,0:0:0:0:
192,192,39722,1,0,0:0:0:0:
64,192,39775,1,0,0:0:0:0:
448,192,39775,1,0,0:0:0:0:
192,192,39846,1,0,0:0:0:0:
64,192,39846,1,0,0:0:0:0:
448,192,39917,1,0,0:0:0:0:
320,192,39917,1,0,0:0:0:0:
320,192,39988,1,0,0:0:0:0:
192,192,39988,1,0,0:0:0:0:
192,192,40059,1,0,0:0:0:0:
64,192,40059,1,0,0:0:0:0:
448,192,40130,1,0,0:0:0:0:
320,192,40130,1,0,0:0:0:0:
448,192,40201,128,0,40415:0:0:0:0:
64,192,40201,1,0,0:0:0:0:
192,192,40272,1,0,0:0:0:0:
320,192,40344,1,0,0:0:0:0:
64,192,40415,1,0,0:0:0:0:
192,192,40485,1,0,0:0:0:0:
320,192,40556,1,0,0:0:0:0:
448,192,40627,1,0,0:0:0:0:
64,192,40627,1,0,0:0:0:0:
192,192,40627,1,0,0:0:0:0:
320,192,40681,1,0,0:0:0:0:
64,192,40734,1,0,0:0:0:0:
320,192,40787,1,0,0:0:0:0:
64,192,40840,1,0,0:0:0:0:
192,192,40840,1,0,0:0:0:0:
448,192,40840,1,0,0:0:0:0:
320,192,40894,1,0,0:0:0:0:
192,192,40947,1,0,0:0:0:0:
320,192,41000,1,0,0:0:0:0:
192,192,41054,1,0,0:0:0:0:
64,192,41054,1,0,0:0:0:0:
448,192,41054,1,0,0:0:0:0:
320,192,41106,1,0,0:0:0:0:
64,192,41160,1,0,0:0:0:0:
320,192,41214,1,0,0:0:0:0:
448,192,41266,1,0,0:0:0:0:
192,192,41266,1,0,0:0:0:0:
64,192,41266,1,0,0:0:0:0:
320,192,41320,1,0,0:0:0:0:
192,192,41373,1,0,0:0:0:0:
64,192,41373,1,0,0:0:0:0:
320,192,41426,1,0,0:0:0:0:
448,192,41480,1,0,0:0:0:0:
192,192,41480,1,0,0:0:0:0:
64,192,41480,1,0,0:0:0:0:
64,192,41586,1,0,0:0:0:0:
192,192,41586,1,0,0:0:0:0:
320,192,41639,1,0,0:0:0:0:
448,192,41639,1,0,0:0:0:0:
192,192,41693,1,0,0:0:0:0:
320,192,41745,1,0,0:0:0:0:
448,192,41799,1,0,0:0:0:0:
192,192,41799,1,0,0:0:0:0:
64,192,41799,1,0,0:0:0:0:
448,192,41905,1,0,0:0:0:0:
320,192,41905,1,0,0:0:0:0:
192,192,41959,1,0,0:0:0:0:
64,192,41959,1,0,0:0:0:0:
448,192,42012,1,0,0:0:0:0:
192,192,42065,1,0,0:0:0:0:
320,192,42119,1,0,0:0:0:0:
448,192,42119,128,0,42225:0:0:0:0:
64,192,42119,128,0,42332:0:0:0:0:
192,192,42225,128,0,42332:0:0:0:0:
320,192,42332,1,0,0:0:0:0:
448,192,42332,1,0,0:0:0:0:
64,192,42385,1,0,0:0:0:0:
192,192,42385,1,0,0:0:0:0:
320,192,42438,1,0,0:0:0:0:
448,192,42438,1,0,0:0:0:0:
64,192,42492,1,0,0:0:0:0:
192,192,42492,1,0,0:0:0:0:
320,192,42545,1,0,0:0:0:0:
448,192,42545,1,0,0:0:0:0:
64,192,42652,1,0,0:0:0:0:
192,192,42652,1,0,0:0:0:0:
320,192,42705,1,0,0:0:0:0:
448,192,42758,1,0,0:0:0:0:
64,192,42758,1,0,0:0:0:0:
192,192,42758,1,0,0:0:0:0:
320,192,42811,1,0,0:0:0:0:
64,192,42865,1,0,0:0:0:0:
192,192,42865,1,0,0:0:0:0:
448,192,42971,1,0,0:0:0:0:
192,192,43077,1,0,0:0:0:0:
320,192,43185,1,0,0:0:0:0:
192,192,43291,1,0,0:0:0:0:
64,192,43291,1,0,0:0:0:0:
448,192,43344,1,0,0:0:0:0:
320,192,43344,1,0,0:0:0:0:
192,192,43397,1,0,0:0:0:0:
64,192,43397,1,0,0:0:0:0:
448,192,43450,1,0,0:0:0:0:
320,192,43450,1,0,0:0:0:0:
192,192,43504,1,0,0:0:0:0:
64,192,43504,1,0,0:0:0:0:
448,192,43610,1,0,0:0:0:0:
320,192,43610,1,0,0:0:0:0:
64,192,43610,1,0,0:0:0:0:
192,192,43664,1,0,0:0:0:0:
448,192,43716,1,0,0:0:0:0:
320,192,43716,1,0,0:0:0:0:
192,192,43770,1,0,0:0:0:0:
64,192,43770,1,0,0:0:0:0:
448,192,43824,1,0,0:0:0:0:
320,192,43824,1,0,0:0:0:0:
448,192,43930,1,0,0:0:0:0:
64,192,43930,1,0,0:0:0:0:
320,192,43983,1,0,0:0:0:0:
192,192,44036,1,0,0:0:0:0:
64,192,44036,1,0,0:0:0:0:
448,192,44090,1,0,0:0:0:0:
320,192,44090,1,0,0:0:0:0:
192,192,44143,1,0,0:0:0:0:
64,192,44143,1,0,0:0:0:0:
448,192,44196,1,0,0:0:0:0:
320,192,44196,1,0,0:0:0:0:
192,192,44249,1,0,0:0:0:0:
64,192,44249,1,0,0:0:0:0:
448,192,44356,1,0,0:0:0:0:
320,192,44356,1,0,0:0:0:0:
192,192,44409,1,0,0:0:0:0:
448,192,44463,1,0,0:0:0:0:
64,192,44463,1,0,0:0:0:0:
320,192,44463,1,0,0:0:0:0:
192,192,44515,1,0,0:0:0:0:
448,192,44569,1,0,0:0:0:0:
320,192,44569,1,0,0:0:0:0:
448,192,44675,128,0,44889:0:0:0:0:
192,192,44782,1,0,0:0:0:0:
64,192,44889,128,0,45031:0:0:0:0:
192,192,45031,128,0,45102:0:0:0:0:
320,192,45102,128,0,45155:0:0:0:0:
448,192,45155,128,0,45208:0:0:0:0:
64,192,45208,128,0,45262:0:0:0:0:
192,192,45262,128,0,45315:0:0:0:0:
320,192,45315,128,0,45368:0:0:0:0:
448,192,45368,128,0,45421:0:0:0:0:
64,192,45421,128,0,45475:0:0:0:0:
192,192,45475,128,0,45528:0:0:0:0:
320,192,45528,128,0,45564:0:0:0:0:
448,192,45564,128,0,45599:0:0:0:0:
64,192,45599,128,0,45635:0:0:0:0:
192,192,45635,128,0,45670:0:0:0:0:
320,192,45670,128,0,45705:0:0:0:0:
448,192,45705,128,0,45741:0:0:0:0:
192,192,45741,1,0,0:0:0:0:
64,192,45741,1,0,0:0:0:0:
448,192,45795,1,0,0:0:0:0:
320,192,45795,1,0,0:0:0:0:
64,192,45847,1,0,0:0:0:0:
320,192,45901,1,0,0:0:0:0:
192,192,45901,1,0,0:0:0:0:
448,192,45954,1,0,0:0:0:0:
64,192,45954,1,0,0:0:0:0:
448,192,46061,1,0,0:0:0:0:
320,192,46061,1,0,0:0:0:0:
192,192,46114,1,0,0:0:0:0:
64,192,46114,1,0,0:0:0:0:
448,192,46167,1,0,0:0:0:0:
192,192,46220,1,0,0:0:0:0:
64,192,46274,1,0,0:0:0:0:
448,192,46274,1,0,0:0:0:0:
320,192,46274,1,0,0:0:0:0:
192,192,46380,1,0,0:0:0:0:
320,192,46486,1,0,0:0:0:0:
64,192,46594,1,0,0:0:0:0:
448,192,46700,1,0,0:0:0:0:
320,192,46700,1,0,0:0:0:0:
192,192,46753,1,0,0:0:0:0:
64,192,46753,1,0,0:0:0:0:
448,192,46806,1,0,0:0:0:0:
320,192,46859,1,0,0:0:0:0:
192,192,46859,1,0,0:0:0:0:
448,192,46913,1,0,0:0:0:0:
64,192,46913,1,0,0:0:0:0:
64,192,47019,1,0,0:0:0:0:
192,192,47019,1,0,0:0:0:0:
448,192,47019,1,0,0:0:0:0:
320,192,47073,1,0,0:0:0:0:
64,192,47125,1,0,0:0:0:0:
192,192,47125,1,0,0:0:0:0:
320,192,47179,1,0,0:0:0:0:
448,192,47179,1,0,0:0:0:0:
64,192,47233,1,0,0:0:0:0:
192,192,47233,1,0,0:0:0:0:
64,192,47339,1,0,0:0:0:0:
448,192,47339,1,0,0:0:0:0:
320,192,47392,1,0,0:0:0:0:
192,192,47445,1,0,0:0:0:0:
64,192,47445,1,0,0:0:0:0:
448,192,47499,1,0,0:0:0:0:
320,192,47499,1,0,0:0:0:0:
64,192,47552,1,0,0:0:0:0:
320,192,47605,1,0,0:0:0:0:
192,192,47605,1,0,0:0:0:0:
448,192,47658,1,0,0:0:0:0:
64,192,47658,1,0,0:0:0:0:
448,192,47765,1,0,0:0:0:0:
320,192,47765,1,0,0:0:0:0:
64,192,47818,1,0,0:0:0:0:
448,192,47872,1,0,0:0:0:0:
192,192,47872,1,0,0:0:0:0:
320,192,47872,1,0,0:0:0:0:
64,192,47925,1,0,0:0:0:0:
320,192,47978,1,0,0:0:0:0:
448,192,47978,1,0,0:0:0:0:
64,192,48085,1,0,0:0:0:0:
320,192,48191,1,0,0:0:0:0:
192,192,48298,1,0,0:0:0:0:
64,192,48298,1,0,0:0:0:0:
448,192,48351,1,0,0:0:0:0:
320,192,48351,1,0,0:0:0:0:
64,192,48405,1,0,0:0:0:0:
192,192,48457,1,0,0:0:0:0:
448,192,48511,1,0,0:0:0:0:
320,192,48511,1,0,0:0:0:0:
64,192,48511,1,0,0:0:0:0:
320,192,48617,1,0,0:0:0:0:
448,192,48617,1,0,0:0:0:0:
64,192,48671,1,0,0:0:0:0:
192,192,48671,1,0,0:0:0:0:
448,192,48724,1,0,0:0:0:0:
320,192,48777,1,0,0:0:0:0:
64,192,48830,1,0,0:0:0:0:
448,192,48830,1,0,0:0:0:0:
192,192,48830,1,0,0:0:0:0:
192,192,48937,1,0,0:0:0:0:
64,192,48937,1,0,0:0:0:0:
448,192,48990,1,0,0:0:0:0:
320,192,48990,1,0,0:0:0:0:
64,192,49044,1,0,0:0:0:0:
192,192,49096,1,0,0:0:0:0:
320,192,49150,1,0,0:0:0:0:
448,192,49150,1,0,0:0:0:0:
64,192,49204,1,0,0:0:0:0:
192,192,49204,1,0,0:0:0:0:
320,192,49256,1,0,0:0:0:0:
448,192,49256,1,0,0:0:0:0:
192,192,49310,1,0,0:0:0:0:
64,192,49310,1,0,0:0:0:0:
320,192,49363,1,0,0:0:0:0:
448,192,49363,1,0,0:0:0:0:
64,192,49470,1,0,0:0:0:0:
192,192,49470,1,0,0:0:0:0:
320,192,49523,1,0,0:0:0:0:
448,192,49576,1,0,0:0:0:0:
192,192,49576,1,0,0:0:0:0:
64,192,49576,1,0,0:0:0:0:
320,192,49629,1,0,0:0:0:0:
64,192,49683,1,0,0:0:0:0:
192,192,49683,1,0,0:0:0:0:
448,192,49789,1,0,0:0:0:0:
192,192,49789,1,0,0:0:0:0:
320,192,49949,1,0,0:0:0:0:
64,192,49949,1,0,0:0:0:0:
192,192,50109,1,0,0:0:0:0:
64,192,50109,1,0,0:0:0:0:
448,192,50162,1,0,0:0:0:0:
320,192,50162,1,0,0:0:0:0:
192,192,50215,1,0,0:0:0:0:
64,192,50215,1,0,0:0:0:0:
448,192,50268,1,0,0:0:0:0:
320,192,50268,1,0,0:0:0:0:
192,192,50322,1,0,0:0:0:0:
64,192,50322,1,0,0:0:0:0:
448,192,50428,5,0,0:0:0:0:
320,192,50428,1,0,0:0:0:0:
64,192,50428,1,0,0:0:0:0:
192,192,50482,1,0,0:0:0:0:
448,192,50535,1,0,0:0:0:0:
320,192,50535,1,0,0:0:0:0:
192,192,50588,1,0,0:0:0:0:
64,192,50588,1,0,0:0:0:0:
448,192,50642,1,0,0:0:0:0:
320,192,50642,1,0,0:0:0:0:
448,192,50748,1,0,0:0:0:0:
64,192,50748,1,0,0:0:0:0:
320,192,50801,1,0,0:0:0:0:
192,192,50855,1,0,0:0:0:0:
64,192,50855,1,0,0:0:0:0:
448,192,50908,1,0,0:0:0:0:
320,192,50908,1,0,0:0:0:0:
192,192,50961,1,0,0:0:0:0:
64,192,50961,1,0,0:0:0:0:
448,192,51015,1,0,0:0:0:0:
320,192,51015,1,0,0:0:0:0:
64,192,51067,1,0,0:0:0:0:
192,192,51067,1,0,0:0:0:0:
448,192,51175,1,0,0:0:0:0:
320,192,51175,1,0,0:0:0:0:
64,192,51227,1,0,0:0:0:0:
192,192,51281,1,0,0:0:0:0:
448,192,51281,1,0,0:0:0:0:
320,192,51281,1,0,0:0:0:0:
64,192,51334,1,0,0:0:0:0:
448,192,51387,1,0,0:0:0:0:
320,192,51387,1,0,0:0:0:0:
448,192,51494,128,0,51707:0:0:0:0:
192,192,51600,1,0,0:0:0:0:
64,192,51707,128,0,51849:0:0:0:0:
192,192,51849,128,0,51920:0:0:0:0:
320,192,51920,128,0,51973:0:0:0:0:
448,192,51973,128,0,52026:0:0:0:0:
64,192,52026,128,0,52080:0:0:0:0:
192,192,52080,128,0,52133:0:0:0:0:
320,192,52133,128,0,52186:0:0:0:0:
448,192,52186,128,0,52239:0:0:0:0:
64,192,52239,128,0,52293:0:0:0:0:
192,192,52293,128,0,52346:0:0:0:0:
320,192,52346,128,0,52382:0:0:0:0:
448,192,52382,128,0,52417:0:0:0:0:
64,192,52417,128,0,52453:0:0:0:0:
192,192,52453,128,0,52488:0:0:0:0:
320,192,52488,128,0,52524:0:0:0:0:
448,192,52524,128,0,52559:0:0:0:0:
192,192,52559,1,0,0:0:0:0:
64,192,52559,1,0,0:0:0:0:
448,192,52613,1,0,0:0:0:0:
320,192,52613,1,0,0:0:0:0:
64,192,52665,1,0,0:0:0:0:
192,192,52665,1,0,0:0:0:0:
320,192,52719,1,0,0:0:0:0:
448,192,52719,1,0,0:0:0:0:
192,192,52772,1,0,0:0:0:0:
64,192,52772,1,0,0:0:0:0:
448,192,52879,1,0,0:0:0:0:
320,192,52879,1,0,0:0:0:0:
192,192,52932,1,0,0:0:0:0:
64,192,52985,1,0,0:0:0:0:
448,192,52985,1,0,0:0:0:0:
320,192,52985,1,0,0:0:0:0:
192,192,53038,1,0,0:0:0:0:
448,192,53092,1,0,0:0:0:0:
320,192,53092,1,0,0:0:0:0:
448,192,53198,1,0,0:0:0:0:
192,192,53198,1,0,0:0:0:0:
320,192,53358,1,0,0:0:0:0:
64,192,53358,1,0,0:0:0:0:
64,192,53518,1,0,0:0:0:0:
192,192,53518,1,0,0:0:0:0:
448,192,53571,1,0,0:0:0:0:
320,192,53571,1,0,0:0:0:0:
192,192,53625,1,0,0:0:0:0:
64,192,53625,1,0,0:0:0:0:
448,192,53677,1,0,0:0:0:0:
320,192,53677,1,0,0:0:0:0:
64,192,53731,1,0,0:0:0:0:
192,192,53731,1,0,0:0:0:0:
448,192,53837,1,0,0:0:0:0:
64,192,53837,1,0,0:0:0:0:
320,192,53837,1,0,0:0:0:0:
192,192,53891,1,0,0:0:0:0:
448,192,53944,1,0,0:0:0:0:
320,192,53944,1,0,0:0:0:0:
192,192,53997,1,0,0:0:0:0:
64,192,53997,1,0,0:0:0:0:
448,192,54051,1,0,0:0:0:0:
320,192,54051,1,0,0:0:0:0:
448,192,54157,1,0,0:0:0:0:
64,192,54157,1,0,0:0:0:0:
320,192,54210,1,0,0:0:0:0:
192,192,54264,1,0,0:0:0:0:
64,192,54264,1,0,0:0:0:0:
448,192,54317,1,0,0:0:0:0:
320,192,54317,1,0,0:0:0:0:
192,192,54370,1,0,0:0:0:0:
64,192,54370,1,0,0:0:0:0:
448,192,54424,1,0,0:0:0:0:
320,192,54476,1,0,0:0:0:0:
64,192,54476,1,0,0:0:0:0:
192,192,54476,1,0,0:0:0:0:
448,192,54530,1,0,0:0:0:0:
192,192,54584,1,0,0:0:0:0:
64,192,54584,1,0,0:0:0:0:
320,192,54636,1,0,0:0:0:0:
192,192,54690,1,0,0:0:0:0:
64,192,54690,1,0,0:0:0:0:
448,192,54690,1,0,0:0:0:0:
320,192,54743,1,0,0:0:0:0:
192,192,54796,1,0,0:0:0:0:
64,192,54796,1,0,0:0:0:0:
448,192,54850,1,0,0:0:0:0:
64,192,54903,1,0,0:0:0:0:
192,192,54903,1,0,0:0:0:0:
320,192,54903,1,0,0:0:0:0:
448,192,55009,1,0,0:0:0:0:
320,192,55009,1,0,0:0:0:0:
64,192,55063,1,0,0:0:0:0:
448,192,55116,1,0,0:0:0:0:
320,192,55116,1,0,0:0:0:0:
192,192,55116,1,0,0:0:0:0:
64,192,55223,1,0,0:0:0:0:
192,192,55329,1,0,0:0:0:0:
320,192,55435,1,0,0:0:0:0:
448,192,55542,1,0,0:0:0:0:
192,192,55648,1,0,0:0:0:0:
320,192,55862,1,0,0:0:0:0:
448,192,56288,1,0,0:0:0:0:
64,192,56395,1,0,0:0:0:0:
320,192,56447,1,0,0:0:0:0:
192,192,56607,1,0,0:0:0:0:
192,192,56821,1,0,0:0:0:0:
448,192,56874,1,0,0:0:0:0:
64,192,56927,1,0,0:0:0:0:
192,192,57034,1,0,0:0:0:0:
320,192,57140,1,0,0:0:0:0:
448,192,57246,1,0,0:0:0:0:
192,192,57353,1,0,0:0:0:0:
64,192,57566,1,0,0:0:0:0:
320,192,57779,1,0,0:0:0:0:
448,192,57993,1,0,0:0:0:0:
192,192,58312,1,0,0:0:0:0:
64,192,58525,1,0,0:0:0:0:
448,192,58578,1,0,0:0:0:0:
192,192,58632,1,0,0:0:0:0:
320,192,58791,1,0,0:0:0:0:
448,192,58951,1,0,0:0:0:0:
64,192,59271,1,0,0:0:0:0:
448,192,59377,1,0,0:0:0:0:
320,192,59697,1,0,0:0:0:0:
192,192,60016,1,0,0:0:0:0:
64,192,60230,1,0,0:0:0:0:
320,192,60283,1,0,0:0:0:0:
192,192,60336,1,0,0:0:0:0:
320,192,60495,1,0,0:0:0:0:
448,192,60655,1,0,0:0:0:0:
64,192,60975,1,0,0:0:0:0:
448,192,61082,1,0,0:0:0:0:
320,192,61402,1,0,0:0:0:0:
192,192,61721,1,0,0:0:0:0:
192,192,61935,1,0,0:0:0:0:
448,192,61987,1,0,0:0:0:0:
64,192,62041,1,0,0:0:0:0:
192,192,62147,1,0,0:0:0:0:
320,192,62254,1,0,0:0:0:0:
448,192,62360,1,0,0:0:0:0:
192,192,62466,1,0,0:0:0:0:
64,192,62680,1,0,0:0:0:0:
448,192,63106,1,0,0:0:0:0:
192,192,63213,1,0,0:0:0:0:
320,192,63265,1,0,0:0:0:0:
64,192,63425,1,0,0:0:0:0:
192,192,63639,1,0,0:0:0:0:
448,192,63692,1,0,0:0:0:0:
64,192,63745,1,0,0:0:0:0:
192,192,63852,1,0,0:0:0:0:
320,192,63958,1,0,0:0:0:0:
448,192,64065,1,0,0:0:0:0:
320,192,64171,1,0,0:0:0:0:
64,192,64385,1,0,0:0:0:0:
320,192,64597,1,0,0:0:0:0:
448,192,64811,1,0,0:0:0:0:
192,192,65130,1,0,0:0:0:0:
64,192,65344,1,0,0:0:0:0:
320,192,65396,1,0,0:0:0:0:
192,192,65450,1,0,0:0:0:0:
64,192,65556,1,0,0:0:0:0:
320,192,65609,1,0,0:0:0:0:
448,192,65769,1,0,0:0:0:0:
64,192,65769,1,0,0:0:0:0:
64,192,65983,1,0,0:0:0:0:
192,192,66089,1,0,0:0:0:0:
448,192,66195,1,0,0:0:0:0:
64,192,66195,1,0,0:0:0:0:
192,192,66337,1,0,0:0:0:0:
64,192,66408,1,0,0:0:0:0:
320,192,66480,1,0,0:0:0:0:
192,192,66515,1,0,0:0:0:0:
64,192,66622,1,0,0:0:0:0:
448,192,66622,1,0,0:0:0:0:
192,192,66835,1,0,0:0:0:0:
64,192,66835,1,0,0:0:0:0:
64,192,67048,1,0,0:0:0:0:
192,192,67155,1,0,0:0:0:0:
64,192,67261,1,0,0:0:0:0:
320,192,67314,1,0,0:0:0:0:
64,192,67474,1,0,0:0:0:0:
448,192,67474,1,0,0:0:0:0:
192,192,67580,1,0,0:0:0:0:
64,192,67687,1,0,0:0:0:0:
448,192,67687,1,0,0:0:0:0:
320,192,67794,1,0,0:0:0:0:
64,192,67900,1,0,0:0:0:0:
192,192,67954,1,0,0:0:0:0:
320,192,68006,1,0,0:0:0:0:
448,192,68060,1,0,0:0:0:0:
64,192,68113,1,0,0:0:0:0:
192,192,68148,1,0,0:0:0:0:
320,192,68185,1,0,0:0:0:0:
448,192,68220,1,0,0:0:0:0:
64,192,68255,1,0,0:0:0:0:
192,192,68291,1,0,0:0:0:0:
320,192,68326,1,0,0:0:0:0:
448,192,68353,1,0,0:0:0:0:
64,192,68379,1,0,0:0:0:0:
192,192,68406,1,0,0:0:0:0:
320,192,68433,1,0,0:0:0:0:
448,192,68459,1,0,0:0:0:0:
64,192,68486,1,0,0:0:0:0:
192,192,68513,1,0,0:0:0:0:
320,192,68539,1,0,0:0:0:0:
448,192,68753,1,0,0:0:0:0:
64,192,68753,1,0,0:0:0:0:
192,192,68753,1,0,0:0:0:0:
320,192,68859,1,0,0:0:0:0:
64,192,68912,1,0,0:0:0:0:
448,192,68965,1,0,0:0:0:0:
192,192,68965,1,0,0:0:0:0:
448,192,69072,1,0,0:0:0:0:
192,192,69072,1,0,0:0:0:0:
64,192,69072,1,0,0:0:0:0:
64,192,69178,1,0,0:0:0:0:
320,192,69232,1,0,0:0:0:0:
448,192,69285,1,0,0:0:0:0:
192,192,69285,1,0,0:0:0:0:
320,192,69392,1,0,0:0:0:0:
448,192,69392,1,0,0:0:0:0:
320,192,69498,1,0,0:0:0:0:
64,192,69498,1,0,0:0:0:0:
448,192,69605,1,0,0:0:0:0:
192,192,69658,1,0,0:0:0:0:
320,192,69711,1,0,0:0:0:0:
64,192,69765,1,0,0:0:0:0:
448,192,69817,1,0,0:0:0:0:
192,192,69817,1,0,0:0:0:0:
192,192,69925,1,0,0:0:0:0:
64,192,69925,1,0,0:0:0:0:
320,192,70031,1,0,0:0:0:0:
448,192,70137,1,0,0:0:0:0:
64,192,70137,1,0,0:0:0:0:
320,192,70244,1,0,0:0:0:0:
192,192,70244,1,0,0:0:0:0:
192,192,70350,1,0,0:0:0:0:
64,192,70350,1,0,0:0:0:0:
448,192,70457,1,0,0:0:0:0:
320,192,70457,1,0,0:0:0:0:
64,192,70457,1,0,0:0:0:0:
320,192,70564,1,0,0:0:0:0:
64,192,70616,1,0,0:0:0:0:
448,192,70670,1,0,0:0:0:0:
448,192,70776,1,0,0:0:0:0:
320,192,70776,1,0,0:0:0:0:
64,192,70776,1,0,0:0:0:0:
192,192,70883,1,0,0:0:0:0:
448,192,70936,1,0,0:0:0:0:
64,192,70989,1,0,0:0:0:0:
320,192,70989,1,0,0:0:0:0:
448,192,71096,1,0,0:0:0:0:
192,192,71149,1,0,0:0:0:0:
64,192,71203,1,0,0:0:0:0:
448,192,71203,1,0,0:0:0:0:
64,192,71309,1,0,0:0:0:0:
320,192,71363,1,0,0:0:0:0:
448,192,71415,1,0,0:0:0:0:
192,192,71415,1,0,0:0:0:0:
320,192,71522,1,0,0:0:0:0:
448,192,71629,1,0,0:0:0:0:
64,192,71629,1,0,0:0:0:0:
192,192,71735,1,0,0:0:0:0:
64,192,71735,1,0,0:0:0:0:
320,192,71842,1,0,0:0:0:0:
320,192,71948,1,0,0:0:0:0:
64,192,72002,1,0,0:0:0:0:
448,192,72055,1,0,0:0:0:0:
192,192,72108,1,0,0:0:0:0:
448,192,72162,1,0,0:0:0:0:
320,192,72162,1,0,0:0:0:0:
64,192,72162,1,0,0:0:0:0:
64,192,72268,1,0,0:0:0:0:
448,192,72321,1,0,0:0:0:0:
192,192,72375,1,0,0:0:0:0:
448,192,72481,1,0,0:0:0:0:
320,192,72481,1,0,0:0:0:0:
64,192,72481,1,0,0:0:0:0:
192,192,72587,1,0,0:0:0:0:
448,192,72641,1,0,0:0:0:0:
64,192,72694,1,0,0:0:0:0:
192,192,72694,1,0,0:0:0:0:
448,192,72801,1,0,0:0:0:0:
192,192,72801,1,0,0:0:0:0:
320,192,72907,1,0,0:0:0:0:
64,192,72907,1,0,0:0:0:0:
448,192,73014,1,0,0:0:0:0:
192,192,73067,1,0,0:0:0:0:
320,192,73120,1,0,0:0:0:0:
64,192,73174,1,0,0:0:0:0:
448,192,73226,1,0,0:0:0:0:
192,192,73226,1,0,0:0:0:0:
320,192,73334,1,0,0:0:0:0:
64,192,73334,1,0,0:0:0:0:
192,192,73440,1,0,0:0:0:0:
448,192,73546,1,0,0:0:0:0:
320,192,73546,1,0,0:0:0:0:
320,192,73653,1,0,0:0:0:0:
192,192,73653,1,0,0:0:0:0:
192,192,73759,1,0,0:0:0:0:
64,192,73759,1,0,0:0:0:0:
448,192,73866,1,0,0:0:0:0:
320,192,73866,1,0,0:0:0:0:
64,192,73866,1,0,0:0:0:0:
320,192,73973,1,0,0:0:0:0:
64,192,74025,1,0,0:0:0:0:
448,192,74079,1,0,0:0:0:0:
448,192,74185,1,0,0:0:0:0:
320,192,74185,1,0,0:0:0:0:
64,192,74185,1,0,0:0:0:0:
64,192,74292,1,0,0:0:0:0:
448,192,74345,1,0,0:0:0:0:
64,192,74398,1,0,0:0:0:0:
320,192,74398,1,0,0:0:0:0:
64,192,74505,1,0,0:0:0:0:
448,192,74505,1,0,0:0:0:0:
64,192,74612,1,0,0:0:0:0:
192,192,74612,1,0,0:0:0:0:
448,192,74718,1,0,0:0:0:0:
64,192,74718,1,0,0:0:0:0:
448,192,74825,1,0,0:0:0:0:
192,192,74825,1,0,0:0:0:0:
448,192,74931,1,0,0:0:0:0:
64,192,74985,1,0,0:0:0:0:
448,192,75038,1,0,0:0:0:0:
192,192,75038,1,0,0:0:0:0:
64,192,75145,1,0,0:0:0:0:
448,192,75145,1,0,0:0:0:0:
320,192,75145,1,0,0:0:0:0:
448,192,75251,1,0,0:0:0:0:
64,192,75251,1,0,0:0:0:0:
64,192,75357,128,0,75517:0:0:0:0:
448,192,75357,128,0,75517:0:0:0:0:
192,192,75357,128,0,75517:0:0:0:0:
448,192,75571,1,0,0:0:0:0:
320,192,75571,1,0,0:0:0:0:
64,192,75571,1,0,0:0:0:0:
192,192,75624,1,0,0:0:0:0:
64,192,75730,1,0,0:0:0:0:
448,192,75730,1,0,0:0:0:0:
320,192,75730,1,0,0:0:0:0:
192,192,75784,1,0,0:0:0:0:
448,192,75890,128,0,75996:0:0:0:0:
320,192,75890,128,0,75996:0:0:0:0:
64,192,75890,128,0,75996:0:0:0:0:
64,192,76050,128,0,76156:0:0:0:0:
320,192,76050,128,0,76156:0:0:0:0:
448,192,76050,128,0,76156:0:0:0:0:
448,192,76210,128,0,76369:0:0:0:0:
64,192,76210,128,0,76369:0:0:0:0:
320,192,76210,128,0,76369:0:0:0:0:
64,192,76423,1,0,0:0:0:0:
192,192,76423,1,0,0:0:0:0:
448,192,76423,1,0,0:0:0:0:
320,192,76476,1,0,0:0:0:0:
448,192,76583,1,0,0:0:0:0:
64,192,76583,1,0,0:0:0:0:
192,192,76583,1,0,0:0:0:0:
320,192,76635,1,0,0:0:0:0:
448,192,76743,128,0,76849:0:0:0:0:
192,192,76743,128,0,76849:0:0:0:0:
64,192,76743,128,0,76849:0:0:0:0:
192,192,76902,128,0,77009:0:0:0:0:
448,192,76902,128,0,77009:0:0:0:0:
64,192,76902,128,0,77009:0:0:0:0:
192,192,77062,1,0,0:0:0:0:
64,192,77062,1,0,0:0:0:0:
448,192,77062,1,0,0:0:0:0:
448,192,77168,1,0,0:0:0:0:
320,192,77168,1,0,0:0:0:0:
192,192,77168,1,0,0:0:0:0:
320,192,77275,1,0,0:0:0:0:
192,192,77275,1,0,0:0:0:0:
64,192,77275,1,0,0:0:0:0:
448,192,77328,1,0,0:0:0:0:
320,192,77435,1,0,0:0:0:0:
64,192,77435,1,0,0:0:0:0:
192,192,77435,1,0,0:0:0:0:
448,192,77488,1,0,0:0:0:0:
320,192,77595,128,0,77701:0:0:0:0:
192,192,77595,128,0,77701:0:0:0:0:
64,192,77595,128,0,77701:0:0:0:0:
192,192,77755,128,0,77861:0:0:0:0:
64,192,77755,128,0,77861:0:0:0:0:
320,192,77755,128,0,77861:0:0:0:0:
320,192,77915,128,0,78074:0:0:0:0:
192,192,77915,128,0,78074:0:0:0:0:
64,192,77915,128,0,78074:0:0:0:0:
448,192,78127,1,0,0:0:0:0:
320,192,78127,1,0,0:0:0:0:
192,192,78127,1,0,0:0:0:0:
64,192,78181,1,0,0:0:0:0:
448,192,78287,1,0,0:0:0:0:
320,192,78287,1,0,0:0:0:0:
192,192,78287,1,0,0:0:0:0:
64,192,78340,1,0,0:0:0:0:
448,192,78447,128,0,78554:0:0:0:0:
192,192,78447,128,0,78554:0:0:0:0:
320,192,78447,128,0,78554:0:0:0:0:
448,192,78606,128,0,78714:0:0:0:0:
320,192,78606,128,0,78714:0:0:0:0:
192,192,78606,128,0,78714:0:0:0:0:
448,192,78766,1,0,0:0:0:0:
192,192,78766,1,0,0:0:0:0:
64,192,78820,1,0,0:0:0:0:
448,192,78873,1,0,0:0:0:0:
320,192,78873,1,0,0:0:0:0:
192,192,78926,1,0,0:0:0:0:
448,192,78980,1,0,0:0:0:0:
320,192,78980,1,0,0:0:0:0:
64,192,78980,1,0,0:0:0:0:
192,192,79033,1,0,0:0:0:0:
320,192,79086,1,0,0:0:0:0:
448,192,79139,1,0,0:0:0:0:
192,192,79139,1,0,0:0:0:0:
64,192,79139,1,0,0:0:0:0:
320,192,79193,1,0,0:0:0:0:
192,192,79245,1,0,0:0:0:0:
64,192,79299,1,0,0:0:0:0:
448,192,79299,1,0,0:0:0:0:
320,192,79353,1,0,0:0:0:0:
448,192,79405,1,0,0:0:0:0:
64,192,79405,1,0,0:0:0:0:
192,192,79405,1,0,0:0:0:0:
320,192,79459,1,0,0:0:0:0:
192,192,79512,1,0,0:0:0:0:
448,192,79565,1,0,0:0:0:0:
320,192,79565,1,0,0:0:0:0:
64,192,79565,1,0,0:0:0:0:
192,192,79619,1,0,0:0:0:0:
320,192,79672,1,0,0:0:0:0:
64,192,79725,1,0,0:0:0:0:
448,192,79725,1,0,0:0:0:0:
192,192,79778,1,0,0:0:0:0:
448,192,79832,1,0,0:0:0:0:
64,192,79832,1,0,0:0:0:0:
320,192,79832,1,0,0:0:0:0:
192,192,79885,1,0,0:0:0:0:
320,192,79938,1,0,0:0:0:0:
448,192,79992,1,0,0:0:0:0:
192,192,79992,1,0,0:0:0:0:
64,192,79992,1,0,0:0:0:0:
320,192,80045,1,0,0:0:0:0:
192,192,80098,1,0,0:0:0:0:
64,192,80152,1,0,0:0:0:0:
448,192,80152,1,0,0:0:0:0:
320,192,80205,1,0,0:0:0:0:
448,192,80258,1,0,0:0:0:0:
64,192,80258,1,0,0:0:0:0:
192,192,80258,1,0,0:0:0:0:
320,192,80311,1,0,0:0:0:0:
192,192,80365,1,0,0:0:0:0:
448,192,80418,1,0,0:0:0:0:
320,192,80418,1,0,0:0:0:0:
64,192,80418,1,0,0:0:0:0:
192,192,80471,1,0,0:0:0:0:
320,192,80525,1,0,0:0:0:0:
64,192,80577,1,0,0:0:0:0:
448,192,80577,1,0,0:0:0:0:
192,192,80631,1,0,0:0:0:0:
448,192,80685,1,0,0:0:0:0:
64,192,80685,1,0,0:0:0:0:
320,192,80685,1,0,0:0:0:0:
192,192,80737,1,0,0:0:0:0:
448,192,80791,1,0,0:0:0:0:
320,192,80791,1,0,0:0:0:0:
192,192,80844,1,0,0:0:0:0:
448,192,80897,1,0,0:0:0:0:
320,192,80897,1,0,0:0:0:0:
64,192,80950,1,0,0:0:0:0:
448,192,81004,1,0,0:0:0:0:
320,192,81004,1,0,0:0:0:0:
192,192,81057,1,0,0:0:0:0:
64,192,81110,1,0,0:0:0:0:
448,192,81110,1,0,0:0:0:0:
320,192,81164,1,0,0:0:0:0:
192,192,81216,1,0,0:0:0:0:
64,192,81216,1,0,0:0:0:0:
320,192,81270,1,0,0:0:0:0:
192,192,81324,1,0,0:0:0:0:
64,192,81324,1,0,0:0:0:0:
448,192,81376,1,0,0:0:0:0:
192,192,81430,1,0,0:0:0:0:
64,192,81430,1,0,0:0:0:0:
320,192,81483,1,0,0:0:0:0:
192,192,81536,128,0,81963:0:0:0:0:
64,192,81536,128,0,81963:0:0:0:0:
448,192,81536,128,0,81856:0:0:0:0:
448,192,81963,1,0,0:0:0:0:
320,192,82015,1,0,0:0:0:0:
192,192,82069,1,0,0:0:0:0:
64,192,82123,1,0,0:0:0:0:
448,192,82175,1,0,0:0:0:0:
192,192,82229,1,0,0:0:0:0:
320,192,82282,1,0,0:0:0:0:
448,192,82282,1,0,0:0:0:0:
64,192,82335,1,0,0:0:0:0:
192,192,82389,1,0,0:0:0:0:
320,192,82389,1,0,0:0:0:0:
448,192,82389,1,0,0:0:0:0:
192,192,82495,1,0,0:0:0:0:
64,192,82495,1,0,0:0:0:0:
448,192,82548,1,0,0:0:0:0:
192,192,82602,1,0,0:0:0:0:
320,192,82602,1,0,0:0:0:0:
64,192,82602,1,0,0:0:0:0:
448,192,82708,1,0,0:0:0:0:
320,192,82708,1,0,0:0:0:0:
64,192,82762,1,0,0:0:0:0:
448,192,82815,1,0,0:0:0:0:
320,192,82815,1,0,0:0:0:0:
192,192,82815,1,0,0:0:0:0:
64,192,82921,1,0,0:0:0:0:
448,192,82921,1,0,0:0:0:0:
64,192,83028,128,0,83187:0:0:0:0:
192,192,83028,128,0,83187:0:0:0:0:
320,192,83028,128,0,83187:0:0:0:0:
448,192,83028,128,0,83187:0:0:0:0:
448,192,83241,1,0,0:0:0:0:
320,192,83241,1,0,0:0:0:0:
64,192,83241,1,0,0:0:0:0:
64,192,83347,1,0,0:0:0:0:
192,192,83401,1,0,0:0:0:0:
448,192,83454,1,0,0:0:0:0:
64,192,83454,1,0,0:0:0:0:
320,192,83454,1,0,0:0:0:0:
448,192,83561,1,0,0:0:0:0:
64,192,83561,1,0,0:0:0:0:
192,192,83561,1,0,0:0:0:0:
320,192,83667,1,0,0:0:0:0:
448,192,83667,1,0,0:0:0:0:
64,192,83720,1,0,0:0:0:0:
192,192,83774,1,0,0:0:0:0:
320,192,83774,1,0,0:0:0:0:
448,192,83774,1,0,0:0:0:0:
64,192,83880,1,0,0:0:0:0:
192,192,83880,1,0,0:0:0:0:
320,192,83880,1,0,0:0:0:0:
448,192,83986,1,0,0:0:0:0:
320,192,83986,1,0,0:0:0:0:
64,192,83986,1,0,0:0:0:0:
192,192,84040,1,0,0:0:0:0:
64,192,84094,1,0,0:0:0:0:
448,192,84094,1,0,0:0:0:0:
448,192,84200,1,0,0:0:0:0:
320,192,84200,1,0,0:0:0:0:
64,192,84253,1,0,0:0:0:0:
320,192,84306,1,0,0:0:0:0:
448,192,84306,1,0,0:0:0:0:
192,192,84306,1,0,0:0:0:0:
64,192,84413,1,0,0:0:0:0:
448,192,84413,1,0,0:0:0:0:
192,192,84413,1,0,0:0:0:0:
320,192,84466,1,0,0:0:0:0:
192,192,84519,1,0,0:0:0:0:
64,192,84519,1,0,0:0:0:0:
320,192,84625,1,0,0:0:0:0:
192,192,84625,1,0,0:0:0:0:
448,192,84625,1,0,0:0:0:0:
64,192,84679,1,0,0:0:0:0:
448,192,84733,1,0,0:0:0:0:
320,192,84759,1,0,0:0:0:0:
64,192,84785,1,0,0:0:0:0:
192,192,84813,1,0,0:0:0:0:
320,192,84839,1,0,0:0:0:0:
448,192,84839,1,0,0:0:0:0:
64,192,84892,1,0,0:0:0:0:
192,192,84945,1,0,0:0:0:0:
320,192,84945,1,0,0:0:0:0:
448,192,84945,1,0,0:0:0:0:
192,192,85052,1,0,0:0:0:0:
64,192,85052,1,0,0:0:0:0:
448,192,85105,1,0,0:0:0:0:
64,192,85158,1,0,0:0:0:0:
192,192,85158,1,0,0:0:0:0:
320,192,85158,1,0,0:0:0:0:
192,192,85265,1,0,0:0:0:0:
320,192,85265,1,0,0:0:0:0:
448,192,85265,1,0,0:0:0:0:
64,192,85372,1,0,0:0:0:0:
192,192,85372,1,0,0:0:0:0:
448,192,85425,1,0,0:0:0:0:
64,192,85478,1,0,0:0:0:0:
192,192,85478,1,0,0:0:0:0:
320,192,85478,1,0,0:0:0:0:
64,192,85585,1,0,0:0:0:0:
448,192,85585,1,0,0:0:0:0:
192,192,85585,1,0,0:0:0:0:
64,192,85691,1,0,0:0:0:0:
448,192,85691,1,0,0:0:0:0:
320,192,85691,1,0,0:0:0:0:
192,192,85745,1,0,0:0:0:0:
320,192,85798,1,0,0:0:0:0:
448,192,85798,1,0,0:0:0:0:
64,192,85905,1,0,0:0:0:0:
192,192,85905,1,0,0:0:0:0:
448,192,85905,1,0,0:0:0:0:
320,192,85957,1,0,0:0:0:0:
448,192,86011,1,0,0:0:0:0:
64,192,86011,1,0,0:0:0:0:
448,192,86117,1,0,0:0:0:0:
64,192,86117,1,0,0:0:0:0:
192,192,86117,1,0,0:0:0:0:
320,192,86171,1,0,0:0:0:0:
64,192,86224,1,0,0:0:0:0:
192,192,86224,1,0,0:0:0:0:
320,192,86330,1,0,0:0:0:0:
448,192,86330,1,0,0:0:0:0:
64,192,86384,1,0,0:0:0:0:
192,192,86384,1,0,0:0:0:0:
448,192,86437,1,0,0:0:0:0:
320,192,86464,1,0,0:0:0:0:
64,192,86490,1,0,0:0:0:0:
192,192,86517,1,0,0:0:0:0:
320,192,86544,1,0,0:0:0:0:
448,192,86570,1,0,0:0:0:0:
192,192,86596,1,0,0:0:0:0:
64,192,86624,1,0,0:0:0:0:
320,192,86650,1,0,0:0:0:0:
448,192,86650,1,0,0:0:0:0:
64,192,86756,1,0,0:0:0:0:
192,192,86810,1,0,0:0:0:0:
448,192,86863,1,0,0:0:0:0:
64,192,86863,1,0,0:0:0:0:
320,192,86863,1,0,0:0:0:0:
320,192,86970,1,0,0:0:0:0:
192,192,86970,1,0,0:0:0:0:
64,192,86970,1,0,0:0:0:0:
448,192,87076,1,0,0:0:0:0:
320,192,87076,1,0,0:0:0:0:
64,192,87129,1,0,0:0:0:0:
448,192,87183,1,0,0:0:0:0:
320,192,87183,1,0,0:0:0:0:
192,192,87183,1,0,0:0:0:0:
64,192,87289,1,0,0:0:0:0:
448,192,87289,1,0,0:0:0:0:
320,192,87289,1,0,0:0:0:0:
64,192,87395,1,0,0:0:0:0:
320,192,87395,1,0,0:0:0:0:
192,192,87395,1,0,0:0:0:0:
448,192,87449,1,0,0:0:0:0:
64,192,87503,1,0,0:0:0:0:
192,192,87503,1,0,0:0:0:0:
448,192,87609,1,0,0:0:0:0:
192,192,87609,1,0,0:0:0:0:
320,192,87662,1,0,0:0:0:0:
448,192,87715,1,0,0:0:0:0:
192,192,87715,1,0,0:0:0:0:
64,192,87715,1,0,0:0:0:0:
448,192,87822,1,0,0:0:0:0:
320,192,87822,1,0,0:0:0:0:
192,192,87822,1,0,0:0:0:0:
64,192,87875,1,0,0:0:0:0:
448,192,87928,1,0,0:0:0:0:
320,192,87928,1,0,0:0:0:0:
192,192,87982,1,0,0:0:0:0:
448,192,88035,1,0,0:0:0:0:
64,192,88035,1,0,0:0:0:0:
320,192,88088,1,0,0:0:0:0:
448,192,88142,1,0,0:0:0:0:
192,192,88142,1,0,0:0:0:0:
64,192,88142,1,0,0:0:0:0:
64,192,88248,1,0,0:0:0:0:
448,192,88248,1,0,0:0:0:0:
320,192,88248,1,0,0:0:0:0:
192,192,88355,1,0,0:0:0:0:
64,192,88355,1,0,0:0:0:0:
320,192,88355,1,0,0:0:0:0:
448,192,88461,1,0,0:0:0:0:
320,192,88515,1,0,0:0:0:0:
192,192,88515,1,0,0:0:0:0:
64,192,88515,1,0,0:0:0:0:
448,192,88567,1,0,0:0:0:0:
320,192,88675,1,0,0:0:0:0:
192,192,88675,1,0,0:0:0:0:
64,192,88675,1,0,0:0:0:0:
448,192,88781,1,0,0:0:0:0:
320,192,88781,1,0,0:0:0:0:
192,192,88781,1,0,0:0:0:0:
64,192,88887,1,0,0:0:0:0:
448,192,88941,1,0,0:0:0:0:
320,192,88941,1,0,0:0:0:0:
192,192,88941,1,0,0:0:0:0:
64,192,88994,1,0,0:0:0:0:
448,192,89047,1,0,0:0:0:0:
192,192,89100,1,0,0:0:0:0:
64,192,89100,1,0,0:0:0:0:
320,192,89154,1,0,0:0:0:0:
64,192,89207,1,0,0:0:0:0:
192,192,89207,1,0,0:0:0:0:
448,192,89260,1,0,0:0:0:0:
320,192,89260,1,0,0:0:0:0:
64,192,89314,1,0,0:0:0:0:
320,192,89366,1,0,0:0:0:0:
192,192,89366,1,0,0:0:0:0:
64,192,89420,5,0,0:0:0:0:
448,192,89420,1,0,0:0:0:0:
192,192,89473,1,0,0:0:0:0:
448,192,89526,1,0,0:0:0:0:
320,192,89526,1,0,0:0:0:0:
192,192,89580,1,0,0:0:0:0:
64,192,89580,1,0,0:0:0:0:
320,192,89633,1,0,0:0:0:0:
448,192,89686,1,0,0:0:0:0:
64,192,89686,1,0,0:0:0:0:
320,192,89739,1,0,0:0:0:0:
192,192,89739,1,0,0:0:0:0:
64,192,89793,1,0,0:0:0:0:
448,192,89793,1,0,0:0:0:0:
192,192,89846,128,0,90005:0:0:0:0:
320,192,89846,128,0,90005:0:0:0:0:
64,192,90059,1,0,0:0:0:0:
192,192,90059,1,0,0:0:0:0:
448,192,90113,1,0,0:0:0:0:
320,192,90113,1,0,0:0:0:0:
192,192,90165,1,0,0:0:0:0:
64,192,90165,1,0,0:0:0:0:
448,192,90219,1,0,0:0:0:0:
192,192,90272,1,0,0:0:0:0:
64,192,90272,1,0,0:0:0:0:
320,192,90272,1,0,0:0:0:0:
448,192,90379,1,0,0:0:0:0:
320,192,90379,1,0,0:0:0:0:
192,192,90379,1,0,0:0:0:0:
192,192,90485,5,0,0:0:0:0:
64,192,90485,1,0,0:0:0:0:
448,192,90538,1,0,0:0:0:0:
320,192,90592,1,0,0:0:0:0:
192,192,90592,1,0,0:0:0:0:
64,192,90592,1,0,0:0:0:0:
192,192,90698,1,0,0:0:0:0:
64,192,90698,1,0,0:0:0:0:
448,192,90698,1,0,0:0:0:0:
448,192,90805,1,0,0:0:0:0:
320,192,90805,1,0,0:0:0:0:
64,192,90805,1,0,0:0:0:0:
192,192,90858,1,0,0:0:0:0:
448,192,90912,1,0,0:0:0:0:
320,192,90912,1,0,0:0:0:0:
64,192,91018,1,0,0:0:0:0:
192,192,91018,1,0,0:0:0:0:
320,192,91071,1,0,0:0:0:0:
448,192,91125,1,0,0:0:0:0:
192,192,91125,1,0,0:0:0:0:
64,192,91125,1,0,0:0:0:0:
448,192,91231,1,0,0:0:0:0:
64,192,91231,1,0,0:0:0:0:
320,192,91231,1,0,0:0:0:0:
192,192,91285,1,0,0:0:0:0:
64,192,91337,1,0,0:0:0:0:
448,192,91337,1,0,0:0:0:0:
192,192,91444,1,0,0:0:0:0:
64,192,91444,1,0,0:0:0:0:
320,192,91444,1,0,0:0:0:0:
448,192,91497,1,0,0:0:0:0:
64,192,91551,1,0,0:0:0:0:
192,192,91577,1,0,0:0:0:0:
448,192,91604,1,0,0:0:0:0:
320,192,91631,1,0,0:0:0:0:
192,192,91657,1,0,0:0:0:0:
64,192,91684,1,0,0:0:0:0:
320,192,91710,1,0,0:0:0:0:
448,192,91737,1,0,0:0:0:0:
192,192,91764,1,0,0:0:0:0:
64,192,91764,1,0,0:0:0:0:
448,192,91870,1,0,0:0:0:0:
64,192,91870,1,0,0:0:0:0:
192,192,91924,1,0,0:0:0:0:
448,192,91976,1,0,0:0:0:0:
320,192,91976,1,0,0:0:0:0:
64,192,91976,1,0,0:0:0:0:
448,192,92084,1,0,0:0:0:0:
64,192,92084,1,0,0:0:0:0:
192,192,92084,1,0,0:0:0:0:
64,192,92190,1,0,0:0:0:0:
448,192,92190,1,0,0:0:0:0:
320,192,92261,1,0,0:0:0:0:
192,192,92261,1,0,0:0:0:0:
448,192,92332,1,0,0:0:0:0:
320,192,92332,1,0,0:0:0:0:
64,192,92403,1,0,0:0:0:0:
448,192,92403,1,0,0:0:0:0:
320,192,92474,1,0,0:0:0:0:
192,192,92474,1,0,0:0:0:0:
192,192,92545,1,0,0:0:0:0:
64,192,92545,1,0,0:0:0:0:
448,192,92616,1,0,0:0:0:0:
320,192,92616,1,0,0:0:0:0:
64,192,92616,1,0,0:0:0:0:
320,192,92723,1,0,0:0:0:0:
192,192,92775,1,0,0:0:0:0:
64,192,92775,1,0,0:0:0:0:
448,192,92775,1,0,0:0:0:0:
320,192,92829,1,0,0:0:0:0:
192,192,92882,1,0,0:0:0:0:
448,192,92935,1,0,0:0:0:0:
320,192,92935,1,0,0:0:0:0:
64,192,92935,1,0,0:0:0:0:
192,192,92989,1,0,0:0:0:0:
448,192,93042,1,0,0:0:0:0:
320,192,93042,1,0,0:0:0:0:
192,192,93095,1,0,0:0:0:0:
64,192,93095,1,0,0:0:0:0:
448,192,93148,1,0,0:0:0:0:
320,192,93175,1,0,0:0:0:0:
192,192,93202,1,0,0:0:0:0:
64,192,93228,1,0,0:0:0:0:
448,192,93255,1,0,0:0:0:0:
320,192,93255,1,0,0:0:0:0:
192,192,93308,1,0,0:0:0:0:
64,192,93308,1,0,0:0:0:0:
320,192,93362,1,0,0:0:0:0:
448,192,93388,1,0,0:0:0:0:
64,192,93415,1,0,0:0:0:0:
192,192,93442,1,0,0:0:0:0:
448,192,93468,1,0,0:0:0:0:
320,192,93468,1,0,0:0:0:0:
448,192,93575,1,0,0:0:0:0:
320,192,93575,1,0,0:0:0:0:
64,192,93575,1,0,0:0:0:0:
192,192,93628,1,0,0:0:0:0:
64,192,93681,1,0,0:0:0:0:
448,192,93681,128,0,93895:0:0:0:0:
320,192,93681,128,0,93895:0:0:0:0:
192,192,93895,1,0,0:0:0:0:
64,192,93895,1,0,0:0:0:0:
448,192,93947,1,0,0:0:0:0:
320,192,93947,1,0,0:0:0:0:
192,192,94001,1,0,0:0:0:0:
64,192,94001,1,0,0:0:0:0:
64,192,94107,1,0,0:0:0:0:
448,192,94107,1,0,0:0:0:0:
64,192,94214,1,0,0:0:0:0:
448,192,94214,1,0,0:0:0:0:
64,192,94321,1,0,0:0:0:0:
448,192,94321,1,0,0:0:0:0:
192,192,94321,1,0,0:0:0:0:
448,192,94427,1,0,0:0:0:0:
320,192,94427,1,0,0:0:0:0:
64,192,94427,1,0,0:0:0:0:
192,192,94480,1,0,0:0:0:0:
448,192,94534,128,0,94746:0:0:0:0:
64,192,94534,128,0,94746:0:0:0:0:
320,192,94746,1,0,0:0:0:0:
192,192,94746,1,0,0:0:0:0:
192,192,94853,1,0,0:0:0:0:
64,192,94853,1,0,0:0:0:0:
448,192,94960,1,0,0:0:0:0:
320,192,94960,1,0,0:0:0:0:
320,192,95066,1,0,0:0:0:0:
192,192,95066,1,0,0:0:0:0:
448,192,95173,1,0,0:0:0:0:
64,192,95173,1,0,0:0:0:0:
320,192,95226,1,0,0:0:0:0:
192,192,95226,1,0,0:0:0:0:
448,192,95279,1,0,0:0:0:0:
64,192,95279,1,0,0:0:0:0:
192,192,95333,1,0,0:0:0:0:
320,192,95333,1,0,0:0:0:0:
448,192,95385,1,0,0:0:0:0:
64,192,95385,1,0,0:0:0:0:
448,192,95493,1,0,0:0:0:0:
64,192,95493,1,0,0:0:0:0:
320,192,95545,1,0,0:0:0:0:
192,192,95545,1,0,0:0:0:0:
448,192,95599,1,0,0:0:0:0:
64,192,95599,1,0,0:0:0:0:
320,192,95652,1,0,0:0:0:0:
192,192,95652,1,0,0:0:0:0:
448,192,95705,1,0,0:0:0:0:
64,192,95705,1,0,0:0:0:0:
64,192,95812,1,0,0:0:0:0:
192,192,95865,1,0,0:0:0:0:
320,192,95918,1,0,0:0:0:0:
448,192,95972,1,0,0:0:0:0:
192,192,96025,1,0,0:0:0:0:
64,192,96025,1,0,0:0:0:0:
320,192,96025,1,0,0:0:0:0:
448,192,96078,1,0,0:0:0:0:
192,192,96132,1,0,0:0:0:0:
64,192,96132,1,0,0:0:0:0:
320,192,96185,1,0,0:0:0:0:
192,192,96238,1,0,0:0:0:0:
64,192,96238,1,0,0:0:0:0:
448,192,96238,1,0,0:0:0:0:
448,192,96345,1,0,0:0:0:0:
320,192,96345,1,0,0:0:0:0:
64,192,96345,1,0,0:0:0:0:
192,192,96398,1,0,0:0:0:0:
448,192,96451,1,0,0:0:0:0:
320,192,96451,1,0,0:0:0:0:
64,192,96505,1,0,0:0:0:0:
448,192,96557,1,0,0:0:0:0:
192,192,96557,1,0,0:0:0:0:
320,192,96557,1,0,0:0:0:0:
64,192,96665,1,0,0:0:0:0:
320,192,96717,1,0,0:0:0:0:
192,192,96771,1,0,0:0:0:0:
448,192,96824,1,0,0:0:0:0:
192,192,96877,1,0,0:0:0:0:
64,192,96877,1,0,0:0:0:0:
448,192,96931,1,0,0:0:0:0:
320,192,96931,1,0,0:0:0:0:
192,192,96984,1,0,0:0:0:0:
64,192,96984,1,0,0:0:0:0:
448,192,97037,1,0,0:0:0:0:
320,192,97037,1,0,0:0:0:0:
192,192,97090,1,0,0:0:0:0:
64,192,97090,1,0,0:0:0:0:
448,192,97144,1,0,0:0:0:0:
320,192,97144,1,0,0:0:0:0:
192,192,97197,1,0,0:0:0:0:
64,192,97197,1,0,0:0:0:0:
448,192,97250,1,0,0:0:0:0:
320,192,97250,1,0,0:0:0:0:
192,192,97304,1,0,0:0:0:0:
64,192,97304,1,0,0:0:0:0:
448,192,97356,1,0,0:0:0:0:
320,192,97356,1,0,0:0:0:0:
192,192,97410,1,0,0:0:0:0:
64,192,97410,1,0,0:0:0:0:
448,192,97464,1,0,0:0:0:0:
320,192,97464,1,0,0:0:0:0:
192,192,97516,1,0,0:0:0:0:
64,192,97516,1,0,0:0:0:0:
448,192,97570,1,0,0:0:0:0:
320,192,97570,1,0,0:0:0:0:
192,192,97623,1,0,0:0:0:0:
64,192,97623,1,0,0:0:0:0:
448,192,97676,1,0,0:0:0:0:
320,192,97676,1,0,0:0:0:0:
64,192,97730,128,0,97836:0:0:0:0:
192,192,97783,128,0,97889:0:0:0:0:
320,192,97836,128,0,97943:0:0:0:0:
448,192,97889,128,0,98155:0:0:0:0:
64,192,97943,128,0,98049:0:0:0:0:
192,192,97995,128,0,98103:0:0:0:0:
320,192,98049,128,0,98155:0:0:0:0:
192,192,98155,128,0,98475:0:0:0:0:
64,192,98155,128,0,98475:0:0:0:0:
320,192,98582,1,0,0:0:0:0:
448,192,98582,1,0,0:0:0:0:
192,192,98635,1,0,0:0:0:0:
64,192,98688,1,0,0:0:0:0:
448,192,98688,1,0,0:0:0:0:
192,192,98742,1,0,0:0:0:0:
320,192,98742,1,0,0:0:0:0:
64,192,98795,1,0,0:0:0:0:
448,192,98795,1,0,0:0:0:0:
320,192,98848,1,0,0:0:0:0:
64,192,98902,1,0,0:0:0:0:
192,192,98902,1,0,0:0:0:0:
320,192,98955,1,0,0:0:0:0:
448,192,99008,1,0,0:0:0:0:
192,192,99008,1,0,0:0:0:0:
64,192,99061,1,0,0:0:0:0:
448,192,99115,1,0,0:0:0:0:
192,192,99115,1,0,0:0:0:0:
320,192,99168,1,0,0:0:0:0:
64,192,99221,1,0,0:0:0:0:
448,192,99221,1,0,0:0:0:0:
192,192,99221,1,0,0:0:0:0:
320,192,99275,1,0,0:0:0:0:
64,192,99327,1,0,0:0:0:0:
192,192,99327,1,0,0:0:0:0:
320,192,99381,1,0,0:0:0:0:
64,192,99435,1,0,0:0:0:0:
448,192,99435,1,0,0:0:0:0:
192,192,99487,1,0,0:0:0:0:
448,192,99541,1,0,0:0:0:0:
320,192,99541,1,0,0:0:0:0:
192,192,99594,1,0,0:0:0:0:
64,192,99647,1,0,0:0:0:0:
448,192,99647,1,0,0:0:0:0:
320,192,99647,1,0,0:0:0:0:
192,192,99700,1,0,0:0:0:0:
64,192,99754,1,0,0:0:0:0:
448,192,99754,1,0,0:0:0:0:
320,192,99807,1,0,0:0:0:0:
64,192,99860,1,0,0:0:0:0:
192,192,99860,1,0,0:0:0:0:
448,192,99860,1,0,0:0:0:0:
320,192,99914,1,0,0:0:0:0:
64,192,99966,1,0,0:0:0:0:
192,192,99966,1,0,0:0:0:0:
320,192,100020,1,0,0:0:0:0:
448,192,100074,1,0,0:0:0:0:
64,192,100074,1,0,0:0:0:0:
192,192,100126,1,0,0:0:0:0:
320,192,100180,1,0,0:0:0:0:
448,192,100180,1,0,0:0:0:0:
64,192,100233,1,0,0:0:0:0:
192,192,100286,1,0,0:0:0:0:
320,192,100286,1,0,0:0:0:0:
448,192,100286,1,0,0:0:0:0:
64,192,100340,1,0,0:0:0:0:
320,192,100393,1,0,0:0:0:0:
448,192,100393,1,0,0:0:0:0:
64,192,100446,1,0,0:0:0:0:
192,192,100446,1,0,0:0:0:0:
320,192,100499,1,0,0:0:0:0:
448,192,100499,1,0,0:0:0:0:
192,192,100553,1,0,0:0:0:0:
448,192,100606,1,0,0:0:0:0:
64,192,100606,1,0,0:0:0:0:
320,192,100659,1,0,0:0:0:0:
64,192,100713,1,0,0:0:0:0:
192,192,100713,1,0,0:0:0:0:
448,192,100765,1,0,0:0:0:0:
64,192,100819,1,0,0:0:0:0:
192,192,100819,1,0,0:0:0:0:
320,192,100819,1,0,0:0:0:0:
448,192,100873,1,0,0:0:0:0:
64,192,100925,1,0,0:0:0:0:
192,192,100925,1,0,0:0:0:0:
448,192,100979,1,0,0:0:0:0:
320,192,100979,1,0,0:0:0:0:
192,192,101032,1,0,0:0:0:0:
448,192,101085,1,0,0:0:0:0:
320,192,101085,1,0,0:0:0:0:
64,192,101139,1,0,0:0:0:0:
192,192,101165,1,0,0:0:0:0:
320,192,101192,1,0,0:0:0:0:
448,192,101218,1,0,0:0:0:0:
64,192,101245,1,0,0:0:0:0:
192,192,101245,1,0,0:0:0:0:
448,192,101352,1,0,0:0:0:0:
320,192,101378,1,0,0:0:0:0:
192,192,101405,1,0,0:0:0:0:
64,192,101432,1,0,0:0:0:0:
320,192,101458,1,0,0:0:0:0:
448,192,101458,1,0,0:0:0:0:
64,192,101565,1,0,0:0:0:0:
192,192,101565,1,0,0:0:0:0:
448,192,101565,1,0,0:0:0:0:
320,192,101618,1,0,0:0:0:0:
64,192,101671,1,0,0:0:0:0:
192,192,101671,1,0,0:0:0:0:
320,192,101725,1,0,0:0:0:0:
448,192,101725,1,0,0:0:0:0:
64,192,101778,1,0,0:0:0:0:
192,192,101778,1,0,0:0:0:0:
320,192,101885,1,0,0:0:0:0:
192,192,101885,1,0,0:0:0:0:
448,192,101937,1,0,0:0:0:0:
192,192,101991,1,0,0:0:0:0:
64,192,101991,1,0,0:0:0:0:
320,192,102045,1,0,0:0:0:0:
448,192,102097,1,0,0:0:0:0:
64,192,102097,1,0,0:0:0:0:
320,192,102151,1,0,0:0:0:0:
192,192,102151,1,0,0:0:0:0:
448,192,102204,1,0,0:0:0:0:
64,192,102204,1,0,0:0:0:0:
192,192,102257,1,0,0:0:0:0:
448,192,102311,1,0,0:0:0:0:
320,192,102311,1,0,0:0:0:0:
192,192,102364,1,0,0:0:0:0:
64,192,102417,1,0,0:0:0:0:
320,192,102417,1,0,0:0:0:0:
448,192,102470,1,0,0:0:0:0:
64,192,102524,1,0,0:0:0:0:
320,192,102524,1,0,0:0:0:0:
192,192,102577,1,0,0:0:0:0:
448,192,102630,1,0,0:0:0:0:
320,192,102630,1,0,0:0:0:0:
64,192,102630,1,0,0:0:0:0:
192,192,102684,1,0,0:0:0:0:
448,192,102736,1,0,0:0:0:0:
320,192,102736,1,0,0:0:0:0:
192,192,102790,1,0,0:0:0:0:
64,192,102844,1,0,0:0:0:0:
448,192,102844,1,0,0:0:0:0:
320,192,102896,1,0,0:0:0:0:
192,192,102950,1,0,0:0:0:0:
64,192,102950,1,0,0:0:0:0:
448,192,103003,1,0,0:0:0:0:
320,192,103056,1,0,0:0:0:0:
192,192,103056,1,0,0:0:0:0:
64,192,103056,1,0,0:0:0:0:
448,192,103109,1,0,0:0:0:0:
320,192,103163,1,0,0:0:0:0:
192,192,103163,1,0,0:0:0:0:
64,192,103216,1,0,0:0:0:0:
448,192,103269,1,0,0:0:0:0:
320,192,103269,1,0,0:0:0:0:
192,192,103323,1,0,0:0:0:0:
64,192,103375,1,0,0:0:0:0:
448,192,103375,1,0,0:0:0:0:
320,192,103375,1,0,0:0:0:0:
192,192,103429,1,0,0:0:0:0:
448,192,103483,1,0,0:0:0:0:
64,192,103483,1,0,0:0:0:0:
320,192,103535,1,0,0:0:0:0:
192,192,103589,1,0,0:0:0:0:
64,192,103589,1,0,0:0:0:0:
448,192,103642,1,0,0:0:0:0:
320,192,103642,1,0,0:0:0:0:
64,192,103695,1,0,0:0:0:0:
192,192,103722,1,0,0:0:0:0:
320,192,103749,1,0,0:0:0:0:
448,192,103775,1,0,0:0:0:0:
64,192,103802,1,0,0:0:0:0:
192,192,103855,1,0,0:0:0:0:
320,192,103855,1,0,0:0:0:0:
64,192,103908,1,0,0:0:0:0:
448,192,103908,1,0,0:0:0:0:
192,192,103962,1,0,0:0:0:0:
448,192,104015,1,0,0:0:0:0:
320,192,104042,1,0,0:0:0:0:
192,192,104068,1,0,0:0:0:0:
64,192,104095,1,0,0:0:0:0:
448,192,104122,1,0,0:0:0:0:
320,192,104175,1,0,0:0:0:0:
192,192,104175,1,0,0:0:0:0:
448,192,104228,1,0,0:0:0:0:
64,192,104228,1,0,0:0:0:0:
192,192,104282,1,0,0:0:0:0:
448,192,104335,1,0,0:0:0:0:
320,192,104335,1,0,0:0:0:0:
192,192,104388,1,0,0:0:0:0:
64,192,104441,1,0,0:0:0:0:
320,192,104441,1,0,0:0:0:0:
448,192,104495,1,0,0:0:0:0:
64,192,104548,1,0,0:0:0:0:
192,192,104575,1,0,0:0:0:0:
320,192,104601,1,0,0:0:0:0:
448,192,104627,1,0,0:0:0:0:
192,192,104655,1,0,0:0:0:0:
64,192,104655,1,0,0:0:0:0:
448,192,104707,1,0,0:0:0:0:
320,192,104735,1,0,0:0:0:0:
192,192,104761,1,0,0:0:0:0:
64,192,104787,1,0,0:0:0:0:
448,192,104814,1,0,0:0:0:0:
320,192,104814,1,0,0:0:0:0:
64,192,104867,1,0,0:0:0:0:
192,192,104894,1,0,0:0:0:0:
320,192,104921,1,0,0:0:0:0:
448,192,104947,1,0,0:0:0:0:
192,192,104974,1,0,0:0:0:0:
64,192,105001,1,0,0:0:0:0:
448,192,105027,1,0,0:0:0:0:
320,192,105054,1,0,0:0:0:0:
192,192,105080,1,0,0:0:0:0:
64,192,105080,1,0,0:0:0:0:
320,192,105134,1,0,0:0:0:0:
448,192,105160,1,0,0:0:0:0:
192,192,105187,1,0,0:0:0:0:
64,192,105187,1,0,0:0:0:0:
320,192,105214,1,0,0:0:0:0:
448,192,105240,1,0,0:0:0:0:
64,192,105267,1,0,0:0:0:0:
320,192,105294,1,0,0:0:0:0:
192,192,105294,1,0,0:0:0:0:
448,192,105320,1,0,0:0:0:0:
64,192,105346,1,0,0:0:0:0:
192,192,105374,1,0,0:0:0:0:
448,192,105400,1,0,0:0:0:0:
320,192,105400,1,0,0:0:0:0:
192,192,105506,1,0,0:0:0:0:
448,192,105613,1,0,0:0:0:0:
320,192,105720,1,0,0:0:0:0:
192,192,105720,1,0,0:0:0:0:
64,192,105720,1,0,0:0:0:0:
64,192,105826,1,0,0:0:0:0:
320,192,105933,1,0,0:0:0:0:
192,192,106039,1,0,0:0:0:0:
64,192,106145,1,0,0:0:0:0:
192,192,106199,1,0,0:0:0:0:
320,192,106253,1,0,0:0:0:0:
64,192,106359,1,0,0:0:0:0:
192,192,106465,1,0,0:0:0:0:
64,192,106572,1,0,0:0:0:0:
320,192,106678,1,0,0:0:0:0:
192,192,106678,1,0,0:0:0:0:
64,192,106732,1,0,0:0:0:0:
448,192,106785,1,0,0:0:0:0:
320,192,106785,1,0,0:0:0:0:
448,192,106892,1,0,0:0:0:0:
192,192,106892,1,0,0:0:0:0:
448,192,106998,1,0,0:0:0:0:
64,192,106998,1,0,0:0:0:0:
448,192,107105,1,0,0:0:0:0:
320,192,107105,1,0,0:0:0:0:
64,192,107105,1,0,0:0:0:0:
192,192,107211,1,0,0:0:0:0:
448,192,107317,1,0,0:0:0:0:
448,192,107425,1,0,0:0:0:0:
320,192,107425,1,0,0:0:0:0:
64,192,107425,1,0,0:0:0:0:
64,192,107531,1,0,0:0:0:0:
320,192,107637,1,0,0:0:0:0:
192,192,107744,1,0,0:0:0:0:
64,192,107850,1,0,0:0:0:0:
192,192,107904,1,0,0:0:0:0:
320,192,107957,1,0,0:0:0:0:
448,192,108064,1,0,0:0:0:0:
320,192,108170,1,0,0:0:0:0:
192,192,108276,1,0,0:0:0:0:
64,192,108276,1,0,0:0:0:0:
320,192,108330,1,0,0:0:0:0:
448,192,108383,1,0,0:0:0:0:
448,192,108489,1,0,0:0:0:0:
320,192,108543,1,0,0:0:0:0:
64,192,108596,1,0,0:0:0:0:
192,192,108596,1,0,0:0:0:0:
320,192,108703,1,0,0:0:0:0:
448,192,108809,1,0,0:0:0:0:
320,192,108809,1,0,0:0:0:0:
192,192,108809,1,0,0:0:0:0:
192,192,108915,1,0,0:0:0:0:
448,192,109022,1,0,0:0:0:0:
448,192,109129,1,0,0:0:0:0:
192,192,109129,1,0,0:0:0:0:
320,192,109129,1,0,0:0:0:0:
64,192,109235,1,0,0:0:0:0:
320,192,109342,1,0,0:0:0:0:
192,192,109448,1,0,0:0:0:0:
64,192,109555,1,0,0:0:0:0:
192,192,109608,1,0,0:0:0:0:
448,192,109662,1,0,0:0:0:0:
64,192,109768,1,0,0:0:0:0:
192,192,109875,1,0,0:0:0:0:
64,192,109981,1,0,0:0:0:0:
192,192,110087,1,0,0:0:0:0:
64,192,110087,1,0,0:0:0:0:
448,192,110194,1,0,0:0:0:0:
320,192,110194,1,0,0:0:0:0:
192,192,110301,1,0,0:0:0:0:
448,192,110301,1,0,0:0:0:0:
64,192,110407,1,0,0:0:0:0:
448,192,110407,1,0,0:0:0:0:
192,192,110514,1,0,0:0:0:0:
64,192,110514,1,0,0:0:0:0:
448,192,110514,1,0,0:0:0:0:
192,192,110620,128,0,110726:0:0:0:0:
448,192,110726,1,0,0:0:0:0:
64,192,110834,1,0,0:0:0:0:
192,192,110834,1,0,0:0:0:0:
448,192,110834,1,0,0:0:0:0:
64,192,110940,128,0,111046:0:0:0:0:
320,192,111046,128,0,111153:0:0:0:0:
192,192,111153,128,0,111259:0:0:0:0:
64,192,111259,1,0,0:0:0:0:
192,192,111313,1,0,0:0:0:0:
320,192,111366,1,0,0:0:0:0:
448,192,111366,1,0,0:0:0:0:
192,192,111419,1,0,0:0:0:0:
64,192,111419,1,0,0:0:0:0:
448,192,111473,1,0,0:0:0:0:
320,192,111525,1,0,0:0:0:0:
192,192,111579,1,0,0:0:0:0:
64,192,111579,1,0,0:0:0:0:
320,192,111632,1,0,0:0:0:0:
448,192,111632,1,0,0:0:0:0:
64,192,111685,1,0,0:0:0:0:
192,192,111739,1,0,0:0:0:0:
448,192,111792,1,0,0:0:0:0:
320,192,111792,1,0,0:0:0:0:
192,192,111845,1,0,0:0:0:0:
64,192,111845,1,0,0:0:0:0:
448,192,111898,1,0,0:0:0:0:
320,192,111898,1,0,0:0:0:0:
192,192,111952,1,0,0:0:0:0:
64,192,111952,1,0,0:0:0:0:
448,192,112005,128,0,112218:0:0:0:0:
192,192,112218,1,0,0:0:0:0:
64,192,112218,1,0,0:0:0:0:
320,192,112272,1,0,0:0:0:0:
448,192,112272,1,0,0:0:0:0:
192,192,112325,1,0,0:0:0:0:
64,192,112325,1,0,0:0:0:0:
448,192,112378,1,0,0:0:0:0:
320,192,112378,1,0,0:0:0:0:
192,192,112431,1,0,0:0:0:0:
64,192,112431,1,0,0:0:0:0:
448,192,112485,1,0,0:0:0:0:
320,192,112485,1,0,0:0:0:0:
192,192,112538,1,0,0:0:0:0:
64,192,112538,1,0,0:0:0:0:
448,192,112591,1,0,0:0:0:0:
320,192,112591,1,0,0:0:0:0:
192,192,112645,1,0,0:0:0:0:
64,192,112645,1,0,0:0:0:0:
448,192,112697,1,0,0:0:0:0:
320,192,112697,1,0,0:0:0:0:
192,192,112751,1,0,0:0:0:0:
64,192,112751,1,0,0:0:0:0:
448,192,112805,1,0,0:0:0:0:
320,192,112805,1,0,0:0:0:0:
64,192,112857,1,0,0:0:0:0:
192,192,112857,1,0,0:0:0:0:
320,192,112884,1,0,0:0:0:0:
448,192,112911,1,0,0:0:0:0:
64,192,112937,1,0,0:0:0:0:
192,192,112964,1,0,0:0:0:0:
320,192,112964,1,0,0:0:0:0:
448,192,112991,1,0,0:0:0:0:
64,192,113017,1,0,0:0:0:0:
192,192,113044,1,0,0:0:0:0:
448,192,113071,1,0,0:0:0:0:
320,192,113071,1,0,0:0:0:0:
64,192,113124,1,0,0:0:0:0:
192,192,113124,1,0,0:0:0:0:
320,192,113177,1,0,0:0:0:0:
448,192,113177,1,0,0:0:0:0:
64,192,113230,1,0,0:0:0:0:
192,192,113230,1,0,0:0:0:0:
320,192,113284,1,0,0:0:0:0:
448,192,113284,1,0,0:0:0:0:
64,192,113336,1,0,0:0:0:0:
192,192,113336,1,0,0:0:0:0:
320,192,113390,1,0,0:0:0:0:
448,192,113390,1,0,0:0:0:0:
64,192,113444,1,0,0:0:0:0:
192,192,113444,1,0,0:0:0:0:
320,192,113496,1,0,0:0:0:0:
448,192,113496,1,0,0:0:0:0:
64,192,113550,1,0,0:0:0:0:
192,192,113550,1,0,0:0:0:0:
320,192,113603,1,0,0:0:0:0:
448,192,113603,1,0,0:0:0:0:
64,192,113656,1,0,0:0:0:0:
192,192,113656,1,0,0:0:0:0:
448,192,113710,1,0,0:0:0:0:
320,192,113710,1,0,0:0:0:0:
192,192,113736,1,0,0:0:0:0:
64,192,113763,1,0,0:0:0:0:
448,192,113790,1,0,0:0:0:0:
320,192,113816,1,0,0:0:0:0:
192,192,113816,1,0,0:0:0:0:
64,192,113843,1,0,0:0:0:0:
448,192,113869,1,0,0:0:0:0:
320,192,113896,1,0,0:0:0:0:
64,192,113923,128,0,114135:0:0:0:0:
192,192,113923,128,0,114135:0:0:0:0:
448,192,114189,1,0,0:0:0:0:
320,192,114189,1,0,0:0:0:0:
192,192,114215,1,0,0:0:0:0:
64,192,114243,1,0,0:0:0:0:
192,192,114402,1,0,0:0:0:0:
448,192,114402,1,0,0:0:0:0:
320,192,114429,1,0,0:0:0:0:
64,192,114455,1,0,0:0:0:0:
64,192,114615,1,0,0:0:0:0:
192,192,114615,1,0,0:0:0:0:
320,192,114642,1,0,0:0:0:0:
448,192,114668,1,0,0:0:0:0:
64,192,114828,1,0,0:0:0:0:
448,192,114828,1,0,0:0:0:0:
320,192,114855,1,0,0:0:0:0:
192,192,114882,1,0,0:0:0:0:
