osu file format v14

[General]
AudioFilename: audio105.mp3
AudioLeadIn: 0
PreviewTime: -1
Countdown: 1
SampleSet: Normal
StackLeniency: 0.7
Mode: 3
LetterboxInBreaks: 0
SpecialStyle: 0
WidescreenStoryboard: 0

[Editor]
DistanceSpacing: 0.8
BeatDivisor: 4
GridSize: 32
TimelineZoom: 2.5

[Metadata]
Title:Blastix Riotz
TitleUnicode:Blastix Riotz
Artist:Camellia
ArtistUnicode:かめりあ
Creator:loafusofbread
Version:BREADSTICKS RIOTZ [1.05x Rate]
Source:SOUND VOLTEX IV HEAVENLY HEAVEN
Tags:
BeatmapID:2030984
BeatmapSetID:970395

[Difficulty]
HPDrainRate:9
CircleSize:4
OverallDifficulty:9
ApproachRate:5
SliderMultiplier:1.4
SliderTickRate:1

[Events]
//Background and Video events
0,0,"RIOT.jpg",0,0
//Break Periods
//Storyboard Layer 0 (Background)
//Storyboard Layer 1 (Fail)
//Storyboard Layer 2 (Pass)
//Storyboard Layer 3 (Foreground)
//Storyboard Layer 4 (Overlay)
//Storyboard Sound Samples

[TimingPoints]
596,223.214285714286,4,1,1,40,1,0

[HitObjects]
64,192,596,5,0,0:0:0:0:
192,192,596,1,0,0:0:0:0:
320,192,596,1,0,0:0:0:0:
192,192,708,1,0,0:0:0:0:
448,192,819,1,0,0:0:0:0:
320,192,930,1,0,0:0:0:0:
192,192,930,1,0,0:0:0:0:
64,192,930,1,0,0:0:0:0:
64,192,1042,1,0,0:0:0:0:
320,192,1153,1,0,0:0:0:0:
192,192,1266,1,0,0:0:0:0:
64,192,1377,1,0,0:0:0:0:
192,192,1432,1,0,0:0:0:0:
320,192,1489,1,0,0:0:0:0:
64,192,1600,1,0,0:0:0:0:
192,192,1711,1,0,0:0:0:0:
64,192,1824,1,0,0:0:0:0:
320,192,1935,1,0,0:0:0:0:
192,192,1935,1,0,0:0:0:0:
64,192,1990,1,0,0:0:0:0:
448,192,2047,1,0,0:0:0:0:
320,192,2047,1,0,0:0:0:0:
448,192,2158,1,0,0:0:0:0:
192,192,2158,1,0,0:0:0:0:
448,192,2270,1,0,0:0:0:0:
64,192,2270,1,0,0:0:0:0:
448,192,2382,1,0,0:0:0:0:
320,192,2382,1,0,0:0:0:0:
64,192,2382,1,0,0:0:0:0:
192,192,2493,1,0,0:0:0:0:
448,192,2605,1,0,0:0:0:0:
448,192,2716,1,0,0:0:0:0:
320,192,2716,1,0,0:0:0:0:
64,192,2716,1,0,0:0:0:0:
64,192,2828,1,0,0:0:0:0:
320,192,2939,1,0,0:0:0:0:
192,192,3051,1,0,0:0:0:0:
64,192,3163,1,0,0:0:0:0:
192,192,3218,1,0,0:0:0:0:
320,192,3274,1,0,0:0:0:0:
448,192,3386,1,0,0:0:0:0:
320,192,3497,1,0,0:0:0:0:
192,192,3610,1,0,0:0:0:0:
64,192,3610,1,0,0:0:0:0:
320,192,3665,1,0,0:0:0:0:
448,192,3721,1,0,0:0:0:0:
448,192,3832,1,0,0:0:0:0:
320,192,3889,1,0,0:0:0:0:
64,192,3944,1,0,0:0:0:0:
192,192,3944,1,0,0:0:0:0:
320,192,4055,1,0,0:0:0:0:
448,192,4168,1,0,0:0:0:0:
320,192,4168,1,0,0:0:0:0:
192,192,4168,1,0,0:0:0:0:
192,192,4279,1,0,0:0:0:0:
448,192,4390,1,0,0:0:0:0:
448,192,4502,1,0,0:0:0:0:
192,192,4502,1,0,0:0:0:0:
320,192,4502,1,0,0:0:0:0:
64,192,4613,1,0,0:0:0:0:
320,192,4725,1,0,0:0:0:0:
192,192,4837,1,0,0:0:0:0:
64,192,4949,1,0,0:0:0:0:
192,192,5004,1,0,0:0:0:0:
448,192,5060,1,0,0:0:0:0:
64,192,5171,1,0,0:0:0:0:
192,192,5283,1,0,0:0:0:0:
64,192,5395,1,0,0:0:0:0:
192,192,5507,1,0,0:0:0:0:
64,192,5507,1,0,0:0:0:0:
448,192,5618,1,0,0:0:0:0:
320,192,5618,1,0,0:0:0:0:
192,192,5730,1,0,0:0:0:0:
448,192,5730,1,0,0:0:0:0:
64,192,5841,1,0,0:0:0:0:
448,192,5841,1,0,0:0:0:0:
192,192,5953,1,0,0:0:0:0:
64,192,5953,1,0,0:0:0:0:
448,192,5953,1,0,0:0:0:0:
192,192,6065,128,0,6176:0:0:0:0:
448,192,6176,1,0,0:0:0:0:
64,192,6288,1,0,0:0:0:0:
192,192,6288,1,0,0:0:0:0:
448,192,6288,1,0,0:0:0:0:
64,192,6399,128,0,6510:0:0:0:0:
320,192,6510,128,0,6623:0:0:0:0:
192,192,6623,128,0,6734:0:0:0:0:
64,192,6734,1,0,0:0:0:0:
192,192,6790,1,0,0:0:0:0:
320,192,6846,1,0,0:0:0:0:
448,192,6846,1,0,0:0:0:0:
192,192,6902,1,0,0:0:0:0:
64,192,6902,1,0,0:0:0:0:
448,192,6957,1,0,0:0:0:0:
320,192,7013,1,0,0:0:0:0:
192,192,7069,1,0,0:0:0:0:
64,192,7069,1,0,0:0:0:0:
320,192,7125,1,0,0:0:0:0:
448,192,7125,1,0,0:0:0:0:
192,192,7181,1,0,0:0:0:0:
64,192,7236,1,0,0:0:0:0:
448,192,7292,1,0,0:0:0:0:
320,192,7292,1,0,0:0:0:0:
192,192,7348,1,0,0:0:0:0:
64,192,7348,1,0,0:0:0:0:
448,192,7404,1,0,0:0:0:0:
320,192,7404,1,0,0:0:0:0:
192,192,7460,1,0,0:0:0:0:
64,192,7460,1,0,0:0:0:0:
448,192,7515,128,0,7683:0:0:0:0:
64,192,7739,1,0,0:0:0:0:
448,192,7739,1,0,0:0:0:0:
192,192,7794,1,0,0:0:0:0:
448,192,7850,1,0,0:0:0:0:
320,192,7850,1,0,0:0:0:0:
192,192,7906,1,0,0:0:0:0:
448,192,7962,1,0,0:0:0:0:
320,192,7962,1,0,0:0:0:0:
64,192,8017,1,0,0:0:0:0:
448,192,8073,1,0,0:0:0:0:
320,192,8073,1,0,0:0:0:0:
192,192,8130,1,0,0:0:0:0:
448,192,8185,1,0,0:0:0:0:
64,192,8185,1,0,0:0:0:0:
320,192,8241,1,0,0:0:0:0:
64,192,8296,1,0,0:0:0:0:
192,192,8296,1,0,0:0:0:0:
448,192,8352,1,0,0:0:0:0:
64,192,8409,1,0,0:0:0:0:
192,192,8436,1,0,0:0:0:0:
320,192,8464,1,0,0:0:0:0:
448,192,8492,1,0,0:0:0:0:
64,192,8520,1,0,0:0:0:0:
192,192,8548,1,0,0:0:0:0:
320,192,8575,1,0,0:0:0:0:
64,192,8631,1,0,0:0:0:0:
448,192,8631,1,0,0:0:0:0:
320,192,8688,1,0,0:0:0:0:
192,192,8743,1,0,0:0:0:0:
64,192,8743,1,0,0:0:0:0:
320,192,8799,1,0,0:0:0:0:
192,192,8854,1,0,0:0:0:0:
64,192,8854,1,0,0:0:0:0:
448,192,8910,1,0,0:0:0:0:
192,192,8967,1,0,0:0:0:0:
64,192,8967,1,0,0:0:0:0:
320,192,9022,1,0,0:0:0:0:
448,192,9078,1,0,0:0:0:0:
64,192,9078,1,0,0:0:0:0:
192,192,9133,1,0,0:0:0:0:
320,192,9190,1,0,0:0:0:0:
448,192,9190,1,0,0:0:0:0:
64,192,9246,1,0,0:0:0:0:
448,192,9301,1,0,0:0:0:0:
320,192,9329,1,0,0:0:0:0:
192,192,9357,1,0,0:0:0:0:
64,192,9385,1,0,0:0:0:0:
448,192,9412,1,0,0:0:0:0:
320,192,9441,1,0,0:0:0:0:
192,192,9469,1,0,0:0:0:0:
64,192,9525,1,0,0:0:0:0:
320,192,9525,1,0,0:0:0:0:
192,192,9580,1,0,0:0:0:0:
448,192,9636,1,0,0:0:0:0:
320,192,9636,1,0,0:0:0:0:
64,192,9691,1,0,0:0:0:0:
448,192,9748,1,0,0:0:0:0:
320,192,9748,1,0,0:0:0:0:
192,192,9803,1,0,0:0:0:0:
448,192,9859,1,0,0:0:0:0:
320,192,9859,1,0,0:0:0:0:
64,192,9915,1,0,0:0:0:0:
192,192,9970,1,0,0:0:0:0:
448,192,9970,1,0,0:0:0:0:
320,192,10027,1,0,0:0:0:0:
192,192,10082,1,0,0:0:0:0:
64,192,10082,1,0,0:0:0:0:
448,192,10138,1,0,0:0:0:0:
64,192,10194,1,0,0:0:0:0:
192,192,10222,1,0,0:0:0:0:
320,192,10250,1,0,0:0:0:0:
448,192,10278,1,0,0:0:0:0:
64,192,10306,1,0,0:0:0:0:
192,192,10333,1,0,0:0:0:0:
320,192,10361,1,0,0:0:0:0:
192,192,10417,1,0,0:0:0:0:
448,192,10417,1,0,0:0:0:0:
320,192,10473,1,0,0:0:0:0:
192,192,10529,1,0,0:0:0:0:
64,192,10529,1,0,0:0:0:0:
448,192,10585,1,0,0:0:0:0:
192,192,10640,1,0,0:0:0:0:
64,192,10640,1,0,0:0:0:0:
320,192,10696,1,0,0:0:0:0:
192,192,10752,1,0,0:0:0:0:
64,192,10752,1,0,0:0:0:0:
448,192,10808,1,0,0:0:0:0:
320,192,10864,1,0,0:0:0:0:
64,192,10864,1,0,0:0:0:0:
192,192,10864,1,0,0:0:0:0:
448,192,10975,1,0,0:0:0:0:
64,192,11031,1,0,0:0:0:0:
192,192,11031,1,0,0:0:0:0:
320,192,11031,1,0,0:0:0:0:
64,192,11143,1,0,0:0:0:0:
192,192,11198,1,0,0:0:0:0:
320,192,11198,1,0,0:0:0:0:
448,192,11198,1,0,0:0:0:0:
448,192,11310,1,0,0:0:0:0:
64,192,11310,1,0,0:0:0:0:
192,192,11366,1,0,0:0:0:0:
448,192,11422,1,0,0:0:0:0:
320,192,11422,1,0,0:0:0:0:
192,192,11477,1,0,0:0:0:0:
64,192,11477,1,0,0:0:0:0:
320,192,11533,1,0,0:0:0:0:
448,192,11589,1,0,0:0:0:0:
64,192,11589,1,0,0:0:0:0:
192,192,11645,1,0,0:0:0:0:
320,192,11645,1,0,0:0:0:0:
64,192,11701,1,0,0:0:0:0:
448,192,11756,1,0,0:0:0:0:
320,192,11756,1,0,0:0:0:0:
192,192,11812,1,0,0:0:0:0:
64,192,11812,1,0,0:0:0:0:
320,192,11868,1,0,0:0:0:0:
192,192,11924,1,0,0:0:0:0:
64,192,11924,1,0,0:0:0:0:
448,192,11980,1,0,0:0:0:0:
320,192,12008,1,0,0:0:0:0:
192,192,12035,1,0,0:0:0:0:
64,192,12064,1,0,0:0:0:0:
448,192,12091,1,0,0:0:0:0:
320,192,12119,1,0,0:0:0:0:
192,192,12147,1,0,0:0:0:0:
64,192,12203,1,0,0:0:0:0:
448,192,12203,1,0,0:0:0:0:
320,192,12259,1,0,0:0:0:0:
64,192,12314,1,0,0:0:0:0:
192,192,12314,1,0,0:0:0:0:
320,192,12370,1,0,0:0:0:0:
448,192,12370,1,0,0:0:0:0:
192,192,12426,1,0,0:0:0:0:
64,192,12482,1,0,0:0:0:0:
448,192,12482,1,0,0:0:0:0:
320,192,12538,1,0,0:0:0:0:
192,192,12538,1,0,0:0:0:0:
448,192,12593,1,0,0:0:0:0:
64,192,12650,1,0,0:0:0:0:
192,192,12650,1,0,0:0:0:0:
320,192,12705,1,0,0:0:0:0:
448,192,12705,1,0,0:0:0:0:
192,192,12761,1,0,0:0:0:0:
320,192,12817,1,0,0:0:0:0:
448,192,12817,1,0,0:0:0:0:
64,192,12872,1,0,0:0:0:0:
192,192,12900,1,0,0:0:0:0:
320,192,12929,1,0,0:0:0:0:
448,192,12956,1,0,0:0:0:0:
64,192,12984,1,0,0:0:0:0:
192,192,13012,1,0,0:0:0:0:
320,192,13040,1,0,0:0:0:0:
448,192,13096,1,0,0:0:0:0:
64,192,13096,1,0,0:0:0:0:
320,192,13151,1,0,0:0:0:0:
64,192,13208,1,0,0:0:0:0:
192,192,13208,1,0,0:0:0:0:
320,192,13263,1,0,0:0:0:0:
448,192,13263,1,0,0:0:0:0:
64,192,13319,1,0,0:0:0:0:
192,192,13374,1,0,0:0:0:0:
448,192,13374,1,0,0:0:0:0:
320,192,13430,1,0,0:0:0:0:
64,192,13430,1,0,0:0:0:0:
448,192,13487,1,0,0:0:0:0:
64,192,13542,1,0,0:0:0:0:
192,192,13542,1,0,0:0:0:0:
320,192,13598,1,0,0:0:0:0:
448,192,13598,1,0,0:0:0:0:
192,192,13653,1,0,0:0:0:0:
64,192,13710,1,0,0:0:0:0:
320,192,13710,1,0,0:0:0:0:
192,192,13766,1,0,0:0:0:0:
448,192,13766,1,0,0:0:0:0:
320,192,13821,1,0,0:0:0:0:
64,192,13877,1,0,0:0:0:0:
192,192,13877,1,0,0:0:0:0:
448,192,13932,1,0,0:0:0:0:
320,192,13932,1,0,0:0:0:0:
64,192,13989,128,0,14882:0:0:0:0:
192,192,13989,1,0,0:0:0:0:
192,192,14211,1,0,0:0:0:0:
320,192,14268,1,0,0:0:0:0:
448,192,14324,1,0,0:0:0:0:
320,192,14379,1,0,0:0:0:0:
192,192,14435,1,0,0:0:0:0:
320,192,14490,1,0,0:0:0:0:
192,192,14547,1,0,0:0:0:0:
448,192,14603,1,0,0:0:0:0:
320,192,14658,1,0,0:0:0:0:
448,192,14714,1,0,0:0:0:0:
192,192,14770,1,0,0:0:0:0:
320,192,14826,1,0,0:0:0:0:
192,192,14882,1,0,0:0:0:0:
448,192,14882,1,0,0:0:0:0:
192,192,14993,1,0,0:0:0:0:
64,192,15049,1,0,0:0:0:0:
448,192,15105,1,0,0:0:0:0:
320,192,15105,1,0,0:0:0:0:
192,192,15216,1,0,0:0:0:0:
320,192,15272,1,0,0:0:0:0:
192,192,15328,1,0,0:0:0:0:
64,192,15328,1,0,0:0:0:0:
320,192,15384,1,0,0:0:0:0:
448,192,15439,1,0,0:0:0:0:
64,192,15495,1,0,0:0:0:0:
320,192,15551,1,0,0:0:0:0:
192,192,15551,1,0,0:0:0:0:
448,192,15551,128,0,15774:0:0:0:0:
320,192,15774,1,0,0:0:0:0:
192,192,15774,1,0,0:0:0:0:
64,192,15774,1,0,0:0:0:0:
192,192,15886,1,0,0:0:0:0:
64,192,15886,1,0,0:0:0:0:
448,192,15942,1,0,0:0:0:0:
192,192,15997,1,0,0:0:0:0:
64,192,15997,1,0,0:0:0:0:
320,192,16053,1,0,0:0:0:0:
64,192,16110,1,0,0:0:0:0:
448,192,16110,1,0,0:0:0:0:
192,192,16110,1,0,0:0:0:0:
448,192,16221,1,0,0:0:0:0:
64,192,16221,1,0,0:0:0:0:
320,192,16332,1,0,0:0:0:0:
448,192,16332,1,0,0:0:0:0:
192,192,16444,1,0,0:0:0:0:
64,192,16444,1,0,0:0:0:0:
448,192,16555,1,0,0:0:0:0:
64,192,16555,1,0,0:0:0:0:
448,192,16668,1,0,0:0:0:0:
64,192,16668,1,0,0:0:0:0:
448,192,16779,1,0,0:0:0:0:
192,192,16779,1,0,0:0:0:0:
320,192,16890,1,0,0:0:0:0:
64,192,16890,1,0,0:0:0:0:
448,192,17002,1,0,0:0:0:0:
320,192,17002,1,0,0:0:0:0:
448,192,17113,1,0,0:0:0:0:
64,192,17113,1,0,0:0:0:0:
448,192,17225,1,0,0:0:0:0:
192,192,17225,1,0,0:0:0:0:
64,192,17337,1,0,0:0:0:0:
320,192,17337,1,0,0:0:0:0:
192,192,17449,1,0,0:0:0:0:
64,192,17449,1,0,0:0:0:0:
448,192,17504,1,0,0:0:0:0:
192,192,17560,1,0,0:0:0:0:
64,192,17560,1,0,0:0:0:0:
320,192,17560,1,0,0:0:0:0:
448,192,17671,1,0,0:0:0:0:
320,192,17671,1,0,0:0:0:0:
192,192,17728,1,0,0:0:0:0:
64,192,17728,1,0,0:0:0:0:
448,192,17783,1,0,0:0:0:0:
320,192,17783,1,0,0:0:0:0:
192,192,17839,1,0,0:0:0:0:
448,192,17895,1,0,0:0:0:0:
320,192,17895,1,0,0:0:0:0:
64,192,17895,1,0,0:0:0:0:
320,192,18007,1,0,0:0:0:0:
64,192,18007,1,0,0:0:0:0:
320,192,18118,1,0,0:0:0:0:
64,192,18118,1,0,0:0:0:0:
448,192,18230,1,0,0:0:0:0:
320,192,18230,1,0,0:0:0:0:
192,192,18341,1,0,0:0:0:0:
64,192,18341,1,0,0:0:0:0:
64,192,18453,1,0,0:0:0:0:
448,192,18453,1,0,0:0:0:0:
192,192,18453,1,0,0:0:0:0:
448,192,18565,1,0,0:0:0:0:
64,192,18565,1,0,0:0:0:0:
320,192,18676,1,0,0:0:0:0:
192,192,18676,1,0,0:0:0:0:
448,192,18788,1,0,0:0:0:0:
64,192,18788,1,0,0:0:0:0:
192,192,18844,1,0,0:0:0:0:
448,192,18899,1,0,0:0:0:0:
320,192,18899,1,0,0:0:0:0:
64,192,18955,1,0,0:0:0:0:
192,192,18955,1,0,0:0:0:0:
448,192,19010,1,0,0:0:0:0:
320,192,19010,1,0,0:0:0:0:
64,192,19123,1,0,0:0:0:0:
448,192,19123,1,0,0:0:0:0:
320,192,19178,1,0,0:0:0:0:
192,192,19234,1,0,0:0:0:0:
64,192,19234,1,0,0:0:0:0:
448,192,19290,1,0,0:0:0:0:
192,192,19346,1,0,0:0:0:0:
64,192,19346,1,0,0:0:0:0:
320,192,19346,1,0,0:0:0:0:
448,192,19457,1,0,0:0:0:0:
320,192,19457,1,0,0:0:0:0:
64,192,19513,1,0,0:0:0:0:
448,192,19569,1,0,0:0:0:0:
320,192,19569,1,0,0:0:0:0:
192,192,19625,1,0,0:0:0:0:
448,192,19681,1,0,0:0:0:0:
320,192,19681,1,0,0:0:0:0:
64,192,19681,1,0,0:0:0:0:
320,192,19792,1,0,0:0:0:0:
64,192,19792,1,0,0:0:0:0:
320,192,19904,1,0,0:0:0:0:
64,192,19904,1,0,0:0:0:0:
448,192,20015,1,0,0:0:0:0:
320,192,20015,1,0,0:0:0:0:
192,192,20127,1,0,0:0:0:0:
64,192,20127,1,0,0:0:0:0:
192,192,20239,1,0,0:0:0:0:
64,192,20239,1,0,0:0:0:0:
448,192,20239,1,0,0:0:0:0:
320,192,20350,1,0,0:0:0:0:
192,192,20350,1,0,0:0:0:0:
448,192,20462,1,0,0:0:0:0:
64,192,20462,1,0,0:0:0:0:
64,192,20573,1,0,0:0:0:0:
320,192,20573,1,0,0:0:0:0:
192,192,20685,1,0,0:0:0:0:
64,192,20685,1,0,0:0:0:0:
448,192,20685,1,0,0:0:0:0:
448,192,20796,1,0,0:0:0:0:
320,192,20796,1,0,0:0:0:0:
64,192,20909,1,0,0:0:0:0:
192,192,20936,1,0,0:0:0:0:
320,192,20964,1,0,0:0:0:0:
448,192,20992,1,0,0:0:0:0:
192,192,21020,1,0,0:0:0:0:
64,192,21048,1,0,0:0:0:0:
448,192,21075,1,0,0:0:0:0:
320,192,21104,1,0,0:0:0:0:
192,192,21131,1,0,0:0:0:0:
64,192,21131,1,0,0:0:0:0:
448,192,21188,1,0,0:0:0:0:
64,192,21243,1,0,0:0:0:0:
192,192,21270,1,0,0:0:0:0:
320,192,21299,1,0,0:0:0:0:
448,192,21327,1,0,0:0:0:0:
64,192,21354,1,0,0:0:0:0:
192,192,21383,1,0,0:0:0:0:
320,192,21410,1,0,0:0:0:0:
448,192,21438,1,0,0:0:0:0:
192,192,21467,1,0,0:0:0:0:
64,192,21467,1,0,0:0:0:0:
320,192,21522,1,0,0:0:0:0:
64,192,21578,1,0,0:0:0:0:
448,192,21578,1,0,0:0:0:0:
192,192,21633,1,0,0:0:0:0:
320,192,21633,1,0,0:0:0:0:
448,192,21690,1,0,0:0:0:0:
64,192,21746,1,0,0:0:0:0:
192,192,21746,1,0,0:0:0:0:
448,192,21801,1,0,0:0:0:0:
320,192,21801,1,0,0:0:0:0:
64,192,21912,1,0,0:0:0:0:
192,192,21912,1,0,0:0:0:0:
320,192,21969,1,0,0:0:0:0:
448,192,21969,1,0,0:0:0:0:
192,192,22025,1,0,0:0:0:0:
448,192,22080,1,0,0:0:0:0:
192,192,22136,1,0,0:0:0:0:
64,192,22136,1,0,0:0:0:0:
320,192,22136,1,0,0:0:0:0:
448,192,22248,1,0,0:0:0:0:
320,192,22248,1,0,0:0:0:0:
192,192,22248,1,0,0:0:0:0:
64,192,22303,1,0,0:0:0:0:
448,192,22359,1,0,0:0:0:0:
320,192,22415,1,0,0:0:0:0:
192,192,22415,1,0,0:0:0:0:
64,192,22415,1,0,0:0:0:0:
448,192,22470,1,0,0:0:0:0:
64,192,22527,1,0,0:0:0:0:
448,192,22582,1,0,0:0:0:0:
320,192,22582,1,0,0:0:0:0:
192,192,22582,1,0,0:0:0:0:
64,192,22638,1,0,0:0:0:0:
320,192,22694,1,0,0:0:0:0:
448,192,22750,1,0,0:0:0:0:
64,192,22806,1,0,0:0:0:0:
192,192,22806,1,0,0:0:0:0:
320,192,22861,1,0,0:0:0:0:
192,192,22917,128,0,23029:0:0:0:0:
64,192,22917,128,0,23029:0:0:0:0:
448,192,22917,128,0,23029:0:0:0:0:
192,192,23140,1,0,0:0:0:0:
448,192,23140,1,0,0:0:0:0:
320,192,23140,1,0,0:0:0:0:
320,192,23252,1,0,0:0:0:0:
64,192,23252,1,0,0:0:0:0:
192,192,23364,1,0,0:0:0:0:
64,192,23364,1,0,0:0:0:0:
448,192,23364,1,0,0:0:0:0:
320,192,23475,1,0,0:0:0:0:
192,192,23475,1,0,0:0:0:0:
448,192,23587,1,0,0:0:0:0:
320,192,23587,1,0,0:0:0:0:
192,192,23643,1,0,0:0:0:0:
64,192,23643,1,0,0:0:0:0:
320,192,23698,1,0,0:0:0:0:
448,192,23698,1,0,0:0:0:0:
64,192,23754,1,0,0:0:0:0:
448,192,23810,1,0,0:0:0:0:
320,192,23810,1,0,0:0:0:0:
192,192,23810,1,0,0:0:0:0:
192,192,23922,1,0,0:0:0:0:
64,192,23922,1,0,0:0:0:0:
448,192,23977,1,0,0:0:0:0:
320,192,24033,1,0,0:0:0:0:
192,192,24033,1,0,0:0:0:0:
64,192,24033,1,0,0:0:0:0:
448,192,24145,1,0,0:0:0:0:
320,192,24145,1,0,0:0:0:0:
64,192,24201,1,0,0:0:0:0:
448,192,24256,1,0,0:0:0:0:
320,192,24256,1,0,0:0:0:0:
192,192,24256,1,0,0:0:0:0:
64,192,24368,1,0,0:0:0:0:
192,192,24368,1,0,0:0:0:0:
320,192,24368,1,0,0:0:0:0:
448,192,24591,1,0,0:0:0:0:
320,192,24591,1,0,0:0:0:0:
192,192,24591,1,0,0:0:0:0:
64,192,24591,1,0,0:0:0:0:
320,192,24703,1,0,0:0:0:0:
64,192,24703,1,0,0:0:0:0:
448,192,24703,1,0,0:0:0:0:
192,192,24814,1,0,0:0:0:0:
320,192,24814,1,0,0:0:0:0:
448,192,24870,1,0,0:0:0:0:
192,192,24926,1,0,0:0:0:0:
64,192,24926,1,0,0:0:0:0:
192,192,25038,1,0,0:0:0:0:
64,192,25038,1,0,0:0:0:0:
448,192,25038,1,0,0:0:0:0:
320,192,25150,1,0,0:0:0:0:
192,192,25150,1,0,0:0:0:0:
64,192,25205,1,0,0:0:0:0:
448,192,25261,1,0,0:0:0:0:
320,192,25261,1,0,0:0:0:0:
448,192,25372,1,0,0:0:0:0:
320,192,25372,1,0,0:0:0:0:
64,192,25372,1,0,0:0:0:0:
64,192,25484,1,0,0:0:0:0:
192,192,25484,1,0,0:0:0:0:
448,192,25540,1,0,0:0:0:0:
320,192,25540,1,0,0:0:0:0:
64,192,25596,1,0,0:0:0:0:
192,192,25651,1,0,0:0:0:0:
448,192,25708,1,0,0:0:0:0:
320,192,25708,1,0,0:0:0:0:
64,192,25763,1,0,0:0:0:0:
192,192,25763,1,0,0:0:0:0:
448,192,25819,1,0,0:0:0:0:
320,192,25819,1,0,0:0:0:0:
192,192,25874,1,0,0:0:0:0:
448,192,25930,1,0,0:0:0:0:
64,192,25930,1,0,0:0:0:0:
320,192,25987,1,0,0:0:0:0:
64,192,26042,1,0,0:0:0:0:
192,192,26042,1,0,0:0:0:0:
320,192,26098,1,0,0:0:0:0:
64,192,26153,1,0,0:0:0:0:
192,192,26153,1,0,0:0:0:0:
448,192,26153,1,0,0:0:0:0:
192,192,26266,128,0,26377:0:0:0:0:
320,192,26266,128,0,26377:0:0:0:0:
448,192,26266,128,0,26489:0:0:0:0:
320,192,26489,1,0,0:0:0:0:
192,192,26489,1,0,0:0:0:0:
64,192,26489,1,0,0:0:0:0:
320,192,26600,1,0,0:0:0:0:
192,192,26600,1,0,0:0:0:0:
64,192,26600,1,0,0:0:0:0:
448,192,26711,128,0,26824:0:0:0:0:
64,192,26824,1,0,0:0:0:0:
192,192,26879,1,0,0:0:0:0:
448,192,26935,1,0,0:0:0:0:
320,192,26935,1,0,0:0:0:0:
192,192,26990,1,0,0:0:0:0:
64,192,26990,1,0,0:0:0:0:
448,192,27047,1,0,0:0:0:0:
320,192,27047,1,0,0:0:0:0:
192,192,27158,128,0,27382:0:0:0:0:
320,192,27158,128,0,27382:0:0:0:0:
448,192,27382,1,0,0:0:0:0:
64,192,27382,1,0,0:0:0:0:
320,192,27437,1,0,0:0:0:0:
192,192,27437,1,0,0:0:0:0:
448,192,27493,128,0,27716:0:0:0:0:
64,192,27493,128,0,27716:0:0:0:0:
320,192,27549,1,0,0:0:0:0:
192,192,27549,1,0,0:0:0:0:
192,192,27828,1,0,0:0:0:0:
64,192,27828,1,0,0:0:0:0:
448,192,27828,1,0,0:0:0:0:
320,192,27884,1,0,0:0:0:0:
192,192,27939,1,0,0:0:0:0:
64,192,27939,1,0,0:0:0:0:
448,192,27995,1,0,0:0:0:0:
320,192,27995,1,0,0:0:0:0:
64,192,28051,1,0,0:0:0:0:
320,192,28107,1,0,0:0:0:0:
192,192,28163,1,0,0:0:0:0:
448,192,28218,1,0,0:0:0:0:
192,192,28274,1,0,0:0:0:0:
64,192,28274,1,0,0:0:0:0:
320,192,28330,1,0,0:0:0:0:
448,192,28330,1,0,0:0:0:0:
64,192,28386,1,0,0:0:0:0:
192,192,28442,1,0,0:0:0:0:
448,192,28497,1,0,0:0:0:0:
320,192,28497,1,0,0:0:0:0:
64,192,28553,1,0,0:0:0:0:
320,192,28610,1,0,0:0:0:0:
192,192,28610,1,0,0:0:0:0:
448,192,28665,1,0,0:0:0:0:
64,192,28665,1,0,0:0:0:0:
320,192,28721,1,0,0:0:0:0:
192,192,28776,1,0,0:0:0:0:
448,192,28832,1,0,0:0:0:0:
64,192,28832,1,0,0:0:0:0:
320,192,28889,1,0,0:0:0:0:
192,192,28944,1,0,0:0:0:0:
64,192,28944,1,0,0:0:0:0:
448,192,29000,1,0,0:0:0:0:
320,192,29000,1,0,0:0:0:0:
64,192,29055,1,0,0:0:0:0:
192,192,29111,1,0,0:0:0:0:
448,192,29168,1,0,0:0:0:0:
320,192,29168,1,0,0:0:0:0:
192,192,29223,1,0,0:0:0:0:
64,192,29223,1,0,0:0:0:0:
448,192,29279,1,0,0:0:0:0:
320,192,29334,1,0,0:0:0:0:
192,192,29334,1,0,0:0:0:0:
448,192,29390,1,0,0:0:0:0:
64,192,29390,1,0,0:0:0:0:
192,192,29446,1,0,0:0:0:0:
448,192,29502,1,0,0:0:0:0:
320,192,29502,1,0,0:0:0:0:
192,192,29558,1,0,0:0:0:0:
64,192,29558,1,0,0:0:0:0:
320,192,29613,1,0,0:0:0:0:
192,192,29670,1,0,0:0:0:0:
64,192,29670,1,0,0:0:0:0:
320,192,29725,1,0,0:0:0:0:
448,192,29725,1,0,0:0:0:0:
192,192,29781,1,0,0:0:0:0:
448,192,29837,1,0,0:0:0:0:
320,192,29837,1,0,0:0:0:0:
64,192,29837,1,0,0:0:0:0:
448,192,30060,1,0,0:0:0:0:
320,192,30060,1,0,0:0:0:0:
448,192,30171,1,0,0:0:0:0:
320,192,30171,1,0,0:0:0:0:
448,192,30283,1,0,0:0:0:0:
320,192,30283,1,0,0:0:0:0:
192,192,30283,1,0,0:0:0:0:
64,192,30283,1,0,0:0:0:0:
192,192,30395,1,0,0:0:0:0:
320,192,30395,1,0,0:0:0:0:
448,192,30450,1,0,0:0:0:0:
64,192,30450,1,0,0:0:0:0:
64,192,30618,1,0,0:0:0:0:
448,192,30618,1,0,0:0:0:0:
448,192,30730,1,0,0:0:0:0:
320,192,30730,1,0,0:0:0:0:
64,192,30730,1,0,0:0:0:0:
192,192,30730,1,0,0:0:0:0:
320,192,30804,1,0,0:0:0:0:
192,192,30804,1,0,0:0:0:0:
64,192,30953,1,0,0:0:0:0:
448,192,30953,1,0,0:0:0:0:
448,192,31065,1,0,0:0:0:0:
64,192,31065,1,0,0:0:0:0:
448,192,31176,1,0,0:0:0:0:
320,192,31176,1,0,0:0:0:0:
192,192,31176,1,0,0:0:0:0:
64,192,31176,1,0,0:0:0:0:
448,192,31288,1,0,0:0:0:0:
64,192,31288,1,0,0:0:0:0:
192,192,31344,1,0,0:0:0:0:
320,192,31344,1,0,0:0:0:0:
320,192,31510,1,0,0:0:0:0:
192,192,31510,1,0,0:0:0:0:
448,192,31623,1,0,0:0:0:0:
64,192,31623,1,0,0:0:0:0:
192,192,31623,1,0,0:0:0:0:
320,192,31678,1,0,0:0:0:0:
64,192,31734,1,0,0:0:0:0:
448,192,31790,1,0,0:0:0:0:
320,192,31790,1,0,0:0:0:0:
192,192,31846,1,0,0:0:0:0:
64,192,31846,1,0,0:0:0:0:
192,192,31957,1,0,0:0:0:0:
64,192,31957,1,0,0:0:0:0:
448,192,32069,1,0,0:0:0:0:
320,192,32069,1,0,0:0:0:0:
192,192,32069,1,0,0:0:0:0:
64,192,32069,1,0,0:0:0:0:
448,192,32181,1,0,0:0:0:0:
320,192,32181,1,0,0:0:0:0:
64,192,32236,1,0,0:0:0:0:
192,192,32236,1,0,0:0:0:0:
192,192,32404,1,0,0:0:0:0:
64,192,32404,1,0,0:0:0:0:
320,192,32515,1,0,0:0:0:0:
448,192,32515,1,0,0:0:0:0:
192,192,32515,1,0,0:0:0:0:
64,192,32515,1,0,0:0:0:0:
64,192,32590,1,0,0:0:0:0:
448,192,32590,1,0,0:0:0:0:
192,192,32664,1,0,0:0:0:0:
320,192,32739,1,0,0:0:0:0:
448,192,32739,1,0,0:0:0:0:
320,192,32850,1,0,0:0:0:0:
448,192,32850,1,0,0:0:0:0:
448,192,32962,1,0,0:0:0:0:
320,192,32962,1,0,0:0:0:0:
64,192,32962,1,0,0:0:0:0:
192,192,32962,1,0,0:0:0:0:
192,192,33073,1,0,0:0:0:0:
64,192,33073,1,0,0:0:0:0:
448,192,33130,1,0,0:0:0:0:
320,192,33130,1,0,0:0:0:0:
448,192,33296,1,0,0:0:0:0:
320,192,33296,1,0,0:0:0:0:
448,192,33409,1,0,0:0:0:0:
320,192,33409,1,0,0:0:0:0:
64,192,33409,1,0,0:0:0:0:
192,192,33464,1,0,0:0:0:0:
320,192,33520,1,0,0:0:0:0:
192,192,33575,1,0,0:0:0:0:
64,192,33575,1,0,0:0:0:0:
448,192,33631,1,0,0:0:0:0:
320,192,33631,1,0,0:0:0:0:
448,192,33743,1,0,0:0:0:0:
320,192,33743,1,0,0:0:0:0:
448,192,33854,1,0,0:0:0:0:
320,192,33854,1,0,0:0:0:0:
192,192,33854,1,0,0:0:0:0:
64,192,33854,1,0,0:0:0:0:
448,192,33967,1,0,0:0:0:0:
64,192,33967,1,0,0:0:0:0:
192,192,34022,1,0,0:0:0:0:
320,192,34022,1,0,0:0:0:0:
320,192,34190,1,0,0:0:0:0:
192,192,34190,1,0,0:0:0:0:
448,192,34301,1,0,0:0:0:0:
320,192,34301,1,0,0:0:0:0:
64,192,34301,1,0,0:0:0:0:
192,192,34301,1,0,0:0:0:0:
448,192,34375,1,0,0:0:0:0:
64,192,34375,1,0,0:0:0:0:
320,192,34525,1,0,0:0:0:0:
192,192,34525,1,0,0:0:0:0:
320,192,34636,1,0,0:0:0:0:
192,192,34636,1,0,0:0:0:0:
448,192,34748,1,0,0:0:0:0:
320,192,34748,1,0,0:0:0:0:
192,192,34748,1,0,0:0:0:0:
64,192,34748,1,0,0:0:0:0:
448,192,34859,1,0,0:0:0:0:
64,192,34859,1,0,0:0:0:0:
320,192,34915,1,0,0:0:0:0:
192,192,34915,1,0,0:0:0:0:
320,192,35082,1,0,0:0:0:0:
192,192,35082,1,0,0:0:0:0:
448,192,35194,1,0,0:0:0:0:
64,192,35194,1,0,0:0:0:0:
192,192,35194,1,0,0:0:0:0:
320,192,35250,1,0,0:0:0:0:
64,192,35306,1,0,0:0:0:0:
448,192,35361,1,0,0:0:0:0:
320,192,35361,1,0,0:0:0:0:
192,192,35417,1,0,0:0:0:0:
64,192,35417,1,0,0:0:0:0:
192,192,35529,1,0,0:0:0:0:
64,192,35529,1,0,0:0:0:0:
448,192,35640,1,0,0:0:0:0:
320,192,35640,1,0,0:0:0:0:
192,192,35640,1,0,0:0:0:0:
64,192,35640,1,0,0:0:0:0:
448,192,35752,1,0,0:0:0:0:
320,192,35752,1,0,0:0:0:0:
64,192,35808,1,0,0:0:0:0:
192,192,35808,1,0,0:0:0:0:
192,192,35975,1,0,0:0:0:0:
64,192,35975,1,0,0:0:0:0:
320,192,36087,1,0,0:0:0:0:
448,192,36087,1,0,0:0:0:0:
192,192,36087,1,0,0:0:0:0:
64,192,36087,1,0,0:0:0:0:
448,192,36161,1,0,0:0:0:0:
64,192,36161,1,0,0:0:0:0:
320,192,36235,1,0,0:0:0:0:
192,192,36310,1,0,0:0:0:0:
64,192,36310,1,0,0:0:0:0:
192,192,36422,1,0,0:0:0:0:
64,192,36422,1,0,0:0:0:0:
448,192,36533,1,0,0:0:0:0:
320,192,36533,1,0,0:0:0:0:
64,192,36533,1,0,0:0:0:0:
192,192,36533,1,0,0:0:0:0:
448,192,36645,1,0,0:0:0:0:
192,192,36701,1,0,0:0:0:0:
320,192,36701,1,0,0:0:0:0:
64,192,36701,1,0,0:0:0:0:
448,192,36756,1,0,0:0:0:0:
192,192,36812,1,0,0:0:0:0:
64,192,36812,1,0,0:0:0:0:
448,192,36868,1,0,0:0:0:0:
320,192,36868,1,0,0:0:0:0:
64,192,36924,1,0,0:0:0:0:
448,192,36980,1,0,0:0:0:0:
320,192,36980,1,0,0:0:0:0:
192,192,36980,1,0,0:0:0:0:
64,192,37035,1,0,0:0:0:0:
448,192,37091,1,0,0:0:0:0:
192,192,37147,1,0,0:0:0:0:
320,192,37147,1,0,0:0:0:0:
448,192,37203,1,0,0:0:0:0:
64,192,37203,1,0,0:0:0:0:
320,192,37314,1,0,0:0:0:0:
448,192,37314,1,0,0:0:0:0:
192,192,37370,1,0,0:0:0:0:
448,192,37426,1,0,0:0:0:0:
320,192,37426,1,0,0:0:0:0:
64,192,37426,1,0,0:0:0:0:
448,192,37538,1,0,0:0:0:0:
320,192,37538,1,0,0:0:0:0:
64,192,37538,1,0,0:0:0:0:
64,192,37650,1,0,0:0:0:0:
192,192,37650,1,0,0:0:0:0:
320,192,37705,1,0,0:0:0:0:
64,192,37761,1,0,0:0:0:0:
192,192,37761,1,0,0:0:0:0:
448,192,37761,1,0,0:0:0:0:
192,192,37872,1,0,0:0:0:0:
64,192,37872,1,0,0:0:0:0:
448,192,37872,1,0,0:0:0:0:
448,192,37984,1,0,0:0:0:0:
320,192,37984,1,0,0:0:0:0:
64,192,38040,1,0,0:0:0:0:
448,192,38096,1,0,0:0:0:0:
320,192,38096,1,0,0:0:0:0:
192,192,38096,1,0,0:0:0:0:
192,192,38208,1,0,0:0:0:0:
64,192,38208,1,0,0:0:0:0:
448,192,38263,1,0,0:0:0:0:
320,192,38319,1,0,0:0:0:0:
192,192,38319,1,0,0:0:0:0:
64,192,38319,1,0,0:0:0:0:
192,192,38430,1,0,0:0:0:0:
64,192,38430,1,0,0:0:0:0:
448,192,38487,1,0,0:0:0:0:
320,192,38487,1,0,0:0:0:0:
64,192,38542,1,0,0:0:0:0:
448,192,38598,1,0,0:0:0:0:
320,192,38653,1,0,0:0:0:0:
192,192,38710,1,0,0:0:0:0:
448,192,38766,128,0,38989:0:0:0:0:
64,192,38989,1,0,0:0:0:0:
320,192,38989,1,0,0:0:0:0:
192,192,38989,1,0,0:0:0:0:
448,192,39100,1,0,0:0:0:0:
64,192,39100,1,0,0:0:0:0:
320,192,39156,1,0,0:0:0:0:
448,192,39211,1,0,0:0:0:0:
192,192,39211,1,0,0:0:0:0:
64,192,39211,1,0,0:0:0:0:
448,192,39324,1,0,0:0:0:0:
64,192,39324,1,0,0:0:0:0:
192,192,39324,1,0,0:0:0:0:
64,192,39435,1,0,0:0:0:0:
448,192,39435,1,0,0:0:0:0:
192,192,39490,1,0,0:0:0:0:
448,192,39547,1,0,0:0:0:0:
320,192,39547,1,0,0:0:0:0:
64,192,39547,1,0,0:0:0:0:
448,192,39658,1,0,0:0:0:0:
320,192,39658,1,0,0:0:0:0:
64,192,39658,1,0,0:0:0:0:
448,192,39770,1,0,0:0:0:0:
320,192,39770,1,0,0:0:0:0:
192,192,39826,1,0,0:0:0:0:
64,192,39826,1,0,0:0:0:0:
448,192,39882,1,0,0:0:0:0:
320,192,39882,1,0,0:0:0:0:
320,192,39956,1,0,0:0:0:0:
64,192,39956,1,0,0:0:0:0:
192,192,40030,1,0,0:0:0:0:
64,192,40030,1,0,0:0:0:0:
448,192,40105,1,0,0:0:0:0:
320,192,40105,1,0,0:0:0:0:
448,192,40179,1,0,0:0:0:0:
192,192,40179,1,0,0:0:0:0:
64,192,40253,1,0,0:0:0:0:
192,192,40253,1,0,0:0:0:0:
448,192,40328,128,0,40551:0:0:0:0:
192,192,40439,1,0,0:0:0:0:
320,192,40495,1,0,0:0:0:0:
64,192,40551,5,0,0:0:0:0:
192,192,40579,1,0,0:0:0:0:
320,192,40607,1,0,0:0:0:0:
448,192,40626,1,0,0:0:0:0:
64,192,40663,1,0,0:0:0:0:
192,192,40690,1,0,0:0:0:0:
320,192,40718,1,0,0:0:0:0:
448,192,40747,1,0,0:0:0:0:
192,192,40774,1,0,0:0:0:0:
64,192,40774,1,0,0:0:0:0:
448,192,40886,1,0,0:0:0:0:
320,192,40886,1,0,0:0:0:0:
64,192,40942,1,0,0:0:0:0:
448,192,40997,1,0,0:0:0:0:
320,192,40997,1,0,0:0:0:0:
192,192,40997,1,0,0:0:0:0:
192,192,41110,1,0,0:0:0:0:
64,192,41110,1,0,0:0:0:0:
448,192,41110,1,0,0:0:0:0:
192,192,41221,1,0,0:0:0:0:
64,192,41221,1,0,0:0:0:0:
448,192,41276,1,0,0:0:0:0:
320,192,41332,1,0,0:0:0:0:
192,192,41332,1,0,0:0:0:0:
64,192,41332,1,0,0:0:0:0:
448,192,41444,1,0,0:0:0:0:
320,192,41444,1,0,0:0:0:0:
192,192,41444,1,0,0:0:0:0:
448,192,41555,1,0,0:0:0:0:
320,192,41555,1,0,0:0:0:0:
192,192,41611,1,0,0:0:0:0:
64,192,41668,1,0,0:0:0:0:
448,192,41668,1,0,0:0:0:0:
192,192,41742,1,0,0:0:0:0:
64,192,41742,1,0,0:0:0:0:
448,192,41816,1,0,0:0:0:0:
320,192,41816,1,0,0:0:0:0:
320,192,41890,1,0,0:0:0:0:
192,192,41890,1,0,0:0:0:0:
192,192,41965,1,0,0:0:0:0:
64,192,41965,1,0,0:0:0:0:
448,192,42039,1,0,0:0:0:0:
320,192,42039,1,0,0:0:0:0:
448,192,42113,128,0,42337:0:0:0:0:
64,192,42113,1,0,0:0:0:0:
192,192,42188,1,0,0:0:0:0:
320,192,42263,1,0,0:0:0:0:
64,192,42337,1,0,0:0:0:0:
192,192,42411,1,0,0:0:0:0:
320,192,42486,1,0,0:0:0:0:
448,192,42560,1,0,0:0:0:0:
64,192,42560,1,0,0:0:0:0:
192,192,42560,1,0,0:0:0:0:
320,192,42616,1,0,0:0:0:0:
64,192,42671,1,0,0:0:0:0:
320,192,42728,1,0,0:0:0:0:
64,192,42783,1,0,0:0:0:0:
192,192,42783,1,0,0:0:0:0:
448,192,42783,1,0,0:0:0:0:
320,192,42839,1,0,0:0:0:0:
192,192,42895,1,0,0:0:0:0:
320,192,42950,1,0,0:0:0:0:
192,192,43007,1,0,0:0:0:0:
64,192,43007,1,0,0:0:0:0:
448,192,43007,1,0,0:0:0:0:
320,192,43062,1,0,0:0:0:0:
64,192,43118,1,0,0:0:0:0:
320,192,43174,1,0,0:0:0:0:
448,192,43230,1,0,0:0:0:0:
192,192,43230,1,0,0:0:0:0:
64,192,43230,1,0,0:0:0:0:
320,192,43286,1,0,0:0:0:0:
192,192,43341,1,0,0:0:0:0:
64,192,43341,1,0,0:0:0:0:
320,192,43397,1,0,0:0:0:0:
448,192,43453,1,0,0:0:0:0:
192,192,43453,1,0,0:0:0:0:
64,192,43453,1,0,0:0:0:0:
64,192,43565,1,0,0:0:0:0:
192,192,43565,1,0,0:0:0:0:
320,192,43620,1,0,0:0:0:0:
448,192,43620,1,0,0:0:0:0:
192,192,43676,1,0,0:0:0:0:
320,192,43731,1,0,0:0:0:0:
448,192,43788,1,0,0:0:0:0:
192,192,43788,1,0,0:0:0:0:
64,192,43788,1,0,0:0:0:0:
448,192,43899,1,0,0:0:0:0:
320,192,43899,1,0,0:0:0:0:
192,192,43955,1,0,0:0:0:0:
64,192,43955,1,0,0:0:0:0:
448,192,44010,1,0,0:0:0:0:
192,192,44067,1,0,0:0:0:0:
320,192,44123,1,0,0:0:0:0:
448,192,44123,128,0,44234:0:0:0:0:
64,192,44123,128,0,44346:0:0:0:0:
192,192,44234,128,0,44346:0:0:0:0:
320,192,44346,1,0,0:0:0:0:
448,192,44346,1,0,0:0:0:0:
64,192,44402,1,0,0:0:0:0:
192,192,44402,1,0,0:0:0:0:
320,192,44457,1,0,0:0:0:0:
448,192,44457,1,0,0:0:0:0:
64,192,44513,1,0,0:0:0:0:
192,192,44513,1,0,0:0:0:0:
320,192,44569,1,0,0:0:0:0:
448,192,44569,1,0,0:0:0:0:
64,192,44681,1,0,0:0:0:0:
192,192,44681,1,0,0:0:0:0:
320,192,44736,1,0,0:0:0:0:
448,192,44792,1,0,0:0:0:0:
64,192,44792,1,0,0:0:0:0:
192,192,44792,1,0,0:0:0:0:
320,192,44848,1,0,0:0:0:0:
64,192,44904,1,0,0:0:0:0:
192,192,44904,1,0,0:0:0:0:
448,192,45015,1,0,0:0:0:0:
192,192,45127,1,0,0:0:0:0:
320,192,45239,1,0,0:0:0:0:
192,192,45350,1,0,0:0:0:0:
64,192,45350,1,0,0:0:0:0:
448,192,45406,1,0,0:0:0:0:
320,192,45406,1,0,0:0:0:0:
192,192,45462,1,0,0:0:0:0:
64,192,45462,1,0,0:0:0:0:
448,192,45517,1,0,0:0:0:0:
320,192,45517,1,0,0:0:0:0:
192,192,45573,1,0,0:0:0:0:
64,192,45573,1,0,0:0:0:0:
448,192,45685,1,0,0:0:0:0:
320,192,45685,1,0,0:0:0:0:
64,192,45685,1,0,0:0:0:0:
192,192,45741,1,0,0:0:0:0:
448,192,45796,1,0,0:0:0:0:
320,192,45796,1,0,0:0:0:0:
192,192,45852,1,0,0:0:0:0:
64,192,45852,1,0,0:0:0:0:
448,192,45909,1,0,0:0:0:0:
320,192,45909,1,0,0:0:0:0:
448,192,46020,1,0,0:0:0:0:
64,192,46020,1,0,0:0:0:0:
320,192,46075,1,0,0:0:0:0:
192,192,46131,1,0,0:0:0:0:
64,192,46131,1,0,0:0:0:0:
448,192,46188,1,0,0:0:0:0:
320,192,46188,1,0,0:0:0:0:
192,192,46243,1,0,0:0:0:0:
64,192,46243,1,0,0:0:0:0:
448,192,46299,1,0,0:0:0:0:
320,192,46299,1,0,0:0:0:0:
192,192,46354,1,0,0:0:0:0:
64,192,46354,1,0,0:0:0:0:
448,192,46467,1,0,0:0:0:0:
320,192,46467,1,0,0:0:0:0:
192,192,46522,1,0,0:0:0:0:
448,192,46578,1,0,0:0:0:0:
64,192,46578,1,0,0:0:0:0:
320,192,46578,1,0,0:0:0:0:
192,192,46633,1,0,0:0:0:0:
448,192,46690,1,0,0:0:0:0:
320,192,46690,1,0,0:0:0:0:
448,192,46801,128,0,47025:0:0:0:0:
192,192,46912,1,0,0:0:0:0:
64,192,47025,128,0,47173:0:0:0:0:
192,192,47173,128,0,47248:0:0:0:0:
320,192,47248,128,0,47303:0:0:0:0:
448,192,47303,128,0,47359:0:0:0:0:
64,192,47359,128,0,47415:0:0:0:0:
192,192,47415,128,0,47470:0:0:0:0:
320,192,47470,128,0,47527:0:0:0:0:
448,192,47527,128,0,47582:0:0:0:0:
64,192,47582,128,0,47638:0:0:0:0:
192,192,47638,128,0,47694:0:0:0:0:
320,192,47694,128,0,47731:0:0:0:0:
448,192,47731,128,0,47769:0:0:0:0:
64,192,47769,128,0,47806:0:0:0:0:
192,192,47806,128,0,47843:0:0:0:0:
320,192,47843,128,0,47880:0:0:0:0:
448,192,47880,128,0,47917:0:0:0:0:
192,192,47917,1,0,0:0:0:0:
64,192,47917,1,0,0:0:0:0:
448,192,47973,1,0,0:0:0:0:
320,192,47973,1,0,0:0:0:0:
64,192,48029,1,0,0:0:0:0:
320,192,48085,1,0,0:0:0:0:
192,192,48085,1,0,0:0:0:0:
448,192,48140,1,0,0:0:0:0:
64,192,48140,1,0,0:0:0:0:
448,192,48252,1,0,0:0:0:0:
320,192,48252,1,0,0:0:0:0:
192,192,48308,1,0,0:0:0:0:
64,192,48308,1,0,0:0:0:0:
448,192,48364,1,0,0:0:0:0:
192,192,48419,1,0,0:0:0:0:
64,192,48475,1,0,0:0:0:0:
448,192,48475,1,0,0:0:0:0:
320,192,48475,1,0,0:0:0:0:
192,192,48587,1,0,0:0:0:0:
320,192,48698,1,0,0:0:0:0:
64,192,48810,1,0,0:0:0:0:
448,192,48922,1,0,0:0:0:0:
320,192,48922,1,0,0:0:0:0:
192,192,48977,1,0,0:0:0:0:
64,192,48977,1,0,0:0:0:0:
448,192,49033,1,0,0:0:0:0:
320,192,49089,1,0,0:0:0:0:
192,192,49089,1,0,0:0:0:0:
448,192,49145,1,0,0:0:0:0:
64,192,49145,1,0,0:0:0:0:
64,192,49256,1,0,0:0:0:0:
192,192,49256,1,0,0:0:0:0:
448,192,49256,1,0,0:0:0:0:
320,192,49312,1,0,0:0:0:0:
64,192,49368,1,0,0:0:0:0:
192,192,49368,1,0,0:0:0:0:
320,192,49424,1,0,0:0:0:0:
448,192,49424,1,0,0:0:0:0:
64,192,49480,1,0,0:0:0:0:
192,192,49480,1,0,0:0:0:0:
64,192,49591,1,0,0:0:0:0:
448,192,49591,1,0,0:0:0:0:
320,192,49647,1,0,0:0:0:0:
192,192,49703,1,0,0:0:0:0:
64,192,49703,1,0,0:0:0:0:
448,192,49759,1,0,0:0:0:0:
320,192,49759,1,0,0:0:0:0:
64,192,49814,1,0,0:0:0:0:
320,192,49870,1,0,0:0:0:0:
192,192,49870,1,0,0:0:0:0:
448,192,49926,1,0,0:0:0:0:
64,192,49926,1,0,0:0:0:0:
448,192,50038,1,0,0:0:0:0:
320,192,50038,1,0,0:0:0:0:
64,192,50093,1,0,0:0:0:0:
448,192,50150,1,0,0:0:0:0:
192,192,50150,1,0,0:0:0:0:
320,192,50150,1,0,0:0:0:0:
64,192,50205,1,0,0:0:0:0:
320,192,50261,1,0,0:0:0:0:
448,192,50261,1,0,0:0:0:0:
64,192,50372,1,0,0:0:0:0:
320,192,50484,1,0,0:0:0:0:
192,192,50596,1,0,0:0:0:0:
64,192,50596,1,0,0:0:0:0:
448,192,50651,1,0,0:0:0:0:
320,192,50651,1,0,0:0:0:0:
64,192,50708,1,0,0:0:0:0:
192,192,50763,1,0,0:0:0:0:
448,192,50819,1,0,0:0:0:0:
320,192,50819,1,0,0:0:0:0:
64,192,50819,1,0,0:0:0:0:
320,192,50930,1,0,0:0:0:0:
448,192,50930,1,0,0:0:0:0:
64,192,50987,1,0,0:0:0:0:
192,192,50987,1,0,0:0:0:0:
448,192,51042,1,0,0:0:0:0:
320,192,51098,1,0,0:0:0:0:
64,192,51153,1,0,0:0:0:0:
448,192,51153,1,0,0:0:0:0:
192,192,51153,1,0,0:0:0:0:
192,192,51266,1,0,0:0:0:0:
64,192,51266,1,0,0:0:0:0:
448,192,51321,1,0,0:0:0:0:
320,192,51321,1,0,0:0:0:0:
64,192,51377,1,0,0:0:0:0:
192,192,51432,1,0,0:0:0:0:
320,192,51489,1,0,0:0:0:0:
448,192,51489,1,0,0:0:0:0:
64,192,51545,1,0,0:0:0:0:
192,192,51545,1,0,0:0:0:0:
320,192,51600,1,0,0:0:0:0:
448,192,51600,1,0,0:0:0:0:
192,192,51656,1,0,0:0:0:0:
64,192,51656,1,0,0:0:0:0:
320,192,51711,1,0,0:0:0:0:
448,192,51711,1,0,0:0:0:0:
64,192,51824,1,0,0:0:0:0:
192,192,51824,1,0,0:0:0:0:
320,192,51879,1,0,0:0:0:0:
448,192,51935,1,0,0:0:0:0:
192,192,51935,1,0,0:0:0:0:
64,192,51935,1,0,0:0:0:0:
320,192,51990,1,0,0:0:0:0:
64,192,52047,1,0,0:0:0:0:
192,192,52047,1,0,0:0:0:0:
448,192,52158,1,0,0:0:0:0:
192,192,52158,1,0,0:0:0:0:
320,192,52326,1,0,0:0:0:0:
64,192,52326,1,0,0:0:0:0:
192,192,52493,1,0,0:0:0:0:
64,192,52493,1,0,0:0:0:0:
448,192,52549,1,0,0:0:0:0:
320,192,52549,1,0,0:0:0:0:
192,192,52605,1,0,0:0:0:0:
64,192,52605,1,0,0:0:0:0:
448,192,52660,1,0,0:0:0:0:
320,192,52660,1,0,0:0:0:0:
192,192,52716,1,0,0:0:0:0:
64,192,52716,1,0,0:0:0:0:
448,192,52828,5,0,0:0:0:0:
320,192,52828,1,0,0:0:0:0:
64,192,52828,1,0,0:0:0:0:
192,192,52884,1,0,0:0:0:0:
448,192,52939,1,0,0:0:0:0:
320,192,52939,1,0,0:0:0:0:
192,192,52995,1,0,0:0:0:0:
64,192,52995,1,0,0:0:0:0:
448,192,53051,1,0,0:0:0:0:
320,192,53051,1,0,0:0:0:0:
448,192,53163,1,0,0:0:0:0:
64,192,53163,1,0,0:0:0:0:
320,192,53218,1,0,0:0:0:0:
192,192,53274,1,0,0:0:0:0:
64,192,53274,1,0,0:0:0:0:
448,192,53330,1,0,0:0:0:0:
320,192,53330,1,0,0:0:0:0:
192,192,53386,1,0,0:0:0:0:
64,192,53386,1,0,0:0:0:0:
448,192,53442,1,0,0:0:0:0:
320,192,53442,1,0,0:0:0:0:
64,192,53497,1,0,0:0:0:0:
192,192,53497,1,0,0:0:0:0:
448,192,53610,1,0,0:0:0:0:
320,192,53610,1,0,0:0:0:0:
64,192,53665,1,0,0:0:0:0:
192,192,53721,1,0,0:0:0:0:
448,192,53721,1,0,0:0:0:0:
320,192,53721,1,0,0:0:0:0:
64,192,53776,1,0,0:0:0:0:
448,192,53832,1,0,0:0:0:0:
320,192,53832,1,0,0:0:0:0:
448,192,53944,128,0,54168:0:0:0:0:
192,192,54055,1,0,0:0:0:0:
64,192,54168,128,0,54316:0:0:0:0:
192,192,54316,128,0,54390:0:0:0:0:
320,192,54390,128,0,54446:0:0:0:0:
448,192,54446,128,0,54502:0:0:0:0:
64,192,54502,128,0,54558:0:0:0:0:
192,192,54558,128,0,54613:0:0:0:0:
320,192,54613,128,0,54670:0:0:0:0:
448,192,54670,128,0,54725:0:0:0:0:
64,192,54725,128,0,54781:0:0:0:0:
192,192,54781,128,0,54837:0:0:0:0:
320,192,54837,128,0,54874:0:0:0:0:
448,192,54874,128,0,54911:0:0:0:0:
64,192,54911,128,0,54949:0:0:0:0:
192,192,54949,128,0,54986:0:0:0:0:
320,192,54986,128,0,55023:0:0:0:0:
448,192,55023,128,0,55060:0:0:0:0:
192,192,55060,1,0,0:0:0:0:
64,192,55060,1,0,0:0:0:0:
448,192,55116,1,0,0:0:0:0:
320,192,55116,1,0,0:0:0:0:
64,192,55171,1,0,0:0:0:0:
192,192,55171,1,0,0:0:0:0:
320,192,55228,1,0,0:0:0:0:
448,192,55228,1,0,0:0:0:0:
192,192,55283,1,0,0:0:0:0:
64,192,55283,1,0,0:0:0:0:
448,192,55395,1,0,0:0:0:0:
320,192,55395,1,0,0:0:0:0:
192,192,55450,1,0,0:0:0:0:
64,192,55507,1,0,0:0:0:0:
448,192,55507,1,0,0:0:0:0:
320,192,55507,1,0,0:0:0:0:
192,192,55562,1,0,0:0:0:0:
448,192,55618,1,0,0:0:0:0:
320,192,55618,1,0,0:0:0:0:
448,192,55730,1,0,0:0:0:0:
192,192,55730,1,0,0:0:0:0:
320,192,55897,1,0,0:0:0:0:
64,192,55897,1,0,0:0:0:0:
64,192,56065,1,0,0:0:0:0:
192,192,56065,1,0,0:0:0:0:
448,192,56120,1,0,0:0:0:0:
320,192,56120,1,0,0:0:0:0:
192,192,56176,1,0,0:0:0:0:
64,192,56176,1,0,0:0:0:0:
448,192,56231,1,0,0:0:0:0:
320,192,56231,1,0,0:0:0:0:
64,192,56288,1,0,0:0:0:0:
192,192,56288,1,0,0:0:0:0:
448,192,56399,1,0,0:0:0:0:
64,192,56399,1,0,0:0:0:0:
320,192,56399,1,0,0:0:0:0:
192,192,56455,1,0,0:0:0:0:
448,192,56510,1,0,0:0:0:0:
320,192,56510,1,0,0:0:0:0:
192,192,56567,1,0,0:0:0:0:
64,192,56567,1,0,0:0:0:0:
448,192,56623,1,0,0:0:0:0:
320,192,56623,1,0,0:0:0:0:
448,192,56734,1,0,0:0:0:0:
64,192,56734,1,0,0:0:0:0:
320,192,56790,1,0,0:0:0:0:
192,192,56846,1,0,0:0:0:0:
64,192,56846,1,0,0:0:0:0:
448,192,56902,1,0,0:0:0:0:
320,192,56902,1,0,0:0:0:0:
192,192,56957,1,0,0:0:0:0:
64,192,56957,1,0,0:0:0:0:
448,192,57013,1,0,0:0:0:0:
320,192,57069,1,0,0:0:0:0:
64,192,57069,1,0,0:0:0:0:
192,192,57069,1,0,0:0:0:0:
448,192,57125,1,0,0:0:0:0:
192,192,57181,1,0,0:0:0:0:
64,192,57181,1,0,0:0:0:0:
320,192,57236,1,0,0:0:0:0:
192,192,57292,1,0,0:0:0:0:
64,192,57292,1,0,0:0:0:0:
448,192,57292,1,0,0:0:0:0:
320,192,57348,1,0,0:0:0:0:
192,192,57404,1,0,0:0:0:0:
64,192,57404,1,0,0:0:0:0:
448,192,57460,1,0,0:0:0:0:
64,192,57515,1,0,0:0:0:0:
192,192,57515,1,0,0:0:0:0:
320,192,57515,1,0,0:0:0:0:
448,192,57627,1,0,0:0:0:0:
320,192,57627,1,0,0:0:0:0:
64,192,57683,1,0,0:0:0:0:
448,192,57739,1,0,0:0:0:0:
320,192,57739,1,0,0:0:0:0:
192,192,57739,1,0,0:0:0:0:
64,192,57850,1,0,0:0:0:0:
192,192,57962,1,0,0:0:0:0:
320,192,58073,1,0,0:0:0:0:
448,192,58185,1,0,0:0:0:0:
192,192,58296,1,0,0:0:0:0:
320,192,58520,1,0,0:0:0:0:
448,192,58967,1,0,0:0:0:0:
64,192,59078,1,0,0:0:0:0:
320,192,59133,1,0,0:0:0:0:
192,192,59301,1,0,0:0:0:0:
192,192,59525,1,0,0:0:0:0:
448,192,59580,1,0,0:0:0:0:
64,192,59636,1,0,0:0:0:0:
192,192,59748,1,0,0:0:0:0:
320,192,59859,1,0,0:0:0:0:
448,192,59970,1,0,0:0:0:0:
192,192,60082,1,0,0:0:0:0:
64,192,60306,1,0,0:0:0:0:
320,192,60529,1,0,0:0:0:0:
448,192,60752,1,0,0:0:0:0:
192,192,61087,1,0,0:0:0:0:
64,192,61310,1,0,0:0:0:0:
448,192,61366,1,0,0:0:0:0:
192,192,61422,1,0,0:0:0:0:
320,192,61589,1,0,0:0:0:0:
448,192,61756,1,0,0:0:0:0:
64,192,62091,1,0,0:0:0:0:
448,192,62203,1,0,0:0:0:0:
320,192,62538,1,0,0:0:0:0:
192,192,62872,1,0,0:0:0:0:
64,192,63096,1,0,0:0:0:0:
320,192,63151,1,0,0:0:0:0:
192,192,63208,1,0,0:0:0:0:
320,192,63374,1,0,0:0:0:0:
448,192,63542,1,0,0:0:0:0:
64,192,63877,1,0,0:0:0:0:
448,192,63989,1,0,0:0:0:0:
320,192,64324,1,0,0:0:0:0:
192,192,64658,1,0,0:0:0:0:
192,192,64882,1,0,0:0:0:0:
448,192,64937,1,0,0:0:0:0:
64,192,64993,1,0,0:0:0:0:
192,192,65105,1,0,0:0:0:0:
320,192,65216,1,0,0:0:0:0:
448,192,65328,1,0,0:0:0:0:
192,192,65439,1,0,0:0:0:0:
64,192,65663,1,0,0:0:0:0:
448,192,66110,1,0,0:0:0:0:
192,192,66221,1,0,0:0:0:0:
320,192,66276,1,0,0:0:0:0:
64,192,66444,1,0,0:0:0:0:
192,192,66668,1,0,0:0:0:0:
448,192,66723,1,0,0:0:0:0:
64,192,66779,1,0,0:0:0:0:
192,192,66890,1,0,0:0:0:0:
320,192,67002,1,0,0:0:0:0:
448,192,67113,1,0,0:0:0:0:
320,192,67225,1,0,0:0:0:0:
64,192,67449,1,0,0:0:0:0:
320,192,67671,1,0,0:0:0:0:
448,192,67895,1,0,0:0:0:0:
192,192,68230,1,0,0:0:0:0:
64,192,68453,1,0,0:0:0:0:
320,192,68509,1,0,0:0:0:0:
192,192,68565,1,0,0:0:0:0:
64,192,68676,1,0,0:0:0:0:
320,192,68731,1,0,0:0:0:0:
448,192,68899,1,0,0:0:0:0:
64,192,68899,1,0,0:0:0:0:
64,192,69123,1,0,0:0:0:0:
192,192,69234,1,0,0:0:0:0:
448,192,69346,1,0,0:0:0:0:
64,192,69346,1,0,0:0:0:0:
192,192,69494,1,0,0:0:0:0:
64,192,69569,1,0,0:0:0:0:
320,192,69644,1,0,0:0:0:0:
192,192,69681,1,0,0:0:0:0:
64,192,69792,1,0,0:0:0:0:
448,192,69792,1,0,0:0:0:0:
192,192,70015,1,0,0:0:0:0:
64,192,70015,1,0,0:0:0:0:
64,192,70239,1,0,0:0:0:0:
192,192,70350,1,0,0:0:0:0:
64,192,70462,1,0,0:0:0:0:
320,192,70517,1,0,0:0:0:0:
64,192,70685,1,0,0:0:0:0:
448,192,70685,1,0,0:0:0:0:
192,192,70796,1,0,0:0:0:0:
64,192,70909,1,0,0:0:0:0:
448,192,70909,1,0,0:0:0:0:
320,192,71020,1,0,0:0:0:0:
64,192,71131,1,0,0:0:0:0:
192,192,71188,1,0,0:0:0:0:
320,192,71243,1,0,0:0:0:0:
448,192,71299,1,0,0:0:0:0:
64,192,71354,1,0,0:0:0:0:
192,192,71391,1,0,0:0:0:0:
320,192,71430,1,0,0:0:0:0:
448,192,71467,1,0,0:0:0:0:
64,192,71504,1,0,0:0:0:0:
192,192,71541,1,0,0:0:0:0:
320,192,71578,1,0,0:0:0:0:
448,192,71606,1,0,0:0:0:0:
64,192,71633,1,0,0:0:0:0:
192,192,71662,1,0,0:0:0:0:
320,192,71690,1,0,0:0:0:0:
448,192,71717,1,0,0:0:0:0:
64,192,71746,1,0,0:0:0:0:
192,192,71773,1,0,0:0:0:0:
320,192,71801,1,0,0:0:0:0:
448,192,72025,1,0,0:0:0:0:
64,192,72025,1,0,0:0:0:0:
192,192,72025,1,0,0:0:0:0:
320,192,72136,1,0,0:0:0:0:
64,192,72191,1,0,0:0:0:0:
448,192,72248,1,0,0:0:0:0:
192,192,72248,1,0,0:0:0:0:
448,192,72359,1,0,0:0:0:0:
192,192,72359,1,0,0:0:0:0:
64,192,72359,1,0,0:0:0:0:
64,192,72470,1,0,0:0:0:0:
320,192,72527,1,0,0:0:0:0:
448,192,72582,1,0,0:0:0:0:
192,192,72582,1,0,0:0:0:0:
320,192,72694,1,0,0:0:0:0:
448,192,72694,1,0,0:0:0:0:
320,192,72806,1,0,0:0:0:0:
64,192,72806,1,0,0:0:0:0:
448,192,72917,1,0,0:0:0:0:
192,192,72973,1,0,0:0:0:0:
320,192,73029,1,0,0:0:0:0:
64,192,73085,1,0,0:0:0:0:
448,192,73140,1,0,0:0:0:0:
192,192,73140,1,0,0:0:0:0:
192,192,73252,1,0,0:0:0:0:
64,192,73252,1,0,0:0:0:0:
320,192,73364,1,0,0:0:0:0:
448,192,73475,1,0,0:0:0:0:
64,192,73475,1,0,0:0:0:0:
320,192,73587,1,0,0:0:0:0:
192,192,73587,1,0,0:0:0:0:
192,192,73698,1,0,0:0:0:0:
64,192,73698,1,0,0:0:0:0:
448,192,73810,1,0,0:0:0:0:
320,192,73810,1,0,0:0:0:0:
64,192,73810,1,0,0:0:0:0:
320,192,73922,1,0,0:0:0:0:
64,192,73977,1,0,0:0:0:0:
448,192,74033,1,0,0:0:0:0:
448,192,74145,1,0,0:0:0:0:
320,192,74145,1,0,0:0:0:0:
64,192,74145,1,0,0:0:0:0:
192,192,74256,1,0,0:0:0:0:
448,192,74312,1,0,0:0:0:0:
64,192,74368,1,0,0:0:0:0:
320,192,74368,1,0,0:0:0:0:
448,192,74480,1,0,0:0:0:0:
192,192,74535,1,0,0:0:0:0:
64,192,74591,1,0,0:0:0:0:
448,192,74591,1,0,0:0:0:0:
64,192,74703,1,0,0:0:0:0:
320,192,74759,1,0,0:0:0:0:
448,192,74814,1,0,0:0:0:0:
192,192,74814,1,0,0:0:0:0:
320,192,74926,1,0,0:0:0:0:
448,192,75038,1,0,0:0:0:0:
64,192,75038,1,0,0:0:0:0:
192,192,75150,1,0,0:0:0:0:
64,192,75150,1,0,0:0:0:0:
320,192,75261,1,0,0:0:0:0:
320,192,75372,1,0,0:0:0:0:
64,192,75429,1,0,0:0:0:0:
448,192,75484,1,0,0:0:0:0:
192,192,75540,1,0,0:0:0:0:
448,192,75596,1,0,0:0:0:0:
320,192,75596,1,0,0:0:0:0:
64,192,75596,1,0,0:0:0:0:
64,192,75708,1,0,0:0:0:0:
448,192,75763,1,0,0:0:0:0:
192,192,75819,1,0,0:0:0:0:
448,192,75930,1,0,0:0:0:0:
320,192,75930,1,0,0:0:0:0:
64,192,75930,1,0,0:0:0:0:
192,192,76042,1,0,0:0:0:0:
448,192,76098,1,0,0:0:0:0:
64,192,76153,1,0,0:0:0:0:
192,192,76153,1,0,0:0:0:0:
448,192,76266,1,0,0:0:0:0:
192,192,76266,1,0,0:0:0:0:
320,192,76377,1,0,0:0:0:0:
64,192,76377,1,0,0:0:0:0:
448,192,76489,1,0,0:0:0:0:
192,192,76545,1,0,0:0:0:0:
320,192,76600,1,0,0:0:0:0:
64,192,76656,1,0,0:0:0:0:
448,192,76711,1,0,0:0:0:0:
192,192,76711,1,0,0:0:0:0:
320,192,76824,1,0,0:0:0:0:
64,192,76824,1,0,0:0:0:0:
192,192,76935,1,0,0:0:0:0:
448,192,77047,1,0,0:0:0:0:
320,192,77047,1,0,0:0:0:0:
320,192,77158,1,0,0:0:0:0:
192,192,77158,1,0,0:0:0:0:
192,192,77270,1,0,0:0:0:0:
64,192,77270,1,0,0:0:0:0:
448,192,77382,1,0,0:0:0:0:
320,192,77382,1,0,0:0:0:0:
64,192,77382,1,0,0:0:0:0:
320,192,77493,1,0,0:0:0:0:
64,192,77549,1,0,0:0:0:0:
448,192,77605,1,0,0:0:0:0:
448,192,77716,1,0,0:0:0:0:
320,192,77716,1,0,0:0:0:0:
64,192,77716,1,0,0:0:0:0:
64,192,77828,1,0,0:0:0:0:
448,192,77884,1,0,0:0:0:0:
64,192,77939,1,0,0:0:0:0:
320,192,77939,1,0,0:0:0:0:
64,192,78051,1,0,0:0:0:0:
448,192,78051,1,0,0:0:0:0:
64,192,78163,1,0,0:0:0:0:
192,192,78163,1,0,0:0:0:0:
448,192,78274,1,0,0:0:0:0:
64,192,78274,1,0,0:0:0:0:
448,192,78386,1,0,0:0:0:0:
192,192,78386,1,0,0:0:0:0:
448,192,78497,1,0,0:0:0:0:
64,192,78553,1,0,0:0:0:0:
448,192,78610,1,0,0:0:0:0:
192,192,78610,1,0,0:0:0:0:
64,192,78721,1,0,0:0:0:0:
448,192,78721,1,0,0:0:0:0:
320,192,78721,1,0,0:0:0:0:
448,192,78832,1,0,0:0:0:0:
64,192,78832,1,0,0:0:0:0:
64,192,78944,128,0,79111:0:0:0:0:
448,192,78944,128,0,79111:0:0:0:0:
192,192,78944,128,0,79111:0:0:0:0:
448,192,79168,1,0,0:0:0:0:
320,192,79168,1,0,0:0:0:0:
64,192,79168,1,0,0:0:0:0:
192,192,79223,1,0,0:0:0:0:
64,192,79334,1,0,0:0:0:0:
448,192,79334,1,0,0:0:0:0:
320,192,79334,1,0,0:0:0:0:
192,192,79390,1,0,0:0:0:0:
448,192,79502,128,0,79613:0:0:0:0:
320,192,79502,128,0,79613:0:0:0:0:
64,192,79502,128,0,79613:0:0:0:0:
64,192,79670,128,0,79781:0:0:0:0:
320,192,79670,128,0,79781:0:0:0:0:
448,192,79670,128,0,79781:0:0:0:0:
448,192,79837,128,0,80004:0:0:0:0:
64,192,79837,128,0,80004:0:0:0:0:
320,192,79837,128,0,80004:0:0:0:0:
64,192,80060,1,0,0:0:0:0:
192,192,80060,1,0,0:0:0:0:
448,192,80060,1,0,0:0:0:0:
320,192,80116,1,0,0:0:0:0:
448,192,80228,1,0,0:0:0:0:
64,192,80228,1,0,0:0:0:0:
192,192,80228,1,0,0:0:0:0:
320,192,80283,1,0,0:0:0:0:
448,192,80395,128,0,80507:0:0:0:0:
192,192,80395,128,0,80507:0:0:0:0:
64,192,80395,128,0,80507:0:0:0:0:
192,192,80562,128,0,80674:0:0:0:0:
448,192,80562,128,0,80674:0:0:0:0:
64,192,80562,128,0,80674:0:0:0:0:
192,192,80730,1,0,0:0:0:0:
64,192,80730,1,0,0:0:0:0:
448,192,80730,1,0,0:0:0:0:
448,192,80841,1,0,0:0:0:0:
320,192,80841,1,0,0:0:0:0:
192,192,80841,1,0,0:0:0:0:
320,192,80953,1,0,0:0:0:0:
192,192,80953,1,0,0:0:0:0:
64,192,80953,1,0,0:0:0:0:
448,192,81009,1,0,0:0:0:0:
320,192,81120,1,0,0:0:0:0:
64,192,81120,1,0,0:0:0:0:
192,192,81120,1,0,0:0:0:0:
448,192,81176,1,0,0:0:0:0:
320,192,81288,128,0,81399:0:0:0:0:
192,192,81288,128,0,81399:0:0:0:0:
64,192,81288,128,0,81399:0:0:0:0:
192,192,81455,128,0,81567:0:0:0:0:
64,192,81455,128,0,81567:0:0:0:0:
320,192,81455,128,0,81567:0:0:0:0:
320,192,81623,128,0,81790:0:0:0:0:
192,192,81623,128,0,81790:0:0:0:0:
64,192,81623,128,0,81790:0:0:0:0:
448,192,81846,1,0,0:0:0:0:
320,192,81846,1,0,0:0:0:0:
192,192,81846,1,0,0:0:0:0:
64,192,81902,1,0,0:0:0:0:
448,192,82013,1,0,0:0:0:0:
320,192,82013,1,0,0:0:0:0:
192,192,82013,1,0,0:0:0:0:
64,192,82069,1,0,0:0:0:0:
448,192,82181,128,0,82292:0:0:0:0:
192,192,82181,128,0,82292:0:0:0:0:
320,192,82181,128,0,82292:0:0:0:0:
448,192,82348,128,0,82460:0:0:0:0:
320,192,82348,128,0,82460:0:0:0:0:
192,192,82348,128,0,82460:0:0:0:0:
448,192,82515,1,0,0:0:0:0:
192,192,82515,1,0,0:0:0:0:
64,192,82571,1,0,0:0:0:0:
448,192,82627,1,0,0:0:0:0:
320,192,82627,1,0,0:0:0:0:
192,192,82683,1,0,0:0:0:0:
448,192,82739,1,0,0:0:0:0:
320,192,82739,1,0,0:0:0:0:
64,192,82739,1,0,0:0:0:0:
192,192,82794,1,0,0:0:0:0:
320,192,82850,1,0,0:0:0:0:
448,192,82906,1,0,0:0:0:0:
192,192,82906,1,0,0:0:0:0:
64,192,82906,1,0,0:0:0:0:
320,192,82962,1,0,0:0:0:0:
192,192,83017,1,0,0:0:0:0:
64,192,83073,1,0,0:0:0:0:
448,192,83073,1,0,0:0:0:0:
320,192,83130,1,0,0:0:0:0:
448,192,83185,1,0,0:0:0:0:
64,192,83185,1,0,0:0:0:0:
192,192,83185,1,0,0:0:0:0:
320,192,83241,1,0,0:0:0:0:
192,192,83296,1,0,0:0:0:0:
448,192,83352,1,0,0:0:0:0:
320,192,83352,1,0,0:0:0:0:
64,192,83352,1,0,0:0:0:0:
192,192,83409,1,0,0:0:0:0:
320,192,83464,1,0,0:0:0:0:
64,192,83520,1,0,0:0:0:0:
448,192,83520,1,0,0:0:0:0:
192,192,83575,1,0,0:0:0:0:
448,192,83631,1,0,0:0:0:0:
64,192,83631,1,0,0:0:0:0:
320,192,83631,1,0,0:0:0:0:
192,192,83688,1,0,0:0:0:0:
320,192,83743,1,0,0:0:0:0:
448,192,83799,1,0,0:0:0:0:
192,192,83799,1,0,0:0:0:0:
64,192,83799,1,0,0:0:0:0:
320,192,83854,1,0,0:0:0:0:
192,192,83910,1,0,0:0:0:0:
64,192,83967,1,0,0:0:0:0:
448,192,83967,1,0,0:0:0:0:
320,192,84022,1,0,0:0:0:0:
448,192,84078,1,0,0:0:0:0:
64,192,84078,1,0,0:0:0:0:
192,192,84078,1,0,0:0:0:0:
320,192,84133,1,0,0:0:0:0:
192,192,84190,1,0,0:0:0:0:
448,192,84246,1,0,0:0:0:0:
320,192,84246,1,0,0:0:0:0:
64,192,84246,1,0,0:0:0:0:
192,192,84301,1,0,0:0:0:0:
320,192,84357,1,0,0:0:0:0:
64,192,84412,1,0,0:0:0:0:
448,192,84412,1,0,0:0:0:0:
192,192,84469,1,0,0:0:0:0:
448,192,84525,1,0,0:0:0:0:
64,192,84525,1,0,0:0:0:0:
320,192,84525,1,0,0:0:0:0:
192,192,84580,1,0,0:0:0:0:
448,192,84636,1,0,0:0:0:0:
320,192,84636,1,0,0:0:0:0:
192,192,84691,1,0,0:0:0:0:
448,192,84748,1,0,0:0:0:0:
320,192,84748,1,0,0:0:0:0:
64,192,84803,1,0,0:0:0:0:
448,192,84859,1,0,0:0:0:0:
320,192,84859,1,0,0:0:0:0:
192,192,84915,1,0,0:0:0:0:
64,192,84970,1,0,0:0:0:0:
448,192,84970,1,0,0:0:0:0:
320,192,85027,1,0,0:0:0:0:
192,192,85082,1,0,0:0:0:0:
64,192,85082,1,0,0:0:0:0:
320,192,85138,1,0,0:0:0:0:
192,192,85194,1,0,0:0:0:0:
64,192,85194,1,0,0:0:0:0:
448,192,85250,1,0,0:0:0:0:
192,192,85306,1,0,0:0:0:0:
64,192,85306,1,0,0:0:0:0:
320,192,85361,1,0,0:0:0:0:
192,192,85417,128,0,85864:0:0:0:0:
64,192,85417,128,0,85864:0:0:0:0:
448,192,85417,128,0,85752:0:0:0:0:
448,192,85864,1,0,0:0:0:0:
320,192,85919,1,0,0:0:0:0:
192,192,85975,1,0,0:0:0:0:
64,192,86031,1,0,0:0:0:0:
448,192,86087,1,0,0:0:0:0:
192,192,86143,1,0,0:0:0:0:
320,192,86198,1,0,0:0:0:0:
448,192,86198,1,0,0:0:0:0:
64,192,86254,1,0,0:0:0:0:
192,192,86310,1,0,0:0:0:0:
320,192,86310,1,0,0:0:0:0:
448,192,86310,1,0,0:0:0:0:
192,192,86422,1,0,0:0:0:0:
64,192,86422,1,0,0:0:0:0:
448,192,86477,1,0,0:0:0:0:
192,192,86533,1,0,0:0:0:0:
320,192,86533,1,0,0:0:0:0:
64,192,86533,1,0,0:0:0:0:
448,192,86645,1,0,0:0:0:0:
320,192,86645,1,0,0:0:0:0:
64,192,86701,1,0,0:0:0:0:
448,192,86756,1,0,0:0:0:0:
320,192,86756,1,0,0:0:0:0:
192,192,86756,1,0,0:0:0:0:
64,192,86868,1,0,0:0:0:0:
448,192,86868,1,0,0:0:0:0:
64,192,86980,128,0,87147:0:0:0:0:
192,192,86980,128,0,87147:0:0:0:0:
320,192,86980,128,0,87147:0:0:0:0:
448,192,86980,128,0,87147:0:0:0:0:
448,192,87203,1,0,0:0:0:0:
320,192,87203,1,0,0:0:0:0:
64,192,87203,1,0,0:0:0:0:
64,192,87314,1,0,0:0:0:0:
192,192,87370,1,0,0:0:0:0:
448,192,87426,1,0,0:0:0:0:
64,192,87426,1,0,0:0:0:0:
320,192,87426,1,0,0:0:0:0:
448,192,87538,1,0,0:0:0:0:
64,192,87538,1,0,0:0:0:0:
192,192,87538,1,0,0:0:0:0:
320,192,87650,1,0,0:0:0:0:
448,192,87650,1,0,0:0:0:0:
64,192,87705,1,0,0:0:0:0:
192,192,87761,1,0,0:0:0:0:
320,192,87761,1,0,0:0:0:0:
448,192,87761,1,0,0:0:0:0:
64,192,87872,1,0,0:0:0:0:
192,192,87872,1,0,0:0:0:0:
320,192,87872,1,0,0:0:0:0:
448,192,87984,1,0,0:0:0:0:
320,192,87984,1,0,0:0:0:0:
64,192,87984,1,0,0:0:0:0:
192,192,88040,1,0,0:0:0:0:
64,192,88096,1,0,0:0:0:0:
448,192,88096,1,0,0:0:0:0:
448,192,88208,1,0,0:0:0:0:
320,192,88208,1,0,0:0:0:0:
64,192,88263,1,0,0:0:0:0:
320,192,88319,1,0,0:0:0:0:
448,192,88319,1,0,0:0:0:0:
192,192,88319,1,0,0:0:0:0:
64,192,88430,1,0,0:0:0:0:
448,192,88430,1,0,0:0:0:0:
192,192,88430,1,0,0:0:0:0:
320,192,88487,1,0,0:0:0:0:
192,192,88542,1,0,0:0:0:0:
64,192,88542,1,0,0:0:0:0:
320,192,88653,1,0,0:0:0:0:
192,192,88653,1,0,0:0:0:0:
448,192,88653,1,0,0:0:0:0:
64,192,88710,1,0,0:0:0:0:
448,192,88766,1,0,0:0:0:0:
320,192,88793,1,0,0:0:0:0:
64,192,88821,1,0,0:0:0:0:
192,192,88850,1,0,0:0:0:0:
320,192,88877,1,0,0:0:0:0:
448,192,88877,1,0,0:0:0:0:
64,192,88932,1,0,0:0:0:0:
192,192,88989,1,0,0:0:0:0:
320,192,88989,1,0,0:0:0:0:
448,192,88989,1,0,0:0:0:0:
192,192,89100,1,0,0:0:0:0:
64,192,89100,1,0,0:0:0:0:
448,192,89156,1,0,0:0:0:0:
64,192,89211,1,0,0:0:0:0:
192,192,89211,1,0,0:0:0:0:
320,192,89211,1,0,0:0:0:0:
192,192,89324,1,0,0:0:0:0:
320,192,89324,1,0,0:0:0:0:
448,192,89324,1,0,0:0:0:0:
64,192,89435,1,0,0:0:0:0:
192,192,89435,1,0,0:0:0:0:
448,192,89490,1,0,0:0:0:0:
64,192,89547,1,0,0:0:0:0:
192,192,89547,1,0,0:0:0:0:
320,192,89547,1,0,0:0:0:0:
64,192,89658,1,0,0:0:0:0:
448,192,89658,1,0,0:0:0:0:
192,192,89658,1,0,0:0:0:0:
64,192,89770,1,0,0:0:0:0:
448,192,89770,1,0,0:0:0:0:
320,192,89770,1,0,0:0:0:0:
192,192,89826,1,0,0:0:0:0:
320,192,89882,1,0,0:0:0:0:
448,192,89882,1,0,0:0:0:0:
64,192,89993,1,0,0:0:0:0:
192,192,89993,1,0,0:0:0:0:
448,192,89993,1,0,0:0:0:0:
320,192,90049,1,0,0:0:0:0:
448,192,90105,1,0,0:0:0:0:
64,192,90105,1,0,0:0:0:0:
448,192,90216,1,0,0:0:0:0:
64,192,90216,1,0,0:0:0:0:
192,192,90216,1,0,0:0:0:0:
320,192,90272,1,0,0:0:0:0:
64,192,90328,1,0,0:0:0:0:
192,192,90328,1,0,0:0:0:0:
320,192,90439,1,0,0:0:0:0:
448,192,90439,1,0,0:0:0:0:
64,192,90495,1,0,0:0:0:0:
192,192,90495,1,0,0:0:0:0:
448,192,90551,1,0,0:0:0:0:
320,192,90579,1,0,0:0:0:0:
64,192,90607,1,0,0:0:0:0:
192,192,90635,1,0,0:0:0:0:
320,192,90663,1,0,0:0:0:0:
448,192,90690,1,0,0:0:0:0:
192,192,90718,1,0,0:0:0:0:
64,192,90747,1,0,0:0:0:0:
320,192,90774,1,0,0:0:0:0:
448,192,90774,1,0,0:0:0:0:
64,192,90886,1,0,0:0:0:0:
192,192,90942,1,0,0:0:0:0:
448,192,90997,1,0,0:0:0:0:
64,192,90997,1,0,0:0:0:0:
320,192,90997,1,0,0:0:0:0:
320,192,91110,1,0,0:0:0:0:
192,192,91110,1,0,0:0:0:0:
64,192,91110,1,0,0:0:0:0:
448,192,91221,1,0,0:0:0:0:
320,192,91221,1,0,0:0:0:0:
64,192,91276,1,0,0:0:0:0:
448,192,91332,1,0,0:0:0:0:
320,192,91332,1,0,0:0:0:0:
192,192,91332,1,0,0:0:0:0:
64,192,91444,1,0,0:0:0:0:
448,192,91444,1,0,0:0:0:0:
320,192,91444,1,0,0:0:0:0:
64,192,91555,1,0,0:0:0:0:
320,192,91555,1,0,0:0:0:0:
192,192,91555,1,0,0:0:0:0:
448,192,91611,1,0,0:0:0:0:
64,192,91668,1,0,0:0:0:0:
192,192,91668,1,0,0:0:0:0:
448,192,91779,1,0,0:0:0:0:
192,192,91779,1,0,0:0:0:0:
320,192,91834,1,0,0:0:0:0:
448,192,91890,1,0,0:0:0:0:
192,192,91890,1,0,0:0:0:0:
64,192,91890,1,0,0:0:0:0:
448,192,92002,1,0,0:0:0:0:
320,192,92002,1,0,0:0:0:0:
192,192,92002,1,0,0:0:0:0:
64,192,92058,1,0,0:0:0:0:
448,192,92113,1,0,0:0:0:0:
320,192,92113,1,0,0:0:0:0:
192,192,92170,1,0,0:0:0:0:
448,192,92225,1,0,0:0:0:0:
64,192,92225,1,0,0:0:0:0:
320,192,92281,1,0,0:0:0:0:
448,192,92337,1,0,0:0:0:0:
192,192,92337,1,0,0:0:0:0:
64,192,92337,1,0,0:0:0:0:
64,192,92449,1,0,0:0:0:0:
448,192,92449,1,0,0:0:0:0:
320,192,92449,1,0,0:0:0:0:
192,192,92560,1,0,0:0:0:0:
64,192,92560,1,0,0:0:0:0:
320,192,92560,1,0,0:0:0:0:
448,192,92671,1,0,0:0:0:0:
320,192,92728,1,0,0:0:0:0:
192,192,92728,1,0,0:0:0:0:
64,192,92728,1,0,0:0:0:0:
448,192,92783,1,0,0:0:0:0:
320,192,92895,1,0,0:0:0:0:
192,192,92895,1,0,0:0:0:0:
64,192,92895,1,0,0:0:0:0:
448,192,93007,1,0,0:0:0:0:
320,192,93007,1,0,0:0:0:0:
192,192,93007,1,0,0:0:0:0:
64,192,93118,1,0,0:0:0:0:
448,192,93174,1,0,0:0:0:0:
320,192,93174,1,0,0:0:0:0:
192,192,93174,1,0,0:0:0:0:
64,192,93230,1,0,0:0:0:0:
448,192,93286,1,0,0:0:0:0:
192,192,93341,1,0,0:0:0:0:
64,192,93341,1,0,0:0:0:0:
320,192,93397,1,0,0:0:0:0:
64,192,93453,1,0,0:0:0:0:
192,192,93453,1,0,0:0:0:0:
448,192,93509,1,0,0:0:0:0:
320,192,93509,1,0,0:0:0:0:
64,192,93565,1,0,0:0:0:0:
320,192,93620,1,0,0:0:0:0:
192,192,93620,1,0,0:0:0:0:
64,192,93676,5,0,0:0:0:0:
448,192,93676,1,0,0:0:0:0:
192,192,93731,1,0,0:0:0:0:
448,192,93788,1,0,0:0:0:0:
320,192,93788,1,0,0:0:0:0:
192,192,93844,1,0,0:0:0:0:
64,192,93844,1,0,0:0:0:0:
320,192,93899,1,0,0:0:0:0:
448,192,93955,1,0,0:0:0:0:
64,192,93955,1,0,0:0:0:0:
320,192,94010,1,0,0:0:0:0:
192,192,94010,1,0,0:0:0:0:
64,192,94067,1,0,0:0:0:0:
448,192,94067,1,0,0:0:0:0:
192,192,94123,128,0,94290:0:0:0:0:
320,192,94123,128,0,94290:0:0:0:0:
64,192,94346,1,0,0:0:0:0:
192,192,94346,1,0,0:0:0:0:
448,192,94402,1,0,0:0:0:0:
320,192,94402,1,0,0:0:0:0:
192,192,94457,1,0,0:0:0:0:
64,192,94457,1,0,0:0:0:0:
448,192,94513,1,0,0:0:0:0:
192,192,94569,1,0,0:0:0:0:
64,192,94569,1,0,0:0:0:0:
320,192,94569,1,0,0:0:0:0:
448,192,94681,1,0,0:0:0:0:
320,192,94681,1,0,0:0:0:0:
192,192,94681,1,0,0:0:0:0:
192,192,94792,5,0,0:0:0:0:
64,192,94792,1,0,0:0:0:0:
448,192,94848,1,0,0:0:0:0:
320,192,94904,1,0,0:0:0:0:
192,192,94904,1,0,0:0:0:0:
64,192,94904,1,0,0:0:0:0:
192,192,95015,1,0,0:0:0:0:
64,192,95015,1,0,0:0:0:0:
448,192,95015,1,0,0:0:0:0:
448,192,95127,1,0,0:0:0:0:
320,192,95127,1,0,0:0:0:0:
64,192,95127,1,0,0:0:0:0:
192,192,95183,1,0,0:0:0:0:
448,192,95239,1,0,0:0:0:0:
320,192,95239,1,0,0:0:0:0:
64,192,95350,1,0,0:0:0:0:
192,192,95350,1,0,0:0:0:0:
320,192,95406,1,0,0:0:0:0:
448,192,95462,1,0,0:0:0:0:
192,192,95462,1,0,0:0:0:0:
64,192,95462,1,0,0:0:0:0:
448,192,95573,1,0,0:0:0:0:
64,192,95573,1,0,0:0:0:0:
320,192,95573,1,0,0:0:0:0:
192,192,95630,1,0,0:0:0:0:
64,192,95685,1,0,0:0:0:0:
448,192,95685,1,0,0:0:0:0:
192,192,95796,1,0,0:0:0:0:
64,192,95796,1,0,0:0:0:0:
320,192,95796,1,0,0:0:0:0:
448,192,95852,1,0,0:0:0:0:
64,192,95909,1,0,0:0:0:0:
192,192,95936,1,0,0:0:0:0:
448,192,95964,1,0,0:0:0:0:
320,192,95992,1,0,0:0:0:0:
192,192,96020,1,0,0:0:0:0:
64,192,96048,1,0,0:0:0:0:
320,192,96075,1,0,0:0:0:0:
448,192,96104,1,0,0:0:0:0:
192,192,96131,1,0,0:0:0:0:
64,192,96131,1,0,0:0:0:0:
448,192,96243,1,0,0:0:0:0:
64,192,96243,1,0,0:0:0:0:
192,192,96299,1,0,0:0:0:0:
448,192,96354,1,0,0:0:0:0:
320,192,96354,1,0,0:0:0:0:
64,192,96354,1,0,0:0:0:0:
448,192,96467,1,0,0:0:0:0:
64,192,96467,1,0,0:0:0:0:
192,192,96467,1,0,0:0:0:0:
64,192,96578,1,0,0:0:0:0:
448,192,96578,1,0,0:0:0:0:
320,192,96652,1,0,0:0:0:0:
192,192,96652,1,0,0:0:0:0:
448,192,96727,1,0,0:0:0:0:
320,192,96727,1,0,0:0:0:0:
64,192,96801,1,0,0:0:0:0:
448,192,96801,1,0,0:0:0:0:
320,192,96875,1,0,0:0:0:0:
192,192,96875,1,0,0:0:0:0:
192,192,96950,1,0,0:0:0:0:
64,192,96950,1,0,0:0:0:0:
448,192,97025,1,0,0:0:0:0:
320,192,97025,1,0,0:0:0:0:
64,192,97025,1,0,0:0:0:0:
320,192,97136,1,0,0:0:0:0:
192,192,97191,1,0,0:0:0:0:
64,192,97191,1,0,0:0:0:0:
448,192,97191,1,0,0:0:0:0:
320,192,97248,1,0,0:0:0:0:
192,192,97303,1,0,0:0:0:0:
448,192,97359,1,0,0:0:0:0:
320,192,97359,1,0,0:0:0:0:
64,192,97359,1,0,0:0:0:0:
192,192,97415,1,0,0:0:0:0:
448,192,97470,1,0,0:0:0:0:
320,192,97470,1,0,0:0:0:0:
192,192,97527,1,0,0:0:0:0:
64,192,97527,1,0,0:0:0:0:
448,192,97582,1,0,0:0:0:0:
320,192,97610,1,0,0:0:0:0:
192,192,97638,1,0,0:0:0:0:
64,192,97666,1,0,0:0:0:0:
448,192,97694,1,0,0:0:0:0:
320,192,97694,1,0,0:0:0:0:
192,192,97750,1,0,0:0:0:0:
64,192,97750,1,0,0:0:0:0:
320,192,97806,1,0,0:0:0:0:
448,192,97833,1,0,0:0:0:0:
64,192,97861,1,0,0:0:0:0:
192,192,97890,1,0,0:0:0:0:
448,192,97917,1,0,0:0:0:0:
320,192,97917,1,0,0:0:0:0:
448,192,98029,1,0,0:0:0:0:
320,192,98029,1,0,0:0:0:0:
64,192,98029,1,0,0:0:0:0:
192,192,98085,1,0,0:0:0:0:
64,192,98140,1,0,0:0:0:0:
448,192,98140,128,0,98364:0:0:0:0:
320,192,98140,128,0,98364:0:0:0:0:
192,192,98364,1,0,0:0:0:0:
64,192,98364,1,0,0:0:0:0:
448,192,98419,1,0,0:0:0:0:
320,192,98419,1,0,0:0:0:0:
192,192,98475,1,0,0:0:0:0:
64,192,98475,1,0,0:0:0:0:
64,192,98587,1,0,0:0:0:0:
448,192,98587,1,0,0:0:0:0:
64,192,98698,1,0,0:0:0:0:
448,192,98698,1,0,0:0:0:0:
64,192,98810,1,0,0:0:0:0:
448,192,98810,1,0,0:0:0:0:
192,192,98810,1,0,0:0:0:0:
448,192,98922,1,0,0:0:0:0:
320,192,98922,1,0,0:0:0:0:
64,192,98922,1,0,0:0:0:0:
192,192,98977,1,0,0:0:0:0:
448,192,99033,128,0,99256:0:0:0:0:
64,192,99033,128,0,99256:0:0:0:0:
320,192,99256,1,0,0:0:0:0:
192,192,99256,1,0,0:0:0:0:
192,192,99368,1,0,0:0:0:0:
64,192,99368,1,0,0:0:0:0:
448,192,99480,1,0,0:0:0:0:
320,192,99480,1,0,0:0:0:0:
320,192,99591,1,0,0:0:0:0:
192,192,99591,1,0,0:0:0:0:
448,192,99703,1,0,0:0:0:0:
64,192,99703,1,0,0:0:0:0:
320,192,99759,1,0,0:0:0:0:
192,192,99759,1,0,0:0:0:0:
448,192,99814,1,0,0:0:0:0:
64,192,99814,1,0,0:0:0:0:
192,192,99870,1,0,0:0:0:0:
320,192,99870,1,0,0:0:0:0:
448,192,99926,1,0,0:0:0:0:
64,192,99926,1,0,0:0:0:0:
448,192,100038,1,0,0:0:0:0:
64,192,100038,1,0,0:0:0:0:
320,192,100093,1,0,0:0:0:0:
192,192,100093,1,0,0:0:0:0:
448,192,100150,1,0,0:0:0:0:
64,192,100150,1,0,0:0:0:0:
320,192,100205,1,0,0:0:0:0:
192,192,100205,1,0,0:0:0:0:
448,192,100261,1,0,0:0:0:0:
64,192,100261,1,0,0:0:0:0:
64,192,100372,1,0,0:0:0:0:
192,192,100429,1,0,0:0:0:0:
320,192,100484,1,0,0:0:0:0:
448,192,100540,1,0,0:0:0:0:
192,192,100596,1,0,0:0:0:0:
64,192,100596,1,0,0:0:0:0:
320,192,100596,1,0,0:0:0:0:
448,192,100651,1,0,0:0:0:0:
192,192,100708,1,0,0:0:0:0:
64,192,100708,1,0,0:0:0:0:
320,192,100763,1,0,0:0:0:0:
192,192,100819,1,0,0:0:0:0:
64,192,100819,1,0,0:0:0:0:
448,192,100819,1,0,0:0:0:0:
448,192,100930,1,0,0:0:0:0:
320,192,100930,1,0,0:0:0:0:
64,192,100930,1,0,0:0:0:0:
192,192,100987,1,0,0:0:0:0:
448,192,101042,1,0,0:0:0:0:
320,192,101042,1,0,0:0:0:0:
64,192,101098,1,0,0:0:0:0:
448,192,101153,1,0,0:0:0:0:
192,192,101153,1,0,0:0:0:0:
320,192,101153,1,0,0:0:0:0:
64,192,101266,1,0,0:0:0:0:
320,192,101321,1,0,0:0:0:0:
192,192,101377,1,0,0:0:0:0:
448,192,101432,1,0,0:0:0:0:
192,192,101489,1,0,0:0:0:0:
64,192,101489,1,0,0:0:0:0:
448,192,101545,1,0,0:0:0:0:
320,192,101545,1,0,0:0:0:0:
192,192,101600,1,0,0:0:0:0:
64,192,101600,1,0,0:0:0:0:
448,192,101656,1,0,0:0:0:0:
320,192,101656,1,0,0:0:0:0:
192,192,101711,1,0,0:0:0:0:
64,192,101711,1,0,0:0:0:0:
448,192,101768,1,0,0:0:0:0:
320,192,101768,1,0,0:0:0:0:
192,192,101824,1,0,0:0:0:0:
64,192,101824,1,0,0:0:0:0:
448,192,101879,1,0,0:0:0:0:
320,192,101879,1,0,0:0:0:0:
192,192,101935,1,0,0:0:0:0:
64,192,101935,1,0,0:0:0:0:
448,192,101990,1,0,0:0:0:0:
320,192,101990,1,0,0:0:0:0:
192,192,102047,1,0,0:0:0:0:
64,192,102047,1,0,0:0:0:0:
448,192,102103,1,0,0:0:0:0:
320,192,102103,1,0,0:0:0:0:
192,192,102158,1,0,0:0:0:0:
64,192,102158,1,0,0:0:0:0:
448,192,102214,1,0,0:0:0:0:
320,192,102214,1,0,0:0:0:0:
192,192,102270,1,0,0:0:0:0:
64,192,102270,1,0,0:0:0:0:
448,192,102326,1,0,0:0:0:0:
320,192,102326,1,0,0:0:0:0:
64,192,102382,128,0,102493:0:0:0:0:
192,192,102437,128,0,102549:0:0:0:0:
320,192,102493,128,0,102605:0:0:0:0:
448,192,102549,128,0,102828:0:0:0:0:
64,192,102605,128,0,102716:0:0:0:0:
192,192,102660,128,0,102772:0:0:0:0:
320,192,102716,128,0,102828:0:0:0:0:
192,192,102828,128,0,103163:0:0:0:0:
64,192,102828,128,0,103163:0:0:0:0:
320,192,103274,1,0,0:0:0:0:
448,192,103274,1,0,0:0:0:0:
192,192,103330,1,0,0:0:0:0:
64,192,103386,1,0,0:0:0:0:
448,192,103386,1,0,0:0:0:0:
192,192,103442,1,0,0:0:0:0:
320,192,103442,1,0,0:0:0:0:
64,192,103497,1,0,0:0:0:0:
448,192,103497,1,0,0:0:0:0:
320,192,103553,1,0,0:0:0:0:
64,192,103610,1,0,0:0:0:0:
192,192,103610,1,0,0:0:0:0:
320,192,103665,1,0,0:0:0:0:
448,192,103721,1,0,0:0:0:0:
192,192,103721,1,0,0:0:0:0:
64,192,103776,1,0,0:0:0:0:
448,192,103832,1,0,0:0:0:0:
192,192,103832,1,0,0:0:0:0:
320,192,103889,1,0,0:0:0:0:
64,192,103944,1,0,0:0:0:0:
448,192,103944,1,0,0:0:0:0:
192,192,103944,1,0,0:0:0:0:
320,192,104000,1,0,0:0:0:0:
64,192,104055,1,0,0:0:0:0:
192,192,104055,1,0,0:0:0:0:
320,192,104111,1,0,0:0:0:0:
64,192,104168,1,0,0:0:0:0:
448,192,104168,1,0,0:0:0:0:
192,192,104223,1,0,0:0:0:0:
448,192,104279,1,0,0:0:0:0:
320,192,104279,1,0,0:0:0:0:
192,192,104334,1,0,0:0:0:0:
64,192,104390,1,0,0:0:0:0:
448,192,104390,1,0,0:0:0:0:
320,192,104390,1,0,0:0:0:0:
192,192,104446,1,0,0:0:0:0:
64,192,104502,1,0,0:0:0:0:
448,192,104502,1,0,0:0:0:0:
320,192,104558,1,0,0:0:0:0:
64,192,104613,1,0,0:0:0:0:
192,192,104613,1,0,0:0:0:0:
448,192,104613,1,0,0:0:0:0:
320,192,104670,1,0,0:0:0:0:
64,192,104725,1,0,0:0:0:0:
192,192,104725,1,0,0:0:0:0:
320,192,104781,1,0,0:0:0:0:
448,192,104837,1,0,0:0:0:0:
64,192,104837,1,0,0:0:0:0:
192,192,104892,1,0,0:0:0:0:
320,192,104949,1,0,0:0:0:0:
448,192,104949,1,0,0:0:0:0:
64,192,105004,1,0,0:0:0:0:
192,192,105060,1,0,0:0:0:0:
320,192,105060,1,0,0:0:0:0:
448,192,105060,1,0,0:0:0:0:
64,192,105116,1,0,0:0:0:0:
320,192,105171,1,0,0:0:0:0:
448,192,105171,1,0,0:0:0:0:
64,192,105228,1,0,0:0:0:0:
192,192,105228,1,0,0:0:0:0:
320,192,105283,1,0,0:0:0:0:
448,192,105283,1,0,0:0:0:0:
192,192,105339,1,0,0:0:0:0:
448,192,105395,1,0,0:0:0:0:
64,192,105395,1,0,0:0:0:0:
320,192,105450,1,0,0:0:0:0:
64,192,105507,1,0,0:0:0:0:
192,192,105507,1,0,0:0:0:0:
448,192,105562,1,0,0:0:0:0:
64,192,105618,1,0,0:0:0:0:
192,192,105618,1,0,0:0:0:0:
320,192,105618,1,0,0:0:0:0:
448,192,105674,1,0,0:0:0:0:
64,192,105730,1,0,0:0:0:0:
192,192,105730,1,0,0:0:0:0:
448,192,105786,1,0,0:0:0:0:
320,192,105786,1,0,0:0:0:0:
192,192,105841,1,0,0:0:0:0:
448,192,105897,1,0,0:0:0:0:
320,192,105897,1,0,0:0:0:0:
64,192,105953,1,0,0:0:0:0:
192,192,105981,1,0,0:0:0:0:
320,192,106009,1,0,0:0:0:0:
448,192,106036,1,0,0:0:0:0:
64,192,106065,1,0,0:0:0:0:
192,192,106065,1,0,0:0:0:0:
448,192,106176,1,0,0:0:0:0:
320,192,106204,1,0,0:0:0:0:
192,192,106231,1,0,0:0:0:0:
64,192,106260,1,0,0:0:0:0:
320,192,106288,1,0,0:0:0:0:
448,192,106288,1,0,0:0:0:0:
64,192,106399,1,0,0:0:0:0:
192,192,106399,1,0,0:0:0:0:
448,192,106399,1,0,0:0:0:0:
320,192,106455,1,0,0:0:0:0:
64,192,106510,1,0,0:0:0:0:
192,192,106510,1,0,0:0:0:0:
320,192,106567,1,0,0:0:0:0:
448,192,106567,1,0,0:0:0:0:
64,192,106623,1,0,0:0:0:0:
192,192,106623,1,0,0:0:0:0:
320,192,106734,1,0,0:0:0:0:
192,192,106734,1,0,0:0:0:0:
448,192,106790,1,0,0:0:0:0:
192,192,106846,1,0,0:0:0:0:
64,192,106846,1,0,0:0:0:0:
320,192,106902,1,0,0:0:0:0:
448,192,106957,1,0,0:0:0:0:
64,192,106957,1,0,0:0:0:0:
320,192,107013,1,0,0:0:0:0:
192,192,107013,1,0,0:0:0:0:
448,192,107069,1,0,0:0:0:0:
64,192,107069,1,0,0:0:0:0:
192,192,107125,1,0,0:0:0:0:
448,192,107181,1,0,0:0:0:0:
320,192,107181,1,0,0:0:0:0:
192,192,107236,1,0,0:0:0:0:
64,192,107292,1,0,0:0:0:0:
320,192,107292,1,0,0:0:0:0:
448,192,107348,1,0,0:0:0:0:
64,192,107404,1,0,0:0:0:0:
320,192,107404,1,0,0:0:0:0:
192,192,107460,1,0,0:0:0:0:
448,192,107515,1,0,0:0:0:0:
320,192,107515,1,0,0:0:0:0:
64,192,107515,1,0,0:0:0:0:
192,192,107571,1,0,0:0:0:0:
448,192,107627,1,0,0:0:0:0:
320,192,107627,1,0,0:0:0:0:
192,192,107683,1,0,0:0:0:0:
64,192,107739,1,0,0:0:0:0:
448,192,107739,1,0,0:0:0:0:
320,192,107794,1,0,0:0:0:0:
192,192,107850,1,0,0:0:0:0:
64,192,107850,1,0,0:0:0:0:
448,192,107906,1,0,0:0:0:0:
320,192,107962,1,0,0:0:0:0:
192,192,107962,1,0,0:0:0:0:
64,192,107962,1,0,0:0:0:0:
448,192,108017,1,0,0:0:0:0:
320,192,108073,1,0,0:0:0:0:
192,192,108073,1,0,0:0:0:0:
64,192,108130,1,0,0:0:0:0:
448,192,108185,1,0,0:0:0:0:
320,192,108185,1,0,0:0:0:0:
192,192,108241,1,0,0:0:0:0:
64,192,108296,1,0,0:0:0:0:
448,192,108296,1,0,0:0:0:0:
320,192,108296,1,0,0:0:0:0:
192,192,108352,1,0,0:0:0:0:
448,192,108409,1,0,0:0:0:0:
64,192,108409,1,0,0:0:0:0:
320,192,108464,1,0,0:0:0:0:
192,192,108520,1,0,0:0:0:0:
64,192,108520,1,0,0:0:0:0:
448,192,108575,1,0,0:0:0:0:
320,192,108575,1,0,0:0:0:0:
64,192,108631,1,0,0:0:0:0:
192,192,108659,1,0,0:0:0:0:
320,192,108688,1,0,0:0:0:0:
448,192,108715,1,0,0:0:0:0:
64,192,108743,1,0,0:0:0:0:
192,192,108799,1,0,0:0:0:0:
320,192,108799,1,0,0:0:0:0:
64,192,108854,1,0,0:0:0:0:
448,192,108854,1,0,0:0:0:0:
192,192,108910,1,0,0:0:0:0:
448,192,108967,1,0,0:0:0:0:
320,192,108994,1,0,0:0:0:0:
192,192,109022,1,0,0:0:0:0:
64,192,109050,1,0,0:0:0:0:
448,192,109078,1,0,0:0:0:0:
320,192,109133,1,0,0:0:0:0:
192,192,109133,1,0,0:0:0:0:
448,192,109190,1,0,0:0:0:0:
64,192,109190,1,0,0:0:0:0:
192,192,109246,1,0,0:0:0:0:
448,192,109301,1,0,0:0:0:0:
320,192,109301,1,0,0:0:0:0:
192,192,109357,1,0,0:0:0:0:
64,192,109412,1,0,0:0:0:0:
320,192,109412,1,0,0:0:0:0:
448,192,109469,1,0,0:0:0:0:
64,192,109525,1,0,0:0:0:0:
192,192,109552,1,0,0:0:0:0:
320,192,109580,1,0,0:0:0:0:
448,192,109608,1,0,0:0:0:0:
192,192,109636,1,0,0:0:0:0:
64,192,109636,1,0,0:0:0:0:
448,192,109691,1,0,0:0:0:0:
320,192,109720,1,0,0:0:0:0:
192,192,109748,1,0,0:0:0:0:
64,192,109775,1,0,0:0:0:0:
448,192,109803,1,0,0:0:0:0:
320,192,109803,1,0,0:0:0:0:
64,192,109859,1,0,0:0:0:0:
192,192,109887,1,0,0:0:0:0:
320,192,109915,1,0,0:0:0:0:
448,192,109943,1,0,0:0:0:0:
192,192,109970,1,0,0:0:0:0:
64,192,109999,1,0,0:0:0:0:
448,192,110027,1,0,0:0:0:0:
320,192,110054,1,0,0:0:0:0:
192,192,110082,1,0,0:0:0:0:
64,192,110082,1,0,0:0:0:0:
320,192,110138,1,0,0:0:0:0:
448,192,110166,1,0,0:0:0:0:
192,192,110194,1,0,0:0:0:0:
64,192,110194,1,0,0:0:0:0:
320,192,110222,1,0,0:0:0:0:
448,192,110250,1,0,0:0:0:0:
64,192,110278,1,0,0:0:0:0:
320,192,110306,1,0,0:0:0:0:
192,192,110306,1,0,0:0:0:0:
448,192,110333,1,0,0:0:0:0:
64,192,110361,1,0,0:0:0:0:
192,192,110390,1,0,0:0:0:0:
448,192,110417,1,0,0:0:0:0:
320,192,110417,1,0,0:0:0:0:
192,192,110529,1,0,0:0:0:0:
448,192,110640,1,0,0:0:0:0:
320,192,110752,1,0,0:0:0:0:
192,192,110752,1,0,0:0:0:0:
64,192,110752,1,0,0:0:0:0:
64,192,110864,1,0,0:0:0:0:
320,192,110975,1,0,0:0:0:0:
192,192,111087,1,0,0:0:0:0:
64,192,111198,1,0,0:0:0:0:
192,192,111254,1,0,0:0:0:0:
320,192,111310,1,0,0:0:0:0:
64,192,111422,1,0,0:0:0:0:
192,192,111533,1,0,0:0:0:0:
64,192,111645,1,0,0:0:0:0:
320,192,111756,1,0,0:0:0:0:
192,192,111756,1,0,0:0:0:0:
64,192,111812,1,0,0:0:0:0:
448,192,111868,1,0,0:0:0:0:
320,192,111868,1,0,0:0:0:0:
448,192,111980,1,0,0:0:0:0:
192,192,111980,1,0,0:0:0:0:
448,192,112091,1,0,0:0:0:0:
64,192,112091,1,0,0:0:0:0:
448,192,112203,1,0,0:0:0:0:
320,192,112203,1,0,0:0:0:0:
64,192,112203,1,0,0:0:0:0:
192,192,112314,1,0,0:0:0:0:
448,192,112426,1,0,0:0:0:0:
448,192,112538,1,0,0:0:0:0:
320,192,112538,1,0,0:0:0:0:
64,192,112538,1,0,0:0:0:0:
64,192,112650,1,0,0:0:0:0:
320,192,112761,1,0,0:0:0:0:
192,192,112872,1,0,0:0:0:0:
64,192,112984,1,0,0:0:0:0:
192,192,113040,1,0,0:0:0:0:
320,192,113096,1,0,0:0:0:0:
448,192,113208,1,0,0:0:0:0:
320,192,113319,1,0,0:0:0:0:
192,192,113430,1,0,0:0:0:0:
64,192,113430,1,0,0:0:0:0:
320,192,113487,1,0,0:0:0:0:
448,192,113542,1,0,0:0:0:0:
448,192,113653,1,0,0:0:0:0:
320,192,113710,1,0,0:0:0:0:
64,192,113766,1,0,0:0:0:0:
192,192,113766,1,0,0:0:0:0:
320,192,113877,1,0,0:0:0:0:
448,192,113989,1,0,0:0:0:0:
320,192,113989,1,0,0:0:0:0:
192,192,113989,1,0,0:0:0:0:
192,192,114100,1,0,0:0:0:0:
448,192,114211,1,0,0:0:0:0:
448,192,114324,1,0,0:0:0:0:
192,192,114324,1,0,0:0:0:0:
320,192,114324,1,0,0:0:0:0:
64,192,114435,1,0,0:0:0:0:
320,192,114547,1,0,0:0:0:0:
192,192,114658,1,0,0:0:0:0:
64,192,114770,1,0,0:0:0:0:
192,192,114826,1,0,0:0:0:0:
448,192,114882,1,0,0:0:0:0:
64,192,114993,1,0,0:0:0:0:
192,192,115105,1,0,0:0:0:0:
64,192,115216,1,0,0:0:0:0:
192,192,115328,1,0,0:0:0:0:
64,192,115328,1,0,0:0:0:0:
448,192,115439,1,0,0:0:0:0:
320,192,115439,1,0,0:0:0:0:
192,192,115551,1,0,0:0:0:0:
448,192,115551,1,0,0:0:0:0:
64,192,115663,1,0,0:0:0:0:
448,192,115663,1,0,0:0:0:0:
192,192,115774,1,0,0:0:0:0:
64,192,115774,1,0,0:0:0:0:
448,192,115774,1,0,0:0:0:0:
192,192,115886,128,0,115997:0:0:0:0:
448,192,115997,1,0,0:0:0:0:
64,192,116110,1,0,0:0:0:0:
192,192,116110,1,0,0:0:0:0:
448,192,116110,1,0,0:0:0:0:
64,192,116221,128,0,116332:0:0:0:0:
320,192,116332,128,0,116444:0:0:0:0:
192,192,116444,128,0,116555:0:0:0:0:
64,192,116555,1,0,0:0:0:0:
192,192,116611,1,0,0:0:0:0:
320,192,116668,1,0,0:0:0:0:
448,192,116668,1,0,0:0:0:0:
192,192,116723,1,0,0:0:0:0:
64,192,116723,1,0,0:0:0:0:
448,192,116779,1,0,0:0:0:0:
320,192,116834,1,0,0:0:0:0:
192,192,116890,1,0,0:0:0:0:
64,192,116890,1,0,0:0:0:0:
320,192,116946,1,0,0:0:0:0:
448,192,116946,1,0,0:0:0:0:
64,192,117002,1,0,0:0:0:0:
192,192,117058,1,0,0:0:0:0:
448,192,117113,1,0,0:0:0:0:
320,192,117113,1,0,0:0:0:0:
192,192,117170,1,0,0:0:0:0:
64,192,117170,1,0,0:0:0:0:
448,192,117225,1,0,0:0:0:0:
320,192,117225,1,0,0:0:0:0:
192,192,117281,1,0,0:0:0:0:
64,192,117281,1,0,0:0:0:0:
448,192,117337,128,0,117560:0:0:0:0:
192,192,117560,1,0,0:0:0:0:
64,192,117560,1,0,0:0:0:0:
320,192,117616,1,0,0:0:0:0:
448,192,117616,1,0,0:0:0:0:
192,192,117671,1,0,0:0:0:0:
64,192,117671,1,0,0:0:0:0:
448,192,117728,1,0,0:0:0:0:
320,192,117728,1,0,0:0:0:0:
192,192,117783,1,0,0:0:0:0:
64,192,117783,1,0,0:0:0:0:
448,192,117839,1,0,0:0:0:0:
320,192,117839,1,0,0:0:0:0:
192,192,117895,1,0,0:0:0:0:
64,192,117895,1,0,0:0:0:0:
448,192,117950,1,0,0:0:0:0:
320,192,117950,1,0,0:0:0:0:
192,192,118007,1,0,0:0:0:0:
64,192,118007,1,0,0:0:0:0:
448,192,118062,1,0,0:0:0:0:
320,192,118062,1,0,0:0:0:0:
192,192,118118,1,0,0:0:0:0:
64,192,118118,1,0,0:0:0:0:
448,192,118174,1,0,0:0:0:0:
320,192,118174,1,0,0:0:0:0:
64,192,118230,1,0,0:0:0:0:
192,192,118230,1,0,0:0:0:0:
320,192,118257,1,0,0:0:0:0:
448,192,118286,1,0,0:0:0:0:
64,192,118313,1,0,0:0:0:0:
192,192,118341,1,0,0:0:0:0:
320,192,118341,1,0,0:0:0:0:
448,192,118370,1,0,0:0:0:0:
64,192,118397,1,0,0:0:0:0:
192,192,118425,1,0,0:0:0:0:
448,192,118453,1,0,0:0:0:0:
320,192,118453,1,0,0:0:0:0:
64,192,118509,1,0,0:0:0:0:
192,192,118509,1,0,0:0:0:0:
320,192,118565,1,0,0:0:0:0:
448,192,118565,1,0,0:0:0:0:
64,192,118620,1,0,0:0:0:0:
192,192,118620,1,0,0:0:0:0:
320,192,118676,1,0,0:0:0:0:
448,192,118676,1,0,0:0:0:0:
64,192,118731,1,0,0:0:0:0:
192,192,118731,1,0,0:0:0:0:
320,192,118788,1,0,0:0:0:0:
448,192,118788,1,0,0:0:0:0:
64,192,118844,1,0,0:0:0:0:
192,192,118844,1,0,0:0:0:0:
320,192,118899,1,0,0:0:0:0:
448,192,118899,1,0,0:0:0:0:
64,192,118955,1,0,0:0:0:0:
192,192,118955,1,0,0:0:0:0:
320,192,119010,1,0,0:0:0:0:
448,192,119010,1,0,0:0:0:0:
64,192,119067,1,0,0:0:0:0:
192,192,119067,1,0,0:0:0:0:
448,192,119123,1,0,0:0:0:0:
320,192,119123,1,0,0:0:0:0:
192,192,119150,1,0,0:0:0:0:
64,192,119178,1,0,0:0:0:0:
448,192,119207,1,0,0:0:0:0:
320,192,119234,1,0,0:0:0:0:
192,192,119234,1,0,0:0:0:0:
64,192,119262,1,0,0:0:0:0:
448,192,119290,1,0,0:0:0:0:
320,192,119318,1,0,0:0:0:0:
64,192,119346,128,0,119569:0:0:0:0:
192,192,119346,128,0,119569:0:0:0:0:
448,192,119625,1,0,0:0:0:0:
320,192,119625,1,0,0:0:0:0:
192,192,119652,1,0,0:0:0:0:
64,192,119681,1,0,0:0:0:0:
192,192,119848,1,0,0:0:0:0:
448,192,119848,1,0,0:0:0:0:
320,192,119876,1,0,0:0:0:0:
64,192,119904,1,0,0:0:0:0:
64,192,120071,1,0,0:0:0:0:
192,192,120071,1,0,0:0:0:0:
320,192,120099,1,0,0:0:0:0:
448,192,120127,1,0,0:0:0:0:
64,192,120294,1,0,0:0:0:0:
448,192,120294,1,0,0:0:0:0:
320,192,120322,1,0,0:0:0:0:
192,192,120350,1,0,0:0:0:0:
