osu file format v14

[General]
AudioFilename: audio.mp3
AudioLeadIn: 0
PreviewTime: 185956
Countdown: 0
SampleSet: Soft
StackLeniency: 0.7
Mode: 3
LetterboxInBreaks: 0
SpecialStyle: 0
WidescreenStoryboard: 1

[Editor]
Bookmarks: 9355,16855,31855,39355,46855,61855,73105,76855,84355,99355,119042,134042,164042,175292,179042,186542,201542,212792,234355,241855,245605,249355,258730
DistanceSpacing: 1.3
BeatDivisor: 8
GridSize: 8
TimelineZoom: 2.5

[Metadata]
Title:Blackmagik Blazing
TitleUnicode:Blackmagik Blazing
Artist:Camellia
ArtistUnicode:かめりあ
Creator:Ventilo le vrai
Version:Nasty Spell
Source:CHUNITHM CRYSTAL PLUS
Tags:fa featured artist Masaya Oya 大箭将也 cametek kamelcamellia かめるかめりあ electronic instrumental チュウニズム クリスタルプラス コミックマーケット コミケット blackmagic CTCD-019 comic market comiket c96 夏コミ2019 なつコミ natsucomi summer sega video game hardcore speedcore Famoss
BeatmapID:2714841
BeatmapSetID:1309565

[Difficulty]
HPDrainRate:8.6
CircleSize:4
OverallDifficulty:8.1
ApproachRate:5
SliderMultiplier:1.4
SliderTickRate:1

[Events]
//Background and Video events
0,0,"bg.png",0,0
//Break Periods
//Storyboard Layer 0 (Background)
//Storyboard Layer 1 (Fail)
//Storyboard Layer 2 (Pass)
//Storyboard Layer 3 (Foreground)
//Storyboard Layer 4 (Overlay)
//Storyboard Sound Samples

[TimingPoints]
1855,234.375,4,2,1,60,1,0
26230,-71.4285714285714,4,2,1,60,0,0
26288,-166.666666666667,4,2,1,60,0,0
26347,-71.4285714285714,4,2,1,60,0,0
26405,-166.666666666667,4,2,1,60,0,0
26464,-100,4,2,1,60,0,0
26698,-71.4285714285714,4,2,1,60,0,0
26756,-166.666666666667,4,2,1,60,0,0
26815,-71.4285714285714,4,2,1,60,0,0
26873,-166.666666666667,4,2,1,60,0,0
26932,-100,4,2,1,60,0,0
30917,-66.6666666666667,4,2,1,60,0,0
30995,-200,4,2,1,60,0,0
31073,-66.6666666666667,4,2,1,60,0,0
31151,-200,4,2,1,60,0,0
31230,-66.6666666666667,4,2,1,60,0,0
31308,-200,4,2,1,60,0,0
31386,-66.6666666666667,4,2,1,60,0,0
31464,-200,4,2,1,60,0,0
31542,-66.6666666666667,4,2,1,60,0,0
31620,-200,4,2,1,60,0,0
31698,-66.6666666666667,4,2,1,60,0,0
31776,-200,4,2,1,60,0,0
31855,-100,4,2,1,60,0,0
43105,-71.4285714285714,4,2,1,60,0,0
43163,-166.666666666667,4,2,1,60,0,0
43222,-71.4285714285714,4,2,1,60,0,0
43280,-166.666666666667,4,2,1,60,0,0
43339,-100,4,2,1,60,0,0
43573,-71.4285714285714,4,2,1,60,0,0
43632,-166.666666666667,4,2,1,60,0,0
43690,-71.4285714285714,4,2,1,60,0,0
43749,-166.666666666667,4,2,1,60,0,0
43808,-100,4,2,1,60,0,0
44042,-71.4285714285714,4,2,1,60,0,0
44101,-166.666666666667,4,2,1,60,0,0
44159,-71.4285714285714,4,2,1,60,0,0
44218,-166.666666666667,4,2,1,60,0,0
44276,-100,4,2,1,60,0,0
44511,-71.4285714285714,4,2,1,60,0,0
44569,-166.666666666667,4,2,1,60,0,0
44628,-71.4285714285714,4,2,1,60,0,0
44687,-166.666666666667,4,2,1,60,0,0
44745,-100,4,2,1,60,0,0
95605,-71.4285714285714,4,2,1,60,0,0
95663,-166.666666666667,4,2,1,60,0,0
95722,-71.4285714285714,4,2,1,60,0,0
95780,-166.666666666667,4,2,1,60,0,0
95839,-100,4,2,1,60,0,0
96073,-71.4285714285714,4,2,1,60,0,0
96132,-166.666666666667,4,2,1,60,0,0
96190,-71.4285714285714,4,2,1,60,0,0
96249,-166.666666666667,4,2,1,60,0,0
96308,-100,4,2,1,60,0,0
96542,-71.4285714285714,4,2,1,60,0,0
96601,-166.666666666667,4,2,1,60,0,0
96659,-71.4285714285714,4,2,1,60,0,0
96718,-166.666666666667,4,2,1,60,0,0
96776,-100,4,2,1,60,0,0
97011,-71.4285714285714,4,2,1,60,0,0
97069,-166.666666666667,4,2,1,60,0,0
97128,-71.4285714285714,4,2,1,60,0,0
97187,-166.666666666667,4,2,1,60,0,0
97245,-100,4,2,1,60,0,0
102636,-27.027027027027,4,2,1,60,0,0
102665,-1000,4,2,1,60,0,0
102753,-27.027027027027,4,2,1,60,0,0
102782,-1000,4,2,1,60,0,0
102870,-27.027027027027,4,2,1,60,0,0
102899,-1000,4,2,1,60,0,0
102987,-27.027027027027,4,2,1,60,0,0
103016,-1000,4,2,1,60,0,0
103105,-100,4,2,1,60,0,0
122089,-66.6666666666667,4,2,1,60,0,0
122147,-200,4,2,1,60,0,0
122206,-100,4,2,1,60,0,0
122323,-66.6666666666667,4,2,1,60,0,0
122381,-200,4,2,1,60,0,0
122440,-100,4,2,1,60,0,0
122558,-66.6666666666667,4,2,1,60,0,0
122616,-200,4,2,1,60,0,0
122675,-100,4,2,1,60,0,0
122792,-66.6666666666667,4,2,1,60,0,0
122821,-200,4,2,1,60,0,0
122851,-66.6666666666667,4,2,1,60,0,0
122880,-200,4,2,1,60,0,0
122909,-100,4,2,1,60,0,0
143417,-71.4285714285714,4,2,1,60,0,0
143475,-166.666666666667,4,2,1,60,0,0
143534,-71.4285714285714,4,2,1,60,0,0
143592,-166.666666666667,4,2,1,60,0,0
143651,-100,4,2,1,60,0,0
143885,-71.4285714285714,4,2,1,60,0,0
143943,-166.666666666667,4,2,1,60,0,0
144002,-71.4285714285714,4,2,1,60,0,0
144060,-166.666666666667,4,2,1,60,0,0
144119,-100,4,2,1,60,0,0
148105,-66.6666666666667,4,2,1,60,0,0
148183,-200,4,2,1,60,0,0
148261,-66.6666666666667,4,2,1,60,0,0
148339,-200,4,2,1,60,0,0
148417,-66.6666666666667,4,2,1,60,0,0
148495,-200,4,2,1,60,0,0
148573,-66.6666666666667,4,2,1,60,0,0
148651,-200,4,2,1,60,0,0
148730,-66.6666666666667,4,2,1,60,0,0
148808,-200,4,2,1,60,0,0
148886,-66.6666666666667,4,2,1,60,0,0
148964,-200,4,2,1,60,0,0
149042,-105.263157894737,4,2,1,60,0,0
163573,-66.6666666666667,4,2,1,60,0,0
163632,-200,4,2,1,60,0,0
163690,-66.6666666666667,4,2,1,60,0,0
163720,-200,4,2,1,60,0,0
163749,-66.6666666666667,4,2,1,60,0,0
163808,-200,4,2,1,60,0,0
163866,-66.6666666666667,4,2,1,60,0,0
163896,-200,4,2,1,60,0,0
163925,-66.6666666666667,4,2,1,60,0,0
163954,-200,4,2,1,60,0,0
163983,-66.6666666666667,4,2,1,60,0,0
164013,-200,4,2,1,60,0,0
164042,-100,4,2,1,60,0,0
182792,-71.4285714285714,4,2,1,60,0,0
182850,-166.666666666667,4,2,1,60,0,0
182909,-71.4285714285714,4,2,1,60,0,0
182967,-166.666666666667,4,2,1,60,0,0
183026,-100,4,2,1,60,0,0
183260,-71.4285714285714,4,2,1,60,0,0
183319,-166.666666666667,4,2,1,60,0,0
183377,-71.4285714285714,4,2,1,60,0,0
183436,-166.666666666667,4,2,1,60,0,0
183495,-100,4,2,1,60,0,0
183729,-71.4285714285714,4,2,1,60,0,0
183788,-166.666666666667,4,2,1,60,0,0
183846,-71.4285714285714,4,2,1,60,0,0
183905,-166.666666666667,4,2,1,60,0,0
183963,-100,4,2,1,60,0,0
184198,-71.4285714285714,4,2,1,60,0,0
184256,-166.666666666667,4,2,1,60,0,0
184315,-71.4285714285714,4,2,1,60,0,0
184374,-166.666666666667,4,2,1,60,0,0
184432,-100,4,2,1,60,0,0
186542,-100,4,2,1,60,0,1
199667,-100,4,2,1,60,0,0
201542,-100,4,2,1,60,0,1
219355,-100,4,2,1,60,0,0
226855,-25,4,2,1,60,0,0
226884,-250,4,2,1,60,0,0
227030,-100,4,2,1,60,0,0
235058,-26.3157894736842,4,2,1,60,0,0
235087,-166.666666666667,4,2,1,60,0,0
235292,-100,4,2,1,60,0,0
235995,-66.6666666666667,4,2,1,60,0,0
236054,-200,4,2,1,60,0,0
236112,-66.6666666666667,4,2,1,60,0,0
236171,-200,4,2,1,60,0,0
236230,-100,4,2,1,60,0,0
242558,-26.3157894736842,4,2,1,60,0,0
242587,-166.666666666667,4,2,1,60,0,0
242792,-100,4,2,1,60,0,0
243495,-66.6666666666667,4,2,1,60,0,0
243554,-200,4,2,1,60,0,0
243612,-66.6666666666667,4,2,1,60,0,0
243671,-200,4,2,1,60,0,0
243730,-100,4,2,1,60,0,0

[HitObjects]
64,192,1855,5,0,0:0:0:0:
320,192,1855,1,0,0:0:0:0:
448,192,1855,1,0,0:0:0:0:
192,192,2089,1,0,0:0:0:0:
64,192,2323,1,0,0:0:0:0:
320,192,2558,1,0,0:0:0:0:
448,192,2753,1,0,0:0:0:0:
64,192,2792,1,0,0:0:0:0:
320,192,3026,1,0,0:0:0:0:
64,192,3261,1,0,0:0:0:0:
192,192,3495,1,0,0:0:0:0:
320,192,3690,1,0,0:0:0:0:
448,192,3730,1,0,0:0:0:0:
192,192,3964,1,0,0:0:0:0:
64,192,4198,1,0,0:0:0:0:
448,192,4433,1,0,0:0:0:0:
320,192,4628,1,0,0:0:0:0:
192,192,4667,1,0,0:0:0:0:
448,192,4901,1,0,0:0:0:0:
64,192,5136,1,0,0:0:0:0:
192,192,5370,1,0,0:0:0:0:
64,192,5605,1,0,0:0:0:0:
448,192,5605,1,0,0:0:0:0:
320,192,5839,1,0,0:0:0:0:
192,192,6073,1,0,0:0:0:0:
320,192,6308,1,0,0:0:0:0:
64,192,6503,1,0,0:0:0:0:
448,192,6542,1,0,0:0:0:0:
320,192,6776,1,0,0:0:0:0:
64,192,7011,1,0,0:0:0:0:
192,192,7245,1,0,0:0:0:0:
448,192,7440,1,0,0:0:0:0:
64,192,7480,1,0,0:0:0:0:
320,192,7714,1,0,0:0:0:0:
64,192,7948,1,0,0:0:0:0:
320,192,8183,1,0,0:0:0:0:
192,192,8378,1,0,0:0:0:0:
64,192,8417,1,0,0:0:0:0:
448,192,8651,1,0,0:0:0:0:
192,192,8886,1,0,0:0:0:0:
64,192,9120,1,0,0:0:0:0:
192,192,9355,128,2,9823:0:0:0:0:
320,192,9355,128,4,9589:0:0:0:0:
448,192,9355,128,0,10058:0:0:0:0:
64,192,9589,128,8,10058:0:0:0:0:
320,192,9823,128,8,10292:0:0:0:0:
192,192,10058,128,8,10526:0:0:0:0:
64,192,10292,128,8,10995:0:0:0:0:
448,192,10292,128,0,10761:0:0:0:0:
320,192,10526,128,8,10995:0:0:0:0:
192,192,10761,128,8,11230:0:0:0:0:
448,192,10995,128,8,11464:0:0:0:0:
64,192,11230,128,8,11698:0:0:0:0:
320,192,11230,128,0,11933:0:0:0:0:
192,192,11464,128,8,11933:0:0:0:0:
448,192,11698,128,8,12167:0:0:0:0:
64,192,11933,128,8,12401:0:0:0:0:
192,192,12167,128,8,12870:0:0:0:0:
320,192,12167,128,0,12636:0:0:0:0:
448,192,12401,128,8,13105:0:0:0:0:
64,192,12636,128,8,12870:0:0:0:0:
320,192,12870,128,8,13105:0:0:0:0:
64,192,13105,128,8,13573:0:0:0:0:
192,192,13105,128,0,13339:0:0:0:0:
320,192,13222,1,8,0:0:0:0:
320,192,13339,128,8,13808:0:0:0:0:
448,192,13456,1,8,0:0:0:0:
448,192,13573,128,8,13808:0:0:0:0:
192,192,13690,1,8,0:0:0:0:
192,192,13808,128,8,14042:0:0:0:0:
64,192,13925,1,8,0:0:0:0:
64,192,14042,1,8,0:0:0:0:
320,192,14042,1,0,0:0:0:0:
448,192,14042,1,0,0:0:0:0:
320,192,14159,1,8,0:0:0:0:
448,192,14159,1,0,0:0:0:0:
64,192,14276,1,8,0:0:0:0:
192,192,14276,1,0,0:0:0:0:
320,192,14276,1,0,0:0:0:0:
448,192,14355,1,0,0:0:0:0:
64,192,14394,1,8,0:0:0:0:
192,192,14394,1,0,0:0:0:0:
192,192,14511,1,8,0:0:0:0:
320,192,14511,1,0,0:0:0:0:
448,192,14511,1,0,0:0:0:0:
64,192,14589,1,0,0:0:0:0:
320,192,14628,1,8,0:0:0:0:
448,192,14628,1,0,0:0:0:0:
64,192,14745,1,8,0:0:0:0:
192,192,14745,1,0,0:0:0:0:
448,192,14745,1,0,0:0:0:0:
192,192,14862,1,8,0:0:0:0:
320,192,14862,1,0,0:0:0:0:
64,192,14980,1,8,0:0:0:0:
320,192,14980,1,2,0:0:0:0:
448,192,14980,1,0,0:0:0:0:
192,192,15038,1,8,0:0:0:0:
64,192,15097,1,8,0:0:0:0:
448,192,15155,1,8,0:0:0:0:
64,192,15214,1,8,0:0:0:0:
192,192,15214,1,2,0:0:0:0:
320,192,15214,1,0,0:0:0:0:
448,192,15272,1,8,0:0:0:0:
192,192,15331,1,8,0:0:0:0:
320,192,15390,1,8,0:0:0:0:
64,192,15448,1,8,0:0:0:0:
192,192,15448,1,2,0:0:0:0:
448,192,15448,1,0,0:0:0:0:
320,192,15507,1,8,0:0:0:0:
448,192,15565,1,8,0:0:0:0:
64,192,15624,1,8,0:0:0:0:
192,192,15683,1,8,0:0:0:0:
320,192,15683,1,2,0:0:0:0:
448,192,15683,1,0,0:0:0:0:
64,192,15741,1,8,0:0:0:0:
320,192,15800,1,8,0:0:0:0:
192,192,15858,1,8,0:0:0:0:
64,192,15917,1,8,0:0:0:0:
320,192,15917,1,2,0:0:0:0:
448,192,15917,1,0,0:0:0:0:
192,192,15976,1,8,0:0:0:0:
64,192,16034,1,8,0:0:0:0:
448,192,16093,1,8,0:0:0:0:
64,192,16151,1,8,0:0:0:0:
192,192,16151,1,2,0:0:0:0:
320,192,16151,1,0,0:0:0:0:
448,192,16210,1,8,0:0:0:0:
192,192,16269,1,8,0:0:0:0:
320,192,16327,1,8,0:0:0:0:
64,192,16386,1,2,0:0:0:0:
448,192,16386,1,0,0:0:0:0:
192,192,16503,1,0,0:0:0:0:
448,192,16620,128,0,16679:0:0:0:0:
320,192,16640,128,0,16737:0:0:0:0:
192,192,16659,128,0,16796:0:0:0:0:
64,192,16679,128,0,16855:0:0:0:0:
192,192,16855,1,2,0:0:0:0:
320,192,16855,1,4,0:0:0:0:
448,192,16855,1,0,0:0:0:0:
64,192,16972,1,2,0:0:0:0:
192,192,17030,1,0,0:0:0:0:
320,192,17030,1,0,0:0:0:0:
64,192,17089,1,2,0:0:0:0:
448,192,17089,1,0,0:0:0:0:
192,192,17206,1,2,0:0:0:0:
320,192,17206,1,0,0:0:0:0:
64,192,17276,1,0,0:0:0:0:
448,192,17323,1,2,0:0:0:0:
192,192,17370,1,0,0:0:0:0:
320,192,17417,1,0,0:0:0:0:
64,192,17440,1,2,0:0:0:0:
448,192,17511,1,0,0:0:0:0:
64,192,17558,1,2,0:0:0:0:
320,192,17558,1,0,0:0:0:0:
192,192,17616,1,2,0:0:0:0:
448,192,17675,1,2,0:0:0:0:
320,192,17733,1,2,0:0:0:0:
64,192,17792,1,2,0:0:0:0:
192,192,17792,1,0,0:0:0:0:
64,192,17909,1,2,0:0:0:0:
192,192,17909,1,0,0:0:0:0:
320,192,18026,1,2,0:0:0:0:
448,192,18026,1,0,0:0:0:0:
192,192,18073,1,0,0:0:0:0:
448,192,18120,1,0,0:0:0:0:
64,192,18144,1,2,0:0:0:0:
320,192,18167,1,0,0:0:0:0:
192,192,18214,1,0,0:0:0:0:
64,192,18261,1,2,0:0:0:0:
448,192,18261,1,0,0:0:0:0:
320,192,18339,1,0,0:0:0:0:
64,192,18378,1,2,0:0:0:0:
192,192,18417,1,2,0:0:0:0:
320,192,18456,1,2,0:0:0:0:
64,192,18495,1,2,0:0:0:0:
448,192,18495,1,0,0:0:0:0:
192,192,18554,1,2,0:0:0:0:
320,192,18612,1,2,0:0:0:0:
64,192,18651,1,2,0:0:0:0:
192,192,18690,1,2,0:0:0:0:
320,192,18730,1,2,0:0:0:0:
448,192,18730,1,0,0:0:0:0:
320,192,18847,1,2,0:0:0:0:
448,192,18847,1,0,0:0:0:0:
64,192,18964,1,2,0:0:0:0:
192,192,18964,1,0,0:0:0:0:
64,192,19081,1,2,0:0:0:0:
192,192,19081,1,0,0:0:0:0:
448,192,19151,1,0,0:0:0:0:
320,192,19198,1,2,0:0:0:0:
64,192,19245,1,0,0:0:0:0:
192,192,19292,1,0,0:0:0:0:
320,192,19315,1,2,0:0:0:0:
448,192,19315,1,0,0:0:0:0:
64,192,19394,1,0,0:0:0:0:
448,192,19433,1,2,0:0:0:0:
192,192,19491,1,2,0:0:0:0:
320,192,19550,1,2,0:0:0:0:
64,192,19608,1,2,0:0:0:0:
192,192,19667,128,0,19901:0:0:0:0:
448,192,19667,128,0,19745:0:0:0:0:
320,192,19745,128,0,19823:0:0:0:0:
64,192,19823,128,0,19901:0:0:0:0:
448,192,19901,128,0,19960:0:0:0:0:
64,192,20019,128,0,20253:0:0:0:0:
448,192,20019,128,0,20077:0:0:0:0:
448,192,20136,128,0,20194:0:0:0:0:
448,192,20253,128,0,20312:0:0:0:0:
192,192,20370,128,0,20605:0:0:0:0:
448,192,20370,128,0,20448:0:0:0:0:
320,192,20448,128,0,20526:0:0:0:0:
64,192,20526,128,0,20605:0:0:0:0:
320,192,20605,1,2,0:0:0:0:
448,192,20605,1,4,0:0:0:0:
64,192,20698,1,0,0:0:0:0:
448,192,20722,1,2,0:0:0:0:
320,192,20792,1,0,0:0:0:0:
64,192,20839,1,2,0:0:0:0:
192,192,20839,1,0,0:0:0:0:
448,192,20917,1,0,0:0:0:0:
192,192,20956,1,2,0:0:0:0:
320,192,20956,1,0,0:0:0:0:
64,192,21034,1,0,0:0:0:0:
192,192,21073,1,2,0:0:0:0:
320,192,21132,1,0,0:0:0:0:
448,192,21190,1,2,0:0:0:0:
192,192,21269,1,0,0:0:0:0:
64,192,21308,1,2,0:0:0:0:
448,192,21366,1,2,0:0:0:0:
192,192,21425,1,2,0:0:0:0:
320,192,21483,1,2,0:0:0:0:
64,192,21542,1,2,0:0:0:0:
448,192,21542,1,0,0:0:0:0:
64,192,21659,1,2,0:0:0:0:
320,192,21659,1,0,0:0:0:0:
448,192,21776,1,0,0:0:0:0:
320,192,21815,1,0,0:0:0:0:
192,192,21855,1,0,0:0:0:0:
64,192,21894,1,0,0:0:0:0:
448,192,21933,1,0,0:0:0:0:
320,192,21972,1,0,0:0:0:0:
64,192,22011,1,2,0:0:0:0:
192,192,22050,1,2,0:0:0:0:
320,192,22089,1,2,0:0:0:0:
448,192,22128,1,2,0:0:0:0:
64,192,22167,1,2,0:0:0:0:
192,192,22206,1,2,0:0:0:0:
448,192,22245,1,2,0:0:0:0:
320,192,22304,1,2,0:0:0:0:
192,192,22362,1,2,0:0:0:0:
448,192,22401,1,2,0:0:0:0:
320,192,22440,1,2,0:0:0:0:
64,192,22480,1,2,0:0:0:0:
192,192,22480,1,0,0:0:0:0:
64,192,22597,1,2,0:0:0:0:
192,192,22597,1,0,0:0:0:0:
64,192,22675,1,0,0:0:0:0:
320,192,22714,1,2,0:0:0:0:
448,192,22714,1,0,0:0:0:0:
320,192,22831,1,2,0:0:0:0:
448,192,22831,1,0,0:0:0:0:
64,192,22901,1,0,0:0:0:0:
320,192,22948,1,2,0:0:0:0:
192,192,22995,1,0,0:0:0:0:
64,192,23065,1,2,0:0:0:0:
448,192,23065,1,0,0:0:0:0:
192,192,23144,1,0,0:0:0:0:
320,192,23183,1,2,0:0:0:0:
64,192,23241,1,2,0:0:0:0:
320,192,23300,1,2,0:0:0:0:
192,192,23358,1,2,0:0:0:0:
64,192,23417,1,2,0:0:0:0:
448,192,23417,128,0,23534:0:0:0:0:
192,192,23554,1,0,0:0:0:0:
320,192,23573,1,0,0:0:0:0:
448,192,23593,1,0,0:0:0:0:
64,192,23651,128,0,23710:0:0:0:0:
192,192,23666,128,0,23769:0:0:0:0:
320,192,23681,128,0,23754:0:0:0:0:
448,192,23695,128,0,23739:0:0:0:0:
64,192,23769,128,0,23886:0:0:0:0:
448,192,23886,128,0,23953:0:0:0:0:
320,192,23919,128,0,23986:0:0:0:0:
64,192,23953,128,0,24020:0:0:0:0:
192,192,23986,128,0,24053:0:0:0:0:
448,192,24020,128,0,24120:0:0:0:0:
320,192,24053,128,0,24154:0:0:0:0:
64,192,24087,128,0,24187:0:0:0:0:
192,192,24120,128,0,24237:0:0:0:0:
448,192,24237,1,0,0:0:0:0:
320,192,24276,1,0,0:0:0:0:
192,192,24315,1,0,0:0:0:0:
64,192,24355,1,4,0:0:0:0:
448,192,24355,1,2,0:0:0:0:
192,192,24472,1,2,0:0:0:0:
320,192,24530,1,0,0:0:0:0:
448,192,24530,1,0,0:0:0:0:
64,192,24589,1,2,0:0:0:0:
192,192,24589,1,0,0:0:0:0:
448,192,24636,1,0,0:0:0:0:
192,192,24706,1,2,0:0:0:0:
320,192,24706,1,0,0:0:0:0:
448,192,24776,1,0,0:0:0:0:
64,192,24823,1,2,0:0:0:0:
320,192,24870,1,0,0:0:0:0:
192,192,24917,1,0,0:0:0:0:
64,192,24940,1,2,0:0:0:0:
448,192,24940,1,0,0:0:0:0:
320,192,25019,1,0,0:0:0:0:
192,192,25058,1,2,0:0:0:0:
320,192,25116,1,2,0:0:0:0:
64,192,25175,1,2,0:0:0:0:
448,192,25175,1,0,0:0:0:0:
192,192,25233,1,2,0:0:0:0:
320,192,25292,1,2,0:0:0:0:
448,192,25292,1,0,0:0:0:0:
320,192,25409,1,2,0:0:0:0:
448,192,25409,1,0,0:0:0:0:
192,192,25480,1,0,0:0:0:0:
64,192,25526,1,2,0:0:0:0:
320,192,25526,1,0,0:0:0:0:
448,192,25585,1,0,0:0:0:0:
192,192,25644,1,2,0:0:0:0:
64,192,25683,1,0,0:0:0:0:
320,192,25722,1,0,0:0:0:0:
192,192,25761,1,2,0:0:0:0:
448,192,25761,1,0,0:0:0:0:
448,192,25878,1,2,0:0:0:0:
320,192,25917,1,2,0:0:0:0:
64,192,25956,1,2,0:0:0:0:
192,192,25995,1,2,0:0:0:0:
448,192,26054,1,2,0:0:0:0:
320,192,26112,1,2,0:0:0:0:
192,192,26151,1,2,0:0:0:0:
64,192,26190,1,2,0:0:0:0:
320,192,26230,1,2,0:0:0:0:
448,192,26230,1,4,0:0:0:0:
320,192,26347,1,2,0:0:0:0:
448,192,26347,1,4,0:0:0:0:
64,192,26464,128,0,26581:0:0:0:0:
192,192,26503,128,0,26581:0:0:0:0:
448,192,26581,128,0,26698:0:0:0:0:
320,192,26620,128,0,26698:0:0:0:0:
64,192,26698,1,2,0:0:0:0:
192,192,26698,1,4,0:0:0:0:
64,192,26815,1,2,0:0:0:0:
192,192,26815,1,4,0:0:0:0:
448,192,26933,1,0,0:0:0:0:
192,192,26972,1,0,0:0:0:0:
320,192,27011,1,0,0:0:0:0:
448,192,27050,1,0,0:0:0:0:
64,192,27089,1,0,0:0:0:0:
192,192,27128,1,0,0:0:0:0:
320,192,27167,1,2,0:0:0:0:
448,192,27167,128,0,27284:0:0:0:0:
64,192,27206,1,0,0:0:0:0:
192,192,27245,128,0,27362:0:0:0:0:
320,192,27284,1,0,0:0:0:0:
64,192,27323,128,0,27440:0:0:0:0:
448,192,27362,1,0,0:0:0:0:
320,192,27401,128,0,27480:0:0:0:0:
192,192,27440,1,0,0:0:0:0:
448,192,27480,128,0,27597:0:0:0:0:
64,192,27519,1,0,0:0:0:0:
320,192,27558,128,0,27675:0:0:0:0:
192,192,27597,1,0,0:0:0:0:
64,192,27636,128,0,27753:0:0:0:0:
448,192,27675,1,0,0:0:0:0:
192,192,27714,128,0,27831:0:0:0:0:
320,192,27753,1,0,0:0:0:0:
448,192,27792,128,0,27909:0:0:0:0:
64,192,27831,1,0,0:0:0:0:
320,192,27870,128,0,27948:0:0:0:0:
192,192,27909,1,0,0:0:0:0:
64,192,27948,128,0,28026:0:0:0:0:
448,192,27987,1,0,0:0:0:0:
320,192,28026,128,0,28105:0:0:0:0:
64,192,28065,1,0,0:0:0:0:
192,192,28105,1,4,0:0:0:0:
448,192,28105,1,2,0:0:0:0:
320,192,28163,1,2,0:0:0:0:
64,192,28222,1,2,0:0:0:0:
192,192,28222,1,0,0:0:0:0:
320,192,28280,1,2,0:0:0:0:
448,192,28280,1,0,0:0:0:0:
64,192,28339,1,2,0:0:0:0:
192,192,28339,1,0,0:0:0:0:
320,192,28397,1,2,0:0:0:0:
64,192,28456,1,0,0:0:0:0:
448,192,28456,1,0,0:0:0:0:
192,192,28495,1,0,0:0:0:0:
320,192,28534,1,0,0:0:0:0:
448,192,28573,1,2,0:0:0:0:
192,192,28632,1,2,0:0:0:0:
64,192,28690,1,2,0:0:0:0:
320,192,28690,1,0,0:0:0:0:
448,192,28749,1,2,0:0:0:0:
192,192,28808,1,0,0:0:0:0:
64,192,28847,1,0,0:0:0:0:
448,192,28886,1,0,0:0:0:0:
320,192,28925,1,0,0:0:0:0:
64,192,28964,1,0,0:0:0:0:
192,192,29003,1,0,0:0:0:0:
320,192,29042,1,2,0:0:0:0:
448,192,29042,1,0,0:0:0:0:
64,192,29101,1,2,0:0:0:0:
192,192,29159,1,2,0:0:0:0:
448,192,29159,1,0,0:0:0:0:
320,192,29218,1,2,0:0:0:0:
192,192,29276,1,2,0:0:0:0:
64,192,29335,1,2,0:0:0:0:
448,192,29394,1,2,0:0:0:0:
320,192,29433,1,2,0:0:0:0:
192,192,29472,1,2,0:0:0:0:
64,192,29511,1,2,0:0:0:0:
448,192,29511,1,0,0:0:0:0:
320,192,29569,1,2,0:0:0:0:
64,192,29628,1,2,0:0:0:0:
192,192,29628,1,0,0:0:0:0:
448,192,29687,1,2,0:0:0:0:
192,192,29745,1,0,0:0:0:0:
320,192,29784,1,0,0:0:0:0:
448,192,29823,1,0,0:0:0:0:
64,192,29862,1,0,0:0:0:0:
192,192,29901,1,0,0:0:0:0:
320,192,29940,1,0,0:0:0:0:
64,192,29980,1,2,0:0:0:0:
448,192,29980,1,0,0:0:0:0:
192,192,30038,1,2,0:0:0:0:
320,192,30097,1,2,0:0:0:0:
448,192,30155,1,2,0:0:0:0:
64,192,30214,1,2,0:0:0:0:
320,192,30214,1,0,0:0:0:0:
192,192,30272,1,2,0:0:0:0:
448,192,30331,1,2,0:0:0:0:
320,192,30370,1,2,0:0:0:0:
192,192,30409,1,2,0:0:0:0:
64,192,30448,1,2,0:0:0:0:
448,192,30448,1,0,0:0:0:0:
320,192,30507,1,2,0:0:0:0:
64,192,30565,1,2,0:0:0:0:
192,192,30565,1,0,0:0:0:0:
448,192,30624,1,2,0:0:0:0:
320,192,30683,1,0,0:0:0:0:
64,192,30722,1,0,0:0:0:0:
192,192,30761,1,0,0:0:0:0:
448,192,30800,1,0,0:0:0:0:
320,192,30839,1,0,0:0:0:0:
192,192,30878,1,0,0:0:0:0:
64,192,30917,1,2,0:0:0:0:
320,192,30917,1,0,0:0:0:0:
448,192,30917,1,0,0:0:0:0:
192,192,31073,1,2,0:0:0:0:
320,192,31073,1,0,0:0:0:0:
448,192,31073,1,0,0:0:0:0:
64,192,31230,1,2,0:0:0:0:
320,192,31230,1,0,0:0:0:0:
448,192,31230,1,0,0:0:0:0:
64,192,31386,1,2,0:0:0:0:
192,192,31386,1,0,0:0:0:0:
448,192,31386,1,0,0:0:0:0:
64,192,31542,1,2,0:0:0:0:
192,192,31542,1,0,0:0:0:0:
320,192,31542,1,0,0:0:0:0:
64,192,31698,1,2,0:0:0:0:
192,192,31698,1,0,0:0:0:0:
448,192,31698,1,0,0:0:0:0:
64,192,31855,128,4,32440:0:0:0:0:
320,192,31855,1,2,0:0:0:0:
448,192,31855,1,0,0:0:0:0:
192,192,31972,1,0,0:0:0:0:
320,192,32030,1,0,0:0:0:0:
448,192,32089,1,0,0:0:0:0:
320,192,32206,1,0,0:0:0:0:
448,192,32323,1,0,0:0:0:0:
192,192,32343,128,0,32460:0:0:0:0:
64,192,32499,128,0,32597:0:0:0:0:
192,192,32538,128,0,32675:0:0:0:0:
320,192,32558,1,0,0:0:0:0:
64,192,32714,128,0,32870:0:0:0:0:
448,192,32792,128,0,33554:0:0:0:0:
192,192,32812,128,0,32890:0:0:0:0:
64,192,33026,1,0,0:0:0:0:
320,192,33144,128,0,33202:0:0:0:0:
320,192,33261,128,0,33378:0:0:0:0:
192,192,33378,128,0,33554:0:0:0:0:
64,192,33397,128,0,33495:0:0:0:0:
320,192,33495,128,0,33573:0:0:0:0:
448,192,33612,128,0,33690:0:0:0:0:
192,192,33730,128,0,34140:0:0:0:0:
320,192,33769,128,0,33866:0:0:0:0:
448,192,33964,128,0,34062:0:0:0:0:
320,192,33983,128,0,34120:0:0:0:0:
64,192,34042,128,0,34315:0:0:0:0:
448,192,34140,128,0,34257:0:0:0:0:
192,192,34198,1,0,0:0:0:0:
320,192,34315,128,0,34491:0:0:0:0:
64,192,34433,1,0,0:0:0:0:
448,192,34550,1,0,0:0:0:0:
64,192,34667,1,0,0:0:0:0:
320,192,34667,128,0,35312:0:0:0:0:
64,192,34784,1,0,0:0:0:0:
448,192,34901,1,0,0:0:0:0:
448,192,35019,1,0,0:0:0:0:
192,192,35136,1,0,0:0:0:0:
192,192,35253,1,0,0:0:0:0:
320,192,35370,128,0,35507:0:0:0:0:
448,192,35390,128,0,35487:0:0:0:0:
192,192,35448,128,0,35605:0:0:0:0:
64,192,35507,128,0,35722:0:0:0:0:
448,192,35605,128,0,36308:0:0:0:0:
320,192,35644,128,0,35780:0:0:0:0:
192,192,35663,128,0,35722:0:0:0:0:
64,192,35839,128,0,35956:0:0:0:0:
192,192,35878,1,0,0:0:0:0:
320,192,35956,1,0,0:0:0:0:
192,192,36073,1,0,0:0:0:0:
320,192,36112,128,0,36230:0:0:0:0:
64,192,36190,1,0,0:0:0:0:
192,192,36230,128,0,36347:0:0:0:0:
320,192,36308,1,0,0:0:0:0:
448,192,36366,1,0,0:0:0:0:
64,192,36464,1,0,0:0:0:0:
320,192,36542,128,0,37128:0:0:0:0:
192,192,36562,1,0,0:0:0:0:
64,192,36601,1,0,0:0:0:0:
448,192,36659,1,0,0:0:0:0:
192,192,36776,1,0,0:0:0:0:
64,192,36894,1,0,0:0:0:0:
448,192,37011,1,0,0:0:0:0:
192,192,37128,1,0,0:0:0:0:
320,192,37245,1,0,0:0:0:0:
448,192,37362,1,0,0:0:0:0:
64,192,37480,1,0,0:0:0:0:
192,192,37480,128,0,37714:0:0:0:0:
448,192,37558,128,0,37675:0:0:0:0:
320,192,37597,1,0,0:0:0:0:
64,192,37714,1,0,0:0:0:0:
192,192,37831,1,0,0:0:0:0:
448,192,37890,1,0,0:0:0:0:
320,192,37909,1,0,0:0:0:0:
192,192,37948,1,0,0:0:0:0:
64,192,38007,128,0,38183:0:0:0:0:
448,192,38065,128,0,38300:0:0:0:0:
320,192,38183,1,0,0:0:0:0:
192,192,38300,1,0,0:0:0:0:
64,192,38417,1,0,0:0:0:0:
320,192,38417,1,0,0:0:0:0:
448,192,38417,1,0,0:0:0:0:
64,192,38534,1,0,0:0:0:0:
192,192,38534,1,0,0:0:0:0:
192,192,38651,1,0,0:0:0:0:
320,192,38651,1,0,0:0:0:0:
64,192,38769,1,0,0:0:0:0:
320,192,38769,1,0,0:0:0:0:
192,192,38886,1,0,0:0:0:0:
448,192,38886,1,0,0:0:0:0:
320,192,39003,1,0,0:0:0:0:
448,192,39003,1,0,0:0:0:0:
64,192,39120,1,0,0:0:0:0:
320,192,39120,1,0,0:0:0:0:
448,192,39179,1,0,0:0:0:0:
64,192,39237,1,0,0:0:0:0:
192,192,39237,1,0,0:0:0:0:
320,192,39296,1,0,0:0:0:0:
64,192,39355,1,4,0:0:0:0:
192,192,39355,1,2,0:0:0:0:
448,192,39355,1,8,0:0:0:0:
448,192,39472,1,0,0:0:0:0:
64,192,39589,1,8,0:0:0:0:
192,192,39589,1,2,0:0:0:0:
320,192,39589,1,0,0:0:0:0:
320,192,39706,1,0,0:0:0:0:
448,192,39706,1,0,0:0:0:0:
64,192,39823,1,8,0:0:0:0:
192,192,39823,1,2,0:0:0:0:
448,192,39823,1,0,0:0:0:0:
64,192,39940,1,0,0:0:0:0:
192,192,40058,1,8,0:0:0:0:
320,192,40058,1,2,0:0:0:0:
448,192,40058,1,0,0:0:0:0:
192,192,40175,1,0,0:0:0:0:
64,192,40292,1,8,0:0:0:0:
320,192,40292,1,2,0:0:0:0:
448,192,40292,1,0,0:0:0:0:
192,192,40409,1,0,0:0:0:0:
448,192,40409,1,0,0:0:0:0:
64,192,40526,1,8,0:0:0:0:
192,192,40526,1,2,0:0:0:0:
320,192,40526,1,0,0:0:0:0:
320,192,40644,1,0,0:0:0:0:
64,192,40761,1,8,0:0:0:0:
192,192,40761,1,2,0:0:0:0:
448,192,40761,1,0,0:0:0:0:
64,192,40878,1,0,0:0:0:0:
320,192,40878,1,0,0:0:0:0:
192,192,40995,1,8,0:0:0:0:
320,192,40995,1,2,0:0:0:0:
448,192,40995,1,0,0:0:0:0:
64,192,41112,1,0,0:0:0:0:
192,192,41112,1,0,0:0:0:0:
64,192,41230,1,8,0:0:0:0:
320,192,41230,1,2,0:0:0:0:
448,192,41230,1,0,0:0:0:0:
448,192,41347,1,0,0:0:0:0:
64,192,41464,1,8,0:0:0:0:
192,192,41464,1,2,0:0:0:0:
320,192,41464,1,0,0:0:0:0:
320,192,41581,1,0,0:0:0:0:
448,192,41581,1,0,0:0:0:0:
64,192,41698,1,8,0:0:0:0:
192,192,41698,1,2,0:0:0:0:
448,192,41698,1,0,0:0:0:0:
64,192,41815,1,0,0:0:0:0:
320,192,41815,1,0,0:0:0:0:
192,192,41933,1,8,0:0:0:0:
320,192,41933,1,2,0:0:0:0:
448,192,41933,1,0,0:0:0:0:
64,192,42050,1,0,0:0:0:0:
192,192,42050,1,0,0:0:0:0:
64,192,42167,1,8,0:0:0:0:
320,192,42167,1,2,0:0:0:0:
448,192,42167,1,0,0:0:0:0:
192,192,42284,1,0,0:0:0:0:
448,192,42343,1,0,0:0:0:0:
64,192,42401,1,8,0:0:0:0:
192,192,42401,1,2,0:0:0:0:
320,192,42401,1,0,0:0:0:0:
320,192,42519,1,0,0:0:0:0:
64,192,42636,1,8,0:0:0:0:
192,192,42636,1,2,0:0:0:0:
448,192,42636,1,0,0:0:0:0:
64,192,42753,1,0,0:0:0:0:
320,192,42753,1,0,0:0:0:0:
192,192,42870,1,8,0:0:0:0:
320,192,42870,1,2,0:0:0:0:
448,192,42870,1,0,0:0:0:0:
64,192,42987,1,0,0:0:0:0:
192,192,42987,1,0,0:0:0:0:
64,192,43105,1,8,0:0:0:0:
320,192,43105,1,2,0:0:0:0:
448,192,43105,1,4,0:0:0:0:
64,192,43222,1,8,0:0:0:0:
320,192,43222,1,2,0:0:0:0:
448,192,43222,1,4,0:0:0:0:
192,192,43339,1,0,0:0:0:0:
448,192,43378,128,0,43456:0:0:0:0:
320,192,43417,128,0,43495:0:0:0:0:
192,192,43456,128,0,43573:0:0:0:0:
64,192,43573,1,8,0:0:0:0:
320,192,43573,1,2,0:0:0:0:
448,192,43573,1,4,0:0:0:0:
64,192,43690,1,8,0:0:0:0:
320,192,43690,1,2,0:0:0:0:
448,192,43690,1,4,0:0:0:0:
192,192,43808,1,0,0:0:0:0:
64,192,43837,1,0,0:0:0:0:
448,192,43925,1,0,0:0:0:0:
320,192,43954,1,0,0:0:0:0:
64,192,44042,1,4,0:0:0:0:
320,192,44042,1,2,0:0:0:0:
448,192,44042,1,8,0:0:0:0:
64,192,44159,1,4,0:0:0:0:
320,192,44159,1,2,0:0:0:0:
448,192,44159,1,8,0:0:0:0:
192,192,44276,128,0,44355:0:0:0:0:
320,192,44315,128,0,44394:0:0:0:0:
448,192,44355,128,0,44433:0:0:0:0:
64,192,44394,128,0,44472:0:0:0:0:
192,192,44433,128,0,44511:0:0:0:0:
64,192,44511,1,8,0:0:0:0:
320,192,44511,1,2,0:0:0:0:
448,192,44511,1,4,0:0:0:0:
64,192,44628,1,8,0:0:0:0:
320,192,44628,1,2,0:0:0:0:
448,192,44628,1,4,0:0:0:0:
192,192,44745,1,0,0:0:0:0:
320,192,44774,1,0,0:0:0:0:
448,192,44804,1,0,0:0:0:0:
64,192,44862,128,0,44980:0:0:0:0:
192,192,44901,128,0,44980:0:0:0:0:
320,192,44980,1,12,0:0:0:0:
448,192,44980,1,2,0:0:0:0:
64,192,45038,1,8,0:0:0:0:
192,192,45038,1,2,0:0:0:0:
320,192,45097,1,8,0:0:0:0:
448,192,45097,1,2,0:0:0:0:
64,192,45155,1,8,0:0:0:0:
192,192,45155,1,2,0:0:0:0:
320,192,45214,1,12,0:0:0:0:
448,192,45214,1,2,0:0:0:0:
64,192,45272,1,8,0:0:0:0:
192,192,45272,1,2,0:0:0:0:
320,192,45331,1,8,0:0:0:0:
448,192,45331,1,2,0:0:0:0:
64,192,45390,1,8,0:0:0:0:
192,192,45390,1,2,0:0:0:0:
320,192,45448,1,12,0:0:0:0:
448,192,45448,1,2,0:0:0:0:
64,192,45507,1,8,0:0:0:0:
192,192,45507,1,2,0:0:0:0:
320,192,45565,1,8,0:0:0:0:
448,192,45565,1,2,0:0:0:0:
64,192,45624,1,8,0:0:0:0:
192,192,45624,1,2,0:0:0:0:
320,192,45683,1,12,0:0:0:0:
448,192,45683,1,2,0:0:0:0:
64,192,45741,1,8,0:0:0:0:
192,192,45741,1,2,0:0:0:0:
320,192,45800,1,8,0:0:0:0:
448,192,45800,1,2,0:0:0:0:
64,192,45858,1,8,0:0:0:0:
192,192,45858,1,2,0:0:0:0:
320,192,45917,1,2,0:0:0:0:
448,192,45917,128,0,46011:0:0:0:0:
64,192,45964,128,0,46058:0:0:0:0:
192,192,46011,128,0,46105:0:0:0:0:
448,192,46058,128,0,46151:0:0:0:0:
320,192,46105,128,0,46151:0:0:0:0:
192,192,46239,1,0,0:0:0:0:
64,192,46269,1,0,0:0:0:0:
448,192,46386,128,0,46503:0:0:0:0:
320,192,46425,128,0,46483:0:0:0:0:
192,192,46464,128,0,46562:0:0:0:0:
64,192,46503,128,0,46562:0:0:0:0:
320,192,46542,128,0,46620:0:0:0:0:
448,192,46581,128,0,46757:0:0:0:0:
64,192,46620,128,0,46679:0:0:0:0:
320,192,46679,128,0,46776:0:0:0:0:
192,192,46737,128,0,46796:0:0:0:0:
64,192,46796,128,0,46855:0:0:0:0:
192,192,46855,1,4,0:0:0:0:
320,192,46855,128,2,46972:0:0:0:0:
448,192,46855,128,0,47030:0:0:0:0:
192,192,46972,128,0,47089:0:0:0:0:
64,192,47089,128,2,47265:0:0:0:0:
320,192,47089,128,0,47147:0:0:0:0:
448,192,47089,128,0,47206:0:0:0:0:
192,192,47206,128,0,47382:0:0:0:0:
320,192,47206,128,0,47440:0:0:0:0:
64,192,47323,1,2,0:0:0:0:
448,192,47323,1,0,0:0:0:0:
64,192,47440,128,0,47499:0:0:0:0:
192,192,47440,128,0,47558:0:0:0:0:
448,192,47440,128,0,47616:0:0:0:0:
64,192,47558,128,2,47675:0:0:0:0:
320,192,47558,1,0,0:0:0:0:
192,192,47675,128,0,47733:0:0:0:0:
320,192,47675,128,0,47851:0:0:0:0:
448,192,47675,128,0,47792:0:0:0:0:
64,192,47792,1,2,0:0:0:0:
192,192,47792,128,0,47909:0:0:0:0:
64,192,47909,128,0,47968:0:0:0:0:
320,192,47909,128,0,48026:0:0:0:0:
448,192,47909,128,0,48144:0:0:0:0:
64,192,48026,128,2,48261:0:0:0:0:
192,192,48026,128,0,48202:0:0:0:0:
320,192,48144,1,0,0:0:0:0:
192,192,48261,128,2,48378:0:0:0:0:
320,192,48261,128,0,48319:0:0:0:0:
448,192,48261,128,0,48437:0:0:0:0:
64,192,48378,128,0,48437:0:0:0:0:
320,192,48378,128,0,48554:0:0:0:0:
64,192,48495,128,2,48651:0:0:0:0:
192,192,48495,128,0,48554:0:0:0:0:
448,192,48495,128,0,48612:0:0:0:0:
192,192,48612,128,0,48730:0:0:0:0:
320,192,48612,128,0,48671:0:0:0:0:
64,192,48730,1,2,0:0:0:0:
320,192,48730,128,0,48905:0:0:0:0:
448,192,48730,128,0,48847:0:0:0:0:
192,192,48847,128,0,48964:0:0:0:0:
64,192,48964,128,2,49257:0:0:0:0:
320,192,48964,128,0,49081:0:0:0:0:
448,192,48964,1,0,0:0:0:0:
192,192,49081,128,0,49140:0:0:0:0:
448,192,49081,128,0,49257:0:0:0:0:
192,192,49198,1,2,0:0:0:0:
320,192,49198,128,0,49374:0:0:0:0:
64,192,49315,128,0,49374:0:0:0:0:
192,192,49315,128,0,49433:0:0:0:0:
448,192,49315,128,0,49374:0:0:0:0:
64,192,49433,128,2,49608:0:0:0:0:
320,192,49433,1,0,0:0:0:0:
448,192,49433,128,0,49550:0:0:0:0:
192,192,49550,128,0,49608:0:0:0:0:
320,192,49550,128,0,49667:0:0:0:0:
64,192,49667,1,2,0:0:0:0:
192,192,49667,1,0,0:0:0:0:
448,192,49667,128,0,49784:0:0:0:0:
320,192,49784,128,0,49843:0:0:0:0:
192,192,49843,128,0,49901:0:0:0:0:
64,192,49901,128,2,50077:0:0:0:0:
320,192,49901,1,0,0:0:0:0:
448,192,49901,128,0,50077:0:0:0:0:
320,192,50019,128,0,50253:0:0:0:0:
64,192,50136,128,2,50312:0:0:0:0:
192,192,50136,128,0,50253:0:0:0:0:
448,192,50136,128,0,50194:0:0:0:0:
448,192,50253,128,0,50429:0:0:0:0:
64,192,50370,128,2,50429:0:0:0:0:
192,192,50370,128,0,50487:0:0:0:0:
320,192,50370,128,0,50487:0:0:0:0:
64,192,50487,128,0,50605:0:0:0:0:
448,192,50487,128,0,50546:0:0:0:0:
192,192,50605,128,2,50722:0:0:0:0:
320,192,50605,128,0,50663:0:0:0:0:
448,192,50605,128,0,50839:0:0:0:0:
64,192,50722,1,2,0:0:0:0:
320,192,50722,1,0,0:0:0:0:
64,192,50839,128,2,51015:0:0:0:0:
192,192,50839,128,0,50897:0:0:0:0:
320,192,50839,128,0,50897:0:0:0:0:
192,192,50956,128,0,51132:0:0:0:0:
320,192,50956,128,0,51073:0:0:0:0:
448,192,50956,128,0,51015:0:0:0:0:
64,192,51073,1,2,0:0:0:0:
448,192,51073,128,0,51190:0:0:0:0:
64,192,51190,128,0,51308:0:0:0:0:
192,192,51190,128,0,51366:0:0:0:0:
320,192,51190,128,0,51249:0:0:0:0:
320,192,51308,128,2,51425:0:0:0:0:
448,192,51308,1,0,0:0:0:0:
64,192,51425,128,0,51542:0:0:0:0:
192,192,51425,128,0,51483:0:0:0:0:
448,192,51425,128,0,51542:0:0:0:0:
192,192,51542,1,2,0:0:0:0:
320,192,51542,128,0,51659:0:0:0:0:
64,192,51659,128,0,51718:0:0:0:0:
192,192,51659,128,0,51718:0:0:0:0:
448,192,51659,128,0,51894:0:0:0:0:
64,192,51776,128,2,51835:0:0:0:0:
192,192,51776,128,0,51894:0:0:0:0:
320,192,51776,128,0,51952:0:0:0:0:
64,192,51894,128,0,52011:0:0:0:0:
192,192,52011,1,2,0:0:0:0:
320,192,52011,1,0,0:0:0:0:
448,192,52011,1,0,0:0:0:0:
320,192,52089,1,2,0:0:0:0:
448,192,52089,1,0,0:0:0:0:
64,192,52167,1,2,0:0:0:0:
192,192,52167,1,0,0:0:0:0:
64,192,52245,128,2,52304:0:0:0:0:
192,192,52245,128,0,52362:0:0:0:0:
320,192,52245,128,0,52421:0:0:0:0:
64,192,52362,128,2,52480:0:0:0:0:
448,192,52362,128,0,52421:0:0:0:0:
192,192,52480,128,2,52655:0:0:0:0:
320,192,52480,128,0,52597:0:0:0:0:
448,192,52480,128,0,52597:0:0:0:0:
64,192,52597,128,0,52714:0:0:0:0:
192,192,52714,128,2,52890:0:0:0:0:
320,192,52714,1,0,0:0:0:0:
448,192,52714,128,0,52772:0:0:0:0:
64,192,52831,128,0,53007:0:0:0:0:
320,192,52831,128,0,52890:0:0:0:0:
448,192,52831,128,0,52948:0:0:0:0:
192,192,52948,1,2,0:0:0:0:
320,192,52948,128,0,53065:0:0:0:0:
64,192,53065,128,0,53183:0:0:0:0:
192,192,53065,128,0,53241:0:0:0:0:
448,192,53065,128,0,53124:0:0:0:0:
320,192,53183,128,2,53300:0:0:0:0:
448,192,53183,1,0,0:0:0:0:
64,192,53300,128,0,53417:0:0:0:0:
192,192,53300,128,0,53417:0:0:0:0:
448,192,53300,128,0,53358:0:0:0:0:
320,192,53417,1,10,0:0:0:0:
448,192,53417,1,4,0:0:0:0:
64,192,53476,1,8,0:0:0:0:
192,192,53476,1,0,0:0:0:0:
320,192,53534,1,8,0:0:0:0:
448,192,53534,1,0,0:0:0:0:
192,192,53593,1,0,0:0:0:0:
64,192,53651,1,10,0:0:0:0:
448,192,53651,1,4,0:0:0:0:
192,192,53710,1,8,0:0:0:0:
320,192,53710,1,0,0:0:0:0:
64,192,53769,1,8,0:0:0:0:
448,192,53769,1,0,0:0:0:0:
320,192,53827,1,0,0:0:0:0:
64,192,53886,1,10,0:0:0:0:
192,192,53886,1,4,0:0:0:0:
448,192,53964,128,0,54120:0:0:0:0:
64,192,54042,128,0,54276:0:0:0:0:
192,192,54120,128,0,54198:0:0:0:0:
320,192,54198,128,0,54276:0:0:0:0:
448,192,54276,128,0,54355:0:0:0:0:
64,192,54355,1,2,0:0:0:0:
192,192,54355,1,4,0:0:0:0:
320,192,54355,1,0,0:0:0:0:
64,192,54472,1,2,0:0:0:0:
448,192,54472,1,8,0:0:0:0:
192,192,54589,1,2,0:0:0:0:
320,192,54589,1,0,0:0:0:0:
448,192,54589,1,0,0:0:0:0:
64,192,54706,1,2,0:0:0:0:
192,192,54706,1,0,0:0:0:0:
320,192,54706,1,0,0:0:0:0:
320,192,54823,1,2,0:0:0:0:
448,192,54823,1,8,0:0:0:0:
64,192,54940,1,2,0:0:0:0:
192,192,54940,1,0,0:0:0:0:
448,192,54940,1,0,0:0:0:0:
64,192,55058,1,2,0:0:0:0:
320,192,55058,1,8,0:0:0:0:
192,192,55175,1,2,0:0:0:0:
320,192,55175,1,0,0:0:0:0:
448,192,55175,1,0,0:0:0:0:
64,192,55292,1,2,0:0:0:0:
192,192,55292,1,0,0:0:0:0:
64,192,55409,1,2,0:0:0:0:
320,192,55409,1,0,0:0:0:0:
448,192,55409,1,0,0:0:0:0:
192,192,55526,1,2,0:0:0:0:
320,192,55526,1,0,0:0:0:0:
448,192,55526,1,0,0:0:0:0:
64,192,55644,1,8,0:0:0:0:
192,192,55644,1,2,0:0:0:0:
64,192,55761,1,2,0:0:0:0:
320,192,55761,1,0,0:0:0:0:
448,192,55761,1,0,0:0:0:0:
64,192,55878,1,2,0:0:0:0:
192,192,55878,1,0,0:0:0:0:
448,192,55878,1,0,0:0:0:0:
192,192,55995,1,2,0:0:0:0:
320,192,55995,1,0,0:0:0:0:
448,192,55995,1,0,0:0:0:0:
64,192,56112,1,2,0:0:0:0:
320,192,56112,1,0,0:0:0:0:
448,192,56112,1,0,0:0:0:0:
192,192,56171,1,2,0:0:0:0:
64,192,56230,1,2,0:0:0:0:
320,192,56230,1,0,0:0:0:0:
448,192,56230,1,0,0:0:0:0:
192,192,56347,1,2,0:0:0:0:
320,192,56347,1,8,0:0:0:0:
64,192,56464,1,2,0:0:0:0:
192,192,56464,1,0,0:0:0:0:
448,192,56464,1,0,0:0:0:0:
64,192,56581,1,2,0:0:0:0:
320,192,56581,1,0,0:0:0:0:
448,192,56581,1,0,0:0:0:0:
192,192,56698,1,2,0:0:0:0:
320,192,56698,1,8,0:0:0:0:
64,192,56815,1,2,0:0:0:0:
192,192,56815,1,0,0:0:0:0:
448,192,56815,1,0,0:0:0:0:
64,192,56933,1,2,0:0:0:0:
320,192,56933,1,8,0:0:0:0:
64,192,57050,1,2,0:0:0:0:
192,192,57050,1,0,0:0:0:0:
320,192,57050,1,0,0:0:0:0:
320,192,57167,1,2,0:0:0:0:
448,192,57167,1,8,0:0:0:0:
64,192,57284,1,2,0:0:0:0:
192,192,57284,1,0,0:0:0:0:
320,192,57343,1,0,0:0:0:0:
64,192,57401,1,2,0:0:0:0:
192,192,57401,1,0,0:0:0:0:
448,192,57401,1,0,0:0:0:0:
320,192,57460,1,2,0:0:0:0:
192,192,57519,1,2,0:0:0:0:
448,192,57519,1,0,0:0:0:0:
64,192,57577,1,2,0:0:0:0:
320,192,57636,1,2,0:0:0:0:
448,192,57636,128,0,57870:0:0:0:0:
64,192,57753,1,0,0:0:0:0:
320,192,57753,128,0,57870:0:0:0:0:
64,192,57870,128,0,57987:0:0:0:0:
192,192,57870,1,0,0:0:0:0:
192,192,57987,1,0,0:0:0:0:
448,192,57987,128,0,58105:0:0:0:0:
64,192,58105,128,2,58222:0:0:0:0:
320,192,58105,1,4,0:0:0:0:
448,192,58222,1,0,0:0:0:0:
64,192,58280,1,4,0:0:0:0:
320,192,58280,1,2,0:0:0:0:
192,192,58339,128,0,58456:0:0:0:0:
320,192,58456,128,4,58573:0:0:0:0:
448,192,58456,1,2,0:0:0:0:
64,192,58573,1,2,0:0:0:0:
192,192,58573,1,4,0:0:0:0:
448,192,58690,128,0,58808:0:0:0:0:
64,192,58749,1,4,0:0:0:0:
320,192,58749,1,2,0:0:0:0:
192,192,58808,1,0,0:0:0:0:
64,192,58925,128,4,59042:0:0:0:0:
448,192,58925,1,2,0:0:0:0:
192,192,59042,1,2,0:0:0:0:
320,192,59042,1,4,0:0:0:0:
448,192,59159,128,0,59276:0:0:0:0:
64,192,59218,1,4,0:0:0:0:
192,192,59218,1,2,0:0:0:0:
320,192,59276,128,0,59394:0:0:0:0:
64,192,59394,1,2,0:0:0:0:
448,192,59394,1,4,0:0:0:0:
192,192,59511,1,4,0:0:0:0:
320,192,59511,128,2,59628:0:0:0:0:
64,192,59628,128,0,59745:0:0:0:0:
320,192,59687,1,2,0:0:0:0:
448,192,59687,1,4,0:0:0:0:
192,192,59745,128,0,59862:0:0:0:0:
64,192,59862,1,4,0:0:0:0:
448,192,59862,128,2,59980:0:0:0:0:
192,192,59980,1,2,0:0:0:0:
320,192,59980,128,4,60097:0:0:0:0:
64,192,60097,1,0,0:0:0:0:
320,192,60155,1,4,0:0:0:0:
448,192,60155,1,2,0:0:0:0:
192,192,60214,128,0,60331:0:0:0:0:
64,192,60331,128,2,60448:0:0:0:0:
320,192,60331,1,4,0:0:0:0:
192,192,60448,1,4,0:0:0:0:
448,192,60448,1,2,0:0:0:0:
320,192,60565,128,0,60683:0:0:0:0:
64,192,60624,1,2,0:0:0:0:
448,192,60624,1,4,0:0:0:0:
192,192,60683,1,0,0:0:0:0:
320,192,60800,1,4,0:0:0:0:
448,192,60800,128,2,60976:0:0:0:0:
64,192,60917,128,2,60976:0:0:0:0:
192,192,60917,128,0,60976:0:0:0:0:
320,192,60917,128,0,60976:0:0:0:0:
448,192,61034,128,0,61151:0:0:0:0:
192,192,61093,1,0,0:0:0:0:
64,192,61151,128,0,61230:0:0:0:0:
320,192,61151,128,0,61308:0:0:0:0:
192,192,61230,128,0,61308:0:0:0:0:
448,192,61308,128,0,61386:0:0:0:0:
64,192,61386,1,0,0:0:0:0:
192,192,61386,128,0,61542:0:0:0:0:
320,192,61464,128,0,61542:0:0:0:0:
448,192,61503,1,0,0:0:0:0:
64,192,61542,128,0,61620:0:0:0:0:
320,192,61620,1,0,0:0:0:0:
448,192,61620,128,0,61776:0:0:0:0:
192,192,61698,128,0,61776:0:0:0:0:
64,192,61776,128,0,61855:0:0:0:0:
192,192,61855,1,2,0:0:0:0:
320,192,61855,1,4,0:0:0:0:
448,192,61855,1,0,0:0:0:0:
64,192,61972,1,0,0:0:0:0:
192,192,61972,1,0,0:0:0:0:
64,192,62089,1,2,0:0:0:0:
320,192,62089,1,0,0:0:0:0:
448,192,62089,1,0,0:0:0:0:
320,192,62206,1,0,0:0:0:0:
448,192,62206,1,0,0:0:0:0:
64,192,62323,1,2,0:0:0:0:
192,192,62323,1,0,0:0:0:0:
448,192,62323,1,0,0:0:0:0:
64,192,62440,1,0,0:0:0:0:
192,192,62440,1,0,0:0:0:0:
64,192,62558,1,2,0:0:0:0:
320,192,62558,1,0,0:0:0:0:
448,192,62558,1,0,0:0:0:0:
192,192,62675,1,0,0:0:0:0:
448,192,62675,1,0,0:0:0:0:
64,192,62792,1,2,0:0:0:0:
192,192,62792,1,0,0:0:0:0:
320,192,62792,1,0,0:0:0:0:
448,192,62792,1,0,0:0:0:0:
64,192,62909,1,0,0:0:0:0:
320,192,62909,1,0,0:0:0:0:
64,192,63026,1,2,0:0:0:0:
192,192,63026,1,0,0:0:0:0:
448,192,63026,1,0,0:0:0:0:
320,192,63144,1,0,0:0:0:0:
448,192,63144,1,0,0:0:0:0:
64,192,63261,1,2,0:0:0:0:
192,192,63261,1,0,0:0:0:0:
320,192,63261,1,0,0:0:0:0:
192,192,63378,1,0,0:0:0:0:
448,192,63378,1,0,0:0:0:0:
64,192,63495,1,2,0:0:0:0:
320,192,63495,1,0,0:0:0:0:
448,192,63495,1,0,0:0:0:0:
192,192,63612,1,2,0:0:0:0:
320,192,63612,1,0,0:0:0:0:
64,192,63730,1,4,0:0:0:0:
192,192,63730,128,2,63964:0:0:0:0:
448,192,63730,1,0,0:0:0:0:
320,192,63817,1,0,0:0:0:0:
448,192,63847,128,0,63964:0:0:0:0:
64,192,63964,1,0,0:0:0:0:
448,192,64081,1,0,0:0:0:0:
192,192,64140,1,0,0:0:0:0:
64,192,64198,1,0,0:0:0:0:
448,192,64198,1,0,0:0:0:0:
320,192,64257,1,0,0:0:0:0:
192,192,64315,1,0,0:0:0:0:
448,192,64433,1,0,0:0:0:0:
320,192,64491,1,0,0:0:0:0:
64,192,64550,1,0,0:0:0:0:
192,192,64608,1,0,0:0:0:0:
320,192,64667,1,0,0:0:0:0:
448,192,64667,1,0,0:0:0:0:
320,192,64784,1,0,0:0:0:0:
448,192,64784,1,0,0:0:0:0:
192,192,64901,128,0,65019:0:0:0:0:
64,192,64931,128,0,65136:0:0:0:0:
320,192,65136,1,0,0:0:0:0:
448,192,65136,1,0,0:0:0:0:
320,192,65253,1,0,0:0:0:0:
448,192,65253,1,0,0:0:0:0:
192,192,65370,128,0,65487:0:0:0:0:
64,192,65399,128,0,65605:0:0:0:0:
192,192,65605,1,2,0:0:0:0:
320,192,65605,1,4,0:0:0:0:
448,192,65605,1,0,0:0:0:0:
192,192,65722,1,0,0:0:0:0:
320,192,65722,1,0,0:0:0:0:
64,192,65839,1,2,0:0:0:0:
192,192,65839,1,0,0:0:0:0:
448,192,65839,1,0,0:0:0:0:
64,192,65956,1,0,0:0:0:0:
448,192,65956,1,0,0:0:0:0:
64,192,66073,1,2,0:0:0:0:
192,192,66073,1,0,0:0:0:0:
320,192,66073,1,0,0:0:0:0:
64,192,66190,1,0,0:0:0:0:
192,192,66190,1,0,0:0:0:0:
192,192,66308,1,2,0:0:0:0:
320,192,66308,1,0,0:0:0:0:
448,192,66308,1,0,0:0:0:0:
64,192,66425,1,0,0:0:0:0:
448,192,66425,1,0,0:0:0:0:
64,192,66542,1,2,0:0:0:0:
192,192,66542,1,0,0:0:0:0:
320,192,66542,1,0,0:0:0:0:
448,192,66542,1,0,0:0:0:0:
192,192,66659,1,0,0:0:0:0:
320,192,66659,1,0,0:0:0:0:
64,192,66776,1,2,0:0:0:0:
192,192,66776,1,0,0:0:0:0:
448,192,66776,1,0,0:0:0:0:
320,192,66894,1,0,0:0:0:0:
448,192,66894,1,0,0:0:0:0:
64,192,67011,1,2,0:0:0:0:
192,192,67011,1,0,0:0:0:0:
320,192,67011,1,0,0:0:0:0:
64,192,67128,1,2,0:0:0:0:
192,192,67128,1,0,0:0:0:0:
448,192,67128,1,0,0:0:0:0:
192,192,67245,1,2,0:0:0:0:
320,192,67245,1,0,0:0:0:0:
448,192,67245,1,0,0:0:0:0:
64,192,67304,1,2,0:0:0:0:
320,192,67362,1,2,0:0:0:0:
448,192,67362,1,0,0:0:0:0:
192,192,67421,1,2,0:0:0:0:
64,192,67480,1,2,0:0:0:0:
320,192,67480,1,4,0:0:0:0:
448,192,67480,1,0,0:0:0:0:
192,192,67538,1,0,0:0:0:0:
320,192,67597,1,0,0:0:0:0:
64,192,67714,1,0,0:0:0:0:
448,192,67714,1,0,0:0:0:0:
64,192,67831,1,0,0:0:0:0:
320,192,67890,1,0,0:0:0:0:
192,192,67948,1,0,0:0:0:0:
448,192,67948,1,0,0:0:0:0:
64,192,68007,1,0,0:0:0:0:
320,192,68065,1,0,0:0:0:0:
192,192,68124,1,0,0:0:0:0:
448,192,68183,1,0,0:0:0:0:
64,192,68241,1,0,0:0:0:0:
192,192,68300,1,0,0:0:0:0:
448,192,68358,1,0,0:0:0:0:
320,192,68388,1,0,0:0:0:0:
64,192,68417,1,0,0:0:0:0:
192,192,68417,1,0,0:0:0:0:
448,192,68534,1,0,0:0:0:0:
320,192,68593,1,0,0:0:0:0:
64,192,68651,1,0,0:0:0:0:
192,192,68651,1,0,0:0:0:0:
320,192,68710,1,0,0:0:0:0:
192,192,68769,1,0,0:0:0:0:
448,192,68769,1,0,0:0:0:0:
64,192,68886,1,0,0:0:0:0:
320,192,68915,1,0,0:0:0:0:
64,192,69003,1,0,0:0:0:0:
320,192,69032,1,0,0:0:0:0:
448,192,69120,1,0,0:0:0:0:
192,192,69149,1,0,0:0:0:0:
448,192,69237,1,0,0:0:0:0:
192,192,69296,1,0,0:0:0:0:
64,192,69355,1,2,0:0:0:0:
320,192,69355,1,4,0:0:0:0:
448,192,69355,1,0,0:0:0:0:
192,192,69413,1,0,0:0:0:0:
320,192,69472,1,0,0:0:0:0:
448,192,69472,1,0,0:0:0:0:
64,192,69589,1,2,0:0:0:0:
192,192,69589,1,0,0:0:0:0:
448,192,69589,1,0,0:0:0:0:
64,192,69706,1,0,0:0:0:0:
192,192,69706,1,0,0:0:0:0:
64,192,69823,1,2,0:0:0:0:
320,192,69823,1,0,0:0:0:0:
448,192,69823,1,0,0:0:0:0:
192,192,69940,1,0,0:0:0:0:
448,192,69940,1,0,0:0:0:0:
64,192,70058,1,2,0:0:0:0:
192,192,70058,1,0,0:0:0:0:
320,192,70058,1,0,0:0:0:0:
64,192,70175,1,0,0:0:0:0:
448,192,70175,1,0,0:0:0:0:
64,192,70292,1,2,0:0:0:0:
192,192,70292,1,0,0:0:0:0:
320,192,70292,1,0,0:0:0:0:
448,192,70292,1,0,0:0:0:0:
192,192,70409,1,2,0:0:0:0:
320,192,70409,1,0,0:0:0:0:
64,192,70526,1,2,0:0:0:0:
320,192,70526,1,0,0:0:0:0:
448,192,70526,1,0,0:0:0:0:
192,192,70644,1,0,0:0:0:0:
448,192,70644,1,0,0:0:0:0:
64,192,70761,1,2,0:0:0:0:
192,192,70761,1,0,0:0:0:0:
320,192,70761,1,0,0:0:0:0:
64,192,70878,1,2,0:0:0:0:
448,192,70878,1,0,0:0:0:0:
64,192,70995,1,2,0:0:0:0:
192,192,70995,1,0,0:0:0:0:
320,192,70995,1,0,0:0:0:0:
192,192,71112,1,2,0:0:0:0:
320,192,71112,1,0,0:0:0:0:
64,192,71230,128,2,71425:0:0:0:0:
192,192,71230,128,4,71444:0:0:0:0:
448,192,71230,1,0,0:0:0:0:
320,192,71259,1,0,0:0:0:0:
448,192,71347,128,0,71464:0:0:0:0:
320,192,71464,1,0,0:0:0:0:
64,192,71581,128,4,71776:0:0:0:0:
192,192,71581,128,2,71796:0:0:0:0:
448,192,71581,1,0,0:0:0:0:
320,192,71610,1,0,0:0:0:0:
448,192,71698,128,0,71815:0:0:0:0:
320,192,71815,1,0,0:0:0:0:
64,192,71933,1,0,0:0:0:0:
320,192,71991,1,0,0:0:0:0:
64,192,72050,1,0,0:0:0:0:
320,192,72108,1,0,0:0:0:0:
64,192,72167,1,0,0:0:0:0:
448,192,72167,1,0,0:0:0:0:
192,192,72255,1,0,0:0:0:0:
320,192,72284,1,0,0:0:0:0:
64,192,72343,1,0,0:0:0:0:
192,192,72372,1,0,0:0:0:0:
320,192,72401,128,0,72519:0:0:0:0:
448,192,72519,1,0,0:0:0:0:
320,192,72577,1,0,0:0:0:0:
64,192,72636,1,0,0:0:0:0:
192,192,72636,1,0,0:0:0:0:
192,192,72753,1,0,0:0:0:0:
448,192,72870,128,0,72987:0:0:0:0:
320,192,72899,128,0,73105:0:0:0:0:
64,192,72987,1,0,0:0:0:0:
448,192,73046,1,0,0:0:0:0:
64,192,73105,1,4,0:0:0:0:
192,192,73105,1,2,0:0:0:0:
320,192,73163,1,0,0:0:0:0:
64,192,73222,1,8,0:0:0:0:
192,192,73222,1,0,0:0:0:0:
320,192,73339,1,2,0:0:0:0:
448,192,73339,1,4,0:0:0:0:
192,192,73397,1,0,0:0:0:0:
320,192,73456,1,8,0:0:0:0:
448,192,73456,1,0,0:0:0:0:
64,192,73573,128,0,73808:0:0:0:0:
192,192,73603,128,0,73749:0:0:0:0:
448,192,73808,128,0,74042:0:0:0:0:
320,192,73837,128,0,73983:0:0:0:0:
64,192,74042,1,4,0:0:0:0:
192,192,74042,1,2,0:0:0:0:
320,192,74101,1,0,0:0:0:0:
64,192,74159,1,8,0:0:0:0:
192,192,74159,1,0,0:0:0:0:
320,192,74276,1,2,0:0:0:0:
448,192,74276,1,4,0:0:0:0:
192,192,74335,1,0,0:0:0:0:
320,192,74394,1,8,0:0:0:0:
448,192,74394,1,0,0:0:0:0:
192,192,74511,128,0,74569:0:0:0:0:
64,192,74540,128,0,74628:0:0:0:0:
320,192,74745,128,0,74862:0:0:0:0:
448,192,74784,128,0,74980:0:0:0:0:
64,192,74980,1,2,0:0:0:0:
192,192,74980,1,4,0:0:0:0:
320,192,75038,1,0,0:0:0:0:
64,192,75097,128,4,75253:0:0:0:0:
192,192,75097,128,8,75214:0:0:0:0:
320,192,75331,1,6,0:0:0:0:
448,192,75331,1,8,0:0:0:0:
192,192,75390,1,0,0:0:0:0:
320,192,75448,128,0,75565:0:0:0:0:
448,192,75448,128,0,75605:0:0:0:0:
64,192,75683,1,4,0:0:0:0:
192,192,75683,1,2,0:0:0:0:
320,192,75741,1,0,0:0:0:0:
64,192,75800,128,0,75956:0:0:0:0:
192,192,75800,128,0,75917:0:0:0:0:
320,192,76034,1,6,0:0:0:0:
448,192,76034,1,8,0:0:0:0:
192,192,76093,1,0,0:0:0:0:
320,192,76151,1,4,0:0:0:0:
448,192,76151,1,8,0:0:0:0:
192,192,76210,1,0,0:0:0:0:
320,192,76269,1,0,0:0:0:0:
448,192,76269,1,0,0:0:0:0:
192,192,76386,1,2,0:0:0:0:
320,192,76386,1,4,0:0:0:0:
448,192,76386,128,0,76562:0:0:0:0:
64,192,76503,1,4,0:0:0:0:
192,192,76503,1,0,0:0:0:0:
320,192,76562,1,0,0:0:0:0:
64,192,76620,1,0,0:0:0:0:
448,192,76620,128,0,76737:0:0:0:0:
320,192,76679,128,0,76737:0:0:0:0:
192,192,76737,128,0,76796:0:0:0:0:
64,192,76796,128,0,76855:0:0:0:0:
192,192,76855,128,4,76972:0:0:0:0:
320,192,76855,128,2,76913:0:0:0:0:
448,192,76855,128,0,76913:0:0:0:0:
64,192,76913,1,2,0:0:0:0:
320,192,76972,1,2,0:0:0:0:
448,192,76972,1,0,0:0:0:0:
64,192,77089,1,2,0:0:0:0:
192,192,77089,1,0,0:0:0:0:
320,192,77089,1,0,0:0:0:0:
448,192,77147,1,2,0:0:0:0:
64,192,77206,1,2,0:0:0:0:
192,192,77206,1,0,0:0:0:0:
320,192,77323,128,4,77440:0:0:0:0:
192,192,77382,128,0,77440:0:0:0:0:
64,192,77440,1,2,0:0:0:0:
448,192,77440,1,0,0:0:0:0:
320,192,77499,1,2,0:0:0:0:
64,192,77558,1,2,0:0:0:0:
192,192,77558,1,0,0:0:0:0:
320,192,77616,1,2,0:0:0:0:
64,192,77675,1,2,0:0:0:0:
448,192,77675,1,0,0:0:0:0:
320,192,77792,1,2,0:0:0:0:
448,192,77792,1,4,0:0:0:0:
64,192,77851,1,2,0:0:0:0:
192,192,77851,1,0,0:0:0:0:
320,192,77909,1,0,0:0:0:0:
64,192,77968,1,2,0:0:0:0:
448,192,77968,1,0,0:0:0:0:
192,192,78026,1,2,0:0:0:0:
320,192,78026,1,0,0:0:0:0:
64,192,78144,1,2,0:0:0:0:
192,192,78144,1,0,0:0:0:0:
320,192,78202,1,2,0:0:0:0:
448,192,78202,1,0,0:0:0:0:
64,192,78261,1,4,0:0:0:0:
192,192,78319,1,2,0:0:0:0:
320,192,78319,1,0,0:0:0:0:
64,192,78378,1,2,0:0:0:0:
448,192,78378,1,0,0:0:0:0:
320,192,78495,1,2,0:0:0:0:
448,192,78495,1,0,0:0:0:0:
192,192,78554,1,2,0:0:0:0:
64,192,78612,1,2,0:0:0:0:
448,192,78612,1,0,0:0:0:0:
320,192,78671,1,2,0:0:0:0:
64,192,78730,1,2,0:0:0:0:
192,192,78730,1,4,0:0:0:0:
320,192,78788,1,2,0:0:0:0:
448,192,78788,1,0,0:0:0:0:
64,192,78847,1,2,0:0:0:0:
192,192,78847,1,0,0:0:0:0:
320,192,78964,1,2,0:0:0:0:
448,192,78964,1,0,0:0:0:0:
64,192,79022,1,2,0:0:0:0:
192,192,79022,1,0,0:0:0:0:
320,192,79081,1,2,0:0:0:0:
448,192,79081,1,0,0:0:0:0:
64,192,79198,1,4,0:0:0:0:
192,192,79237,1,0,0:0:0:0:
320,192,79276,1,0,0:0:0:0:
64,192,79315,1,2,0:0:0:0:
448,192,79315,1,0,0:0:0:0:
192,192,79374,1,2,0:0:0:0:
320,192,79433,1,2,0:0:0:0:
448,192,79433,1,0,0:0:0:0:
64,192,79491,1,2,0:0:0:0:
192,192,79550,1,2,0:0:0:0:
320,192,79550,1,0,0:0:0:0:
64,192,79667,1,2,0:0:0:0:
192,192,79667,1,4,0:0:0:0:
320,192,79726,1,2,0:0:0:0:
448,192,79726,1,0,0:0:0:0:
64,192,79784,1,0,0:0:0:0:
192,192,79843,1,2,0:0:0:0:
448,192,79843,1,0,0:0:0:0:
64,192,79901,1,2,0:0:0:0:
320,192,79901,1,0,0:0:0:0:
320,192,80019,1,2,0:0:0:0:
448,192,80019,1,0,0:0:0:0:
64,192,80136,1,2,0:0:0:0:
192,192,80136,128,4,80214:0:0:0:0:
320,192,80214,128,0,80292:0:0:0:0:
64,192,80253,1,2,0:0:0:0:
448,192,80253,1,0,0:0:0:0:
192,192,80292,128,0,80370:0:0:0:0:
320,192,80370,1,2,0:0:0:0:
448,192,80370,1,0,0:0:0:0:
64,192,80487,1,2,0:0:0:0:
320,192,80487,1,0,0:0:0:0:
64,192,80605,1,2,0:0:0:0:
448,192,80605,1,4,0:0:0:0:
192,192,80663,1,2,0:0:0:0:
320,192,80663,1,0,0:0:0:0:
64,192,80722,1,2,0:0:0:0:
448,192,80722,1,0,0:0:0:0:
192,192,80839,1,2,0:0:0:0:
320,192,80839,1,0,0:0:0:0:
64,192,80897,1,2,0:0:0:0:
448,192,80897,1,0,0:0:0:0:
192,192,80956,1,2,0:0:0:0:
320,192,80956,1,0,0:0:0:0:
64,192,81073,1,4,0:0:0:0:
192,192,81073,128,0,81190:0:0:0:0:
320,192,81190,1,2,0:0:0:0:
448,192,81190,1,0,0:0:0:0:
192,192,81249,1,2,0:0:0:0:
64,192,81308,1,2,0:0:0:0:
448,192,81308,1,0,0:0:0:0:
192,192,81366,1,2,0:0:0:0:
64,192,81425,1,2,0:0:0:0:
320,192,81425,1,0,0:0:0:0:
64,192,81542,1,2,0:0:0:0:
192,192,81542,1,4,0:0:0:0:
320,192,81601,1,2,0:0:0:0:
448,192,81601,1,0,0:0:0:0:
192,192,81659,1,0,0:0:0:0:
64,192,81718,1,2,0:0:0:0:
448,192,81718,1,0,0:0:0:0:
192,192,81776,1,2,0:0:0:0:
320,192,81776,1,0,0:0:0:0:
320,192,81894,1,2,0:0:0:0:
448,192,81894,1,0,0:0:0:0:
64,192,81952,1,2,0:0:0:0:
192,192,81952,1,0,0:0:0:0:
448,192,82011,1,4,0:0:0:0:
64,192,82069,1,2,0:0:0:0:
320,192,82069,1,0,0:0:0:0:
192,192,82128,1,2,0:0:0:0:
448,192,82128,1,0,0:0:0:0:
64,192,82245,1,2,0:0:0:0:
192,192,82245,1,0,0:0:0:0:
448,192,82304,1,2,0:0:0:0:
64,192,82362,1,2,0:0:0:0:
320,192,82362,1,0,0:0:0:0:
192,192,82421,1,2,0:0:0:0:
320,192,82480,1,2,0:0:0:0:
448,192,82480,1,4,0:0:0:0:
64,192,82538,1,2,0:0:0:0:
192,192,82538,1,0,0:0:0:0:
320,192,82597,1,2,0:0:0:0:
448,192,82597,1,0,0:0:0:0:
64,192,82714,1,2,0:0:0:0:
192,192,82714,1,0,0:0:0:0:
320,192,82772,1,2,0:0:0:0:
448,192,82772,1,0,0:0:0:0:
64,192,82831,1,2,0:0:0:0:
192,192,82831,1,0,0:0:0:0:
448,192,82948,1,4,0:0:0:0:
320,192,82987,1,0,0:0:0:0:
192,192,83026,1,0,0:0:0:0:
64,192,83065,1,2,0:0:0:0:
448,192,83065,1,0,0:0:0:0:
192,192,83124,1,2,0:0:0:0:
320,192,83183,1,2,0:0:0:0:
448,192,83183,1,0,0:0:0:0:
64,192,83241,1,2,0:0:0:0:
192,192,83300,1,2,0:0:0:0:
320,192,83300,1,0,0:0:0:0:
64,192,83417,1,2,0:0:0:0:
192,192,83417,1,4,0:0:0:0:
320,192,83476,1,2,0:0:0:0:
448,192,83476,1,0,0:0:0:0:
64,192,83534,1,0,0:0:0:0:
192,192,83593,1,2,0:0:0:0:
448,192,83593,1,0,0:0:0:0:
64,192,83651,1,2,0:0:0:0:
320,192,83651,1,0,0:0:0:0:
192,192,83769,1,2,0:0:0:0:
448,192,83769,1,0,0:0:0:0:
64,192,83827,1,0,0:0:0:0:
320,192,83886,1,2,0:0:0:0:
448,192,83886,128,4,83964:0:0:0:0:
64,192,83964,128,0,84042:0:0:0:0:
192,192,84003,1,2,0:0:0:0:
320,192,84003,1,0,0:0:0:0:
448,192,84042,128,0,84120:0:0:0:0:
64,192,84120,1,2,0:0:0:0:
192,192,84120,1,0,0:0:0:0:
320,192,84179,1,0,0:0:0:0:
64,192,84237,1,2,0:0:0:0:
448,192,84237,1,0,0:0:0:0:
64,192,84355,128,2,85292:0:0:0:0:
192,192,84355,128,4,85253:0:0:0:0:
320,192,84355,128,0,85214:0:0:0:0:
320,192,85292,128,0,85331:0:0:0:0:
448,192,85292,128,0,85995:0:0:0:0:
192,192,85331,128,0,85370:0:0:0:0:
64,192,85370,128,0,85409:0:0:0:0:
320,192,85409,128,0,85448:0:0:0:0:
192,192,85448,128,0,85487:0:0:0:0:
64,192,85487,128,0,85526:0:0:0:0:
320,192,85526,128,0,85585:0:0:0:0:
192,192,85585,128,0,85644:0:0:0:0:
64,192,85644,128,0,85702:0:0:0:0:
320,192,85702,128,0,85761:0:0:0:0:
192,192,85761,128,0,85839:0:0:0:0:
64,192,85839,128,0,85917:0:0:0:0:
320,192,85917,128,0,85995:0:0:0:0:
192,192,85995,128,0,86347:0:0:0:0:
64,192,86230,1,0,0:0:0:0:
320,192,86347,128,0,87401:0:0:0:0:
448,192,86376,1,0,0:0:0:0:
64,192,86464,1,0,0:0:0:0:
192,192,86581,1,0,0:0:0:0:
64,192,86698,1,0,0:0:0:0:
448,192,86728,1,0,0:0:0:0:
64,192,86815,128,0,86962:0:0:0:0:
192,192,86845,128,0,86933:0:0:0:0:
448,192,86933,1,0,0:0:0:0:
192,192,87050,1,0,0:0:0:0:
64,192,87079,128,0,87167:0:0:0:0:
448,192,87167,128,0,87284:0:0:0:0:
192,192,87196,1,0,0:0:0:0:
64,192,87284,128,0,87343:0:0:0:0:
64,192,87401,128,0,87929:0:0:0:0:
192,192,87401,1,0,0:0:0:0:
448,192,87519,1,0,0:0:0:0:
320,192,87577,1,0,0:0:0:0:
192,192,87636,1,0,0:0:0:0:
192,192,87753,1,0,0:0:0:0:
448,192,87870,128,0,88046:0:0:0:0:
320,192,87929,1,0,0:0:0:0:
64,192,87987,1,0,0:0:0:0:
320,192,88046,1,0,0:0:0:0:
192,192,88105,128,0,88397:0:0:0:0:
448,192,88134,1,0,0:0:0:0:
64,192,88222,128,0,88427:0:0:0:0:
320,192,88251,128,0,88368:0:0:0:0:
448,192,88427,1,0,0:0:0:0:
320,192,88456,1,0,0:0:0:0:
192,192,88485,1,0,0:0:0:0:
64,192,88515,1,0,0:0:0:0:
320,192,88573,1,0,0:0:0:0:
192,192,88661,128,0,88720:0:0:0:0:
448,192,88676,128,0,88734:0:0:0:0:
64,192,88808,1,0,0:0:0:0:
320,192,88925,1,0,0:0:0:0:
448,192,89042,128,0,89511:0:0:0:0:
64,192,89062,128,0,89257:0:0:0:0:
192,192,89276,128,0,89394:0:0:0:0:
320,192,89296,128,0,89628:0:0:0:0:
64,192,89394,1,0,0:0:0:0:
192,192,89511,1,0,0:0:0:0:
448,192,89628,1,0,0:0:0:0:
320,192,89745,1,0,0:0:0:0:
192,192,89862,1,0,0:0:0:0:
64,192,89980,128,0,90800:0:0:0:0:
448,192,89999,1,0,0:0:0:0:
320,192,90097,1,0,0:0:0:0:
192,192,90214,128,0,90390:0:0:0:0:
320,192,90253,128,0,90370:0:0:0:0:
448,192,90292,128,0,90351:0:0:0:0:
448,192,90448,128,0,90565:0:0:0:0:
320,192,90565,1,0,0:0:0:0:
448,192,90683,128,0,90800:0:0:0:0:
320,192,90800,1,0,0:0:0:0:
64,192,90917,1,0,0:0:0:0:
192,192,90917,128,0,91855:0:0:0:0:
320,192,91034,128,0,91093:0:0:0:0:
320,192,91151,128,0,91210:0:0:0:0:
320,192,91269,128,0,91327:0:0:0:0:
320,192,91386,128,0,91562:0:0:0:0:
448,192,91503,128,0,91620:0:0:0:0:
320,192,91620,1,0,0:0:0:0:
64,192,91640,1,0,0:0:0:0:
64,192,91776,128,0,91855:0:0:0:0:
320,192,91855,1,8,0:0:0:0:
448,192,91855,128,0,92089:0:0:0:0:
192,192,91972,1,0,0:0:0:0:
64,192,92089,128,8,92323:0:0:0:0:
448,192,92206,1,0,0:0:0:0:
320,192,92323,128,8,92558:0:0:0:0:
64,192,92440,1,0,0:0:0:0:
192,192,92558,128,8,92792:0:0:0:0:
320,192,92675,1,0,0:0:0:0:
64,192,92792,1,8,0:0:0:0:
448,192,92792,128,0,93026:0:0:0:0:
192,192,92909,1,0,0:0:0:0:
320,192,93026,128,8,93261:0:0:0:0:
448,192,93144,1,0,0:0:0:0:
192,192,93261,128,8,93495:0:0:0:0:
320,192,93378,1,0,0:0:0:0:
448,192,93495,128,8,93730:0:0:0:0:
192,192,93612,1,0,0:0:0:0:
64,192,93730,1,8,0:0:0:0:
320,192,93730,1,0,0:0:0:0:
448,192,93847,1,0,0:0:0:0:
192,192,93964,1,8,0:0:0:0:
320,192,93964,1,0,0:0:0:0:
64,192,94081,1,0,0:0:0:0:
448,192,94081,1,0,0:0:0:0:
192,192,94198,1,8,0:0:0:0:
320,192,94315,1,0,0:0:0:0:
448,192,94315,1,0,0:0:0:0:
64,192,94433,1,8,0:0:0:0:
192,192,94550,1,0,0:0:0:0:
320,192,94550,1,0,0:0:0:0:
64,192,94667,1,8,0:0:0:0:
320,192,94667,1,0,0:0:0:0:
448,192,94667,1,0,0:0:0:0:
64,192,94784,1,0,0:0:0:0:
192,192,94784,128,0,94901:0:0:0:0:
320,192,94901,1,8,0:0:0:0:
448,192,94901,128,0,95019:0:0:0:0:
192,192,95019,1,0,0:0:0:0:
192,192,95136,1,8,0:0:0:0:
320,192,95136,128,0,95253:0:0:0:0:
448,192,95136,128,0,95253:0:0:0:0:
64,192,95253,1,0,0:0:0:0:
64,192,95370,128,8,95487:0:0:0:0:
192,192,95370,128,0,95487:0:0:0:0:
448,192,95370,1,0,0:0:0:0:
320,192,95487,1,0,0:0:0:0:
64,192,95605,1,8,0:0:0:0:
192,192,95605,1,2,0:0:0:0:
448,192,95605,1,4,0:0:0:0:
64,192,95722,1,8,0:0:0:0:
192,192,95722,1,2,0:0:0:0:
448,192,95722,1,4,0:0:0:0:
320,192,95839,1,0,0:0:0:0:
64,192,95878,128,0,95956:0:0:0:0:
192,192,95917,128,0,95995:0:0:0:0:
320,192,95956,128,0,96073:0:0:0:0:
64,192,96073,1,8,0:0:0:0:
192,192,96073,1,2,0:0:0:0:
448,192,96073,1,4,0:0:0:0:
64,192,96190,1,8,0:0:0:0:
192,192,96190,1,2,0:0:0:0:
448,192,96190,1,4,0:0:0:0:
320,192,96308,1,0,0:0:0:0:
448,192,96337,1,0,0:0:0:0:
64,192,96425,1,0,0:0:0:0:
192,192,96454,1,0,0:0:0:0:
64,192,96542,1,4,0:0:0:0:
192,192,96542,1,2,0:0:0:0:
448,192,96542,1,8,0:0:0:0:
64,192,96659,1,4,0:0:0:0:
192,192,96659,1,2,0:0:0:0:
448,192,96659,1,8,0:0:0:0:
320,192,96776,128,0,96855:0:0:0:0:
192,192,96815,128,0,96894:0:0:0:0:
64,192,96855,128,0,96933:0:0:0:0:
448,192,96894,128,0,96972:0:0:0:0:
320,192,96933,128,0,97011:0:0:0:0:
64,192,97011,1,8,0:0:0:0:
192,192,97011,1,2,0:0:0:0:
448,192,97011,1,4,0:0:0:0:
64,192,97128,1,8,0:0:0:0:
192,192,97128,1,2,0:0:0:0:
448,192,97128,1,4,0:0:0:0:
320,192,97245,1,0,0:0:0:0:
192,192,97274,1,0,0:0:0:0:
64,192,97304,1,0,0:0:0:0:
448,192,97362,128,0,97480:0:0:0:0:
320,192,97401,128,0,97480:0:0:0:0:
64,192,97480,1,12,0:0:0:0:
192,192,97480,1,2,0:0:0:0:
320,192,97538,1,8,0:0:0:0:
448,192,97538,1,2,0:0:0:0:
64,192,97597,1,8,0:0:0:0:
192,192,97597,1,2,0:0:0:0:
320,192,97655,1,8,0:0:0:0:
448,192,97655,1,2,0:0:0:0:
64,192,97714,1,12,0:0:0:0:
192,192,97714,1,2,0:0:0:0:
320,192,97772,1,8,0:0:0:0:
448,192,97772,1,2,0:0:0:0:
64,192,97831,1,8,0:0:0:0:
192,192,97831,1,2,0:0:0:0:
320,192,97890,1,8,0:0:0:0:
448,192,97890,1,2,0:0:0:0:
64,192,97948,1,12,0:0:0:0:
192,192,97948,1,2,0:0:0:0:
320,192,98007,1,8,0:0:0:0:
448,192,98007,1,2,0:0:0:0:
64,192,98065,1,8,0:0:0:0:
192,192,98065,1,2,0:0:0:0:
320,192,98124,1,8,0:0:0:0:
448,192,98124,1,2,0:0:0:0:
64,192,98183,1,12,0:0:0:0:
192,192,98183,1,2,0:0:0:0:
320,192,98241,1,8,0:0:0:0:
448,192,98241,1,2,0:0:0:0:
64,192,98300,1,8,0:0:0:0:
192,192,98300,1,2,0:0:0:0:
320,192,98358,1,8,0:0:0:0:
448,192,98358,1,2,0:0:0:0:
64,192,98417,128,0,98511:0:0:0:0:
192,192,98417,1,0,0:0:0:0:
320,192,98464,128,0,98558:0:0:0:0:
448,192,98511,128,0,98605:0:0:0:0:
192,192,98558,128,0,98651:0:0:0:0:
320,192,98605,128,0,98651:0:0:0:0:
64,192,98739,1,0,0:0:0:0:
192,192,98769,1,0,0:0:0:0:
448,192,98886,128,0,99003:0:0:0:0:
320,192,98925,128,0,98983:0:0:0:0:
192,192,98964,128,0,99062:0:0:0:0:
64,192,99003,128,0,99062:0:0:0:0:
320,192,99042,128,0,99120:0:0:0:0:
448,192,99081,128,0,99257:0:0:0:0:
64,192,99120,128,0,99179:0:0:0:0:
320,192,99179,128,0,99276:0:0:0:0:
192,192,99237,128,0,99296:0:0:0:0:
64,192,99296,128,0,99355:0:0:0:0:
320,192,99355,128,4,99472:0:0:0:0:
448,192,99355,128,2,99823:0:0:0:0:
192,192,99413,128,0,99472:0:0:0:0:
64,192,99472,128,0,99589:0:0:0:0:
192,192,99530,1,0,0:0:0:0:
320,192,99589,128,0,99706:0:0:0:0:
64,192,99647,1,0,0:0:0:0:
192,192,99706,1,0,0:0:0:0:
320,192,99765,1,0,0:0:0:0:
64,192,99823,1,0,0:0:0:0:
192,192,99862,1,0,0:0:0:0:
448,192,99901,1,0,0:0:0:0:
320,192,99940,1,0,0:0:0:0:
64,192,100058,1,0,0:0:0:0:
192,192,100077,1,0,0:0:0:0:
64,192,100175,1,0,0:0:0:0:
192,192,100194,1,0,0:0:0:0:
320,192,100233,1,0,0:0:0:0:
448,192,100292,1,0,0:0:0:0:
64,192,100312,1,0,0:0:0:0:
448,192,100409,1,0,0:0:0:0:
64,192,100429,1,0,0:0:0:0:
448,192,100526,1,0,0:0:0:0:
192,192,100546,1,0,0:0:0:0:
320,192,100585,1,0,0:0:0:0:
192,192,100663,1,0,0:0:0:0:
64,192,100761,1,0,0:0:0:0:
448,192,100780,1,0,0:0:0:0:
320,192,100819,1,0,0:0:0:0:
192,192,100878,1,0,0:0:0:0:
64,192,100937,1,0,0:0:0:0:
320,192,100995,1,0,0:0:0:0:
448,192,101015,1,0,0:0:0:0:
192,192,101112,1,0,0:0:0:0:
320,192,101132,1,0,0:0:0:0:
64,192,101230,1,0,0:0:0:0:
448,192,101230,1,0,0:0:0:0:
320,192,101269,1,0,0:0:0:0:
192,192,101308,1,0,0:0:0:0:
448,192,101347,1,0,0:0:0:0:
64,192,101386,1,0,0:0:0:0:
192,192,101425,1,0,0:0:0:0:
320,192,101464,1,0,0:0:0:0:
448,192,101464,1,0,0:0:0:0:
64,192,101522,1,0,0:0:0:0:
320,192,101581,1,0,0:0:0:0:
192,192,101640,1,0,0:0:0:0:
448,192,101698,1,0,0:0:0:0:
64,192,101737,1,0,0:0:0:0:
192,192,101776,1,0,0:0:0:0:
320,192,101815,1,0,0:0:0:0:
192,192,101933,1,0,0:0:0:0:
64,192,101972,1,0,0:0:0:0:
320,192,102050,1,0,0:0:0:0:
448,192,102089,1,0,0:0:0:0:
192,192,102128,1,0,0:0:0:0:
64,192,102167,1,0,0:0:0:0:
320,192,102187,1,0,0:0:0:0:
192,192,102284,1,0,0:0:0:0:
448,192,102323,1,0,0:0:0:0:
320,192,102362,1,0,0:0:0:0:
64,192,102401,1,0,0:0:0:0:
192,192,102421,1,0,0:0:0:0:
320,192,102519,1,0,0:0:0:0:
448,192,102538,1,0,0:0:0:0:
64,192,102636,1,0,0:0:0:0:
192,192,102636,1,0,0:0:0:0:
64,192,102753,1,0,0:0:0:0:
192,192,102753,1,0,0:0:0:0:
64,192,102870,1,0,0:0:0:0:
192,192,102870,1,0,0:0:0:0:
64,192,102987,1,0,0:0:0:0:
192,192,102987,1,0,0:0:0:0:
64,192,103105,128,4,103417:0:0:0:0:
448,192,103105,128,2,103573:0:0:0:0:
192,192,103144,128,0,103456:0:0:0:0:
320,192,103183,128,0,103495:0:0:0:0:
64,192,103573,128,8,103690:0:0:0:0:
192,192,103573,1,0,0:0:0:0:
320,192,103612,128,0,103690:0:0:0:0:
448,192,103651,128,0,103690:0:0:0:0:
192,192,103690,1,0,0:0:0:0:
320,192,103808,1,0,0:0:0:0:
448,192,103808,1,0,0:0:0:0:
64,192,103925,1,0,0:0:0:0:
320,192,103925,128,0,104042:0:0:0:0:
192,192,103964,1,0,0:0:0:0:
448,192,104003,128,0,104042:0:0:0:0:
64,192,104042,1,2,0:0:0:0:
192,192,104042,1,0,0:0:0:0:
64,192,104159,1,0,0:0:0:0:
448,192,104159,1,0,0:0:0:0:
192,192,104276,1,0,0:0:0:0:
320,192,104276,128,0,104394:0:0:0:0:
448,192,104315,128,0,104394:0:0:0:0:
64,192,104355,128,0,104394:0:0:0:0:
192,192,104394,1,0,0:0:0:0:
64,192,104511,128,8,104628:0:0:0:0:
448,192,104511,128,0,104862:0:0:0:0:
192,192,104540,128,0,104657:0:0:0:0:
320,192,104569,128,0,104687:0:0:0:0:
192,192,104745,1,0,0:0:0:0:
64,192,104765,1,0,0:0:0:0:
192,192,104862,1,0,0:0:0:0:
64,192,104882,1,0,0:0:0:0:
448,192,104980,128,2,105136:0:0:0:0:
320,192,104999,128,0,105175:0:0:0:0:
192,192,105019,128,0,105214:0:0:0:0:
64,192,105214,128,0,105409:0:0:0:0:
448,192,105233,128,0,105448:0:0:0:0:
192,192,105448,1,8,0:0:0:0:
320,192,105448,128,0,105565:0:0:0:0:
64,192,105487,128,0,105565:0:0:0:0:
448,192,105526,128,0,105565:0:0:0:0:
192,192,105565,1,0,0:0:0:0:
448,192,105683,1,0,0:0:0:0:
320,192,105702,1,0,0:0:0:0:
64,192,105800,1,0,0:0:0:0:
448,192,105800,128,0,105917:0:0:0:0:
192,192,105839,1,0,0:0:0:0:
320,192,105878,128,0,105917:0:0:0:0:
64,192,105917,1,2,0:0:0:0:
192,192,105917,1,0,0:0:0:0:
448,192,106034,1,0,0:0:0:0:
320,192,106073,1,0,0:0:0:0:
192,192,106112,1,0,0:0:0:0:
448,192,106151,1,0,0:0:0:0:
64,192,106171,1,0,0:0:0:0:
192,192,106269,1,0,0:0:0:0:
320,192,106288,1,0,0:0:0:0:
64,192,106386,1,8,0:0:0:0:
448,192,106386,1,0,0:0:0:0:
192,192,106444,1,0,0:0:0:0:
448,192,106503,1,0,0:0:0:0:
192,192,106562,1,0,0:0:0:0:
320,192,106620,1,0,0:0:0:0:
64,192,106698,1,0,0:0:0:0:
320,192,106776,1,0,0:0:0:0:
64,192,106855,1,4,0:0:0:0:
192,192,106855,1,2,0:0:0:0:
448,192,106855,1,0,0:0:0:0:
320,192,106913,1,0,0:0:0:0:
64,192,106972,1,0,0:0:0:0:
192,192,106972,1,0,0:0:0:0:
448,192,107030,1,0,0:0:0:0:
64,192,107089,1,2,0:0:0:0:
192,192,107089,1,0,0:0:0:0:
320,192,107128,1,0,0:0:0:0:
448,192,107206,1,0,0:0:0:0:
192,192,107226,1,0,0:0:0:0:
448,192,107323,128,2,107401:0:0:0:0:
64,192,107343,128,0,107421:0:0:0:0:
192,192,107362,128,0,107499:0:0:0:0:
448,192,107499,128,2,107587:0:0:0:0:
320,192,107528,128,0,107616:0:0:0:0:
64,192,107558,128,0,107675:0:0:0:0:
192,192,107675,128,2,107753:0:0:0:0:
320,192,107675,1,0,0:0:0:0:
448,192,107704,128,0,107792:0:0:0:0:
64,192,107792,128,2,107909:0:0:0:0:
320,192,107792,1,0,0:0:0:0:
448,192,107909,128,0,108026:0:0:0:0:
192,192,107968,1,0,0:0:0:0:
64,192,108026,1,2,0:0:0:0:
320,192,108026,128,0,108144:0:0:0:0:
192,192,108065,128,0,108183:0:0:0:0:
448,192,108105,128,0,108261:0:0:0:0:
64,192,108261,128,2,108437:0:0:0:0:
320,192,108280,128,0,108358:0:0:0:0:
192,192,108300,128,0,108397:0:0:0:0:
448,192,108437,128,2,108534:0:0:0:0:
320,192,108466,128,0,108612:0:0:0:0:
192,192,108495,128,0,108573:0:0:0:0:
64,192,108612,1,2,0:0:0:0:
448,192,108612,1,0,0:0:0:0:
192,192,108651,1,0,0:0:0:0:
320,192,108690,1,0,0:0:0:0:
64,192,108730,128,2,108925:0:0:0:0:
448,192,108730,128,0,108847:0:0:0:0:
192,192,108788,128,0,108964:0:0:0:0:
320,192,108808,128,0,108886:0:0:0:0:
448,192,108964,1,2,0:0:0:0:
320,192,108983,1,0,0:0:0:0:
448,192,109081,1,0,0:0:0:0:
192,192,109101,1,0,0:0:0:0:
64,192,109198,128,2,109296:0:0:0:0:
320,192,109218,128,0,109374:0:0:0:0:
192,192,109237,128,0,109335:0:0:0:0:
448,192,109374,128,2,109462:0:0:0:0:
192,192,109403,128,0,109491:0:0:0:0:
64,192,109433,128,0,109550:0:0:0:0:
320,192,109550,128,2,109667:0:0:0:0:
448,192,109550,1,0,0:0:0:0:
192,192,109608,128,0,109667:0:0:0:0:
64,192,109667,1,2,0:0:0:0:
448,192,109667,128,0,109813:0:0:0:0:
192,192,109755,128,0,109843:0:0:0:0:
320,192,109784,128,0,109901:0:0:0:0:
64,192,109901,128,2,109980:0:0:0:0:
448,192,109901,1,0,0:0:0:0:
192,192,109940,128,0,110019:0:0:0:0:
320,192,109980,128,0,110058:0:0:0:0:
448,192,110019,128,0,110077:0:0:0:0:
64,192,110058,1,0,0:0:0:0:
192,192,110097,1,0,0:0:0:0:
320,192,110136,1,8,0:0:0:0:
448,192,110136,1,0,0:0:0:0:
64,192,110175,1,0,0:0:0:0:
192,192,110214,1,0,0:0:0:0:
448,192,110253,1,0,0:0:0:0:
64,192,110292,1,0,0:0:0:0:
320,192,110312,1,0,0:0:0:0:
192,192,110370,1,0,0:0:0:0:
448,192,110417,1,0,0:0:0:0:
320,192,110464,1,0,0:0:0:0:
64,192,110511,1,0,0:0:0:0:
192,192,110558,1,0,0:0:0:0:
320,192,110605,1,2,0:0:0:0:
448,192,110605,1,4,0:0:0:0:
192,192,110638,1,0,0:0:0:0:
64,192,110671,1,0,0:0:0:0:
448,192,110705,1,0,0:0:0:0:
320,192,110722,1,0,0:0:0:0:
192,192,110761,1,0,0:0:0:0:
64,192,110800,1,0,0:0:0:0:
320,192,110839,1,0,0:0:0:0:
448,192,110886,1,0,0:0:0:0:
64,192,110933,1,0,0:0:0:0:
192,192,110980,1,0,0:0:0:0:
320,192,111026,1,0,0:0:0:0:
64,192,111073,1,8,0:0:0:0:
448,192,111073,128,0,111190:0:0:0:0:
192,192,111112,1,0,0:0:0:0:
320,192,111151,1,0,0:0:0:0:
64,192,111190,1,0,0:0:0:0:
64,192,111308,1,0,0:0:0:0:
320,192,111308,1,0,0:0:0:0:
192,192,111425,1,0,0:0:0:0:
448,192,111425,1,0,0:0:0:0:
320,192,111464,1,0,0:0:0:0:
192,192,111503,1,0,0:0:0:0:
64,192,111542,1,2,0:0:0:0:
448,192,111542,1,0,0:0:0:0:
64,192,111659,1,0,0:0:0:0:
448,192,111679,1,0,0:0:0:0:
320,192,111776,1,0,0:0:0:0:
448,192,111815,1,0,0:0:0:0:
64,192,111855,1,0,0:0:0:0:
192,192,111894,1,0,0:0:0:0:
64,192,112011,128,8,112362:0:0:0:0:
448,192,112011,128,0,112128:0:0:0:0:
320,192,112040,128,0,112157:0:0:0:0:
192,192,112069,128,0,112187:0:0:0:0:
448,192,112245,1,0,0:0:0:0:
320,192,112265,1,0,0:0:0:0:
448,192,112362,1,0,0:0:0:0:
320,192,112382,1,0,0:0:0:0:
448,192,112480,128,2,112714:0:0:0:0:
320,192,112499,128,0,112577:0:0:0:0:
192,192,112519,128,0,112597:0:0:0:0:
64,192,112538,128,0,112616:0:0:0:0:
64,192,112714,128,0,112792:0:0:0:0:
192,192,112733,128,0,112948:0:0:0:0:
320,192,112753,128,0,112831:0:0:0:0:
448,192,112772,128,0,112851:0:0:0:0:
64,192,112948,1,8,0:0:0:0:
320,192,112948,128,0,113065:0:0:0:0:
448,192,112987,1,0,0:0:0:0:
192,192,113026,1,0,0:0:0:0:
64,192,113065,1,0,0:0:0:0:
192,192,113183,1,0,0:0:0:0:
320,192,113202,1,0,0:0:0:0:
64,192,113300,1,0,0:0:0:0:
448,192,113300,1,0,0:0:0:0:
192,192,113339,1,0,0:0:0:0:
320,192,113378,1,0,0:0:0:0:
192,192,113417,1,2,0:0:0:0:
448,192,113417,1,0,0:0:0:0:
64,192,113534,1,0,0:0:0:0:
192,192,113573,1,0,0:0:0:0:
320,192,113612,1,0,0:0:0:0:
64,192,113651,1,0,0:0:0:0:
448,192,113651,1,0,0:0:0:0:
192,192,113769,1,0,0:0:0:0:
320,192,113769,1,0,0:0:0:0:
64,192,113808,1,0,0:0:0:0:
320,192,113847,1,0,0:0:0:0:
192,192,113886,1,8,0:0:0:0:
448,192,113886,1,0,0:0:0:0:
64,192,113944,1,0,0:0:0:0:
448,192,114003,1,0,0:0:0:0:
64,192,114062,1,0,0:0:0:0:
192,192,114120,1,0,0:0:0:0:
320,192,114198,1,0,0:0:0:0:
192,192,114276,1,0,0:0:0:0:
64,192,114355,1,2,0:0:0:0:
320,192,114355,1,4,0:0:0:0:
448,192,114355,1,0,0:0:0:0:
192,192,114413,1,0,0:0:0:0:
320,192,114472,1,0,0:0:0:0:
448,192,114472,1,0,0:0:0:0:
64,192,114530,1,0,0:0:0:0:
320,192,114589,1,2,0:0:0:0:
448,192,114589,1,0,0:0:0:0:
192,192,114628,1,0,0:0:0:0:
64,192,114706,1,0,0:0:0:0:
320,192,114726,1,0,0:0:0:0:
64,192,114823,128,2,114960:0:0:0:0:
448,192,114843,128,0,114940:0:0:0:0:
320,192,114862,128,0,114921:0:0:0:0:
192,192,114999,1,2,0:0:0:0:
320,192,114999,128,0,115087:0:0:0:0:
448,192,115028,128,0,115116:0:0:0:0:
64,192,115058,128,0,115116:0:0:0:0:
320,192,115175,128,2,115233:0:0:0:0:
448,192,115175,1,0,0:0:0:0:
64,192,115204,128,0,115292:0:0:0:0:
192,192,115292,1,2,0:0:0:0:
448,192,115292,1,0,0:0:0:0:
320,192,115409,1,0,0:0:0:0:
192,192,115448,1,0,0:0:0:0:
64,192,115487,1,0,0:0:0:0:
320,192,115526,128,2,115761:0:0:0:0:
448,192,115526,1,0,0:0:0:0:
192,192,115565,128,0,115722:0:0:0:0:
64,192,115605,128,0,115683:0:0:0:0:
448,192,115761,128,2,115858:0:0:0:0:
64,192,115780,128,0,115897:0:0:0:0:
192,192,115800,128,0,115937:0:0:0:0:
320,192,115937,128,2,116024:0:0:0:0:
448,192,115966,128,0,116054:0:0:0:0:
64,192,115995,128,0,116112:0:0:0:0:
320,192,116112,128,2,116200:0:0:0:0:
448,192,116112,1,0,0:0:0:0:
192,192,116171,128,0,116230:0:0:0:0:
64,192,116230,1,2,0:0:0:0:
448,192,116230,128,0,116366:0:0:0:0:
320,192,116308,128,0,116386:0:0:0:0:
64,192,116347,128,0,116425:0:0:0:0:
192,192,116386,128,0,116464:0:0:0:0:
320,192,116464,1,2,0:0:0:0:
448,192,116464,1,0,0:0:0:0:
64,192,116522,1,0,0:0:0:0:
192,192,116581,1,0,0:0:0:0:
448,192,116581,1,0,0:0:0:0:
320,192,116640,1,0,0:0:0:0:
64,192,116698,128,2,116796:0:0:0:0:
192,192,116718,128,0,116874:0:0:0:0:
448,192,116737,128,0,116835:0:0:0:0:
64,192,116874,128,2,116991:0:0:0:0:
320,192,116903,128,0,117021:0:0:0:0:
448,192,116933,128,0,117050:0:0:0:0:
64,192,117050,1,2,0:0:0:0:
192,192,117050,128,0,117138:0:0:0:0:
320,192,117108,128,0,117167:0:0:0:0:
64,192,117167,1,2,0:0:0:0:
448,192,117167,1,4,0:0:0:0:
192,192,117226,1,0,0:0:0:0:
64,192,117284,1,2,0:0:0:0:
448,192,117284,1,0,0:0:0:0:
192,192,117401,1,2,0:0:0:0:
320,192,117401,1,4,0:0:0:0:
448,192,117460,1,0,0:0:0:0:
192,192,117519,1,2,0:0:0:0:
320,192,117519,1,0,0:0:0:0:
320,192,117636,1,2,0:0:0:0:
448,192,117636,1,4,0:0:0:0:
64,192,117694,1,0,0:0:0:0:
320,192,117753,1,2,0:0:0:0:
448,192,117753,1,0,0:0:0:0:
64,192,117870,1,2,0:0:0:0:
192,192,117870,1,4,0:0:0:0:
320,192,117929,1,0,0:0:0:0:
64,192,117987,1,2,0:0:0:0:
192,192,117987,1,0,0:0:0:0:
320,192,118105,1,2,0:0:0:0:
448,192,118105,1,4,0:0:0:0:
192,192,118163,1,2,0:0:0:0:
64,192,118222,1,2,0:0:0:0:
320,192,118222,1,0,0:0:0:0:
448,192,118280,1,2,0:0:0:0:
64,192,118339,1,2,0:0:0:0:
192,192,118339,1,4,0:0:0:0:
448,192,118397,1,2,0:0:0:0:
64,192,118456,1,2,0:0:0:0:
320,192,118456,1,0,0:0:0:0:
192,192,118515,1,2,0:0:0:0:
320,192,118573,1,2,0:0:0:0:
448,192,118573,1,4,0:0:0:0:
64,192,118632,1,2,0:0:0:0:
320,192,118690,1,2,0:0:0:0:
192,192,118720,1,0,0:0:0:0:
448,192,118749,1,2,0:0:0:0:
320,192,118778,1,0,0:0:0:0:
64,192,118808,1,2,0:0:0:0:
192,192,118808,1,0,0:0:0:0:
64,192,119042,1,2,0:0:0:0:
320,192,119042,128,4,119159:0:0:0:0:
448,192,119042,1,0,0:0:0:0:
192,192,119276,128,0,119394:0:0:0:0:
320,192,119511,128,0,119628:0:0:0:0:
64,192,119628,1,0,0:0:0:0:
448,192,119745,128,0,119862:0:0:0:0:
320,192,119862,1,0,0:0:0:0:
64,192,119980,128,0,120097:0:0:0:0:
192,192,119980,1,0,0:0:0:0:
320,192,120097,1,0,0:0:0:0:
192,192,120214,128,0,120331:0:0:0:0:
448,192,120331,1,0,0:0:0:0:
320,192,120448,128,0,120565:0:0:0:0:
64,192,120565,1,0,0:0:0:0:
448,192,120683,128,0,120800:0:0:0:0:
192,192,120800,1,0,0:0:0:0:
64,192,120917,128,8,121151:0:0:0:0:
320,192,120917,1,0,0:0:0:0:
448,192,120946,1,0,0:0:0:0:
320,192,121034,1,0,0:0:0:0:
192,192,121151,1,8,0:0:0:0:
448,192,121181,1,0,0:0:0:0:
64,192,121269,1,0,0:0:0:0:
320,192,121269,1,0,0:0:0:0:
448,192,121386,1,8,0:0:0:0:
320,192,121415,1,0,0:0:0:0:
64,192,121503,1,0,0:0:0:0:
192,192,121503,1,0,0:0:0:0:
320,192,121620,1,8,0:0:0:0:
192,192,121649,1,0,0:0:0:0:
64,192,121737,1,0,0:0:0:0:
448,192,121737,1,0,0:0:0:0:
192,192,121855,1,8,0:0:0:0:
448,192,121884,1,0,0:0:0:0:
64,192,121972,1,0,0:0:0:0:
320,192,121972,1,0,0:0:0:0:
192,192,122030,1,0,0:0:0:0:
64,192,122089,1,2,0:0:0:0:
320,192,122089,1,4,0:0:0:0:
448,192,122089,1,0,0:0:0:0:
192,192,122206,1,0,0:0:0:0:
448,192,122206,1,0,0:0:0:0:
64,192,122323,1,2,0:0:0:0:
192,192,122323,1,4,0:0:0:0:
320,192,122323,1,0,0:0:0:0:
64,192,122440,1,0,0:0:0:0:
448,192,122440,1,0,0:0:0:0:
64,192,122558,1,2,0:0:0:0:
320,192,122558,1,4,0:0:0:0:
448,192,122558,1,0,0:0:0:0:
192,192,122675,1,0,0:0:0:0:
320,192,122675,1,0,0:0:0:0:
64,192,122792,1,2,0:0:0:0:
192,192,122792,1,0,0:0:0:0:
320,192,122851,1,2,0:0:0:0:
448,192,122851,1,0,0:0:0:0:
64,192,122909,1,2,0:0:0:0:
192,192,122909,1,0,0:0:0:0:
320,192,122968,1,2,0:0:0:0:
448,192,122968,1,0,0:0:0:0:
64,192,123026,128,4,123202:0:0:0:0:
192,192,123026,128,2,123085:0:0:0:0:
192,192,123144,128,0,123319:0:0:0:0:
320,192,123144,128,0,123261:0:0:0:0:
448,192,123144,128,0,123202:0:0:0:0:
64,192,123261,1,2,0:0:0:0:
448,192,123261,128,0,123378:0:0:0:0:
64,192,123378,128,0,123495:0:0:0:0:
192,192,123378,128,0,123554:0:0:0:0:
320,192,123378,128,0,123437:0:0:0:0:
320,192,123495,128,2,123612:0:0:0:0:
448,192,123495,1,0,0:0:0:0:
64,192,123612,128,0,123730:0:0:0:0:
192,192,123612,128,0,123671:0:0:0:0:
448,192,123612,128,0,123730:0:0:0:0:
192,192,123730,1,2,0:0:0:0:
320,192,123730,128,0,123847:0:0:0:0:
64,192,123847,128,0,123905:0:0:0:0:
192,192,123847,128,0,123905:0:0:0:0:
448,192,123847,128,0,124081:0:0:0:0:
64,192,123964,128,2,124022:0:0:0:0:
192,192,123964,128,0,124081:0:0:0:0:
320,192,123964,128,0,124140:0:0:0:0:
64,192,124081,128,0,124198:0:0:0:0:
192,192,124198,128,2,124374:0:0:0:0:
320,192,124198,128,0,124315:0:0:0:0:
448,192,124198,128,0,124257:0:0:0:0:
64,192,124315,128,0,124374:0:0:0:0:
448,192,124315,128,0,124433:0:0:0:0:
64,192,124433,128,2,124550:0:0:0:0:
192,192,124433,128,0,124491:0:0:0:0:
320,192,124433,128,0,124608:0:0:0:0:
192,192,124550,128,0,124667:0:0:0:0:
448,192,124550,128,0,124608:0:0:0:0:
64,192,124667,128,2,124726:0:0:0:0:
320,192,124667,1,4,0:0:0:0:
448,192,124667,128,0,124726:0:0:0:0:
64,192,124784,128,4,124901:0:0:0:0:
320,192,124784,1,2,0:0:0:0:
448,192,124784,128,0,124901:0:0:0:0:
192,192,124901,128,0,124960:0:0:0:0:
320,192,124901,128,0,125019:0:0:0:0:
64,192,125019,128,2,125077:0:0:0:0:
192,192,125019,128,4,125194:0:0:0:0:
448,192,125019,128,0,125136:0:0:0:0:
64,192,125253,128,4,125370:0:0:0:0:
320,192,125253,128,2,125429:0:0:0:0:
448,192,125253,128,0,125312:0:0:0:0:
64,192,125487,128,2,125722:0:0:0:0:
192,192,125487,128,4,125722:0:0:0:0:
448,192,125487,128,0,125605:0:0:0:0:
320,192,125722,1,4,0:0:0:0:
448,192,125722,1,2,0:0:0:0:
192,192,125780,1,0,0:0:0:0:
64,192,125839,1,2,0:0:0:0:
448,192,125839,1,0,0:0:0:0:
192,192,125956,1,2,0:0:0:0:
320,192,125956,1,0,0:0:0:0:
64,192,126073,1,2,0:0:0:0:
192,192,126073,1,4,0:0:0:0:
448,192,126073,128,0,126230:0:0:0:0:
320,192,126151,128,0,126308:0:0:0:0:
192,192,126230,128,0,126386:0:0:0:0:
448,192,126308,128,0,126464:0:0:0:0:
320,192,126386,128,0,126464:0:0:0:0:
192,192,126464,128,0,126542:0:0:0:0:
64,192,126542,1,4,0:0:0:0:
320,192,126542,1,2,0:0:0:0:
448,192,126542,1,0,0:0:0:0:
64,192,126659,1,0,0:0:0:0:
192,192,126659,1,0,0:0:0:0:
192,192,126776,1,2,0:0:0:0:
320,192,126776,1,0,0:0:0:0:
448,192,126776,1,0,0:0:0:0:
64,192,126894,1,0,0:0:0:0:
320,192,126894,1,0,0:0:0:0:
448,192,126894,1,0,0:0:0:0:
64,192,127011,1,2,0:0:0:0:
192,192,127011,1,0,0:0:0:0:
192,192,127128,1,0,0:0:0:0:
320,192,127128,1,0,0:0:0:0:
448,192,127128,1,0,0:0:0:0:
64,192,127245,1,2,0:0:0:0:
320,192,127245,1,0,0:0:0:0:
64,192,127362,1,0,0:0:0:0:
192,192,127362,1,0,0:0:0:0:
448,192,127362,1,0,0:0:0:0:
320,192,127480,1,2,0:0:0:0:
448,192,127480,1,0,0:0:0:0:
64,192,127597,1,0,0:0:0:0:
192,192,127597,1,0,0:0:0:0:
320,192,127597,1,0,0:0:0:0:
64,192,127714,1,2,0:0:0:0:
192,192,127714,1,0,0:0:0:0:
448,192,127714,1,0,0:0:0:0:
320,192,127831,1,0,0:0:0:0:
448,192,127831,1,0,0:0:0:0:
64,192,127948,1,2,0:0:0:0:
192,192,127948,1,0,0:0:0:0:
320,192,127948,1,0,0:0:0:0:
64,192,128065,1,0,0:0:0:0:
192,192,128065,1,0,0:0:0:0:
448,192,128065,1,0,0:0:0:0:
64,192,128183,1,2,0:0:0:0:
320,192,128183,1,0,0:0:0:0:
448,192,128183,1,0,0:0:0:0:
192,192,128300,1,0,0:0:0:0:
320,192,128300,1,0,0:0:0:0:
448,192,128300,1,0,0:0:0:0:
64,192,128417,1,2,0:0:0:0:
192,192,128417,1,0,0:0:0:0:
320,192,128417,1,0,0:0:0:0:
64,192,128534,1,0,0:0:0:0:
448,192,128534,1,0,0:0:0:0:
192,192,128651,1,2,0:0:0:0:
320,192,128651,1,0,0:0:0:0:
448,192,128651,1,0,0:0:0:0:
64,192,128769,1,0,0:0:0:0:
192,192,128769,1,0,0:0:0:0:
320,192,128769,1,0,0:0:0:0:
64,192,128886,1,2,0:0:0:0:
448,192,128886,1,0,0:0:0:0:
192,192,129003,1,0,0:0:0:0:
320,192,129003,1,0,0:0:0:0:
448,192,129003,1,0,0:0:0:0:
64,192,129120,1,2,0:0:0:0:
320,192,129120,1,0,0:0:0:0:
64,192,129237,1,0,0:0:0:0:
192,192,129237,1,0,0:0:0:0:
448,192,129237,1,0,0:0:0:0:
320,192,129355,128,2,129530:0:0:0:0:
448,192,129355,128,0,129472:0:0:0:0:
64,192,129472,128,0,129647:0:0:0:0:
192,192,129530,128,0,129706:0:0:0:0:
320,192,129589,128,2,129706:0:0:0:0:
448,192,129589,128,0,129823:0:0:0:0:
64,192,129706,128,0,129940:0:0:0:0:
192,192,129823,128,2,130058:0:0:0:0:
320,192,129823,128,0,129940:0:0:0:0:
448,192,129940,128,0,130175:0:0:0:0:
64,192,130058,128,2,130175:0:0:0:0:
320,192,130058,128,0,130292:0:0:0:0:
192,192,130175,128,0,130292:0:0:0:0:
64,192,130292,1,4,0:0:0:0:
448,192,130292,1,2,0:0:0:0:
320,192,130409,1,0,0:0:0:0:
448,192,130409,1,0,0:0:0:0:
192,192,130468,1,6,0:0:0:0:
64,192,130526,1,0,0:0:0:0:
320,192,130526,1,0,0:0:0:0:
448,192,130526,1,0,0:0:0:0:
192,192,130644,1,4,0:0:0:0:
320,192,130644,1,2,0:0:0:0:
448,192,130644,1,0,0:0:0:0:
64,192,130761,1,2,0:0:0:0:
192,192,130761,1,4,0:0:0:0:
64,192,130878,1,0,0:0:0:0:
320,192,130878,1,0,0:0:0:0:
448,192,130878,1,0,0:0:0:0:
192,192,130937,1,6,0:0:0:0:
64,192,130995,1,0,0:0:0:0:
320,192,130995,1,0,0:0:0:0:
64,192,131112,1,4,0:0:0:0:
320,192,131112,1,2,0:0:0:0:
448,192,131112,1,0,0:0:0:0:
192,192,131230,1,2,0:0:0:0:
448,192,131230,1,4,0:0:0:0:
64,192,131347,1,0,0:0:0:0:
192,192,131347,1,0,0:0:0:0:
320,192,131347,1,0,0:0:0:0:
448,192,131405,1,6,0:0:0:0:
64,192,131464,1,0,0:0:0:0:
192,192,131464,1,0,0:0:0:0:
320,192,131464,1,0,0:0:0:0:
192,192,131581,1,2,0:0:0:0:
448,192,131581,1,4,0:0:0:0:
64,192,131698,1,4,0:0:0:0:
320,192,131698,1,2,0:0:0:0:
448,192,131698,1,0,0:0:0:0:
192,192,131815,1,0,0:0:0:0:
320,192,131815,1,0,0:0:0:0:
448,192,131815,1,0,0:0:0:0:
64,192,131874,1,6,0:0:0:0:
192,192,131933,1,0,0:0:0:0:
320,192,131933,1,0,0:0:0:0:
448,192,131933,1,0,0:0:0:0:
64,192,132050,1,4,0:0:0:0:
192,192,132050,1,2,0:0:0:0:
320,192,132050,1,0,0:0:0:0:
64,192,132167,1,2,0:0:0:0:
192,192,132167,1,4,0:0:0:0:
448,192,132167,1,0,0:0:0:0:
320,192,132284,1,0,0:0:0:0:
448,192,132284,1,0,0:0:0:0:
192,192,132343,1,6,0:0:0:0:
64,192,132401,1,0,0:0:0:0:
320,192,132401,1,0,0:0:0:0:
448,192,132401,1,0,0:0:0:0:
192,192,132519,1,2,0:0:0:0:
320,192,132519,1,4,0:0:0:0:
448,192,132519,1,0,0:0:0:0:
64,192,132636,1,4,0:0:0:0:
320,192,132636,1,2,0:0:0:0:
448,192,132694,1,0,0:0:0:0:
64,192,132753,1,0,0:0:0:0:
192,192,132753,1,0,0:0:0:0:
320,192,132812,1,2,0:0:0:0:
448,192,132812,1,4,0:0:0:0:
192,192,132841,1,0,0:0:0:0:
64,192,132870,1,0,0:0:0:0:
320,192,132929,1,0,0:0:0:0:
64,192,132987,1,4,0:0:0:0:
448,192,132987,1,2,0:0:0:0:
192,192,133046,1,0,0:0:0:0:
320,192,133105,1,2,0:0:0:0:
448,192,133105,1,4,0:0:0:0:
64,192,133163,1,2,0:0:0:0:
192,192,133163,1,0,0:0:0:0:
320,192,133222,1,2,0:0:0:0:
448,192,133222,1,0,0:0:0:0:
64,192,133280,1,2,0:0:0:0:
192,192,133280,1,0,0:0:0:0:
448,192,133339,1,6,0:0:0:0:
320,192,133368,1,0,0:0:0:0:
64,192,133397,1,2,0:0:0:0:
192,192,133427,1,0,0:0:0:0:
448,192,133456,1,2,0:0:0:0:
320,192,133485,1,0,0:0:0:0:
64,192,133515,1,2,0:0:0:0:
192,192,133544,1,0,0:0:0:0:
320,192,133573,1,2,0:0:0:0:
448,192,133573,1,4,0:0:0:0:
64,192,133690,1,0,0:0:0:0:
192,192,133690,1,0,0:0:0:0:
64,192,133808,1,0,0:0:0:0:
320,192,133808,1,0,0:0:0:0:
64,192,133925,1,0,0:0:0:0:
448,192,133925,1,0,0:0:0:0:
192,192,134042,1,2,0:0:0:0:
320,192,134042,1,4,0:0:0:0:
448,192,134042,1,0,0:0:0:0:
64,192,134101,1,0,0:0:0:0:
448,192,134159,1,2,0:0:0:0:
192,192,134218,1,0,0:0:0:0:
64,192,134276,1,2,0:0:0:0:
320,192,134276,1,0,0:0:0:0:
448,192,134335,1,0,0:0:0:0:
64,192,134394,1,2,0:0:0:0:
192,192,134394,1,0,0:0:0:0:
448,192,134452,1,0,0:0:0:0:
192,192,134511,1,2,0:0:0:0:
320,192,134511,1,0,0:0:0:0:
64,192,134569,1,0,0:0:0:0:
448,192,134628,1,2,0:0:0:0:
64,192,134687,1,0,0:0:0:0:
320,192,134745,1,2,0:0:0:0:
448,192,134745,1,0,0:0:0:0:
192,192,134804,1,2,0:0:0:0:
64,192,134862,1,2,0:0:0:0:
320,192,134862,1,0,0:0:0:0:
192,192,134921,1,2,0:0:0:0:
448,192,134921,1,0,0:0:0:0:
64,192,134980,1,2,0:0:0:0:
320,192,134980,1,0,0:0:0:0:
448,192,135038,1,0,0:0:0:0:
64,192,135097,1,2,0:0:0:0:
192,192,135097,1,0,0:0:0:0:
320,192,135155,1,0,0:0:0:0:
64,192,135214,1,2,0:0:0:0:
448,192,135214,1,0,0:0:0:0:
192,192,135272,1,0,0:0:0:0:
320,192,135331,1,2,0:0:0:0:
448,192,135331,1,0,0:0:0:0:
64,192,135370,1,0,0:0:0:0:
192,192,135409,1,0,0:0:0:0:
320,192,135448,1,2,0:0:0:0:
448,192,135448,1,0,0:0:0:0:
64,192,135507,1,0,0:0:0:0:
192,192,135565,1,2,0:0:0:0:
320,192,135605,1,2,0:0:0:0:
448,192,135644,1,2,0:0:0:0:
64,192,135683,1,2,0:0:0:0:
192,192,135683,1,0,0:0:0:0:
320,192,135741,1,2,0:0:0:0:
64,192,135800,1,2,0:0:0:0:
448,192,135839,1,2,0:0:0:0:
320,192,135878,1,2,0:0:0:0:
64,192,135917,1,2,0:0:0:0:
192,192,135917,1,0,0:0:0:0:
64,192,136034,1,2,0:0:0:0:
192,192,136034,1,0,0:0:0:0:
320,192,136151,1,2,0:0:0:0:
448,192,136151,1,0,0:0:0:0:
320,192,136269,1,2,0:0:0:0:
448,192,136269,1,0,0:0:0:0:
64,192,136339,1,0,0:0:0:0:
192,192,136386,1,2,0:0:0:0:
320,192,136433,1,0,0:0:0:0:
448,192,136480,1,0,0:0:0:0:
64,192,136503,1,2,0:0:0:0:
192,192,136503,1,0,0:0:0:0:
448,192,136581,1,0,0:0:0:0:
320,192,136620,1,2,0:0:0:0:
192,192,136679,1,2,0:0:0:0:
64,192,136737,1,2,0:0:0:0:
320,192,136796,1,2,0:0:0:0:
192,192,136855,128,0,137089:0:0:0:0:
448,192,136855,128,0,136933:0:0:0:0:
320,192,136933,128,0,137011:0:0:0:0:
64,192,137011,128,0,137089:0:0:0:0:
448,192,137089,128,0,137147:0:0:0:0:
64,192,137206,128,0,137440:0:0:0:0:
448,192,137206,128,0,137265:0:0:0:0:
448,192,137323,128,0,137382:0:0:0:0:
448,192,137440,128,0,137499:0:0:0:0:
192,192,137558,128,0,137792:0:0:0:0:
448,192,137558,128,0,137636:0:0:0:0:
320,192,137636,128,0,137714:0:0:0:0:
64,192,137714,128,0,137792:0:0:0:0:
320,192,137792,1,2,0:0:0:0:
448,192,137792,1,4,0:0:0:0:
192,192,137886,1,0,0:0:0:0:
64,192,137909,1,2,0:0:0:0:
448,192,137980,1,0,0:0:0:0:
192,192,138026,1,2,0:0:0:0:
320,192,138026,1,0,0:0:0:0:
192,192,138144,1,2,0:0:0:0:
320,192,138144,1,0,0:0:0:0:
64,192,138261,1,2,0:0:0:0:
448,192,138261,1,0,0:0:0:0:
64,192,138378,1,2,0:0:0:0:
320,192,138378,1,0,0:0:0:0:
192,192,138495,1,2,0:0:0:0:
448,192,138495,1,0,0:0:0:0:
64,192,138554,1,2,0:0:0:0:
192,192,138612,1,2,0:0:0:0:
320,192,138612,1,0,0:0:0:0:
448,192,138671,1,2,0:0:0:0:
64,192,138730,1,2,0:0:0:0:
320,192,138730,1,0,0:0:0:0:
192,192,138788,1,0,0:0:0:0:
448,192,138847,1,2,0:0:0:0:
320,192,138905,1,0,0:0:0:0:
64,192,138964,1,0,0:0:0:0:
192,192,138993,1,0,0:0:0:0:
320,192,139022,1,0,0:0:0:0:
448,192,139052,1,0,0:0:0:0:
64,192,139081,1,0,0:0:0:0:
192,192,139110,1,0,0:0:0:0:
320,192,139140,1,0,0:0:0:0:
448,192,139169,1,0,0:0:0:0:
64,192,139198,1,2,0:0:0:0:
192,192,139237,1,2,0:0:0:0:
320,192,139276,1,2,0:0:0:0:
448,192,139315,1,2,0:0:0:0:
64,192,139355,1,2,0:0:0:0:
192,192,139394,1,2,0:0:0:0:
448,192,139433,1,2,0:0:0:0:
320,192,139491,1,2,0:0:0:0:
192,192,139550,1,2,0:0:0:0:
448,192,139589,1,2,0:0:0:0:
320,192,139628,1,2,0:0:0:0:
64,192,139667,1,2,0:0:0:0:
192,192,139667,1,0,0:0:0:0:
64,192,139784,1,2,0:0:0:0:
192,192,139784,1,0,0:0:0:0:
64,192,139862,1,0,0:0:0:0:
320,192,139901,1,2,0:0:0:0:
448,192,139901,1,0,0:0:0:0:
320,192,140019,1,2,0:0:0:0:
448,192,140019,1,0,0:0:0:0:
192,192,140097,1,0,0:0:0:0:
64,192,140136,1,2,0:0:0:0:
448,192,140136,1,0,0:0:0:0:
320,192,140253,1,2,0:0:0:0:
192,192,140292,1,0,0:0:0:0:
64,192,140331,1,0,0:0:0:0:
320,192,140370,1,2,0:0:0:0:
448,192,140370,1,0,0:0:0:0:
64,192,140429,1,2,0:0:0:0:
192,192,140429,1,0,0:0:0:0:
320,192,140487,1,2,0:0:0:0:
448,192,140487,1,0,0:0:0:0:
64,192,140546,1,2,0:0:0:0:
192,192,140546,1,0,0:0:0:0:
320,192,140605,1,0,0:0:0:0:
448,192,140605,128,0,140722:0:0:0:0:
320,192,140741,1,0,0:0:0:0:
192,192,140761,1,0,0:0:0:0:
64,192,140780,1,0,0:0:0:0:
448,192,140839,128,0,140897:0:0:0:0:
320,192,140854,128,0,140971:0:0:0:0:
192,192,140868,128,0,140956:0:0:0:0:
64,192,140883,128,0,140941:0:0:0:0:
448,192,140956,128,0,141073:0:0:0:0:
64,192,141073,128,0,141140:0:0:0:0:
192,192,141107,128,0,141174:0:0:0:0:
448,192,141140,128,0,141207:0:0:0:0:
320,192,141174,128,0,141241:0:0:0:0:
64,192,141207,128,0,141308:0:0:0:0:
192,192,141241,128,0,141341:0:0:0:0:
448,192,141274,128,0,141375:0:0:0:0:
320,192,141308,128,0,141425:0:0:0:0:
64,192,141425,1,0,0:0:0:0:
192,192,141464,1,0,0:0:0:0:
320,192,141503,1,0,0:0:0:0:
64,192,141542,1,4,0:0:0:0:
448,192,141542,1,2,0:0:0:0:
192,192,141659,1,2,0:0:0:0:
320,192,141718,1,0,0:0:0:0:
448,192,141718,1,0,0:0:0:0:
64,192,141776,1,2,0:0:0:0:
192,192,141776,1,0,0:0:0:0:
320,192,141823,1,0,0:0:0:0:
64,192,141894,1,2,0:0:0:0:
448,192,141894,1,0,0:0:0:0:
320,192,141964,1,0,0:0:0:0:
192,192,142011,1,2,0:0:0:0:
448,192,142058,1,0,0:0:0:0:
192,192,142105,1,0,0:0:0:0:
64,192,142128,1,2,0:0:0:0:
320,192,142128,1,0,0:0:0:0:
448,192,142206,1,0,0:0:0:0:
320,192,142245,1,2,0:0:0:0:
192,192,142304,1,2,0:0:0:0:
64,192,142362,1,2,0:0:0:0:
448,192,142362,1,0,0:0:0:0:
320,192,142421,1,2,0:0:0:0:
64,192,142480,1,2,0:0:0:0:
192,192,142480,1,0,0:0:0:0:
64,192,142597,1,2,0:0:0:0:
192,192,142597,1,0,0:0:0:0:
448,192,142667,1,0,0:0:0:0:
192,192,142714,1,2,0:0:0:0:
320,192,142714,1,0,0:0:0:0:
64,192,142772,1,0,0:0:0:0:
320,192,142831,1,2,0:0:0:0:
448,192,142831,1,0,0:0:0:0:
192,192,142901,1,0,0:0:0:0:
64,192,142948,1,2,0:0:0:0:
448,192,142948,1,0,0:0:0:0:
192,192,143007,1,0,0:0:0:0:
320,192,143065,1,2,0:0:0:0:
448,192,143065,1,0,0:0:0:0:
64,192,143105,1,2,0:0:0:0:
192,192,143144,1,2,0:0:0:0:
320,192,143183,1,2,0:0:0:0:
448,192,143183,1,0,0:0:0:0:
64,192,143241,1,2,0:0:0:0:
192,192,143300,1,2,0:0:0:0:
320,192,143339,1,2,0:0:0:0:
448,192,143378,1,2,0:0:0:0:
64,192,143417,1,2,0:0:0:0:
192,192,143417,1,4,0:0:0:0:
64,192,143534,1,2,0:0:0:0:
192,192,143534,1,4,0:0:0:0:
448,192,143651,128,0,143769:0:0:0:0:
320,192,143690,128,0,143769:0:0:0:0:
192,192,143769,128,0,143886:0:0:0:0:
64,192,143808,128,0,143886:0:0:0:0:
320,192,143886,1,2,0:0:0:0:
448,192,143886,1,4,0:0:0:0:
320,192,144003,1,2,0:0:0:0:
448,192,144003,1,4,0:0:0:0:
64,192,144120,1,0,0:0:0:0:
320,192,144159,1,0,0:0:0:0:
192,192,144198,1,0,0:0:0:0:
64,192,144237,1,0,0:0:0:0:
448,192,144276,1,0,0:0:0:0:
320,192,144315,1,0,0:0:0:0:
64,192,144355,128,2,144491:0:0:0:0:
192,192,144355,1,0,0:0:0:0:
448,192,144394,1,0,0:0:0:0:
320,192,144433,128,0,144569:0:0:0:0:
192,192,144472,1,0,0:0:0:0:
448,192,144511,128,0,144647:0:0:0:0:
64,192,144550,1,0,0:0:0:0:
192,192,144589,128,0,144687:0:0:0:0:
320,192,144628,1,0,0:0:0:0:
64,192,144667,128,0,144804:0:0:0:0:
448,192,144706,1,0,0:0:0:0:
192,192,144745,128,0,144882:0:0:0:0:
320,192,144784,1,0,0:0:0:0:
448,192,144823,128,0,144960:0:0:0:0:
64,192,144862,1,0,0:0:0:0:
320,192,144901,128,0,145019:0:0:0:0:
192,192,144940,1,0,0:0:0:0:
64,192,144980,128,0,145116:0:0:0:0:
448,192,145019,1,0,0:0:0:0:
192,192,145058,128,0,145155:0:0:0:0:
320,192,145097,1,0,0:0:0:0:
448,192,145136,128,0,145194:0:0:0:0:
64,192,145175,1,0,0:0:0:0:
192,192,145214,128,0,145292:0:0:0:0:
448,192,145253,1,0,0:0:0:0:
64,192,145292,1,4,0:0:0:0:
320,192,145292,1,2,0:0:0:0:
192,192,145351,1,2,0:0:0:0:
320,192,145409,1,2,0:0:0:0:
448,192,145409,1,0,0:0:0:0:
64,192,145468,1,2,0:0:0:0:
192,192,145468,1,0,0:0:0:0:
320,192,145526,1,2,0:0:0:0:
448,192,145526,1,0,0:0:0:0:
64,192,145585,1,2,0:0:0:0:
192,192,145644,1,0,0:0:0:0:
320,192,145683,1,0,0:0:0:0:
448,192,145722,1,0,0:0:0:0:
64,192,145761,1,2,0:0:0:0:
192,192,145761,1,0,0:0:0:0:
448,192,145819,1,2,0:0:0:0:
64,192,145878,1,2,0:0:0:0:
320,192,145878,1,0,0:0:0:0:
192,192,145937,1,2,0:0:0:0:
320,192,145995,1,0,0:0:0:0:
448,192,146034,1,0,0:0:0:0:
192,192,146073,1,0,0:0:0:0:
320,192,146112,1,0,0:0:0:0:
64,192,146151,1,0,0:0:0:0:
192,192,146190,1,0,0:0:0:0:
320,192,146230,1,2,0:0:0:0:
448,192,146230,1,0,0:0:0:0:
192,192,146288,1,2,0:0:0:0:
64,192,146347,1,2,0:0:0:0:
448,192,146347,1,0,0:0:0:0:
320,192,146405,1,2,0:0:0:0:
64,192,146464,1,2,0:0:0:0:
192,192,146464,1,0,0:0:0:0:
448,192,146522,1,2,0:0:0:0:
64,192,146581,1,2,0:0:0:0:
320,192,146620,1,2,0:0:0:0:
192,192,146659,1,2,0:0:0:0:
64,192,146698,1,2,0:0:0:0:
448,192,146698,1,0,0:0:0:0:
320,192,146757,1,2,0:0:0:0:
192,192,146815,1,2,0:0:0:0:
448,192,146815,1,0,0:0:0:0:
320,192,146874,1,2,0:0:0:0:
64,192,146933,1,0,0:0:0:0:
192,192,146972,1,0,0:0:0:0:
448,192,147011,1,0,0:0:0:0:
64,192,147050,1,0,0:0:0:0:
320,192,147089,1,0,0:0:0:0:
448,192,147128,1,0,0:0:0:0:
64,192,147167,1,2,0:0:0:0:
192,192,147167,1,0,0:0:0:0:
320,192,147226,1,2,0:0:0:0:
64,192,147284,1,2,0:0:0:0:
448,192,147284,1,0,0:0:0:0:
192,192,147343,1,2,0:0:0:0:
320,192,147401,1,2,0:0:0:0:
448,192,147401,1,0,0:0:0:0:
192,192,147460,1,2,0:0:0:0:
64,192,147519,1,2,0:0:0:0:
448,192,147558,1,2,0:0:0:0:
320,192,147597,1,2,0:0:0:0:
64,192,147636,1,2,0:0:0:0:
192,192,147636,1,0,0:0:0:0:
448,192,147694,1,2,0:0:0:0:
64,192,147753,1,2,0:0:0:0:
192,192,147782,1,0,0:0:0:0:
320,192,147812,1,2,0:0:0:0:
448,192,147841,1,0,0:0:0:0:
192,192,147870,1,0,0:0:0:0:
64,192,147909,1,0,0:0:0:0:
320,192,147948,1,0,0:0:0:0:
448,192,147987,1,0,0:0:0:0:
192,192,148026,1,0,0:0:0:0:
320,192,148065,1,0,0:0:0:0:
64,192,148105,1,2,0:0:0:0:
192,192,148105,1,0,0:0:0:0:
448,192,148105,1,0,0:0:0:0:
64,192,148261,1,2,0:0:0:0:
192,192,148261,1,0,0:0:0:0:
320,192,148261,1,0,0:0:0:0:
64,192,148417,1,2,0:0:0:0:
192,192,148417,1,0,0:0:0:0:
448,192,148417,1,0,0:0:0:0:
64,192,148573,1,2,0:0:0:0:
320,192,148573,1,0,0:0:0:0:
448,192,148573,1,0,0:0:0:0:
192,192,148730,1,2,0:0:0:0:
320,192,148730,1,0,0:0:0:0:
448,192,148730,1,0,0:0:0:0:
64,192,148886,1,2,0:0:0:0:
320,192,148886,1,0,0:0:0:0:
448,192,148886,1,0,0:0:0:0:
64,192,149042,1,4,0:0:0:0:
192,192,149042,1,2,0:0:0:0:
320,192,149042,1,0,0:0:0:0:
448,192,149042,1,0,0:0:0:0:
192,192,149159,128,0,149335:0:0:0:0:
320,192,149276,128,0,149452:0:0:0:0:
448,192,149394,128,0,149980:0:0:0:0:
192,192,150448,128,0,150800:0:0:0:0:
448,192,150917,1,0,0:0:0:0:
320,192,150946,128,0,151093:0:0:0:0:
64,192,151034,128,0,151210:0:0:0:0:
192,192,151151,128,0,151327:0:0:0:0:
320,192,151269,128,0,151855:0:0:0:0:
448,192,152323,128,0,152675:0:0:0:0:
64,192,152792,128,0,152890:0:0:0:0:
192,192,152831,128,0,152909:0:0:0:0:
320,192,152870,128,0,152929:0:0:0:0:
192,192,153730,128,0,153847:0:0:0:0:
320,192,153788,128,0,153876:0:0:0:0:
448,192,153847,128,0,153905:0:0:0:0:
64,192,154667,1,0,0:0:0:0:
320,192,154784,1,0,0:0:0:0:
192,192,154901,1,0,0:0:0:0:
448,192,155019,1,0,0:0:0:0:
320,192,155253,1,0,0:0:0:0:
192,192,155487,1,0,0:0:0:0:
448,192,155605,1,0,0:0:0:0:
64,192,155722,1,0,0:0:0:0:
320,192,155839,1,0,0:0:0:0:
448,192,155956,1,0,0:0:0:0:
64,192,156308,1,0,0:0:0:0:
192,192,156366,1,0,0:0:0:0:
320,192,156425,1,0,0:0:0:0:
448,192,156483,1,0,0:0:0:0:
64,192,156542,128,0,156601:0:0:0:0:
192,192,156659,1,0,0:0:0:0:
64,192,156776,128,0,156835:0:0:0:0:
448,192,156894,1,0,0:0:0:0:
64,192,157011,128,0,157069:0:0:0:0:
192,192,157069,128,0,157128:0:0:0:0:
320,192,157128,128,0,157187:0:0:0:0:
64,192,157245,128,0,157304:0:0:0:0:
320,192,157362,128,0,157480:0:0:0:0:
192,192,157480,1,0,0:0:0:0:
448,192,157597,128,0,157655:0:0:0:0:
320,192,157714,128,0,157772:0:0:0:0:
192,192,157831,128,0,157948:0:0:0:0:
64,192,157948,1,0,0:0:0:0:
448,192,158065,1,0,0:0:0:0:
192,192,158183,128,0,158241:0:0:0:0:
320,192,158241,128,0,158300:0:0:0:0:
448,192,158300,128,0,158358:0:0:0:0:
64,192,158358,128,0,158417:0:0:0:0:
192,192,158417,128,0,158476:0:0:0:0:
320,192,158476,1,0,0:0:0:0:
64,192,158534,1,0,0:0:0:0:
192,192,158651,128,0,158710:0:0:0:0:
320,192,158769,1,0,0:0:0:0:
448,192,158827,1,0,0:0:0:0:
192,192,158886,128,0,158944:0:0:0:0:
320,192,158944,128,0,159003:0:0:0:0:
64,192,159003,128,0,159062:0:0:0:0:
448,192,159120,128,0,159179:0:0:0:0:
64,192,159237,128,0,159355:0:0:0:0:
192,192,159296,1,0,0:0:0:0:
320,192,159355,1,0,0:0:0:0:
448,192,159472,128,0,159560:0:0:0:0:
64,192,159589,128,0,159677:0:0:0:0:
192,192,159706,128,0,159794:0:0:0:0:
320,192,159823,128,0,159911:0:0:0:0:
64,192,159940,128,0,159999:0:0:0:0:
448,192,159999,128,0,160116:0:0:0:0:
320,192,160058,1,0,0:0:0:0:
64,192,160116,128,0,160175:0:0:0:0:
192,192,160175,128,0,160292:0:0:0:0:
320,192,160292,128,0,160409:0:0:0:0:
64,192,160409,1,0,0:0:0:0:
192,192,160468,1,0,0:0:0:0:
320,192,160526,128,0,160644:0:0:0:0:
448,192,160644,1,0,0:0:0:0:
320,192,160702,1,0,0:0:0:0:
64,192,160761,128,0,160819:0:0:0:0:
192,192,160819,128,0,160878:0:0:0:0:
320,192,160878,128,0,160995:0:0:0:0:
64,192,160995,128,0,161112:0:0:0:0:
448,192,161112,128,0,161288:0:0:0:0:
320,192,161171,1,0,0:0:0:0:
192,192,161230,1,0,0:0:0:0:
64,192,161288,1,0,0:0:0:0:
320,192,161347,128,0,161464:0:0:0:0:
448,192,161464,128,0,161581:0:0:0:0:
192,192,161581,128,0,161815:0:0:0:0:
448,192,161815,128,0,161874:0:0:0:0:
320,192,161874,128,0,161933:0:0:0:0:
192,192,161933,128,0,161991:0:0:0:0:
64,192,161991,128,0,162050:0:0:0:0:
320,192,162050,128,0,162167:0:0:0:0:
448,192,162167,128,0,162226:0:0:0:0:
192,192,162284,1,0,0:0:0:0:
64,192,162343,1,0,0:0:0:0:
320,192,162401,128,0,162489:0:0:0:0:
448,192,162519,1,0,0:0:0:0:
320,192,162577,1,0,0:0:0:0:
192,192,162636,128,0,162694:0:0:0:0:
448,192,162694,1,0,0:0:0:0:
64,192,162753,128,0,162870:0:0:0:0:
448,192,162870,128,0,162987:0:0:0:0:
320,192,162987,128,0,163222:0:0:0:0:
64,192,163105,1,0,0:0:0:0:
448,192,163222,1,0,0:0:0:0:
64,192,163280,1,0,0:0:0:0:
192,192,163339,1,0,0:0:0:0:
320,192,163397,1,0,0:0:0:0:
64,192,163456,1,2,0:0:0:0:
448,192,163456,1,0,0:0:0:0:
320,192,163515,1,2,0:0:0:0:
64,192,163573,128,2,163690:0:0:0:0:
192,192,163573,128,4,163690:0:0:0:0:
192,192,163749,128,2,163866:0:0:0:0:
320,192,163749,128,4,163866:0:0:0:0:
320,192,163925,128,4,164042:0:0:0:0:
448,192,163925,128,2,163983:0:0:0:0:
64,192,164042,128,4,164130:0:0:0:0:
192,192,164042,128,2,164130:0:0:0:0:
448,192,164042,128,0,164130:0:0:0:0:
320,192,164159,1,0,0:0:0:0:
64,192,164218,1,0,0:0:0:0:
192,192,164276,128,0,164364:0:0:0:0:
448,192,164276,128,0,164364:0:0:0:0:
64,192,164394,1,6,0:0:0:0:
320,192,164452,1,0,0:0:0:0:
64,192,164511,1,8,0:0:0:0:
448,192,164511,1,0,0:0:0:0:
192,192,164569,1,0,0:0:0:0:
320,192,164628,128,4,164745:0:0:0:0:
448,192,164628,128,2,164745:0:0:0:0:
64,192,164745,128,0,164862:0:0:0:0:
192,192,164862,128,2,164980:0:0:0:0:
448,192,164862,1,4,0:0:0:0:
320,192,164921,1,0,0:0:0:0:
64,192,164980,128,8,165038:0:0:0:0:
448,192,164980,128,0,165038:0:0:0:0:
64,192,165097,128,0,165155:0:0:0:0:
192,192,165097,128,0,165155:0:0:0:0:
192,192,165214,128,0,165272:0:0:0:0:
320,192,165214,128,0,165272:0:0:0:0:
320,192,165331,128,0,165507:0:0:0:0:
448,192,165331,128,0,165917:0:0:0:0:
64,192,165565,1,0,0:0:0:0:
192,192,165624,1,0,0:0:0:0:
320,192,165683,1,0,0:0:0:0:
192,192,165741,1,0,0:0:0:0:
64,192,165800,1,0,0:0:0:0:
192,192,165917,128,2,165976:0:0:0:0:
320,192,165917,128,4,166034:0:0:0:0:
64,192,166034,128,0,166093:0:0:0:0:
192,192,166093,128,0,166151:0:0:0:0:
320,192,166151,128,0,166210:0:0:0:0:
448,192,166151,128,0,166269:0:0:0:0:
64,192,166269,128,0,166327:0:0:0:0:
192,192,166269,128,0,166327:0:0:0:0:
320,192,166327,128,0,166386:0:0:0:0:
448,192,166386,128,0,166444:0:0:0:0:
192,192,166444,128,0,166503:0:0:0:0:
64,192,166503,128,0,166562:0:0:0:0:
320,192,166503,128,0,166562:0:0:0:0:
192,192,166620,128,0,166737:0:0:0:0:
320,192,166620,128,0,166679:0:0:0:0:
64,192,166737,128,0,166913:0:0:0:0:
448,192,166737,128,0,166796:0:0:0:0:
320,192,166855,1,0,0:0:0:0:
448,192,166855,1,0,0:0:0:0:
64,192,166972,128,0,167089:0:0:0:0:
192,192,167089,128,0,167206:0:0:0:0:
320,192,167206,128,0,167323:0:0:0:0:
448,192,167323,128,0,167440:0:0:0:0:
192,192,167440,1,0,0:0:0:0:
320,192,167499,128,0,167616:0:0:0:0:
448,192,167558,1,0,0:0:0:0:
64,192,167616,1,0,0:0:0:0:
192,192,167675,128,0,167792:0:0:0:0:
320,192,167733,1,0,0:0:0:0:
64,192,167792,128,4,167880:0:0:0:0:
448,192,167792,128,2,167880:0:0:0:0:
320,192,167909,1,0,0:0:0:0:
64,192,167968,1,0,0:0:0:0:
192,192,168026,128,0,168114:0:0:0:0:
448,192,168026,128,0,168114:0:0:0:0:
64,192,168144,1,6,0:0:0:0:
320,192,168202,1,0,0:0:0:0:
64,192,168261,1,8,0:0:0:0:
448,192,168261,1,0,0:0:0:0:
192,192,168319,1,0,0:0:0:0:
320,192,168378,128,4,168466:0:0:0:0:
448,192,168378,128,2,168466:0:0:0:0:
64,192,168495,128,0,168612:0:0:0:0:
192,192,168612,128,2,168730:0:0:0:0:
448,192,168612,1,4,0:0:0:0:
320,192,168671,1,0,0:0:0:0:
64,192,168730,128,8,168788:0:0:0:0:
448,192,168730,128,0,168788:0:0:0:0:
64,192,168847,128,0,168905:0:0:0:0:
192,192,168847,128,0,168905:0:0:0:0:
192,192,168964,128,0,169022:0:0:0:0:
320,192,168964,128,0,169022:0:0:0:0:
320,192,169081,128,0,169257:0:0:0:0:
448,192,169081,128,0,169667:0:0:0:0:
64,192,169315,1,0,0:0:0:0:
192,192,169374,1,0,0:0:0:0:
320,192,169433,1,0,0:0:0:0:
192,192,169491,1,0,0:0:0:0:
64,192,169550,1,0,0:0:0:0:
192,192,169667,128,2,169726:0:0:0:0:
320,192,169667,1,4,0:0:0:0:
64,192,169726,128,0,169784:0:0:0:0:
320,192,169784,128,0,169901:0:0:0:0:
448,192,169901,128,0,170019:0:0:0:0:
320,192,170019,128,0,170077:0:0:0:0:
192,192,170077,128,0,170136:0:0:0:0:
64,192,170136,128,0,170194:0:0:0:0:
320,192,170194,128,0,170253:0:0:0:0:
448,192,170253,128,0,170370:0:0:0:0:
192,192,170370,128,0,170429:0:0:0:0:
64,192,170429,128,0,170487:0:0:0:0:
320,192,170487,128,0,170722:0:0:0:0:
192,192,170605,1,8,0:0:0:0:
448,192,170605,1,0,0:0:0:0:
64,192,170722,128,0,170839:0:0:0:0:
192,192,170839,128,8,170956:0:0:0:0:
448,192,170956,128,0,171190:0:0:0:0:
320,192,171073,1,8,0:0:0:0:
64,192,171190,1,0,0:0:0:0:
192,192,171249,1,0,0:0:0:0:
320,192,171308,1,8,0:0:0:0:
448,192,171308,1,0,0:0:0:0:
192,192,171366,1,0,0:0:0:0:
64,192,171425,1,0,0:0:0:0:
448,192,171425,1,0,0:0:0:0:
320,192,171483,1,0,0:0:0:0:
64,192,171542,128,4,171630:0:0:0:0:
192,192,171542,128,2,171630:0:0:0:0:
448,192,171542,128,0,171630:0:0:0:0:
320,192,171659,1,0,0:0:0:0:
64,192,171718,1,0,0:0:0:0:
192,192,171776,128,0,171864:0:0:0:0:
448,192,171776,128,0,171864:0:0:0:0:
64,192,171894,1,6,0:0:0:0:
320,192,171952,1,0,0:0:0:0:
64,192,172011,1,8,0:0:0:0:
448,192,172011,1,0,0:0:0:0:
320,192,172128,128,4,172216:0:0:0:0:
448,192,172128,128,2,172216:0:0:0:0:
64,192,172245,128,0,172362:0:0:0:0:
192,192,172362,128,2,172421:0:0:0:0:
448,192,172362,1,4,0:0:0:0:
320,192,172421,1,0,0:0:0:0:
64,192,172480,128,8,172538:0:0:0:0:
448,192,172480,128,0,172538:0:0:0:0:
64,192,172597,128,0,172655:0:0:0:0:
192,192,172597,128,0,172655:0:0:0:0:
192,192,172714,128,0,172772:0:0:0:0:
320,192,172714,128,0,172772:0:0:0:0:
320,192,172831,128,0,173007:0:0:0:0:
448,192,172831,128,0,173417:0:0:0:0:
64,192,173065,1,0,0:0:0:0:
192,192,173124,1,0,0:0:0:0:
320,192,173183,1,0,0:0:0:0:
192,192,173241,1,0,0:0:0:0:
64,192,173300,1,0,0:0:0:0:
192,192,173417,1,2,0:0:0:0:
320,192,173417,1,4,0:0:0:0:
320,192,173534,1,0,0:0:0:0:
448,192,173593,1,0,0:0:0:0:
64,192,173651,1,0,0:0:0:0:
192,192,173651,1,0,0:0:0:0:
320,192,173769,1,0,0:0:0:0:
448,192,173827,1,0,0:0:0:0:
192,192,173886,1,0,0:0:0:0:
320,192,173886,1,0,0:0:0:0:
64,192,173944,1,0,0:0:0:0:
192,192,174003,1,0,0:0:0:0:
448,192,174003,1,0,0:0:0:0:
320,192,174120,1,0,0:0:0:0:
448,192,174120,1,0,0:0:0:0:
64,192,174237,128,0,174355:0:0:0:0:
192,192,174237,128,0,174355:0:0:0:0:
320,192,174355,1,0,0:0:0:0:
320,192,174472,1,0,0:0:0:0:
448,192,174472,1,0,0:0:0:0:
64,192,174589,1,0,0:0:0:0:
192,192,174589,1,0,0:0:0:0:
64,192,174706,1,0,0:0:0:0:
192,192,174706,1,0,0:0:0:0:
320,192,174823,1,0,0:0:0:0:
448,192,174823,1,0,0:0:0:0:
320,192,174940,1,0,0:0:0:0:
448,192,174940,1,0,0:0:0:0:
320,192,175058,128,0,175116:0:0:0:0:
448,192,175058,128,0,175116:0:0:0:0:
320,192,175175,128,0,175233:0:0:0:0:
448,192,175175,128,0,175233:0:0:0:0:
64,192,175292,1,4,0:0:0:0:
448,192,175292,128,2,175351:0:0:0:0:
192,192,175409,128,0,175468:0:0:0:0:
320,192,175468,1,0,0:0:0:0:
448,192,175526,128,0,175644:0:0:0:0:
64,192,175644,128,0,175702:0:0:0:0:
192,192,175702,1,0,0:0:0:0:
320,192,175761,128,0,175819:0:0:0:0:
192,192,175819,128,0,175878:0:0:0:0:
448,192,175878,128,0,175995:0:0:0:0:
320,192,175995,128,0,176083:0:0:0:0:
64,192,176112,128,0,176230:0:0:0:0:
320,192,176230,1,0,0:0:0:0:
448,192,176230,1,0,0:0:0:0:
192,192,176347,128,0,176464:0:0:0:0:
64,192,176464,128,0,176581:0:0:0:0:
448,192,176581,128,0,176698:0:0:0:0:
320,192,176640,128,0,176698:0:0:0:0:
192,192,176698,1,0,0:0:0:0:
320,192,176757,1,0,0:0:0:0:
448,192,176815,128,0,176874:0:0:0:0:
64,192,176874,128,0,176933:0:0:0:0:
192,192,176933,128,0,176991:0:0:0:0:
320,192,176991,128,0,177050:0:0:0:0:
448,192,177050,128,0,177167:0:0:0:0:
64,192,177108,1,0,0:0:0:0:
192,192,177167,1,0,0:0:0:0:
320,192,177167,128,0,177284:0:0:0:0:
448,192,177284,1,0,0:0:0:0:
320,192,177343,1,0,0:0:0:0:
192,192,177401,128,0,177519:0:0:0:0:
64,192,177519,1,0,0:0:0:0:
320,192,177577,1,0,0:0:0:0:
448,192,177636,128,0,177694:0:0:0:0:
64,192,177694,128,0,177753:0:0:0:0:
192,192,177753,128,0,177870:0:0:0:0:
320,192,177812,1,0,0:0:0:0:
448,192,177870,128,0,177987:0:0:0:0:
320,192,177987,128,0,178105:0:0:0:0:
448,192,178046,128,0,178105:0:0:0:0:
64,192,178105,128,0,178163:0:0:0:0:
192,192,178105,128,0,178163:0:0:0:0:
320,192,178163,1,0,0:0:0:0:
64,192,178222,128,0,178280:0:0:0:0:
192,192,178222,128,0,178280:0:0:0:0:
448,192,178280,1,0,0:0:0:0:
192,192,178339,128,0,178456:0:0:0:0:
320,192,178339,1,0,0:0:0:0:
64,192,178397,1,0,0:0:0:0:
320,192,178456,128,0,178573:0:0:0:0:
448,192,178456,1,0,0:0:0:0:
192,192,178515,1,0,0:0:0:0:
64,192,178573,1,0,0:0:0:0:
448,192,178573,128,0,178690:0:0:0:0:
192,192,178632,1,0,0:0:0:0:
320,192,178690,1,0,0:0:0:0:
192,192,178749,128,0,178866:0:0:0:0:
448,192,178749,1,0,0:0:0:0:
64,192,178808,1,0,0:0:0:0:
448,192,178866,1,0,0:0:0:0:
64,192,178925,128,0,179042:0:0:0:0:
320,192,178925,1,0,0:0:0:0:
192,192,178983,1,0,0:0:0:0:
320,192,179042,1,6,0:0:0:0:
448,192,179042,1,8,0:0:0:0:
192,192,179159,1,0,0:0:0:0:
320,192,179276,1,8,0:0:0:0:
448,192,179276,1,2,0:0:0:0:
192,192,179394,1,0,0:0:0:0:
320,192,179511,1,8,0:0:0:0:
448,192,179511,1,2,0:0:0:0:
192,192,179628,1,0,0:0:0:0:
320,192,179745,1,8,0:0:0:0:
448,192,179745,1,2,0:0:0:0:
192,192,179862,1,0,0:0:0:0:
64,192,179980,1,8,0:0:0:0:
320,192,179980,1,2,0:0:0:0:
448,192,180097,1,0,0:0:0:0:
64,192,180214,1,8,0:0:0:0:
320,192,180214,1,2,0:0:0:0:
448,192,180331,1,0,0:0:0:0:
64,192,180448,1,8,0:0:0:0:
320,192,180448,1,2,0:0:0:0:
448,192,180565,1,0,0:0:0:0:
64,192,180683,1,8,0:0:0:0:
320,192,180683,1,2,0:0:0:0:
448,192,180800,1,0,0:0:0:0:
64,192,180917,1,8,0:0:0:0:
192,192,180917,1,2,0:0:0:0:
320,192,181034,1,0,0:0:0:0:
64,192,181151,1,8,0:0:0:0:
192,192,181151,1,2,0:0:0:0:
320,192,181269,1,0,0:0:0:0:
64,192,181386,1,8,0:0:0:0:
192,192,181386,1,2,0:0:0:0:
320,192,181503,1,0,0:0:0:0:
64,192,181620,1,8,0:0:0:0:
192,192,181620,1,2,0:0:0:0:
320,192,181737,1,0,0:0:0:0:
192,192,181855,1,8,0:0:0:0:
448,192,181855,1,2,0:0:0:0:
64,192,181972,1,0,0:0:0:0:
192,192,182089,1,8,0:0:0:0:
448,192,182089,1,2,0:0:0:0:
64,192,182206,1,0,0:0:0:0:
192,192,182323,1,8,0:0:0:0:
448,192,182323,1,2,0:0:0:0:
64,192,182440,1,0,0:0:0:0:
192,192,182558,1,8,0:0:0:0:
448,192,182558,1,2,0:0:0:0:
64,192,182675,1,0,0:0:0:0:
192,192,182792,1,8,0:0:0:0:
320,192,182792,1,2,0:0:0:0:
448,192,182792,1,4,0:0:0:0:
192,192,182909,1,8,0:0:0:0:
320,192,182909,1,2,0:0:0:0:
448,192,182909,1,4,0:0:0:0:
64,192,183026,1,0,0:0:0:0:
320,192,183065,128,0,183144:0:0:0:0:
192,192,183105,128,0,183183:0:0:0:0:
64,192,183144,128,0,183261:0:0:0:0:
192,192,183261,1,8,0:0:0:0:
320,192,183261,1,2,0:0:0:0:
448,192,183261,1,4,0:0:0:0:
192,192,183378,1,8,0:0:0:0:
320,192,183378,1,2,0:0:0:0:
448,192,183378,1,4,0:0:0:0:
64,192,183495,1,0,0:0:0:0:
192,192,183524,1,0,0:0:0:0:
448,192,183612,1,0,0:0:0:0:
320,192,183642,1,0,0:0:0:0:
64,192,183730,1,4,0:0:0:0:
192,192,183730,1,2,0:0:0:0:
320,192,183730,1,8,0:0:0:0:
64,192,183847,1,4,0:0:0:0:
192,192,183847,1,2,0:0:0:0:
320,192,183847,1,8,0:0:0:0:
448,192,183964,128,0,184042:0:0:0:0:
64,192,184003,128,0,184081:0:0:0:0:
192,192,184042,128,0,184120:0:0:0:0:
320,192,184081,128,0,184159:0:0:0:0:
448,192,184120,128,0,184198:0:0:0:0:
64,192,184198,1,8,0:0:0:0:
192,192,184198,1,2,0:0:0:0:
320,192,184198,1,4,0:0:0:0:
64,192,184315,1,8,0:0:0:0:
192,192,184315,1,2,0:0:0:0:
320,192,184315,1,4,0:0:0:0:
448,192,184433,128,0,184550:0:0:0:0:
192,192,184462,1,0,0:0:0:0:
64,192,184521,1,0,0:0:0:0:
320,192,184550,128,0,184667:0:0:0:0:
64,192,184667,1,12,0:0:0:0:
192,192,184667,1,2,0:0:0:0:
320,192,184726,1,8,0:0:0:0:
448,192,184726,1,2,0:0:0:0:
64,192,184784,1,8,0:0:0:0:
192,192,184784,1,2,0:0:0:0:
320,192,184843,1,8,0:0:0:0:
448,192,184843,1,2,0:0:0:0:
64,192,184901,1,12,0:0:0:0:
192,192,184901,1,2,0:0:0:0:
320,192,184960,1,8,0:0:0:0:
448,192,184960,1,2,0:0:0:0:
64,192,185019,1,8,0:0:0:0:
192,192,185019,1,2,0:0:0:0:
320,192,185077,1,8,0:0:0:0:
448,192,185077,1,2,0:0:0:0:
64,192,185136,1,12,0:0:0:0:
192,192,185136,1,2,0:0:0:0:
320,192,185194,1,8,0:0:0:0:
448,192,185194,1,2,0:0:0:0:
64,192,185253,1,8,0:0:0:0:
192,192,185253,1,2,0:0:0:0:
320,192,185312,1,8,0:0:0:0:
448,192,185312,1,2,0:0:0:0:
64,192,185370,1,12,0:0:0:0:
192,192,185370,1,2,0:0:0:0:
320,192,185429,1,8,0:0:0:0:
448,192,185429,1,2,0:0:0:0:
64,192,185487,1,8,0:0:0:0:
192,192,185487,1,2,0:0:0:0:
320,192,185546,1,8,0:0:0:0:
448,192,185546,1,2,0:0:0:0:
64,192,185605,128,2,185698:0:0:0:0:
192,192,185605,1,0,0:0:0:0:
320,192,185651,128,0,185745:0:0:0:0:
448,192,185698,128,0,185792:0:0:0:0:
192,192,185745,128,0,185839:0:0:0:0:
64,192,185792,128,0,185839:0:0:0:0:
320,192,185839,1,0,0:0:0:0:
64,192,185956,128,2,186015:0:0:0:0:
192,192,186015,128,2,186073:0:0:0:0:
448,192,186073,128,2,186190:0:0:0:0:
320,192,186103,1,0,0:0:0:0:
192,192,186249,128,2,186366:0:0:0:0:
320,192,186425,128,2,186542:0:0:0:0:
64,192,186542,128,4,186718:0:0:0:0:
192,192,186542,128,2,186659:0:0:0:0:
448,192,186542,128,0,186601:0:0:0:0:
448,192,186659,128,0,186776:0:0:0:0:
320,192,186718,128,0,186835:0:0:0:0:
64,192,186776,128,2,186894:0:0:0:0:
192,192,186776,128,0,186952:0:0:0:0:
320,192,186894,128,0,187069:0:0:0:0:
448,192,186952,128,0,187011:0:0:0:0:
64,192,187011,128,2,187128:0:0:0:0:
192,192,187011,128,0,187069:0:0:0:0:
448,192,187069,128,0,187245:0:0:0:0:
192,192,187128,128,0,187245:0:0:0:0:
64,192,187245,128,2,187480:0:0:0:0:
320,192,187245,128,0,187304:0:0:0:0:
320,192,187362,128,0,187538:0:0:0:0:
448,192,187362,128,0,187421:0:0:0:0:
192,192,187421,128,0,187480:0:0:0:0:
448,192,187480,128,2,187538:0:0:0:0:
192,192,187538,128,0,187597:0:0:0:0:
64,192,187597,128,0,187714:0:0:0:0:
320,192,187597,128,0,187772:0:0:0:0:
192,192,187714,128,2,187772:0:0:0:0:
448,192,187714,128,0,187948:0:0:0:0:
64,192,187831,128,0,187890:0:0:0:0:
192,192,187831,128,0,188007:0:0:0:0:
320,192,187890,128,0,187948:0:0:0:0:
64,192,187948,128,2,188007:0:0:0:0:
320,192,188007,128,0,188065:0:0:0:0:
192,192,188065,128,0,188124:0:0:0:0:
448,192,188065,128,0,188183:0:0:0:0:
64,192,188124,128,0,188183:0:0:0:0:
192,192,188183,128,2,188300:0:0:0:0:
320,192,188183,128,0,188241:0:0:0:0:
448,192,188241,128,0,188300:0:0:0:0:
64,192,188300,128,0,188417:0:0:0:0:
320,192,188300,128,0,188417:0:0:0:0:
192,192,188417,128,2,188534:0:0:0:0:
448,192,188417,128,0,188476:0:0:0:0:
64,192,188534,128,0,188593:0:0:0:0:
448,192,188534,128,0,188651:0:0:0:0:
320,192,188593,128,0,188651:0:0:0:0:
64,192,188651,128,2,188769:0:0:0:0:
192,192,188651,128,0,188710:0:0:0:0:
192,192,188769,128,0,188886:0:0:0:0:
448,192,188769,128,0,188827:0:0:0:0:
320,192,188827,128,0,188886:0:0:0:0:
64,192,188886,128,2,188944:0:0:0:0:
448,192,188886,128,0,189003:0:0:0:0:
192,192,188944,128,0,189003:0:0:0:0:
64,192,189003,128,0,189120:0:0:0:0:
320,192,189003,128,0,189062:0:0:0:0:
192,192,189120,128,2,189179:0:0:0:0:
320,192,189120,128,0,189355:0:0:0:0:
192,192,189237,128,0,189413:0:0:0:0:
448,192,189237,128,0,189296:0:0:0:0:
64,192,189296,128,0,189355:0:0:0:0:
448,192,189355,128,2,189413:0:0:0:0:
64,192,189413,128,0,189472:0:0:0:0:
192,192,189472,128,0,189589:0:0:0:0:
320,192,189472,128,0,189530:0:0:0:0:
320,192,189589,128,2,189706:0:0:0:0:
448,192,189589,128,0,189647:0:0:0:0:
64,192,189706,128,0,189765:0:0:0:0:
448,192,189706,128,0,189823:0:0:0:0:
64,192,189823,128,2,189999:0:0:0:0:
320,192,189823,128,0,189940:0:0:0:0:
192,192,189940,128,0,189999:0:0:0:0:
320,192,189999,128,0,190116:0:0:0:0:
448,192,189999,128,0,190175:0:0:0:0:
64,192,190116,128,0,190175:0:0:0:0:
192,192,190175,128,0,190292:0:0:0:0:
320,192,190175,128,0,190233:0:0:0:0:
64,192,190292,128,2,190351:0:0:0:0:
320,192,190292,128,4,190409:0:0:0:0:
448,192,190292,128,0,190468:0:0:0:0:
64,192,190409,128,0,190526:0:0:0:0:
192,192,190468,128,0,190585:0:0:0:0:
320,192,190526,128,2,190702:0:0:0:0:
448,192,190526,128,0,190644:0:0:0:0:
192,192,190644,128,0,190819:0:0:0:0:
64,192,190702,128,0,190761:0:0:0:0:
320,192,190761,128,2,190878:0:0:0:0:
448,192,190761,128,0,190819:0:0:0:0:
64,192,190819,128,0,190995:0:0:0:0:
448,192,190878,128,0,190995:0:0:0:0:
192,192,190995,128,2,191230:0:0:0:0:
320,192,190995,128,0,191112:0:0:0:0:
64,192,191112,128,0,191171:0:0:0:0:
448,192,191112,128,0,191288:0:0:0:0:
320,192,191171,128,0,191230:0:0:0:0:
64,192,191230,128,2,191288:0:0:0:0:
320,192,191288,128,0,191347:0:0:0:0:
192,192,191347,128,0,191464:0:0:0:0:
448,192,191347,128,0,191522:0:0:0:0:
64,192,191464,128,2,191698:0:0:0:0:
320,192,191464,128,0,191522:0:0:0:0:
192,192,191581,128,0,191640:0:0:0:0:
320,192,191581,128,0,191757:0:0:0:0:
448,192,191640,128,0,191698:0:0:0:0:
192,192,191698,128,2,191757:0:0:0:0:
448,192,191757,128,0,191815:0:0:0:0:
64,192,191815,128,0,191933:0:0:0:0:
320,192,191815,128,0,191874:0:0:0:0:
192,192,191874,128,0,191933:0:0:0:0:
320,192,191933,128,2,192050:0:0:0:0:
448,192,191933,128,0,191991:0:0:0:0:
64,192,191991,128,0,192050:0:0:0:0:
192,192,192050,128,0,192167:0:0:0:0:
448,192,192050,128,0,192167:0:0:0:0:
64,192,192167,128,2,192226:0:0:0:0:
320,192,192167,128,0,192343:0:0:0:0:
448,192,192226,128,0,192401:0:0:0:0:
64,192,192284,128,2,192401:0:0:0:0:
192,192,192284,128,0,192343:0:0:0:0:
192,192,192401,128,2,192519:0:0:0:0:
320,192,192401,128,0,192460:0:0:0:0:
64,192,192519,128,0,192577:0:0:0:0:
448,192,192519,128,0,192636:0:0:0:0:
320,192,192577,128,0,192636:0:0:0:0:
64,192,192636,128,2,192753:0:0:0:0:
192,192,192636,128,0,192694:0:0:0:0:
448,192,192694,128,0,192753:0:0:0:0:
192,192,192753,128,0,192870:0:0:0:0:
320,192,192753,128,0,192870:0:0:0:0:
64,192,192870,128,2,192929:0:0:0:0:
448,192,192870,128,0,193105:0:0:0:0:
320,192,192929,128,0,192987:0:0:0:0:
64,192,192987,128,0,193163:0:0:0:0:
192,192,192987,128,0,193046:0:0:0:0:
320,192,193046,128,0,193105:0:0:0:0:
192,192,193105,128,2,193163:0:0:0:0:
320,192,193163,128,0,193222:0:0:0:0:
64,192,193222,128,0,193397:0:0:0:0:
448,192,193222,128,0,193339:0:0:0:0:
192,192,193339,128,2,193573:0:0:0:0:
320,192,193339,128,0,193397:0:0:0:0:
320,192,193456,128,0,193632:0:0:0:0:
448,192,193456,128,0,193515:0:0:0:0:
64,192,193515,128,0,193573:0:0:0:0:
448,192,193573,128,2,193690:0:0:0:0:
64,192,193632,128,0,193749:0:0:0:0:
192,192,193690,128,0,193808:0:0:0:0:
320,192,193749,128,0,193866:0:0:0:0:
64,192,193808,128,2,193983:0:0:0:0:
448,192,193808,128,0,193983:0:0:0:0:
192,192,193866,128,0,193925:0:0:0:0:
320,192,193925,128,0,193983:0:0:0:0:
192,192,193983,128,2,194042:0:0:0:0:
64,192,194042,128,2,194159:0:0:0:0:
320,192,194042,128,4,194218:0:0:0:0:
448,192,194042,128,0,194101:0:0:0:0:
448,192,194159,128,0,194276:0:0:0:0:
192,192,194218,128,0,194335:0:0:0:0:
64,192,194276,128,2,194452:0:0:0:0:
320,192,194276,128,0,194394:0:0:0:0:
448,192,194335,128,0,194394:0:0:0:0:
192,192,194394,128,0,194511:0:0:0:0:
320,192,194452,128,0,194569:0:0:0:0:
64,192,194511,128,2,194569:0:0:0:0:
448,192,194511,128,0,194687:0:0:0:0:
192,192,194569,128,0,194687:0:0:0:0:
64,192,194628,128,0,194745:0:0:0:0:
192,192,194745,128,2,194804:0:0:0:0:
320,192,194745,128,0,194980:0:0:0:0:
64,192,194862,128,0,195038:0:0:0:0:
448,192,194862,128,0,194921:0:0:0:0:
192,192,194921,128,0,194980:0:0:0:0:
448,192,194980,128,2,195038:0:0:0:0:
192,192,195038,128,0,195097:0:0:0:0:
64,192,195097,128,0,195272:0:0:0:0:
320,192,195097,128,0,195214:0:0:0:0:
192,192,195214,128,2,195272:0:0:0:0:
448,192,195214,128,0,195448:0:0:0:0:
192,192,195331,128,0,195507:0:0:0:0:
320,192,195331,128,0,195390:0:0:0:0:
64,192,195390,128,0,195448:0:0:0:0:
320,192,195448,128,2,195507:0:0:0:0:
64,192,195507,128,0,195565:0:0:0:0:
192,192,195565,128,0,195683:0:0:0:0:
448,192,195565,128,0,195624:0:0:0:0:
320,192,195624,128,0,195741:0:0:0:0:
64,192,195683,128,2,195800:0:0:0:0:
448,192,195683,128,0,195741:0:0:0:0:
192,192,195741,128,0,195800:0:0:0:0:
320,192,195800,128,0,195917:0:0:0:0:
448,192,195800,128,0,195917:0:0:0:0:
64,192,195917,128,2,196093:0:0:0:0:
192,192,195917,128,0,196034:0:0:0:0:
320,192,196034,128,0,196151:0:0:0:0:
192,192,196093,128,0,196210:0:0:0:0:
64,192,196151,128,2,196269:0:0:0:0:
448,192,196151,128,0,196327:0:0:0:0:
192,192,196269,128,0,196386:0:0:0:0:
320,192,196327,128,0,196386:0:0:0:0:
64,192,196386,128,2,196444:0:0:0:0:
448,192,196386,128,0,196503:0:0:0:0:
320,192,196444,128,0,196562:0:0:0:0:
64,192,196503,128,0,196620:0:0:0:0:
192,192,196503,128,0,196679:0:0:0:0:
320,192,196620,128,2,196679:0:0:0:0:
448,192,196620,128,0,196855:0:0:0:0:
64,192,196737,128,0,196913:0:0:0:0:
192,192,196737,128,0,196796:0:0:0:0:
320,192,196796,128,2,196855:0:0:0:0:
192,192,196855,128,0,196913:0:0:0:0:
320,192,196913,128,0,196972:0:0:0:0:
64,192,196972,128,2,197030:0:0:0:0:
448,192,196972,128,4,197089:0:0:0:0:
64,192,197089,128,2,197206:0:0:0:0:
320,192,197089,128,4,197147:0:0:0:0:
320,192,197206,128,2,197323:0:0:0:0:
448,192,197206,128,4,197265:0:0:0:0:
192,192,197323,128,2,197440:0:0:0:0:
448,192,197323,128,4,197499:0:0:0:0:
64,192,197440,128,0,197499:0:0:0:0:
192,192,197499,128,4,197675:0:0:0:0:
320,192,197499,128,2,197616:0:0:0:0:
64,192,197616,128,0,197675:0:0:0:0:
320,192,197675,128,4,197792:0:0:0:0:
448,192,197675,128,2,197733:0:0:0:0:
64,192,197792,1,2,0:0:0:0:
192,192,197792,1,4,0:0:0:0:
448,192,197792,1,8,0:0:0:0:
320,192,197909,1,0,0:0:0:0:
448,192,197909,1,0,0:0:0:0:
192,192,197968,1,0,0:0:0:0:
64,192,198026,1,2,0:0:0:0:
320,192,198026,1,8,0:0:0:0:
192,192,198144,1,0,0:0:0:0:
448,192,198144,1,0,0:0:0:0:
320,192,198202,1,0,0:0:0:0:
64,192,198261,1,2,0:0:0:0:
192,192,198261,1,8,0:0:0:0:
320,192,198319,1,0,0:0:0:0:
64,192,198378,1,0,0:0:0:0:
448,192,198378,1,0,0:0:0:0:
192,192,198495,1,2,0:0:0:0:
320,192,198495,1,8,0:0:0:0:
448,192,198554,1,0,0:0:0:0:
64,192,198612,1,2,0:0:0:0:
320,192,198612,128,0,198730:0:0:0:0:
448,192,198671,1,2,0:0:0:0:
64,192,198730,1,8,0:0:0:0:
192,192,198730,1,2,0:0:0:0:
320,192,198788,1,0,0:0:0:0:
64,192,198847,1,0,0:0:0:0:
448,192,198847,1,0,0:0:0:0:
192,192,198905,1,0,0:0:0:0:
320,192,198964,1,2,0:0:0:0:
448,192,198964,1,8,0:0:0:0:
192,192,199022,1,0,0:0:0:0:
64,192,199081,1,2,0:0:0:0:
320,192,199081,128,0,199198:0:0:0:0:
448,192,199140,1,0,0:0:0:0:
64,192,199198,1,8,0:0:0:0:
192,192,199198,1,2,0:0:0:0:
320,192,199257,1,0,0:0:0:0:
192,192,199315,1,2,0:0:0:0:
448,192,199315,1,0,0:0:0:0:
64,192,199374,1,0,0:0:0:0:
192,192,199433,1,2,0:0:0:0:
320,192,199433,1,8,0:0:0:0:
64,192,199491,1,2,0:0:0:0:
320,192,199550,1,2,0:0:0:0:
448,192,199550,1,0,0:0:0:0:
192,192,199608,1,2,0:0:0:0:
64,192,199667,128,2,199726:0:0:0:0:
320,192,199667,128,0,199784:0:0:0:0:
192,192,199784,128,0,199843:0:0:0:0:
64,192,199843,128,0,199901:0:0:0:0:
448,192,199901,128,0,200019:0:0:0:0:
320,192,200019,128,0,200077:0:0:0:0:
64,192,200077,128,0,200136:0:0:0:0:
192,192,200136,128,0,200194:0:0:0:0:
448,192,200194,128,0,200253:0:0:0:0:
320,192,200253,128,0,200370:0:0:0:0:
64,192,200370,128,0,200487:0:0:0:0:
192,192,200487,128,0,200722:0:0:0:0:
448,192,200605,1,0,0:0:0:0:
64,192,200722,1,4,0:0:0:0:
320,192,200722,1,2,0:0:0:0:
448,192,200722,1,0,0:0:0:0:
192,192,200780,1,0,0:0:0:0:
320,192,200839,1,2,0:0:0:0:
448,192,200839,1,8,0:0:0:0:
64,192,200897,1,2,0:0:0:0:
192,192,200956,1,2,0:0:0:0:
320,192,200956,1,0,0:0:0:0:
448,192,201015,1,2,0:0:0:0:
64,192,201073,128,8,201190:0:0:0:0:
192,192,201073,128,4,201190:0:0:0:0:
320,192,201073,128,2,201190:0:0:0:0:
64,192,201249,128,2,201366:0:0:0:0:
192,192,201249,128,4,201366:0:0:0:0:
448,192,201249,128,8,201366:0:0:0:0:
192,192,201425,128,4,201542:0:0:0:0:
320,192,201425,128,2,201483:0:0:0:0:
448,192,201425,128,8,201483:0:0:0:0:
64,192,201542,128,2,201601:0:0:0:0:
320,192,201542,128,4,201659:0:0:0:0:
448,192,201542,128,0,201718:0:0:0:0:
64,192,201659,128,2,201835:0:0:0:0:
192,192,201718,128,0,201835:0:0:0:0:
320,192,201776,128,2,201952:0:0:0:0:
448,192,201776,128,0,201894:0:0:0:0:
192,192,201894,128,2,202069:0:0:0:0:
64,192,201952,128,0,202011:0:0:0:0:
320,192,202011,128,2,202069:0:0:0:0:
448,192,202011,128,0,202128:0:0:0:0:
64,192,202069,128,0,202245:0:0:0:0:
320,192,202128,128,2,202304:0:0:0:0:
192,192,202245,128,2,202304:0:0:0:0:
448,192,202245,128,0,202480:0:0:0:0:
64,192,202362,128,2,202421:0:0:0:0:
192,192,202362,128,0,202538:0:0:0:0:
320,192,202421,128,2,202480:0:0:0:0:
64,192,202480,128,2,202538:0:0:0:0:
320,192,202538,128,0,202597:0:0:0:0:
192,192,202597,128,2,202772:0:0:0:0:
448,192,202597,128,0,202714:0:0:0:0:
64,192,202714,128,2,202948:0:0:0:0:
320,192,202714,128,0,202772:0:0:0:0:
320,192,202831,128,2,203007:0:0:0:0:
448,192,202831,128,0,202890:0:0:0:0:
192,192,202890,128,0,202948:0:0:0:0:
448,192,202948,128,2,203007:0:0:0:0:
192,192,203007,128,0,203065:0:0:0:0:
64,192,203065,128,2,203183:0:0:0:0:
320,192,203065,128,0,203124:0:0:0:0:
448,192,203124,128,0,203241:0:0:0:0:
192,192,203183,128,2,203241:0:0:0:0:
320,192,203183,128,0,203300:0:0:0:0:
64,192,203241,128,0,203358:0:0:0:0:
192,192,203300,128,2,203417:0:0:0:0:
448,192,203300,128,0,203417:0:0:0:0:
64,192,203417,128,2,203534:0:0:0:0:
320,192,203417,128,0,203534:0:0:0:0:
192,192,203534,128,2,203651:0:0:0:0:
448,192,203534,128,0,203593:0:0:0:0:
64,192,203593,128,0,203710:0:0:0:0:
320,192,203651,128,2,203710:0:0:0:0:
448,192,203651,128,0,203769:0:0:0:0:
192,192,203769,128,2,203827:0:0:0:0:
320,192,203769,128,0,203886:0:0:0:0:
64,192,203827,128,0,203944:0:0:0:0:
192,192,203886,128,2,204062:0:0:0:0:
448,192,203886,128,0,203944:0:0:0:0:
320,192,203944,128,0,204003:0:0:0:0:
64,192,204003,128,2,204120:0:0:0:0:
448,192,204003,128,0,204120:0:0:0:0:
192,192,204120,128,2,204355:0:0:0:0:
320,192,204120,128,0,204179:0:0:0:0:
64,192,204237,128,2,204296:0:0:0:0:
320,192,204237,128,0,204413:0:0:0:0:
448,192,204296,128,0,204355:0:0:0:0:
64,192,204355,128,2,204413:0:0:0:0:
448,192,204413,128,2,204472:0:0:0:0:
192,192,204472,128,2,204530:0:0:0:0:
320,192,204472,128,0,204589:0:0:0:0:
64,192,204530,1,2,0:0:0:0:
192,192,204589,128,2,204765:0:0:0:0:
448,192,204589,128,0,204706:0:0:0:0:
64,192,204706,128,2,204823:0:0:0:0:
320,192,204706,128,0,204765:0:0:0:0:
320,192,204823,128,2,204940:0:0:0:0:
448,192,204823,128,0,204882:0:0:0:0:
192,192,204882,128,0,204999:0:0:0:0:
448,192,204940,128,0,205058:0:0:0:0:
64,192,204999,128,0,205058:0:0:0:0:
320,192,204999,128,0,205116:0:0:0:0:
192,192,205058,128,0,205175:0:0:0:0:
64,192,205116,128,0,205233:0:0:0:0:
320,192,205175,128,0,205292:0:0:0:0:
448,192,205175,128,0,205233:0:0:0:0:
64,192,205292,128,4,205468:0:0:0:0:
192,192,205292,128,2,205409:0:0:0:0:
448,192,205292,128,0,205351:0:0:0:0:
448,192,205409,128,0,205585:0:0:0:0:
320,192,205468,128,0,205585:0:0:0:0:
64,192,205526,128,2,205644:0:0:0:0:
192,192,205526,128,0,205702:0:0:0:0:
320,192,205644,128,0,205819:0:0:0:0:
448,192,205702,128,0,205761:0:0:0:0:
64,192,205761,128,2,205819:0:0:0:0:
192,192,205761,128,0,205878:0:0:0:0:
448,192,205819,128,0,205995:0:0:0:0:
64,192,205878,128,0,206054:0:0:0:0:
192,192,205995,128,2,206112:0:0:0:0:
320,192,205995,128,0,206230:0:0:0:0:
64,192,206112,128,0,206288:0:0:0:0:
448,192,206112,128,0,206171:0:0:0:0:
192,192,206171,128,0,206230:0:0:0:0:
448,192,206230,128,2,206288:0:0:0:0:
192,192,206288,128,0,206347:0:0:0:0:
64,192,206347,128,0,206522:0:0:0:0:
320,192,206347,128,0,206464:0:0:0:0:
192,192,206464,128,2,206522:0:0:0:0:
448,192,206464,128,0,206698:0:0:0:0:
192,192,206581,128,0,206757:0:0:0:0:
320,192,206581,128,0,206640:0:0:0:0:
64,192,206640,128,0,206698:0:0:0:0:
320,192,206698,128,2,206757:0:0:0:0:
64,192,206757,128,0,206815:0:0:0:0:
192,192,206815,128,0,206874:0:0:0:0:
448,192,206815,128,0,206933:0:0:0:0:
320,192,206874,128,0,206991:0:0:0:0:
64,192,206933,128,2,206991:0:0:0:0:
192,192,206933,128,0,207050:0:0:0:0:
448,192,206991,128,0,207108:0:0:0:0:
64,192,207050,128,0,207167:0:0:0:0:
320,192,207050,128,0,207167:0:0:0:0:
192,192,207167,128,2,207343:0:0:0:0:
448,192,207167,128,0,207226:0:0:0:0:
64,192,207226,128,0,207401:0:0:0:0:
320,192,207284,128,2,207343:0:0:0:0:
448,192,207284,128,0,207401:0:0:0:0:
192,192,207401,128,2,207577:0:0:0:0:
320,192,207401,128,0,207519:0:0:0:0:
64,192,207519,128,0,207636:0:0:0:0:
448,192,207519,128,0,207577:0:0:0:0:
320,192,207577,128,0,207694:0:0:0:0:
192,192,207636,128,2,207694:0:0:0:0:
448,192,207636,128,0,207753:0:0:0:0:
64,192,207694,128,0,207812:0:0:0:0:
192,192,207753,128,0,207812:0:0:0:0:
320,192,207753,128,0,207870:0:0:0:0:
64,192,207870,128,2,208105:0:0:0:0:
448,192,207870,128,0,207929:0:0:0:0:
192,192,207929,128,0,207987:0:0:0:0:
320,192,207987,128,2,208046:0:0:0:0:
448,192,207987,128,0,208163:0:0:0:0:
192,192,208046,128,0,208105:0:0:0:0:
320,192,208105,128,2,208163:0:0:0:0:
192,192,208163,128,0,208222:0:0:0:0:
64,192,208222,128,0,208339:0:0:0:0:
448,192,208222,128,0,208397:0:0:0:0:
192,192,208339,128,2,208397:0:0:0:0:
320,192,208339,128,0,208573:0:0:0:0:
64,192,208456,128,2,208515:0:0:0:0:
192,192,208456,128,0,208632:0:0:0:0:
448,192,208515,128,2,208573:0:0:0:0:
64,192,208573,128,2,208690:0:0:0:0:
448,192,208632,128,0,208749:0:0:0:0:
320,192,208690,128,0,208808:0:0:0:0:
192,192,208749,128,0,208866:0:0:0:0:
64,192,208808,128,0,208983:0:0:0:0:
448,192,208808,128,0,208983:0:0:0:0:
320,192,208866,128,0,208925:0:0:0:0:
192,192,208925,128,0,208983:0:0:0:0:
320,192,208983,128,0,209042:0:0:0:0:
64,192,209042,128,2,209101:0:0:0:0:
192,192,209042,128,0,209159:0:0:0:0:
448,192,209042,128,0,209101:0:0:0:0:
320,192,209101,1,2,0:0:0:0:
64,192,209159,1,2,0:0:0:0:
448,192,209159,1,0,0:0:0:0:
192,192,209218,1,2,0:0:0:0:
320,192,209218,1,0,0:0:0:0:
64,192,209276,128,4,209394:0:0:0:0:
448,192,209276,128,2,209452:0:0:0:0:
320,192,209394,128,2,209569:0:0:0:0:
64,192,209452,128,0,209511:0:0:0:0:
192,192,209511,128,2,209687:0:0:0:0:
448,192,209511,128,0,209569:0:0:0:0:
64,192,209569,128,0,209745:0:0:0:0:
448,192,209628,128,2,209804:0:0:0:0:
192,192,209745,128,2,209980:0:0:0:0:
320,192,209745,128,0,209804:0:0:0:0:
64,192,209862,128,2,209921:0:0:0:0:
448,192,209862,128,0,210038:0:0:0:0:
320,192,209921,128,2,209980:0:0:0:0:
64,192,209980,128,2,210038:0:0:0:0:
320,192,210038,128,0,210097:0:0:0:0:
192,192,210097,128,2,210214:0:0:0:0:
448,192,210097,128,0,210272:0:0:0:0:
64,192,210214,128,2,210448:0:0:0:0:
320,192,210214,128,0,210272:0:0:0:0:
192,192,210331,128,2,210390:0:0:0:0:
320,192,210331,128,0,210507:0:0:0:0:
448,192,210390,128,0,210448:0:0:0:0:
192,192,210448,128,2,210507:0:0:0:0:
448,192,210507,128,0,210565:0:0:0:0:
64,192,210565,128,2,210624:0:0:0:0:
320,192,210565,128,0,210683:0:0:0:0:
192,192,210624,128,0,210741:0:0:0:0:
64,192,210683,128,2,210741:0:0:0:0:
448,192,210683,128,0,210800:0:0:0:0:
320,192,210741,128,2,210800:0:0:0:0:
64,192,210800,128,2,210917:0:0:0:0:
192,192,210800,128,0,210917:0:0:0:0:
320,192,210917,128,2,211034:0:0:0:0:
448,192,210917,128,0,211093:0:0:0:0:
192,192,211034,128,2,211210:0:0:0:0:
320,192,211093,128,0,211151:0:0:0:0:
64,192,211151,128,2,211327:0:0:0:0:
448,192,211151,128,0,211269:0:0:0:0:
320,192,211269,128,2,211386:0:0:0:0:
192,192,211327,128,2,211386:0:0:0:0:
64,192,211386,128,2,211503:0:0:0:0:
448,192,211386,128,0,211444:0:0:0:0:
192,192,211444,128,0,211562:0:0:0:0:
320,192,211503,128,2,211679:0:0:0:0:
448,192,211503,128,0,211620:0:0:0:0:
64,192,211620,128,2,211855:0:0:0:0:
192,192,211620,128,0,211679:0:0:0:0:
320,192,211737,128,2,211796:0:0:0:0:
448,192,211737,128,0,211913:0:0:0:0:
192,192,211796,128,2,211855:0:0:0:0:
320,192,211855,128,0,211913:0:0:0:0:
192,192,211972,128,0,212089:0:0:0:0:
64,192,212089,128,0,212206:0:0:0:0:
320,192,212206,128,0,212323:0:0:0:0:
448,192,212323,128,0,212440:0:0:0:0:
192,192,212440,1,0,0:0:0:0:
320,192,212499,128,2,212616:0:0:0:0:
64,192,212616,1,0,0:0:0:0:
192,192,212675,128,0,212792:0:0:0:0:
64,192,212792,1,4,0:0:0:0:
320,192,212792,1,2,0:0:0:0:
448,192,212792,1,0,0:0:0:0:
192,192,212851,1,0,0:0:0:0:
64,192,212909,1,0,0:0:0:0:
448,192,212909,1,0,0:0:0:0:
192,192,212968,1,2,0:0:0:0:
320,192,212968,1,4,0:0:0:0:
64,192,213026,1,0,0:0:0:0:
448,192,213026,1,0,0:0:0:0:
320,192,213085,1,0,0:0:0:0:
64,192,213144,1,4,0:0:0:0:
192,192,213144,1,2,0:0:0:0:
448,192,213202,1,0,0:0:0:0:
192,192,213261,1,4,0:0:0:0:
320,192,213261,1,2,0:0:0:0:
64,192,213319,1,0,0:0:0:0:
320,192,213378,1,0,0:0:0:0:
448,192,213378,1,0,0:0:0:0:
192,192,213495,1,0,0:0:0:0:
448,192,213495,1,0,0:0:0:0:
64,192,213612,128,2,213671:0:0:0:0:
192,192,213612,1,4,0:0:0:0:
320,192,213612,1,0,0:0:0:0:
448,192,213671,128,0,213730:0:0:0:0:
64,192,213730,128,6,213788:0:0:0:0:
448,192,213788,128,0,213847:0:0:0:0:
192,192,213847,1,0,0:0:0:0:
320,192,213847,1,0,0:0:0:0:
448,192,213905,1,6,0:0:0:0:
64,192,213964,1,0,0:0:0:0:
192,192,213964,1,0,0:0:0:0:
64,192,214081,1,4,0:0:0:0:
320,192,214081,1,2,0:0:0:0:
448,192,214081,128,0,214140:0:0:0:0:
192,192,214140,128,0,214198:0:0:0:0:
448,192,214198,128,6,214257:0:0:0:0:
192,192,214257,128,0,214315:0:0:0:0:
320,192,214315,1,0,0:0:0:0:
448,192,214315,1,0,0:0:0:0:
64,192,214374,1,2,0:0:0:0:
192,192,214374,1,4,0:0:0:0:
320,192,214433,1,0,0:0:0:0:
448,192,214433,1,0,0:0:0:0:
192,192,214491,1,0,0:0:0:0:
64,192,214550,1,4,0:0:0:0:
320,192,214550,128,2,214608:0:0:0:0:
448,192,214608,1,0,0:0:0:0:
64,192,214667,1,2,0:0:0:0:
192,192,214667,128,4,214726:0:0:0:0:
320,192,214726,1,0,0:0:0:0:
64,192,214784,1,0,0:0:0:0:
448,192,214784,1,0,0:0:0:0:
192,192,214843,1,4,0:0:0:0:
320,192,214843,1,2,0:0:0:0:
64,192,214901,128,0,214960:0:0:0:0:
448,192,214901,1,0,0:0:0:0:
192,192,214960,1,0,0:0:0:0:
320,192,215019,1,2,0:0:0:0:
448,192,215019,1,4,0:0:0:0:
64,192,215077,1,0,0:0:0:0:
192,192,215077,1,0,0:0:0:0:
320,192,215136,128,4,215194:0:0:0:0:
448,192,215136,128,2,215194:0:0:0:0:
192,192,215194,1,0,0:0:0:0:
64,192,215253,128,0,215312:0:0:0:0:
448,192,215253,128,0,215312:0:0:0:0:
320,192,215312,1,6,0:0:0:0:
64,192,215370,128,0,215487:0:0:0:0:
192,192,215370,1,0,0:0:0:0:
320,192,215429,1,0,0:0:0:0:
192,192,215487,1,2,0:0:0:0:
448,192,215487,128,4,215605:0:0:0:0:
320,192,215546,1,0,0:0:0:0:
64,192,215605,1,6,0:0:0:0:
192,192,215605,1,8,0:0:0:0:
320,192,215663,1,8,0:0:0:0:
64,192,215722,1,8,0:0:0:0:
448,192,215722,1,0,0:0:0:0:
192,192,215780,1,8,0:0:0:0:
320,192,215839,1,8,0:0:0:0:
448,192,215839,1,0,0:0:0:0:
192,192,215897,1,8,0:0:0:0:
64,192,215956,1,8,0:0:0:0:
320,192,215956,1,0,0:0:0:0:
448,192,216015,1,8,0:0:0:0:
64,192,216073,128,6,216132:0:0:0:0:
192,192,216073,128,8,216190:0:0:0:0:
320,192,216132,1,8,0:0:0:0:
64,192,216190,1,8,0:0:0:0:
192,192,216249,128,6,216308:0:0:0:0:
448,192,216249,128,8,216366:0:0:0:0:
320,192,216308,1,8,0:0:0:0:
64,192,216366,1,8,0:0:0:0:
192,192,216425,128,6,216542:0:0:0:0:
320,192,216425,128,8,216483:0:0:0:0:
448,192,216483,1,8,0:0:0:0:
64,192,216542,128,8,216659:0:0:0:0:
320,192,216542,1,0,0:0:0:0:
448,192,216601,1,8,0:0:0:0:
192,192,216659,128,8,216776:0:0:0:0:
320,192,216718,1,8,0:0:0:0:
448,192,216776,128,8,216894:0:0:0:0:
64,192,216835,1,8,0:0:0:0:
192,192,216894,1,8,0:0:0:0:
320,192,216894,1,0,0:0:0:0:
448,192,216952,1,8,0:0:0:0:
64,192,217011,1,10,0:0:0:0:
320,192,217011,128,4,217128:0:0:0:0:
192,192,217069,128,8,217128:0:0:0:0:
448,192,217128,1,8,0:0:0:0:
64,192,217187,128,12,217245:0:0:0:0:
192,192,217187,128,2,217304:0:0:0:0:
320,192,217245,1,8,0:0:0:0:
448,192,217304,1,8,0:0:0:0:
64,192,217362,1,10,0:0:0:0:
192,192,217362,1,4,0:0:0:0:
448,192,217421,1,8,0:0:0:0:
64,192,217480,1,8,0:0:0:0:
320,192,217480,1,0,0:0:0:0:
192,192,217538,1,8,0:0:0:0:
320,192,217597,1,8,0:0:0:0:
448,192,217597,1,0,0:0:0:0:
192,192,217655,1,8,0:0:0:0:
64,192,217714,1,8,0:0:0:0:
448,192,217714,1,0,0:0:0:0:
320,192,217772,1,8,0:0:0:0:
64,192,217831,1,8,0:0:0:0:
192,192,217831,1,0,0:0:0:0:
320,192,217890,1,8,0:0:0:0:
192,192,217948,128,12,218007:0:0:0:0:
448,192,217948,128,2,218065:0:0:0:0:
64,192,218007,1,8,0:0:0:0:
192,192,218065,1,8,0:0:0:0:
320,192,218124,128,10,218241:0:0:0:0:
448,192,218124,128,4,218183:0:0:0:0:
64,192,218183,1,8,0:0:0:0:
448,192,218241,1,8,0:0:0:0:
64,192,218300,128,12,218417:0:0:0:0:
320,192,218300,128,2,218358:0:0:0:0:
192,192,218358,1,8,0:0:0:0:
320,192,218417,1,10,0:0:0:0:
448,192,218417,1,4,0:0:0:0:
64,192,218476,1,8,0:0:0:0:
192,192,218534,1,8,0:0:0:0:
320,192,218534,1,2,0:0:0:0:
448,192,218593,1,8,0:0:0:0:
64,192,218651,1,10,0:0:0:0:
192,192,218651,1,4,0:0:0:0:
448,192,218710,1,10,0:0:0:0:
192,192,218769,1,8,0:0:0:0:
320,192,218769,1,2,0:0:0:0:
64,192,218827,1,10,0:0:0:0:
320,192,218886,128,2,219003:0:0:0:0:
448,192,218886,128,4,219042:0:0:0:0:
64,192,219003,1,0,0:0:0:0:
192,192,219042,1,0,0:0:0:0:
320,192,219081,1,0,0:0:0:0:
64,192,219120,1,0,0:0:0:0:
448,192,219120,1,0,0:0:0:0:
320,192,219237,128,0,219325:0:0:0:0:
448,192,219237,1,0,0:0:0:0:
192,192,219296,128,0,219355:0:0:0:0:
64,192,219355,1,2,0:0:0:0:
448,192,219355,1,0,0:0:0:0:
192,192,219413,1,2,0:0:0:0:
320,192,219413,1,0,0:0:0:0:
64,192,219472,1,2,0:0:0:0:
448,192,219472,1,0,0:0:0:0:
320,192,219530,1,2,0:0:0:0:
64,192,219589,1,4,0:0:0:0:
192,192,219589,1,2,0:0:0:0:
320,192,219647,1,0,0:0:0:0:
448,192,219647,1,0,0:0:0:0:
64,192,219706,1,0,0:0:0:0:
192,192,219706,1,0,0:0:0:0:
448,192,219765,1,0,0:0:0:0:
192,192,219823,1,2,0:0:0:0:
320,192,219823,1,0,0:0:0:0:
64,192,219882,1,0,0:0:0:0:
192,192,219940,1,0,0:0:0:0:
320,192,219940,1,0,0:0:0:0:
448,192,219940,1,0,0:0:0:0:
64,192,219999,1,0,0:0:0:0:
320,192,220058,1,2,0:0:0:0:
448,192,220058,1,0,0:0:0:0:
64,192,220175,1,0,0:0:0:0:
192,192,220175,1,0,0:0:0:0:
320,192,220175,1,0,0:0:0:0:
192,192,220292,1,2,0:0:0:0:
448,192,220292,1,0,0:0:0:0:
64,192,220409,1,0,0:0:0:0:
320,192,220409,1,0,0:0:0:0:
448,192,220409,1,0,0:0:0:0:
64,192,220526,1,2,0:0:0:0:
192,192,220526,1,0,0:0:0:0:
448,192,220526,1,0,0:0:0:0:
192,192,220644,1,0,0:0:0:0:
320,192,220644,1,0,0:0:0:0:
64,192,220761,1,2,0:0:0:0:
320,192,220761,1,0,0:0:0:0:
448,192,220761,1,0,0:0:0:0:
192,192,220878,1,0,0:0:0:0:
320,192,220878,1,0,0:0:0:0:
448,192,220878,1,0,0:0:0:0:
64,192,220995,1,2,0:0:0:0:
192,192,220995,1,0,0:0:0:0:
448,192,220995,1,0,0:0:0:0:
64,192,221112,1,0,0:0:0:0:
192,192,221112,1,0,0:0:0:0:
320,192,221112,1,0,0:0:0:0:
192,192,221230,1,2,0:0:0:0:
320,192,221230,1,0,0:0:0:0:
448,192,221230,1,0,0:0:0:0:
64,192,221347,1,0,0:0:0:0:
448,192,221347,1,0,0:0:0:0:
64,192,221464,1,2,0:0:0:0:
192,192,221464,1,0,0:0:0:0:
320,192,221464,1,0,0:0:0:0:
64,192,221581,1,2,0:0:0:0:
192,192,221581,1,0,0:0:0:0:
448,192,221581,1,0,0:0:0:0:
192,192,221698,1,2,0:0:0:0:
320,192,221698,1,0,0:0:0:0:
64,192,221815,1,0,0:0:0:0:
320,192,221815,1,0,0:0:0:0:
448,192,221815,1,0,0:0:0:0:
64,192,221933,1,2,0:0:0:0:
448,192,221933,1,0,0:0:0:0:
192,192,222050,1,2,0:0:0:0:
320,192,222050,1,0,0:0:0:0:
448,192,222050,1,0,0:0:0:0:
64,192,222167,1,2,0:0:0:0:
448,192,222167,1,0,0:0:0:0:
64,192,222284,1,0,0:0:0:0:
192,192,222284,1,0,0:0:0:0:
320,192,222284,1,0,0:0:0:0:
448,192,222343,1,2,0:0:0:0:
64,192,222401,1,0,0:0:0:0:
192,192,222401,1,0,0:0:0:0:
320,192,222401,1,0,0:0:0:0:
192,192,222519,1,2,0:0:0:0:
320,192,222519,1,0,0:0:0:0:
448,192,222519,1,0,0:0:0:0:
64,192,222577,1,0,0:0:0:0:
320,192,222636,128,2,222851:0:0:0:0:
448,192,222655,128,0,222870:0:0:0:0:
64,192,222753,1,0,0:0:0:0:
192,192,222792,1,0,0:0:0:0:
64,192,222870,1,0,0:0:0:0:
192,192,222909,128,0,223026:0:0:0:0:
448,192,223026,1,0,0:0:0:0:
320,192,223065,1,0,0:0:0:0:
64,192,223105,128,4,223515:0:0:0:0:
192,192,223105,128,2,223222:0:0:0:0:
320,192,223163,128,0,223222:0:0:0:0:
448,192,223222,128,0,223339:0:0:0:0:
320,192,223280,1,0,0:0:0:0:
192,192,223339,128,0,223456:0:0:0:0:
448,192,223397,1,0,0:0:0:0:
320,192,223456,1,0,0:0:0:0:
192,192,223515,1,0,0:0:0:0:
64,192,223573,1,8,0:0:0:0:
448,192,223573,128,0,223690:0:0:0:0:
192,192,223651,128,0,223730:0:0:0:0:
320,192,223690,1,0,0:0:0:0:
64,192,223710,1,0,0:0:0:0:
448,192,223808,1,0,0:0:0:0:
192,192,223827,1,0,0:0:0:0:
64,192,223925,128,0,224042:0:0:0:0:
320,192,223925,1,0,0:0:0:0:
192,192,224003,128,0,224081:0:0:0:0:
320,192,224042,1,2,0:0:0:0:
448,192,224042,1,0,0:0:0:0:
64,192,224159,1,0,0:0:0:0:
192,192,224179,1,0,0:0:0:0:
448,192,224276,128,0,224472:0:0:0:0:
64,192,224315,128,0,224394:0:0:0:0:
192,192,224355,128,0,224433:0:0:0:0:
320,192,224394,128,0,224511:0:0:0:0:
64,192,224511,128,8,224628:0:0:0:0:
192,192,224511,1,0,0:0:0:0:
448,192,224628,128,0,224765:0:0:0:0:
192,192,224667,128,0,224745:0:0:0:0:
64,192,224745,1,0,0:0:0:0:
320,192,224765,1,0,0:0:0:0:
192,192,224862,1,0,0:0:0:0:
448,192,224882,1,0,0:0:0:0:
64,192,224980,128,2,225155:0:0:0:0:
192,192,224999,128,0,225136:0:0:0:0:
320,192,225019,128,0,225116:0:0:0:0:
448,192,225038,128,0,225097:0:0:0:0:
448,192,225214,128,0,225390:0:0:0:0:
320,192,225233,128,0,225370:0:0:0:0:
192,192,225253,128,0,225351:0:0:0:0:
64,192,225272,128,0,225331:0:0:0:0:
192,192,225448,1,8,0:0:0:0:
320,192,225448,128,0,225644:0:0:0:0:
64,192,225526,128,0,225605:0:0:0:0:
448,192,225546,128,0,225683:0:0:0:0:
192,192,225683,1,0,0:0:0:0:
64,192,225702,1,0,0:0:0:0:
320,192,225800,128,0,225917:0:0:0:0:
448,192,225800,1,0,0:0:0:0:
192,192,225878,128,0,225956:0:0:0:0:
64,192,225917,1,2,0:0:0:0:
448,192,225917,1,0,0:0:0:0:
64,192,226034,128,0,226151:0:0:0:0:
192,192,226093,128,0,226171:0:0:0:0:
448,192,226151,1,0,0:0:0:0:
320,192,226171,1,0,0:0:0:0:
64,192,226269,1,0,0:0:0:0:
192,192,226288,1,0,0:0:0:0:
320,192,226386,1,8,0:0:0:0:
448,192,226386,1,0,0:0:0:0:
64,192,226444,1,0,0:0:0:0:
448,192,226503,1,0,0:0:0:0:
64,192,226562,1,0,0:0:0:0:
320,192,226620,1,0,0:0:0:0:
192,192,226698,1,0,0:0:0:0:
320,192,226776,1,0,0:0:0:0:
64,192,226855,128,2,227030:0:0:0:0:
192,192,226855,128,0,227030:0:0:0:0:
448,192,226855,128,0,227030:0:0:0:0:
192,192,227089,1,4,0:0:0:0:
320,192,227089,1,2,0:0:0:0:
448,192,227089,1,0,0:0:0:0:
64,192,227206,1,0,0:0:0:0:
320,192,227206,1,0,0:0:0:0:
448,192,227206,1,0,0:0:0:0:
192,192,227323,1,2,0:0:0:0:
448,192,227323,1,0,0:0:0:0:
64,192,227440,1,0,0:0:0:0:
192,192,227440,1,0,0:0:0:0:
320,192,227440,1,0,0:0:0:0:
64,192,227558,1,2,0:0:0:0:
448,192,227558,1,0,0:0:0:0:
192,192,227675,1,0,0:0:0:0:
320,192,227675,1,0,0:0:0:0:
448,192,227675,1,0,0:0:0:0:
64,192,227792,1,2,0:0:0:0:
320,192,227792,1,0,0:0:0:0:
64,192,227909,1,0,0:0:0:0:
192,192,227909,1,0,0:0:0:0:
448,192,227909,1,0,0:0:0:0:
64,192,228026,1,2,0:0:0:0:
320,192,228026,1,0,0:0:0:0:
448,192,228026,1,0,0:0:0:0:
64,192,228144,1,0,0:0:0:0:
192,192,228144,1,0,0:0:0:0:
192,192,228261,1,2,0:0:0:0:
320,192,228261,1,0,0:0:0:0:
448,192,228261,1,0,0:0:0:0:
64,192,228378,1,0,0:0:0:0:
320,192,228378,1,0,0:0:0:0:
448,192,228378,1,0,0:0:0:0:
64,192,228495,1,2,0:0:0:0:
192,192,228495,1,0,0:0:0:0:
448,192,228495,1,0,0:0:0:0:
64,192,228612,1,0,0:0:0:0:
192,192,228612,1,0,0:0:0:0:
320,192,228612,1,0,0:0:0:0:
64,192,228730,1,2,0:0:0:0:
320,192,228730,1,4,0:0:0:0:
448,192,228730,1,0,0:0:0:0:
320,192,228847,1,2,0:0:0:0:
448,192,228847,1,4,0:0:0:0:
64,192,228964,1,0,0:0:0:0:
192,192,228964,1,0,0:0:0:0:
448,192,228964,1,0,0:0:0:0:
64,192,229081,1,0,0:0:0:0:
192,192,229081,1,0,0:0:0:0:
320,192,229081,1,0,0:0:0:0:
64,192,229198,1,4,0:0:0:0:
320,192,229198,1,2,0:0:0:0:
448,192,229198,1,0,0:0:0:0:
64,192,229315,1,2,0:0:0:0:
320,192,229315,1,4,0:0:0:0:
448,192,229315,1,0,0:0:0:0:
192,192,229433,1,0,0:0:0:0:
448,192,229433,1,0,0:0:0:0:
320,192,229491,1,0,0:0:0:0:
64,192,229550,1,0,0:0:0:0:
192,192,229550,1,0,0:0:0:0:
448,192,229550,1,0,0:0:0:0:
64,192,229667,1,4,0:0:0:0:
320,192,229667,1,2,0:0:0:0:
192,192,229784,1,2,0:0:0:0:
320,192,229784,1,4,0:0:0:0:
448,192,229784,1,0,0:0:0:0:
64,192,229843,1,0,0:0:0:0:
192,192,229901,128,0,230077:0:0:0:0:
448,192,229901,128,0,230019:0:0:0:0:
64,192,230019,1,0,0:0:0:0:
320,192,230019,128,0,230136:0:0:0:0:
64,192,230136,128,2,230253:0:0:0:0:
448,192,230136,1,0,0:0:0:0:
192,192,230175,128,0,230272:0:0:0:0:
320,192,230214,128,0,230292:0:0:0:0:
448,192,230312,1,0,0:0:0:0:
192,192,230370,1,0,0:0:0:0:
320,192,230409,1,0,0:0:0:0:
448,192,230448,1,0,0:0:0:0:
64,192,230487,1,0,0:0:0:0:
192,192,230526,1,0,0:0:0:0:
320,192,230565,1,0,0:0:0:0:
64,192,230605,1,2,0:0:0:0:
192,192,230605,1,4,0:0:0:0:
448,192,230605,1,0,0:0:0:0:
320,192,230722,1,0,0:0:0:0:
320,192,230839,1,0,0:0:0:0:
448,192,230839,1,0,0:0:0:0:
64,192,230956,1,0,0:0:0:0:
192,192,230956,1,0,0:0:0:0:
64,192,231073,128,8,231190:0:0:0:0:
448,192,231073,1,0,0:0:0:0:
192,192,231151,128,0,231230:0:0:0:0:
320,192,231190,1,0,0:0:0:0:
448,192,231308,1,0,0:0:0:0:
192,192,231327,1,0,0:0:0:0:
64,192,231425,1,8,0:0:0:0:
448,192,231425,128,0,231542:0:0:0:0:
320,192,231503,128,0,231581:0:0:0:0:
64,192,231542,1,0,0:0:0:0:
192,192,231562,1,0,0:0:0:0:
64,192,231659,1,0,0:0:0:0:
192,192,231679,1,0,0:0:0:0:
320,192,231776,128,8,231913:0:0:0:0:
448,192,231776,1,0,0:0:0:0:
192,192,231815,128,0,231894:0:0:0:0:
64,192,231894,1,2,0:0:0:0:
448,192,231913,1,0,0:0:0:0:
192,192,231952,1,2,0:0:0:0:
64,192,232011,1,8,0:0:0:0:
320,192,232030,128,0,232128:0:0:0:0:
192,192,232128,1,2,0:0:0:0:
448,192,232128,128,4,232304:0:0:0:0:
320,192,232206,128,0,232382:0:0:0:0:
64,192,232245,128,2,232362:0:0:0:0:
192,192,232245,1,4,0:0:0:0:
192,192,232362,128,6,232480:0:0:0:0:
64,192,232480,128,2,232597:0:0:0:0:
448,192,232480,128,4,232597:0:0:0:0:
192,192,232538,1,0,0:0:0:0:
320,192,232597,1,0,0:0:0:0:
192,192,232655,1,0,0:0:0:0:
64,192,232714,128,0,232831:0:0:0:0:
448,192,232714,128,0,232831:0:0:0:0:
320,192,232772,1,0,0:0:0:0:
192,192,232831,1,0,0:0:0:0:
448,192,232890,1,0,0:0:0:0:
64,192,232948,1,8,0:0:0:0:
192,192,232948,128,0,233046:0:0:0:0:
320,192,232987,128,0,233065:0:0:0:0:
448,192,233065,1,0,0:0:0:0:
64,192,233085,1,0,0:0:0:0:
320,192,233183,1,0,0:0:0:0:
192,192,233202,1,0,0:0:0:0:
320,192,233300,1,4,0:0:0:0:
448,192,233300,1,2,0:0:0:0:
64,192,233339,1,0,0:0:0:0:
192,192,233378,1,0,0:0:0:0:
320,192,233417,1,0,0:0:0:0:
448,192,233456,1,0,0:0:0:0:
192,192,233495,1,0,0:0:0:0:
64,192,233534,1,0,0:0:0:0:
320,192,233573,1,0,0:0:0:0:
192,192,233612,1,0,0:0:0:0:
64,192,233651,1,8,0:0:0:0:
448,192,233651,1,0,0:0:0:0:
320,192,233710,1,0,0:0:0:0:
64,192,233769,1,8,0:0:0:0:
192,192,233769,1,0,0:0:0:0:
320,192,233886,1,8,0:0:0:0:
448,192,233886,1,0,0:0:0:0:
64,192,233925,1,0,0:0:0:0:
192,192,233964,1,0,0:0:0:0:
320,192,234003,1,8,0:0:0:0:
448,192,234003,1,0,0:0:0:0:
64,192,234120,1,8,0:0:0:0:
192,192,234120,1,0,0:0:0:0:
448,192,234159,1,0,0:0:0:0:
320,192,234198,1,0,0:0:0:0:
64,192,234237,1,8,0:0:0:0:
192,192,234237,1,0,0:0:0:0:
64,192,234355,1,2,0:0:0:0:
320,192,234355,1,4,0:0:0:0:
448,192,234355,1,0,0:0:0:0:
192,192,234472,1,0,0:0:0:0:
320,192,234472,1,0,0:0:0:0:
64,192,234589,1,2,0:0:0:0:
192,192,234589,1,0,0:0:0:0:
448,192,234589,1,0,0:0:0:0:
192,192,234706,1,0,0:0:0:0:
320,192,234706,1,0,0:0:0:0:
448,192,234706,1,0,0:0:0:0:
64,192,234823,1,2,0:0:0:0:
320,192,234823,1,0,0:0:0:0:
64,192,234940,1,0,0:0:0:0:
192,192,234940,1,0,0:0:0:0:
448,192,234940,1,0,0:0:0:0:
320,192,235058,1,0,0:0:0:0:
448,192,235058,128,0,235292:0:0:0:0:
64,192,235292,1,2,0:0:0:0:
192,192,235292,1,4,0:0:0:0:
320,192,235292,1,0,0:0:0:0:
64,192,235409,1,0,0:0:0:0:
192,192,235409,1,0,0:0:0:0:
448,192,235409,1,0,0:0:0:0:
64,192,235526,1,2,0:0:0:0:
320,192,235526,1,0,0:0:0:0:
448,192,235526,1,0,0:0:0:0:
192,192,235644,1,0,0:0:0:0:
448,192,235644,1,0,0:0:0:0:
64,192,235761,1,2,0:0:0:0:
192,192,235761,1,0,0:0:0:0:
320,192,235761,1,0,0:0:0:0:
64,192,235878,1,0,0:0:0:0:
192,192,235878,1,0,0:0:0:0:
448,192,235878,1,0,0:0:0:0:
64,192,235995,128,0,236054:0:0:0:0:
320,192,235995,128,0,236054:0:0:0:0:
64,192,236112,128,0,236171:0:0:0:0:
320,192,236112,128,0,236171:0:0:0:0:
192,192,236230,1,4,0:0:0:0:
320,192,236230,128,2,236288:0:0:0:0:
448,192,236230,1,0,0:0:0:0:
64,192,236347,128,0,236405:0:0:0:0:
448,192,236464,128,0,236522:0:0:0:0:
320,192,236522,1,0,0:0:0:0:
192,192,236581,128,0,236640:0:0:0:0:
448,192,236698,1,8,0:0:0:0:
320,192,236815,128,0,236874:0:0:0:0:
192,192,236933,1,0,0:0:0:0:
64,192,237050,128,0,237284:0:0:0:0:
320,192,237167,1,8,0:0:0:0:
448,192,237167,1,0,0:0:0:0:
192,192,237284,1,0,0:0:0:0:
320,192,237284,128,0,237401:0:0:0:0:
448,192,237343,1,0,0:0:0:0:
64,192,237401,1,0,0:0:0:0:
192,192,237401,128,0,237519:0:0:0:0:
64,192,237519,1,0,0:0:0:0:
448,192,237519,128,0,237636:0:0:0:0:
192,192,237636,128,8,237753:0:0:0:0:
320,192,237636,1,0,0:0:0:0:
320,192,237753,1,0,0:0:0:0:
448,192,237753,128,0,237870:0:0:0:0:
64,192,237870,128,0,237987:0:0:0:0:
192,192,237870,1,0,0:0:0:0:
320,192,237987,128,0,238105:0:0:0:0:
448,192,237987,1,0,0:0:0:0:
64,192,238105,1,4,0:0:0:0:
192,192,238105,1,2,0:0:0:0:
320,192,238163,1,2,0:0:0:0:
448,192,238163,1,0,0:0:0:0:
64,192,238222,1,2,0:0:0:0:
192,192,238222,1,0,0:0:0:0:
448,192,238280,1,2,0:0:0:0:
64,192,238339,1,2,0:0:0:0:
320,192,238339,1,0,0:0:0:0:
448,192,238397,1,2,0:0:0:0:
192,192,238456,1,2,0:0:0:0:
320,192,238456,1,0,0:0:0:0:
448,192,238515,1,2,0:0:0:0:
64,192,238573,1,2,0:0:0:0:
192,192,238573,1,0,0:0:0:0:
320,192,238632,1,2,0:0:0:0:
64,192,238690,1,2,0:0:0:0:
448,192,238690,1,0,0:0:0:0:
320,192,238749,1,2,0:0:0:0:
64,192,238808,1,2,0:0:0:0:
192,192,238837,1,2,0:0:0:0:
320,192,238866,1,2,0:0:0:0:
448,192,238896,1,2,0:0:0:0:
64,192,238925,1,2,0:0:0:0:
192,192,238954,1,2,0:0:0:0:
320,192,238983,1,2,0:0:0:0:
448,192,239013,1,2,0:0:0:0:
64,192,239042,1,2,0:0:0:0:
192,192,239042,1,4,0:0:0:0:
448,192,239101,1,2,0:0:0:0:
192,192,239159,1,2,0:0:0:0:
320,192,239159,1,0,0:0:0:0:
64,192,239218,1,2,0:0:0:0:
192,192,239276,1,2,0:0:0:0:
448,192,239276,1,0,0:0:0:0:
320,192,239335,1,2,0:0:0:0:
64,192,239394,1,2,0:0:0:0:
448,192,239452,1,2,0:0:0:0:
192,192,239511,1,2,0:0:0:0:
320,192,239511,1,0,0:0:0:0:
64,192,239569,1,2,0:0:0:0:
320,192,239628,1,2,0:0:0:0:
448,192,239628,1,0,0:0:0:0:
192,192,239687,1,2,0:0:0:0:
448,192,239745,1,0,0:0:0:0:
320,192,239774,1,0,0:0:0:0:
192,192,239804,1,0,0:0:0:0:
64,192,239833,1,0,0:0:0:0:
448,192,239862,1,0,0:0:0:0:
320,192,239892,1,0,0:0:0:0:
192,192,239921,1,0,0:0:0:0:
64,192,239950,1,0,0:0:0:0:
320,192,239980,128,4,240097:0:0:0:0:
448,192,239980,128,2,240097:0:0:0:0:
192,192,240097,1,0,0:0:0:0:
64,192,240214,128,0,240331:0:0:0:0:
448,192,240214,128,0,240331:0:0:0:0:
192,192,240331,128,0,240448:0:0:0:0:
320,192,240331,128,0,240448:0:0:0:0:
448,192,240448,1,0,0:0:0:0:
64,192,240565,128,0,240683:0:0:0:0:
192,192,240565,128,0,240683:0:0:0:0:
320,192,240683,1,0,0:0:0:0:
192,192,240800,128,0,240917:0:0:0:0:
448,192,240800,128,0,240917:0:0:0:0:
64,192,240917,1,4,0:0:0:0:
320,192,240917,1,2,0:0:0:0:
192,192,241034,128,0,241151:0:0:0:0:
320,192,241093,128,0,241210:0:0:0:0:
64,192,241151,128,4,241327:0:0:0:0:
448,192,241151,128,2,241269:0:0:0:0:
192,192,241269,128,0,241386:0:0:0:0:
448,192,241327,128,0,241386:0:0:0:0:
64,192,241386,128,2,241464:0:0:0:0:
320,192,241386,128,4,241620:0:0:0:0:
192,192,241464,128,0,241542:0:0:0:0:
448,192,241542,128,0,241620:0:0:0:0:
64,192,241620,128,0,241698:0:0:0:0:
192,192,241620,128,0,241796:0:0:0:0:
320,192,241698,128,0,241776:0:0:0:0:
448,192,241737,1,0,0:0:0:0:
64,192,241776,128,0,241855:0:0:0:0:
192,192,241855,1,4,0:0:0:0:
320,192,241855,1,2,0:0:0:0:
448,192,241855,1,0,0:0:0:0:
64,192,241972,1,0,0:0:0:0:
448,192,241972,1,0,0:0:0:0:
64,192,242089,1,2,0:0:0:0:
192,192,242089,1,0,0:0:0:0:
320,192,242089,1,0,0:0:0:0:
192,192,242206,1,0,0:0:0:0:
320,192,242206,1,0,0:0:0:0:
448,192,242206,1,0,0:0:0:0:
64,192,242323,1,2,0:0:0:0:
448,192,242323,1,0,0:0:0:0:
64,192,242440,1,0,0:0:0:0:
192,192,242440,1,0,0:0:0:0:
320,192,242440,1,0,0:0:0:0:
320,192,242558,1,0,0:0:0:0:
448,192,242558,128,0,242792:0:0:0:0:
64,192,242792,1,4,0:0:0:0:
192,192,242792,1,2,0:0:0:0:
320,192,242792,1,0,0:0:0:0:
64,192,242909,1,0,0:0:0:0:
192,192,242909,1,0,0:0:0:0:
448,192,242909,1,0,0:0:0:0:
64,192,243026,1,2,0:0:0:0:
320,192,243026,1,0,0:0:0:0:
448,192,243026,1,0,0:0:0:0:
192,192,243144,1,0,0:0:0:0:
320,192,243144,1,0,0:0:0:0:
64,192,243261,1,2,0:0:0:0:
320,192,243261,1,0,0:0:0:0:
448,192,243261,1,0,0:0:0:0:
64,192,243378,1,0,0:0:0:0:
192,192,243378,1,0,0:0:0:0:
448,192,243378,1,0,0:0:0:0:
192,192,243495,1,0,0:0:0:0:
320,192,243495,1,0,0:0:0:0:
192,192,243612,1,0,0:0:0:0:
320,192,243612,1,0,0:0:0:0:
64,192,243730,1,2,0:0:0:0:
320,192,243730,1,4,0:0:0:0:
448,192,243730,1,0,0:0:0:0:
64,192,243847,1,0,0:0:0:0:
192,192,243847,1,0,0:0:0:0:
64,192,243964,1,2,0:0:0:0:
192,192,243964,1,4,0:0:0:0:
320,192,243964,1,0,0:0:0:0:
192,192,244081,1,2,0:0:0:0:
320,192,244081,1,4,0:0:0:0:
448,192,244081,1,0,0:0:0:0:
64,192,244198,1,0,0:0:0:0:
320,192,244198,1,0,0:0:0:0:
64,192,244315,1,2,0:0:0:0:
192,192,244315,1,4,0:0:0:0:
448,192,244315,1,0,0:0:0:0:
64,192,244433,1,2,0:0:0:0:
320,192,244433,1,4,0:0:0:0:
448,192,244433,1,0,0:0:0:0:
192,192,244550,1,0,0:0:0:0:
320,192,244550,1,0,0:0:0:0:
64,192,244667,1,2,0:0:0:0:
320,192,244667,1,4,0:0:0:0:
448,192,244667,1,0,0:0:0:0:
64,192,244784,1,2,0:0:0:0:
192,192,244784,1,4,0:0:0:0:
448,192,244784,1,0,0:0:0:0:
64,192,244901,1,0,0:0:0:0:
320,192,244901,1,0,0:0:0:0:
192,192,245019,1,2,0:0:0:0:
320,192,245019,1,4,0:0:0:0:
448,192,245019,1,0,0:0:0:0:
64,192,245136,128,0,245253:0:0:0:0:
192,192,245253,128,0,245370:0:0:0:0:
448,192,245370,128,0,245605:0:0:0:0:
64,192,245605,1,2,0:0:0:0:
192,192,245605,1,4,0:0:0:0:
320,192,245605,1,0,0:0:0:0:
448,192,245663,1,2,0:0:0:0:
64,192,245722,1,2,0:0:0:0:
192,192,245722,1,0,0:0:0:0:
320,192,245780,1,2,0:0:0:0:
64,192,245839,1,2,0:0:0:0:
448,192,245839,1,0,0:0:0:0:
192,192,245897,1,2,0:0:0:0:
320,192,245956,1,2,0:0:0:0:
448,192,245956,1,0,0:0:0:0:
192,192,246015,1,2,0:0:0:0:
64,192,246073,1,0,0:0:0:0:
448,192,246073,1,0,0:0:0:0:
192,192,246190,128,0,246308:0:0:0:0:
320,192,246190,128,0,246249:0:0:0:0:
64,192,246308,1,0,0:0:0:0:
448,192,246308,1,0,0:0:0:0:
64,192,246425,128,0,246542:0:0:0:0:
320,192,246425,128,0,246483:0:0:0:0:
320,192,246542,1,4,0:0:0:0:
448,192,246542,1,2,0:0:0:0:
64,192,246601,1,2,0:0:0:0:
192,192,246601,1,0,0:0:0:0:
320,192,246659,1,2,0:0:0:0:
448,192,246659,1,0,0:0:0:0:
64,192,246718,1,2,0:0:0:0:
192,192,246718,1,0,0:0:0:0:
320,192,246776,1,2,0:0:0:0:
448,192,246776,1,0,0:0:0:0:
192,192,246835,1,2,0:0:0:0:
64,192,246894,1,2,0:0:0:0:
320,192,246894,1,0,0:0:0:0:
448,192,246952,1,2,0:0:0:0:
64,192,247011,128,0,247128:0:0:0:0:
192,192,247011,128,0,247069:0:0:0:0:
192,192,247128,128,0,247245:0:0:0:0:
448,192,247128,128,0,247187:0:0:0:0:
320,192,247245,128,0,247304:0:0:0:0:
448,192,247245,128,0,247362:0:0:0:0:
64,192,247362,128,0,247421:0:0:0:0:
320,192,247362,128,0,247480:0:0:0:0:
64,192,247480,1,4,0:0:0:0:
192,192,247480,1,2,0:0:0:0:
320,192,247538,1,2,0:0:0:0:
64,192,247597,1,2,0:0:0:0:
448,192,247597,1,0,0:0:0:0:
192,192,247655,1,2,0:0:0:0:
320,192,247655,1,0,0:0:0:0:
64,192,247714,1,2,0:0:0:0:
448,192,247714,1,0,0:0:0:0:
192,192,247772,1,2,0:0:0:0:
320,192,247831,1,2,0:0:0:0:
448,192,247831,1,0,0:0:0:0:
64,192,247890,1,2,0:0:0:0:
192,192,247948,1,2,0:0:0:0:
320,192,247948,1,4,0:0:0:0:
64,192,248007,1,2,0:0:0:0:
448,192,248007,1,0,0:0:0:0:
192,192,248065,1,2,0:0:0:0:
320,192,248065,1,0,0:0:0:0:
448,192,248124,1,2,0:0:0:0:
64,192,248183,1,2,0:0:0:0:
192,192,248183,1,0,0:0:0:0:
320,192,248241,1,2,0:0:0:0:
64,192,248300,1,2,0:0:0:0:
448,192,248300,1,0,0:0:0:0:
192,192,248358,1,2,0:0:0:0:
320,192,248358,1,0,0:0:0:0:
64,192,248417,1,2,0:0:0:0:
448,192,248417,1,4,0:0:0:0:
192,192,248476,1,2,0:0:0:0:
320,192,248534,128,2,248651:0:0:0:0:
448,192,248534,128,0,248593:0:0:0:0:
64,192,248593,1,2,0:0:0:0:
192,192,248651,128,2,248710:0:0:0:0:
448,192,248651,128,0,248769:0:0:0:0:
320,192,248710,1,2,0:0:0:0:
64,192,248769,128,2,248827:0:0:0:0:
192,192,248769,128,0,248886:0:0:0:0:
320,192,248827,1,2,0:0:0:0:
64,192,248886,1,2,0:0:0:0:
448,192,248886,128,0,249042:0:0:0:0:
320,192,248964,128,0,249120:0:0:0:0:
64,192,249042,128,0,249198:0:0:0:0:
192,192,249120,128,0,249276:0:0:0:0:
448,192,249120,1,0,0:0:0:0:
320,192,249198,128,0,249276:0:0:0:0:
64,192,249276,128,0,249355:0:0:0:0:
192,192,249355,1,2,0:0:0:0:
320,192,249355,1,4,0:0:0:0:
448,192,249355,1,0,0:0:0:0:
64,192,249413,1,2,0:0:0:0:
320,192,249472,1,2,0:0:0:0:
448,192,249472,1,0,0:0:0:0:
64,192,249589,1,4,0:0:0:0:
192,192,249589,1,2,0:0:0:0:
320,192,249589,1,0,0:0:0:0:
448,192,249647,1,2,0:0:0:0:
64,192,249706,1,2,0:0:0:0:
192,192,249706,1,0,0:0:0:0:
320,192,249823,128,0,249940:0:0:0:0:
192,192,249882,128,0,249940:0:0:0:0:
64,192,249940,1,2,0:0:0:0:
448,192,249940,1,4,0:0:0:0:
320,192,249999,1,2,0:0:0:0:
64,192,250058,1,2,0:0:0:0:
192,192,250058,1,0,0:0:0:0:
448,192,250116,1,2,0:0:0:0:
192,192,250175,1,2,0:0:0:0:
320,192,250175,1,4,0:0:0:0:
320,192,250292,1,2,0:0:0:0:
448,192,250292,1,0,0:0:0:0:
64,192,250351,1,2,0:0:0:0:
192,192,250351,1,4,0:0:0:0:
448,192,250409,1,0,0:0:0:0:
192,192,250468,1,2,0:0:0:0:
320,192,250468,1,0,0:0:0:0:
64,192,250526,1,4,0:0:0:0:
448,192,250526,1,2,0:0:0:0:
64,192,250644,1,2,0:0:0:0:
192,192,250644,1,0,0:0:0:0:
320,192,250702,1,4,0:0:0:0:
448,192,250702,1,2,0:0:0:0:
192,192,250761,1,0,0:0:0:0:
320,192,250819,1,2,0:0:0:0:
448,192,250819,1,0,0:0:0:0:
64,192,250878,1,4,0:0:0:0:
192,192,250878,1,2,0:0:0:0:
448,192,250937,1,0,0:0:0:0:
64,192,250995,1,2,0:0:0:0:
320,192,250995,1,0,0:0:0:0:
192,192,251054,1,2,0:0:0:0:
320,192,251112,1,4,0:0:0:0:
448,192,251112,1,2,0:0:0:0:
192,192,251171,1,2,0:0:0:0:
64,192,251230,1,2,0:0:0:0:
448,192,251230,1,0,0:0:0:0:
192,192,251288,1,2,0:0:0:0:
320,192,251288,1,0,0:0:0:0:
64,192,251347,1,4,0:0:0:0:
448,192,251347,1,2,0:0:0:0:
192,192,251464,1,2,0:0:0:0:
320,192,251464,1,0,0:0:0:0:
64,192,251522,1,2,0:0:0:0:
448,192,251522,1,0,0:0:0:0:
192,192,251581,1,4,0:0:0:0:
320,192,251581,1,2,0:0:0:0:
64,192,251698,1,0,0:0:0:0:
192,192,251737,1,0,0:0:0:0:
320,192,251776,1,0,0:0:0:0:
64,192,251815,1,2,0:0:0:0:
448,192,251815,1,0,0:0:0:0:
192,192,251874,1,2,0:0:0:0:
320,192,251933,1,2,0:0:0:0:
448,192,251933,1,0,0:0:0:0:
64,192,251991,1,2,0:0:0:0:
192,192,252050,1,2,0:0:0:0:
320,192,252050,1,4,0:0:0:0:
320,192,252167,1,2,0:0:0:0:
448,192,252167,1,0,0:0:0:0:
64,192,252226,1,2,0:0:0:0:
192,192,252226,1,4,0:0:0:0:
448,192,252284,1,0,0:0:0:0:
64,192,252343,1,2,0:0:0:0:
192,192,252343,1,0,0:0:0:0:
320,192,252401,1,2,0:0:0:0:
448,192,252401,1,4,0:0:0:0:
64,192,252519,1,4,0:0:0:0:
192,192,252519,1,2,0:0:0:0:
320,192,252636,1,4,0:0:0:0:
448,192,252636,128,2,252714:0:0:0:0:
64,192,252714,128,0,252792:0:0:0:0:
192,192,252753,1,4,0:0:0:0:
320,192,252753,1,2,0:0:0:0:
448,192,252792,128,0,252870:0:0:0:0:
64,192,252870,1,4,0:0:0:0:
192,192,252870,1,2,0:0:0:0:
64,192,252987,1,4,0:0:0:0:
320,192,252987,1,2,0:0:0:0:
192,192,253105,1,2,0:0:0:0:
448,192,253105,1,0,0:0:0:0:
64,192,253163,1,2,0:0:0:0:
320,192,253163,1,0,0:0:0:0:
192,192,253222,1,2,0:0:0:0:
448,192,253222,1,4,0:0:0:0:
64,192,253339,1,2,0:0:0:0:
320,192,253339,1,0,0:0:0:0:
192,192,253397,1,2,0:0:0:0:
448,192,253397,1,0,0:0:0:0:
64,192,253456,1,2,0:0:0:0:
320,192,253456,1,4,0:0:0:0:
448,192,253573,1,0,0:0:0:0:
320,192,253612,1,0,0:0:0:0:
192,192,253651,1,0,0:0:0:0:
64,192,253690,1,2,0:0:0:0:
448,192,253690,1,0,0:0:0:0:
192,192,253749,1,2,0:0:0:0:
320,192,253808,1,2,0:0:0:0:
448,192,253808,1,0,0:0:0:0:
64,192,253866,1,2,0:0:0:0:
192,192,253925,1,2,0:0:0:0:
320,192,253925,1,4,0:0:0:0:
64,192,254042,1,2,0:0:0:0:
448,192,254042,1,0,0:0:0:0:
192,192,254101,1,2,0:0:0:0:
320,192,254101,1,4,0:0:0:0:
448,192,254159,1,0,0:0:0:0:
64,192,254218,1,2,0:0:0:0:
192,192,254218,1,0,0:0:0:0:
320,192,254276,1,2,0:0:0:0:
448,192,254276,1,4,0:0:0:0:
192,192,254394,1,2,0:0:0:0:
320,192,254394,1,0,0:0:0:0:
64,192,254452,1,2,0:0:0:0:
448,192,254452,1,4,0:0:0:0:
192,192,254511,1,0,0:0:0:0:
320,192,254569,1,2,0:0:0:0:
448,192,254569,1,0,0:0:0:0:
64,192,254628,1,2,0:0:0:0:
192,192,254628,1,4,0:0:0:0:
448,192,254687,1,0,0:0:0:0:
64,192,254745,1,2,0:0:0:0:
320,192,254745,1,0,0:0:0:0:
192,192,254804,1,2,0:0:0:0:
320,192,254862,1,4,0:0:0:0:
448,192,254862,1,2,0:0:0:0:
192,192,254921,1,2,0:0:0:0:
64,192,254980,1,2,0:0:0:0:
448,192,254980,1,0,0:0:0:0:
192,192,255038,1,2,0:0:0:0:
320,192,255038,1,0,0:0:0:0:
64,192,255097,1,2,0:0:0:0:
448,192,255097,1,4,0:0:0:0:
192,192,255214,1,2,0:0:0:0:
320,192,255214,1,0,0:0:0:0:
64,192,255272,1,2,0:0:0:0:
448,192,255272,1,0,0:0:0:0:
192,192,255331,1,2,0:0:0:0:
320,192,255331,1,4,0:0:0:0:
64,192,255448,128,0,255565:0:0:0:0:
448,192,255448,128,0,255565:0:0:0:0:
192,192,255565,1,2,0:0:0:0:
320,192,255565,1,0,0:0:0:0:
64,192,255624,1,2,0:0:0:0:
320,192,255683,1,2,0:0:0:0:
448,192,255683,1,0,0:0:0:0:
192,192,255741,1,2,0:0:0:0:
64,192,255800,1,2,0:0:0:0:
320,192,255800,1,4,0:0:0:0:
64,192,255917,1,2,0:0:0:0:
448,192,255917,1,0,0:0:0:0:
192,192,255976,1,2,0:0:0:0:
320,192,255976,1,4,0:0:0:0:
448,192,256034,1,0,0:0:0:0:
64,192,256093,1,2,0:0:0:0:
192,192,256093,1,0,0:0:0:0:
320,192,256151,1,2,0:0:0:0:
448,192,256151,1,4,0:0:0:0:
64,192,256269,1,4,0:0:0:0:
320,192,256269,1,2,0:0:0:0:
64,192,256386,128,4,256464:0:0:0:0:
192,192,256386,1,2,0:0:0:0:
448,192,256464,128,0,256542:0:0:0:0:
192,192,256503,1,4,0:0:0:0:
320,192,256503,1,2,0:0:0:0:
64,192,256542,128,0,256620:0:0:0:0:
320,192,256620,1,4,0:0:0:0:
448,192,256620,1,2,0:0:0:0:
192,192,256737,1,4,0:0:0:0:
448,192,256737,1,2,0:0:0:0:
64,192,256855,1,2,0:0:0:0:
192,192,256855,1,4,0:0:0:0:
448,192,256884,1,0,0:0:0:0:
320,192,256913,1,0,0:0:0:0:
192,192,256942,1,0,0:0:0:0:
64,192,256972,1,6,0:0:0:0:
320,192,257030,1,2,0:0:0:0:
64,192,257089,1,4,0:0:0:0:
448,192,257089,1,2,0:0:0:0:
192,192,257147,1,2,0:0:0:0:
448,192,257206,1,6,0:0:0:0:
320,192,257235,1,0,0:0:0:0:
192,192,257265,1,0,0:0:0:0:
64,192,257294,1,0,0:0:0:0:
320,192,257323,1,4,0:0:0:0:
448,192,257323,1,2,0:0:0:0:
192,192,257382,1,2,0:0:0:0:
64,192,257440,1,4,0:0:0:0:
320,192,257440,1,2,0:0:0:0:
448,192,257499,1,2,0:0:0:0:
64,192,257558,1,4,0:0:0:0:
192,192,257558,1,2,0:0:0:0:
320,192,257587,1,0,0:0:0:0:
448,192,257616,1,0,0:0:0:0:
64,192,257646,1,0,0:0:0:0:
192,192,257675,1,6,0:0:0:0:
320,192,257733,1,2,0:0:0:0:
64,192,257792,1,4,0:0:0:0:
448,192,257792,1,2,0:0:0:0:
192,192,257821,1,0,0:0:0:0:
320,192,257851,1,0,0:0:0:0:
448,192,257880,1,0,0:0:0:0:
64,192,257909,1,4,0:0:0:0:
192,192,257909,1,2,0:0:0:0:
320,192,257968,1,2,0:0:0:0:
64,192,258026,1,4,0:0:0:0:
448,192,258026,1,2,0:0:0:0:
192,192,258085,1,2,0:0:0:0:
448,192,258144,1,6,0:0:0:0:
320,192,258173,1,0,0:0:0:0:
64,192,258202,1,0,0:0:0:0:
192,192,258231,1,0,0:0:0:0:
320,192,258261,1,4,0:0:0:0:
448,192,258261,1,2,0:0:0:0:
64,192,258319,1,2,0:0:0:0:
192,192,258349,1,0,0:0:0:0:
320,192,258378,1,6,0:0:0:0:
192,192,258437,1,2,0:0:0:0:
64,192,258495,1,4,0:0:0:0:
448,192,258495,1,0,0:0:0:0:
320,192,258534,1,0,0:0:0:0:
192,192,258573,1,0,0:0:0:0:
64,192,258612,1,0,0:0:0:0:
448,192,258651,1,0,0:0:0:0:
320,192,258690,1,0,0:0:0:0:
64,192,258730,128,4,260136:0:0:0:0:
192,192,258730,128,2,259491:0:0:0:0:
448,192,258964,1,0,0:0:0:0:
320,192,259198,1,0,0:0:0:0:
448,192,259433,1,0,0:0:0:0:
192,192,259550,128,0,259667:0:0:0:0:
320,192,259667,128,0,259745:0:0:0:0:
448,192,259745,128,0,259823:0:0:0:0:
192,192,259823,128,0,259901:0:0:0:0:
320,192,259901,128,0,259960:0:0:0:0:
448,192,259960,128,0,260019:0:0:0:0:
192,192,260019,128,0,260077:0:0:0:0:
320,192,260077,128,0,260136:0:0:0:0:
448,192,260136,128,0,260194:0:0:0:0:
64,192,260194,1,0,0:0:0:0:
192,192,260253,1,0,0:0:0:0:
320,192,260312,1,0,0:0:0:0:
448,192,260370,1,0,0:0:0:0:
64,192,260565,1,0,0:0:0:0:
192,192,260605,1,0,0:0:0:0:
448,192,260839,1,0,0:0:0:0:
320,192,261073,1,0,0:0:0:0:
64,192,261308,1,0,0:0:0:0:
320,192,261503,1,0,0:0:0:0:
192,192,261542,1,0,0:0:0:0:
448,192,261776,1,0,0:0:0:0:
320,192,262011,1,0,0:0:0:0:
64,192,262245,1,0,0:0:0:0:
320,192,262480,128,0,266230:0:0:0:0:
448,192,262480,128,0,266230:0:0:0:0:
192,192,262519,1,0,0:0:0:0:
64,192,262597,128,0,266230:0:0:0:0:
