osu file format v14

[General]
AudioFilename: audio.mp3
AudioLeadIn: 0
PreviewTime: 225217
Countdown: 0
SampleSet: Normal
StackLeniency: 0.7
Mode: 3
LetterboxInBreaks: 0
SpecialStyle: 0
WidescreenStoryboard: 1

[Editor]
Bookmarks: 72301,127158,160072,182015,203958,225901,248187,258815,269103
DistanceSpacing: 0.3
BeatDivisor: 4
GridSize: 32
TimelineZoom: 2.3

[Metadata]
Title:Beyond the Geostationary Orbit Level
TitleUnicode:Beyond the Geostationary Orbit Level
Artist:Camellia
ArtistUnicode:かめりあ
Creator:Leniane
Version:Equatorial
Source:osu!
Tags:-MysticEyes _Kobii Kamuy FAMoss Cametek KamelCamellia かめるかめりあ C95 Comic Market 95 CTCD-018 Heart Of Android Featured Artist FA Mappers' Guild MG DnB Dubstep Drum n & and Bass UK Hardcore Techno Bass Electronic Instrumental
BeatmapID:2116795
BeatmapSetID:1011337

[Difficulty]
HPDrainRate:9.1
CircleSize:4
OverallDifficulty:7.8
ApproachRate:5
SliderMultiplier:1.4
SliderTickRate:1

[Events]
//Background and Video events
0,0,"Background.jpg",0,0
//Break Periods
2,50903,54303
//Storyboard Layer 0 (Background)
//Storyboard Layer 1 (Fail)
//Storyboard Layer 2 (Pass)
//Storyboard Layer 3 (Foreground)
//Storyboard Layer 4 (Overlay)
//Storyboard Sound Samples
Sample,31960,0,"tom03.wav",70
Sample,32074,0,"tom02.wav",70
Sample,42931,0,"tom03.wav",70
Sample,43045,0,"tom02.wav",70
Sample,61331,0,"push_scratch.wav",70
Sample,72645,0,"push_scratch.wav",70
Sample,74960,0,"WB1.wav",70
Sample,77703,0,"WB2.wav",100
Sample,80445,0,"WB1.wav",70
Sample,83617,0,"push_scratch.wav",70
Sample,85931,0,"WB1.wav",70
Sample,88331,0,"WB2.wav",100
Sample,94588,0,"push_scratch.wav",70
Sample,96903,0,"WB1.wav",70
Sample,99303,0,"WB2.wav",100
Sample,106931,0,"push_scratch.wav",70
Sample,107874,0,"WB1.wav",70
Sample,110274,0,"WB2.wav",100
Sample,116188,0,"push_scratch.wav",70
Sample,127074,0,"tom03.wav",70
Sample,129817,0,"WB2.wav",100
Sample,132217,0,"WB1.wav",70
Sample,132560,0,"WB2.wav",100
Sample,135988,0,"WB2.wav",100
Sample,140788,0,"S5.wav",70
Sample,143531,0,"WB2.wav",100
Sample,145931,0,"WB1.wav",70
Sample,149445,0,"S1.wav",70
Sample,154503,0,"WB2.wav",100
Sample,154588,0,"push_scratch.wav",70
Sample,154931,0,"S1.wav",70
Sample,185560,0,"tom03.wav",70
Sample,185674,0,"tom02.wav",70
Sample,196531,0,"tom03.wav",70
Sample,196645,0,"tom02.wav",70
Sample,203960,0,"push_scratch.wav",70
Sample,214931,0,"push_scratch.wav",70
Sample,216988,0,"S5.wav",70
Sample,217331,0,"bassdrop.wav",70
Sample,219731,0,"C1.wav",70
Sample,219731,0,"S5.wav",50
Sample,220417,0,"S3.wav",50
Sample,220503,0,"S3.wav",50
Sample,220588,0,"S3.wav",50
Sample,220674,0,"S3.wav",50
Sample,220760,0,"C1.wav",70
Sample,220760,0,"S3.wav",50
Sample,220845,0,"S3.wav",50
Sample,220931,0,"S3.wav",50
Sample,221017,0,"S3.wav",50
Sample,221103,0,"S3.wav",50
Sample,221103,0,"C1.wav",70
Sample,221188,0,"S3.wav",50
Sample,221274,0,"S3.wav",50
Sample,221360,0,"S3.wav",50
Sample,221445,0,"C1.wav",70
Sample,221445,0,"S3.wav",50
Sample,221531,0,"S3.wav",50
Sample,221617,0,"S3.wav",50
Sample,221703,0,"S3.wav",50
Sample,221788,0,"S3.wav",50
Sample,221788,0,"C1.wav",70
Sample,221874,0,"S3.wav",50
Sample,221960,0,"S3.wav",50
Sample,222045,0,"S3.wav",50
Sample,222131,0,"C1.wav",70
Sample,222131,0,"S3.wav",50
Sample,222217,0,"S3.wav",50
Sample,222303,0,"S3.wav",50
Sample,222388,0,"S3.wav",50
Sample,222474,0,"S3.wav",50
Sample,222474,0,"C1.wav",70
Sample,222560,0,"S3.wav",50
Sample,222645,0,"S3.wav",50
Sample,222731,0,"S3.wav",50
Sample,222817,0,"C1.wav",70
Sample,222817,0,"S3.wav",50
Sample,222903,0,"S3.wav",50
Sample,222988,0,"S3.wav",50
Sample,223074,0,"S3.wav",50
Sample,223160,0,"S3.wav",50
Sample,223845,0,"S3.wav",50
Sample,225560,0,"tom01.wav",70
Sample,225903,0,"push_scratch.wav",70
Sample,238845,0,"K.wav",70
Sample,241588,0,"K.wav",70
Sample,252303,0,"S.wav",70
Sample,252988,0,"S.wav",70
Sample,258817,0,"push_scratch.wav",70
Sample,260874,0,"S5.wav",70
Sample,261217,0,"S3.wav",70
Sample,261217,0,"bassdrop.wav",70
Sample,263617,0,"S5.wav",50
Sample,264303,0,"S3.wav",50
Sample,264388,0,"S3.wav",50
Sample,264474,0,"S3.wav",50
Sample,264560,0,"S3.wav",50
Sample,264645,0,"S3.wav",50
Sample,264645,0,"C1.wav",70
Sample,264731,0,"S3.wav",50
Sample,264817,0,"S3.wav",50
Sample,264903,0,"S3.wav",50
Sample,264988,0,"S3.wav",50
Sample,264988,0,"C1.wav",70
Sample,265074,0,"S3.wav",50
Sample,265160,0,"S3.wav",50
Sample,265245,0,"S3.wav",50
Sample,265331,0,"C1.wav",70
Sample,265331,0,"S3.wav",50
Sample,265417,0,"S3.wav",50
Sample,265503,0,"S3.wav",50
Sample,265588,0,"S3.wav",50
Sample,265674,0,"S3.wav",50
Sample,265674,0,"C1.wav",70
Sample,265760,0,"S3.wav",50
Sample,265845,0,"S3.wav",50
Sample,265931,0,"S3.wav",50
Sample,266017,0,"S3.wav",50
Sample,266017,0,"C1.wav",70
Sample,266103,0,"S3.wav",50
Sample,266188,0,"S3.wav",50
Sample,266274,0,"S3.wav",50
Sample,266360,0,"S3.wav",50
Sample,266360,0,"C1.wav",70
Sample,266445,0,"S3.wav",50
Sample,266531,0,"S3.wav",50
Sample,266617,0,"S3.wav",50
Sample,266703,0,"S3.wav",50
Sample,266703,0,"C1.wav",70
Sample,266788,0,"S3.wav",50
Sample,266874,0,"S3.wav",50
Sample,266960,0,"S3.wav",50
Sample,267045,0,"S3.wav",50
Sample,267731,0,"S3.wav",50

[TimingPoints]
5103,342.857142857143,4,1,1,50,1,0
61331,-100,4,1,1,60,0,0
72303,-100,4,1,1,70,0,1
81903,-100,4,1,1,70,0,0
83274,-100,4,1,1,70,0,1
91503,-100,4,1,1,70,0,0
94245,-100,4,1,1,70,0,1
103845,-100,4,1,1,70,0,0
106588,-100,4,1,1,70,0,1
116188,-100,4,1,1,70,0,0
127160,-100,4,1,1,70,0,1
136760,-100,4,1,1,70,0,0
138131,-100,4,1,1,70,0,1
146360,-100,4,1,1,70,0,0
149103,-100,4,1,1,70,0,1
160074,-100,4,1,1,50,0,0
180988,-100,4,1,1,60,0,0
203960,-100,4,1,1,70,0,0
225903,-100,4,1,1,70,0,1
245103,-100,4,1,1,70,0,0
248188,-100,4,1,1,70,0,1
256074,-100,4,1,1,70,0,0
258817,-100,4,1,1,70,0,1
269788,-100,4,1,1,70,0,0

[HitObjects]
64,192,5102,128,0,6303:0:0:0:0:
448,192,5617,1,0,0:0:0:0:
192,192,5788,128,0,5874:0:0:0:0:
320,192,6131,128,0,6217:0:0:0:0:
64,192,6474,128,0,6517:0:0:0:0:
192,192,6474,1,0,0:0:0:0:
448,192,6474,128,0,6560:0:0:0:0:
320,192,6645,128,0,6731:0:0:0:0:
192,192,6817,128,0,6903:0:0:0:0:
64,192,6988,128,0,7074:0:0:0:0:
192,192,7331,128,0,7417:0:0:0:0:
64,192,7503,128,0,7845:0:0:0:0:
448,192,7503,128,0,7588:0:0:0:0:
320,192,7674,128,0,7760:0:0:0:0:
192,192,7845,1,0,0:0:0:0:
448,192,7845,128,0,7888:0:0:0:0:
320,192,8531,128,0,8617:0:0:0:0:
448,192,8531,128,0,8574:0:0:0:0:
192,192,8874,128,0,8960:0:0:0:0:
64,192,9217,128,0,9303:0:0:0:0:
320,192,9217,128,0,9260:0:0:0:0:
192,192,9388,128,0,9474:0:0:0:0:
320,192,9560,128,0,9645:0:0:0:0:
448,192,9731,128,0,9817:0:0:0:0:
192,192,10074,128,0,10160:0:0:0:0:
64,192,10245,128,0,10588:0:0:0:0:
320,192,10245,128,0,10331:0:0:0:0:
448,192,10417,128,0,10503:0:0:0:0:
192,192,10588,128,0,10631:0:0:0:0:
320,192,10588,1,0,0:0:0:0:
64,192,11274,128,0,11960:0:0:0:0:
448,192,11274,128,0,11360:0:0:0:0:
320,192,11617,128,0,11703:0:0:0:0:
192,192,11960,128,0,12045:0:0:0:0:
448,192,11960,128,0,12003:0:0:0:0:
64,192,12131,128,0,12217:0:0:0:0:
192,192,12303,128,0,12388:0:0:0:0:
320,192,12474,128,0,12560:0:0:0:0:
64,192,12817,128,0,12903:0:0:0:0:
192,192,12988,128,0,13031:0:0:0:0:
448,192,12988,128,0,13074:0:0:0:0:
64,192,13331,128,0,13374:0:0:0:0:
320,192,13331,128,0,13417:0:0:0:0:
192,192,13503,128,0,13588:0:0:0:0:
320,192,13674,128,0,13760:0:0:0:0:
448,192,13845,128,0,13931:0:0:0:0:
64,192,14188,128,0,14274:0:0:0:0:
192,192,14360,128,0,14445:0:0:0:0:
448,192,14360,128,0,14403:0:0:0:0:
64,192,14703,128,0,14745:0:0:0:0:
448,192,14703,128,0,14788:0:0:0:0:
320,192,14874,128,0,14960:0:0:0:0:
192,192,15045,128,0,15131:0:0:0:0:
64,192,15217,128,0,15303:0:0:0:0:
192,192,15731,128,0,16074:0:0:0:0:
320,192,15731,128,0,15817:0:0:0:0:
64,192,16074,128,0,16160:0:0:0:0:
448,192,16074,128,0,16117:0:0:0:0:
64,192,16417,128,0,16460:0:0:0:0:
192,192,16417,128,0,16503:0:0:0:0:
192,192,16760,128,0,16803:0:0:0:0:
320,192,16760,128,0,16845:0:0:0:0:
320,192,17103,128,0,17145:0:0:0:0:
448,192,17103,128,0,17188:0:0:0:0:
64,192,17445,128,0,17488:0:0:0:0:
192,192,17445,1,0,0:0:0:0:
448,192,17445,128,0,17531:0:0:0:0:
320,192,17617,128,0,17703:0:0:0:0:
192,192,17788,128,0,17874:0:0:0:0:
448,192,17788,1,0,0:0:0:0:
64,192,17960,128,0,18045:0:0:0:0:
448,192,17960,1,0,0:0:0:0:
192,192,18303,128,0,18388:0:0:0:0:
448,192,18303,1,0,0:0:0:0:
64,192,18474,128,0,18817:0:0:0:0:
448,192,18474,128,0,18560:0:0:0:0:
320,192,18645,128,0,18731:0:0:0:0:
192,192,18817,1,0,0:0:0:0:
448,192,18817,128,0,18860:0:0:0:0:
192,192,19160,1,0,0:0:0:0:
192,192,19331,1,0,0:0:0:0:
320,192,19503,128,0,19588:0:0:0:0:
448,192,19503,128,0,19545:0:0:0:0:
64,192,19674,1,0,0:0:0:0:
64,192,19845,1,0,0:0:0:0:
192,192,19845,128,0,19931:0:0:0:0:
320,192,20017,1,0,0:0:0:0:
192,192,20103,1,0,0:0:0:0:
64,192,20188,128,0,20274:0:0:0:0:
320,192,20188,128,0,20231:0:0:0:0:
192,192,20360,128,0,20445:0:0:0:0:
64,192,20531,1,0,0:0:0:0:
320,192,20531,128,0,20617:0:0:0:0:
64,192,20703,1,0,0:0:0:0:
448,192,20703,128,0,20788:0:0:0:0:
192,192,21045,128,0,21131:0:0:0:0:
320,192,21045,1,0,0:0:0:0:
64,192,21217,128,0,21560:0:0:0:0:
320,192,21217,128,0,21303:0:0:0:0:
448,192,21388,128,0,21474:0:0:0:0:
192,192,21560,128,0,21603:0:0:0:0:
320,192,21560,1,0,0:0:0:0:
320,192,21903,1,0,0:0:0:0:
320,192,22074,1,0,0:0:0:0:
64,192,22245,128,0,22931:0:0:0:0:
448,192,22245,128,0,22331:0:0:0:0:
192,192,22417,1,0,0:0:0:0:
192,192,22588,1,0,0:0:0:0:
320,192,22588,128,0,22674:0:0:0:0:
448,192,22760,1,0,0:0:0:0:
320,192,22845,1,0,0:0:0:0:
192,192,22931,128,0,23017:0:0:0:0:
448,192,22931,128,0,22974:0:0:0:0:
64,192,23103,128,0,23188:0:0:0:0:
192,192,23274,128,0,23360:0:0:0:0:
448,192,23274,1,0,0:0:0:0:
320,192,23445,128,0,23531:0:0:0:0:
448,192,23445,1,0,0:0:0:0:
64,192,23788,128,0,23874:0:0:0:0:
192,192,23960,128,0,24003:0:0:0:0:
448,192,23960,128,0,24045:0:0:0:0:
64,192,24131,1,0,0:0:0:0:
192,192,24217,1,0,0:0:0:0:
64,192,24303,128,0,24345:0:0:0:0:
320,192,24303,128,0,24388:0:0:0:0:
192,192,24474,128,0,24560:0:0:0:0:
64,192,24645,1,0,0:0:0:0:
320,192,24645,128,0,24731:0:0:0:0:
64,192,24817,1,0,0:0:0:0:
448,192,24817,128,0,24903:0:0:0:0:
64,192,25160,128,0,25245:0:0:0:0:
192,192,25331,128,0,25417:0:0:0:0:
448,192,25331,128,0,25374:0:0:0:0:
64,192,25674,128,0,26874:0:0:0:0:
320,192,25674,128,0,25845:0:0:0:0:
448,192,25674,128,0,26017:0:0:0:0:
192,192,25845,128,0,26874:0:0:0:0:
320,192,26017,128,0,27045:0:0:0:0:
448,192,26188,128,0,27045:0:0:0:0:
64,192,27045,128,0,28160:0:0:0:0:
192,192,27045,1,0,0:0:0:0:
320,192,27388,1,0,0:0:0:70:snare_wave.wav
448,192,27388,128,0,28074:0:0:0:0:
192,192,27731,128,0,27988:0:0:0:0:
192,192,28074,128,0,28160:0:0:0:70:tom01.wav
448,192,28160,128,0,28245:0:0:0:70:tom01.wav
64,192,28245,128,0,28331:0:0:0:70:tom02.wav
320,192,28331,128,0,28417:0:0:0:70:tom03.wav
64,192,28417,128,0,29060:0:0:0:70:K.wav
192,192,28417,128,0,28674:0:0:0:70:C1.wav
448,192,28417,128,0,28631:0:0:0:0:
192,192,28760,128,0,29017:0:0:0:70:K.wav
320,192,28760,128,0,28974:0:0:0:70:C1.wav
448,192,28760,128,0,28931:0:0:0:0:
320,192,29103,1,0,0:0:0:70:tom01.wav
448,192,29103,128,0,29274:0:0:0:0:
64,192,29274,128,0,29445:0:0:0:70:tom02.wav
192,192,29274,1,0,0:0:0:0:
320,192,29445,128,0,29617:0:0:0:70:tom03.wav
448,192,29445,1,0,0:0:0:0:
64,192,29617,128,0,30217:0:0:0:70:K.wav
192,192,29617,128,0,30174:0:0:0:70:C.wav
448,192,29617,128,0,30131:0:0:0:0:
64,192,30303,128,0,30988:0:0:0:70:K.wav
320,192,30303,128,0,31031:0:0:0:70:C.wav
448,192,30303,128,0,31074:0:0:0:0:
64,192,31160,128,0,31374:0:0:0:70:K.wav
320,192,31160,128,0,31417:0:0:0:70:C1.wav
448,192,31160,128,0,31803:0:0:0:0:
64,192,31503,128,0,31674:0:0:0:70:K.wav
192,192,31503,128,0,31717:0:0:0:70:C1.wav
320,192,31503,128,0,31760:0:0:0:0:
64,192,31845,1,0,0:0:0:70:tom01.wav
192,192,31888,1,0,0:0:0:0:
320,192,31931,1,0,0:0:0:0:
64,192,31974,1,0,0:0:0:0:
192,192,32017,1,0,0:0:0:0:
448,192,32060,1,0,0:0:0:0:
64,192,32103,1,0,0:0:0:0:
320,192,32145,1,0,0:0:0:0:
448,192,32188,1,0,0:0:0:0:
192,192,32231,1,0,0:0:0:0:
320,192,32274,1,0,0:0:0:0:
448,192,32317,1,0,0:0:0:0:
64,192,32360,128,0,32788:0:0:0:70:K.wav
192,192,32360,128,0,32788:0:0:0:70:C.wav
448,192,32703,128,0,33324:0:0:0:0:
64,192,32874,128,0,32960:0:0:0:0:
192,192,32874,128,0,32938:0:0:0:0:
64,192,33045,128,0,33131:0:0:0:0:
320,192,33045,128,0,33324:0:0:0:0:
192,192,33045,128,0,33110:0:0:0:0:
64,192,33217,128,0,33303:0:0:0:0:
192,192,33217,128,0,33281:0:0:0:0:
64,192,33388,128,0,33560:0:0:0:70:K.wav
320,192,33388,128,0,33517:0:0:0:70:C1.wav
448,192,33388,128,0,33474:0:0:0:0:
64,192,33645,128,0,33817:0:0:0:70:K.wav
320,192,33645,128,0,33774:0:0:0:70:C1.wav
448,192,33645,128,0,33731:0:0:0:0:
64,192,33903,128,0,34074:0:0:0:70:K.wav
192,192,33903,128,0,34117:0:0:0:70:C1.wav
448,192,33903,128,0,34160:0:0:0:0:
64,192,34245,128,0,34417:0:0:0:70:K.wav
192,192,34245,128,0,34460:0:0:0:70:C1.wav
448,192,34245,128,0,34503:0:0:0:0:
64,192,34531,1,0,0:0:0:0:
448,192,34588,1,0,0:0:0:70:tom01.wav
192,192,34645,1,0,0:0:0:0:
320,192,34703,1,0,0:0:0:70:tom02.wav
64,192,34760,1,0,0:0:0:70:tom03.wav
448,192,34760,1,0,0:0:0:0:
192,192,34817,1,0,0:0:0:0:
320,192,34874,1,0,0:0:0:0:
448,192,34931,1,0,0:0:0:0:
64,192,35017,1,0,0:0:0:0:
192,192,35103,128,0,35703:0:0:0:70:K.wav
320,192,35103,128,0,35660:0:0:0:70:C.wav
448,192,35103,128,0,35617:0:0:0:0:
64,192,35788,128,0,36474:0:0:0:70:K.wav
192,192,35788,128,0,36517:0:0:0:70:C.wav
320,192,35788,128,0,36560:0:0:0:0:
64,192,36645,128,0,37117:0:0:0:70:K.wav
320,192,36645,128,0,36860:0:0:0:70:C1.wav
448,192,36645,128,0,36903:0:0:0:0:
192,192,36988,128,0,37160:0:0:0:70:K.wav
320,192,36988,128,0,37203:0:0:0:70:C1.wav
448,192,36988,128,0,37245:0:0:0:0:
64,192,37331,128,0,37760:0:0:0:50:S4.wav
192,192,37331,1,0,0:0:0:0:
448,192,37417,1,0,0:0:0:0:
320,192,37503,1,0,0:0:0:70:S3.wav
448,192,37588,1,0,0:0:0:70:S5.wav
320,192,37674,1,0,0:0:0:0:
192,192,37760,1,0,0:0:0:70:S5.wav
320,192,37845,1,0,0:0:0:50:S4.wav
448,192,37845,128,0,38360:0:0:0:0:
64,192,37931,1,0,0:0:0:0:
192,192,38017,1,0,0:0:0:70:S3.wav
64,192,38103,1,0,0:0:0:70:S5.wav
192,192,38188,1,0,0:0:0:50:S4.wav
320,192,38274,1,0,0:0:0:70:S5.wav
64,192,38360,1,0,0:0:0:50:S4.wav
192,192,38360,1,0,0:0:0:0:
448,192,38445,1,0,0:0:0:70:S5.wav
320,192,38531,128,0,39045:0:0:0:70:tom01.wav
64,192,38617,1,0,0:0:0:70:tom02.wav
448,192,38703,1,0,0:0:0:70:tom03.wav
192,192,38788,1,0,0:0:0:70:tom02.wav
448,192,38874,1,0,0:0:0:70:tom01.wav
64,192,38960,1,0,0:0:0:70:tom03.wav
192,192,39045,128,0,39131:0:0:0:50:S4.wav
448,192,39131,128,0,39217:0:0:0:70:S5.wav
64,192,39217,128,0,39303:0:0:0:70:S3.wav
320,192,39303,128,0,39388:0:0:0:70:S5.wav
64,192,39388,128,0,40031:0:0:0:70:K.wav
192,192,39388,128,0,39645:0:0:0:70:C1.wav
448,192,39388,128,0,39603:0:0:0:0:
192,192,39731,128,0,39988:0:0:0:70:K.wav
320,192,39731,128,0,39945:0:0:0:70:C1.wav
448,192,39731,128,0,39903:0:0:0:0:
320,192,40074,1,0,0:0:0:70:tom02.wav
448,192,40074,128,0,40245:0:0:0:0:
64,192,40245,128,0,40417:0:0:0:70:tom03.wav
192,192,40245,1,0,0:0:0:0:
320,192,40417,128,0,40588:0:0:0:0:
448,192,40417,1,0,0:0:0:0:
64,192,40588,128,0,41188:0:0:0:70:K.wav
192,192,40588,128,0,41145:0:0:0:70:C.wav
448,192,40588,128,0,41103:0:0:0:0:
64,192,41274,128,0,41788:0:0:0:70:K.wav
320,192,41274,128,0,41831:0:0:0:70:C.wav
448,192,41274,128,0,41874:0:0:0:0:
64,192,42131,128,0,42345:0:0:0:70:K.wav
320,192,42131,128,0,42388:0:0:0:70:C1.wav
448,192,42131,128,0,42774:0:0:0:0:
64,192,42474,128,0,42645:0:0:0:70:K.wav
192,192,42474,128,0,42688:0:0:0:70:C1.wav
320,192,42474,128,0,42731:0:0:0:0:
64,192,42817,1,0,0:0:0:70:tom01.wav
192,192,42860,1,0,0:0:0:0:
320,192,42903,1,0,0:0:0:0:
64,192,42945,1,0,0:0:0:0:
192,192,42988,1,0,0:0:0:0:
448,192,43031,1,0,0:0:0:0:
64,192,43074,1,0,0:0:0:0:
320,192,43117,1,0,0:0:0:0:
448,192,43160,1,0,0:0:0:0:
192,192,43203,1,0,0:0:0:0:
320,192,43245,1,0,0:0:0:0:
448,192,43288,1,0,0:0:0:0:
64,192,43331,128,0,43803:0:0:0:70:K.wav
192,192,43331,128,0,43760:0:0:0:70:C.wav
448,192,43845,128,0,44017:0:0:0:70:tom01.wav
64,192,44017,1,0,0:0:0:70:tom02.wav
320,192,44017,128,0,44188:0:0:0:0:
192,192,44188,128,0,44360:0:0:0:70:tom03.wav
448,192,44188,1,0,0:0:0:0:
64,192,44360,128,0,44531:0:0:0:70:K.wav
320,192,44360,128,0,44488:0:0:0:70:C1.wav
448,192,44360,128,0,44445:0:0:0:0:
64,192,44617,128,0,44788:0:0:0:70:K.wav
320,192,44617,128,0,44745:0:0:0:70:C1.wav
448,192,44617,128,0,44703:0:0:0:0:
64,192,44874,128,0,45045:0:0:0:70:K.wav
192,192,44874,128,0,45088:0:0:0:70:C1.wav
448,192,44874,128,0,45131:0:0:0:0:
320,192,45217,1,0,0:0:0:0:
448,192,45217,128,0,45303:0:0:0:0:
192,192,45303,1,0,0:0:0:0:
320,192,45388,1,0,0:0:0:0:
448,192,45388,128,0,45474:0:0:0:0:
192,192,45474,1,0,0:0:0:0:
64,192,45560,1,0,0:0:0:70:S1.wav
320,192,45560,1,0,0:0:0:0:
448,192,45560,128,0,45645:0:0:0:0:
192,192,45645,1,0,0:0:0:0:
320,192,45731,1,0,0:0:0:0:
192,192,45817,1,0,0:0:0:0:
64,192,45903,128,0,46417:0:0:0:70:K.wav
320,192,45903,128,0,46460:0:0:0:70:C.wav
448,192,45903,128,0,46503:0:0:0:0:
64,192,46588,128,0,46845:0:0:0:70:K.wav
192,192,46588,128,0,47488:0:0:0:70:C.wav
448,192,46588,128,0,46845:0:0:0:0:
64,192,46931,128,0,47531:0:0:0:70:S1.wav
320,192,46931,128,0,47445:0:0:0:0:
448,192,46931,128,0,47403:0:0:0:0:
64,192,47617,128,0,48388:0:0:0:70:K.wav
192,192,47617,128,0,48217:0:0:0:70:C1.wav
448,192,47617,128,0,48217:0:0:0:0:
192,192,48303,128,0,48603:0:0:0:70:S1.wav
320,192,48303,128,0,48560:0:0:0:0:
448,192,48303,128,0,48517:0:0:0:0:
64,192,48474,128,0,48645:0:0:0:0:
320,192,48645,1,0,0:0:0:70:K.wav
448,192,48645,128,0,48817:0:0:0:70:C1.wav
192,192,48817,1,0,0:0:0:70:K.wav
320,192,48817,128,0,48988:0:0:0:70:C1.wav
192,192,48988,128,0,49031:0:0:0:0:
64,192,49074,128,0,49117:0:0:0:0:
192,192,49160,128,0,49203:0:0:0:0:
64,192,49245,128,0,49288:0:0:0:0:
320,192,49331,128,0,49388:0:0:0:0:
192,192,49417,128,0,49474:0:0:0:0:
320,192,49503,128,0,49560:0:0:0:0:
192,192,49588,128,0,49645:0:0:0:0:
448,192,49674,128,0,49760:0:0:0:0:
320,192,49760,128,0,49845:0:0:0:0:
448,192,49845,128,0,49931:0:0:0:0:
320,192,49931,128,0,50017:0:0:0:0:
64,192,50017,128,0,50274:0:0:0:0:
192,192,50017,128,0,50274:0:0:0:0:
64,192,50360,128,0,50703:0:0:0:70:K.wav
192,192,50360,128,0,50703:0:0:0:70:C1.wav
320,192,50360,128,0,50703:0:0:0:70:BassKickReverbXD.wav
448,192,50360,128,0,50703:0:0:0:0:
192,192,55503,132,0,55760:0:0:0:70:K.wav
320,192,55503,128,0,55781:0:0:0:70:C1.wav
448,192,55503,128,0,55803:0:0:0:0:
64,192,55845,128,0,56145:0:0:0:70:K.wav
192,192,55845,128,0,56124:0:0:0:70:C1.wav
320,192,55845,128,0,56103:0:0:0:0:
192,192,59960,128,0,61331:0:0:0:70:bassdrop.wav
320,192,59960,1,0,0:0:0:0:
64,192,61331,1,0,0:0:0:70:K.wav
320,192,61331,1,0,0:0:0:70:C.wav
448,192,61331,128,0,61417:0:0:0:70:S5.wav
192,192,61417,1,0,0:0:0:0:
64,192,61503,1,0,0:0:0:70:S4.wav
320,192,61588,1,0,0:0:0:0:
64,192,61674,128,0,61845:0:0:0:70:K.wav
192,192,61674,1,0,0:0:0:70:S3.wav
448,192,61674,1,0,0:0:0:0:
320,192,61760,1,0,0:0:0:0:
448,192,61845,1,0,0:0:0:0:
64,192,62017,1,0,0:0:0:70:K.wav
320,192,62017,1,0,0:0:0:70:S5.wav
448,192,62017,128,0,62103:0:0:0:0:
192,192,62103,1,0,0:0:0:0:
64,192,62188,128,0,62274:0:0:0:70:S4.wav
320,192,62274,1,0,0:0:0:0:
64,192,62360,128,0,62531:0:0:0:70:K.wav
192,192,62360,1,0,0:0:0:70:S3.wav
448,192,62360,1,0,0:0:0:0:
320,192,62445,1,0,0:0:0:0:
448,192,62531,1,0,0:0:0:70:S5.wav
192,192,62617,1,0,0:0:0:0:
64,192,62703,1,0,0:0:0:70:K.wav
320,192,62703,1,0,0:0:0:70:S5.wav
448,192,62703,128,0,62788:0:0:0:0:
192,192,62788,1,0,0:0:0:0:
64,192,62874,128,0,62960:0:0:0:70:S4.wav
320,192,62960,1,0,0:0:0:0:
64,192,63045,128,0,63217:0:0:0:70:K.wav
192,192,63045,1,0,0:0:0:70:S3.wav
448,192,63045,1,0,0:0:0:0:
320,192,63131,1,0,0:0:0:0:
448,192,63217,1,0,0:0:0:0:
192,192,63303,1,0,0:0:0:0:
64,192,63388,1,0,0:0:0:70:K.wav
320,192,63388,1,0,0:0:0:70:S5.wav
448,192,63388,128,0,63474:0:0:0:0:
192,192,63474,1,0,0:0:0:0:
64,192,63560,128,0,63645:0:0:0:70:S4.wav
320,192,63645,1,0,0:0:0:0:
64,192,63731,128,0,63903:0:0:0:70:K.wav
192,192,63731,1,0,0:0:0:70:S3.wav
448,192,63731,1,0,0:0:0:0:
320,192,63817,1,0,0:0:0:0:
448,192,63903,1,0,0:0:0:0:
64,192,63988,1,0,0:0:0:0:
192,192,64074,1,0,0:0:0:70:K.wav
320,192,64074,128,0,64160:0:0:0:70:S5.wav
448,192,64074,1,0,0:0:0:0:
64,192,64160,1,0,0:0:0:0:
192,192,64245,128,0,64331:0:0:0:70:S4.wav
448,192,64331,1,0,0:0:0:0:
64,192,64417,1,0,0:0:0:70:K.wav
192,192,64417,128,0,64588:0:0:0:70:S3.wav
320,192,64417,1,0,0:0:0:0:
448,192,64503,1,0,0:0:0:0:
320,192,64588,1,0,0:0:0:0:
64,192,64674,1,0,0:0:0:0:
192,192,64760,1,0,0:0:0:70:K.wav
320,192,64760,128,0,64845:0:0:0:70:S5.wav
448,192,64760,1,0,0:0:0:0:
64,192,64845,1,0,0:0:0:0:
192,192,64931,128,0,65017:0:0:0:70:S4.wav
448,192,65017,1,0,0:0:0:0:
64,192,65103,1,0,0:0:0:70:K.wav
192,192,65103,128,0,65274:0:0:0:70:S3.wav
320,192,65103,1,0,0:0:0:0:
448,192,65188,1,0,0:0:0:0:
320,192,65274,128,0,65360:0:0:0:70:S5.wav
64,192,65360,1,0,0:0:0:0:
192,192,65445,1,0,0:0:0:70:K.wav
320,192,65445,128,0,65531:0:0:0:70:S5.wav
448,192,65445,1,0,0:0:0:0:
64,192,65531,1,0,0:0:0:0:
192,192,65617,128,0,65703:0:0:0:70:S4.wav
448,192,65703,1,0,0:0:0:0:
64,192,65788,1,0,0:0:0:70:K.wav
192,192,65788,128,0,65960:0:0:0:70:S3.wav
320,192,65788,1,0,0:0:0:0:
448,192,65874,1,0,0:0:0:0:
320,192,65960,1,0,0:0:0:0:
64,192,66045,1,0,0:0:0:0:
192,192,66131,1,0,0:0:0:70:K.wav
320,192,66131,128,0,66217:0:0:0:50:S5.wav
448,192,66131,1,0,0:0:0:0:
64,192,66217,1,0,0:0:0:0:
192,192,66303,128,0,66388:0:0:0:70:S4.wav
448,192,66388,1,0,0:0:0:0:
64,192,66474,1,0,0:0:0:70:K.wav
192,192,66474,128,0,66645:0:0:0:70:S3.wav
320,192,66474,1,0,0:0:0:0:
448,192,66560,1,0,0:0:0:0:
320,192,66645,128,0,66731:0:0:0:50:S5.wav
192,192,66731,128,0,66817:0:0:0:50:S5.wav
320,192,66817,1,0,0:0:0:70:K.wav
448,192,66817,128,0,66903:0:0:0:50:S5.wav
64,192,66903,128,0,66988:0:0:0:0:
320,192,66988,128,0,67074:0:0:0:70:K.wav
448,192,66988,1,0,0:0:0:70:S4.wav
192,192,67074,128,0,67160:0:0:0:0:
320,192,67160,1,0,0:0:0:70:K.wav
448,192,67160,128,0,67245:0:0:0:50:S5.wav
64,192,67245,128,0,67331:0:0:0:0:
320,192,67331,128,0,67417:0:0:0:70:K.wav
448,192,67331,1,0,0:0:0:70:S4.wav
192,192,67417,128,0,67503:0:0:0:0:
320,192,67503,1,0,0:0:0:70:K.wav
448,192,67503,128,0,67588:0:0:0:50:S5.wav
64,192,67588,128,0,67674:0:0:0:0:
320,192,67674,128,0,67760:0:0:0:70:K.wav
448,192,67674,1,0,0:0:0:70:S4.wav
192,192,67760,128,0,67845:0:0:0:0:
320,192,67845,1,0,0:0:0:70:K.wav
448,192,67845,128,0,67931:0:0:0:50:S5.wav
64,192,67931,128,0,68017:0:0:0:0:
192,192,68017,1,0,0:0:0:70:K.wav
320,192,68017,128,0,68103:0:0:0:70:S4.wav
448,192,68103,128,0,68188:0:0:0:0:
64,192,68188,1,0,0:0:0:70:K.wav
192,192,68188,128,0,68274:0:0:0:50:S5.wav
448,192,68274,128,0,68360:0:0:0:0:
64,192,68360,128,0,68445:0:0:0:70:K.wav
192,192,68360,1,0,0:0:0:70:S4.wav
320,192,68445,128,0,68531:0:0:0:0:
64,192,68531,1,0,0:0:0:70:K.wav
192,192,68531,128,0,68617:0:0:0:50:S5.wav
448,192,68617,128,0,68703:0:0:0:0:
64,192,68703,128,0,68788:0:0:0:70:K.wav
192,192,68703,1,0,0:0:0:70:S4.wav
320,192,68788,128,0,68874:0:0:0:0:
64,192,68874,1,0,0:0:0:70:K.wav
192,192,68874,128,0,68960:0:0:0:50:S5.wav
448,192,68960,128,0,69045:0:0:0:0:
64,192,69045,128,0,69131:0:0:0:70:K.wav
192,192,69045,1,0,0:0:0:70:S4.wav
320,192,69131,128,0,69217:0:0:0:0:
64,192,69217,1,0,0:0:0:70:K.wav
192,192,69217,128,0,69303:0:0:0:50:S5.wav
448,192,69303,128,0,69388:0:0:0:0:
64,192,69388,128,0,69474:0:0:0:70:K.wav
192,192,69388,1,0,0:0:0:70:S4.wav
320,192,69474,128,0,69560:0:0:0:0:
64,192,69560,1,0,0:0:0:70:K.wav
192,192,69560,1,0,0:0:0:70:S3.wav
192,192,69645,1,0,0:0:0:70:K.wav
448,192,69645,1,0,0:0:0:0:
320,192,69731,1,0,0:0:0:70:K.wav
448,192,69731,1,0,0:0:0:70:S3.wav
192,192,69817,1,0,0:0:0:70:K.wav
64,192,69817,1,0,0:0:0:0:
320,192,69903,1,0,0:0:0:70:K.wav
448,192,69903,1,0,0:0:0:70:S3.wav
320,192,69988,1,0,0:0:0:70:K.wav
64,192,69988,1,0,0:0:0:0:
64,192,70074,1,0,0:0:0:70:K.wav
192,192,70074,1,0,0:0:0:70:S3.wav
320,192,70160,1,0,0:0:0:70:K.wav
448,192,70160,1,0,0:0:0:0:
64,192,70245,1,0,0:0:0:70:K.wav
192,192,70245,1,0,0:0:0:70:S3.wav
64,192,70331,1,0,0:0:0:70:K.wav
192,192,70331,1,0,0:0:0:0:
320,192,70417,1,0,0:0:0:70:K.wav
448,192,70417,1,0,0:0:0:70:S3.wav
320,192,70503,1,0,0:0:0:70:K.wav
448,192,70503,1,0,0:0:0:0:
64,192,70588,1,0,0:0:0:50:S3.wav
192,192,70631,1,0,0:0:0:0:
448,192,70674,1,0,0:0:0:50:S3.wav
320,192,70717,1,0,0:0:0:0:
64,192,70760,1,0,0:0:0:50:S3.wav
192,192,70803,1,0,0:0:0:0:
448,192,70845,1,0,0:0:0:50:S3.wav
320,192,70888,1,0,0:0:0:0:
64,192,70931,128,0,71103:0:0:0:70:K.wav
192,192,70931,1,0,0:0:0:0:
320,192,71103,1,0,0:0:0:70:S3.wav
448,192,71103,1,0,0:0:0:0:
320,192,71188,1,0,0:0:0:70:S3.wav
448,192,71188,1,0,0:0:0:0:
64,192,71274,1,0,0:0:0:70:S4.wav
192,192,71274,1,0,0:0:0:0:
448,192,71274,128,0,71445:0:0:0:0:
64,192,71445,1,0,0:0:0:70:S3.wav
192,192,71445,1,0,0:0:0:0:
64,192,71531,1,0,0:0:0:70:S3.wav
192,192,71531,1,0,0:0:0:0:
64,192,71617,128,0,71788:0:0:0:70:S4.wav
320,192,71617,1,0,0:0:0:0:
448,192,71617,1,0,0:0:0:0:
448,192,71788,1,0,0:0:0:70:S3.wav
320,192,71874,1,0,0:0:0:0:
64,192,71960,128,0,72131:0:0:0:70:snare_wave.wav
192,192,71960,1,0,0:0:0:0:
320,192,72045,1,0,0:0:0:70:tom01.wav
448,192,72045,1,0,0:0:0:0:
192,192,72131,1,0,0:0:0:70:tom02.wav
320,192,72131,1,0,0:0:0:0:
64,192,72303,128,0,72517:0:0:0:70:K.wav
192,192,72303,128,0,72538:0:0:0:70:C1.wav
320,192,72303,128,0,72560:0:0:0:0:
448,192,72303,128,0,72581:0:0:0:0:
64,192,72645,1,0,0:0:0:70:K.wav
192,192,72645,1,0,0:0:0:70:C.wav
320,192,72731,128,0,72817:0:0:0:0:
192,192,72774,128,0,72860:0:0:0:0:
64,192,72817,128,0,72903:0:0:0:0:
320,192,72903,128,0,72945:0:0:0:0:
448,192,72903,128,0,72945:0:0:0:0:
64,192,72988,1,0,0:0:0:70:K.wav
192,192,72988,1,0,0:0:0:0:
320,192,73074,128,0,73117:0:0:0:0:
448,192,73074,128,0,73117:0:0:0:0:
192,192,73160,128,0,73203:0:0:0:0:
320,192,73160,128,0,73203:0:0:0:0:
64,192,73245,128,0,73288:0:0:0:0:
192,192,73245,128,0,73288:0:0:0:0:
320,192,73331,1,0,0:0:0:70:K.wav
448,192,73331,1,0,0:0:0:0:
192,192,73417,128,0,73503:0:0:0:0:
320,192,73460,128,0,73545:0:0:0:0:
448,192,73503,128,0,73588:0:0:0:0:
64,192,73588,128,0,73631:0:0:0:0:
192,192,73588,128,0,73631:0:0:0:0:
320,192,73674,1,0,0:0:0:70:K.wav
448,192,73674,1,0,0:0:0:0:
192,192,73760,1,0,0:0:0:0:
64,192,73845,128,0,73931:0:0:0:0:
448,192,73845,128,0,73931:0:0:0:0:
320,192,73931,1,0,0:0:0:0:
64,192,74017,1,0,0:0:0:70:K.wav
192,192,74017,1,0,0:0:0:0:
320,192,74103,128,0,74188:0:0:0:0:
192,192,74145,128,0,74231:0:0:0:0:
64,192,74188,128,0,74274:0:0:0:0:
320,192,74274,128,0,74317:0:0:0:0:
448,192,74274,128,0,74317:0:0:0:0:
64,192,74360,1,0,0:0:0:70:K.wav
192,192,74360,1,0,0:0:0:0:
320,192,74445,128,0,74488:0:0:0:0:
448,192,74445,128,0,74488:0:0:0:0:
192,192,74531,128,0,74574:0:0:0:0:
320,192,74531,128,0,74574:0:0:0:0:
64,192,74617,128,0,74660:0:0:0:0:
192,192,74617,128,0,74660:0:0:0:0:
320,192,74703,1,0,0:0:0:70:K.wav
448,192,74703,1,0,0:0:0:0:
64,192,74788,128,0,74831:0:0:0:0:
192,192,74788,128,0,74831:0:0:0:0:
320,192,74874,128,0,74960:0:0:0:0:
448,192,74874,128,0,75003:0:0:0:0:
64,192,75045,1,0,0:0:0:70:K.wav
192,192,75045,1,0,0:0:0:0:
448,192,75131,128,0,75245:0:0:0:0:
320,192,75160,128,0,75274:0:0:0:0:
192,192,75188,128,0,75303:0:0:0:0:
64,192,75217,128,0,75331:0:0:0:0:
320,192,75388,1,0,0:0:0:70:K.wav
448,192,75388,1,0,0:0:0:0:
192,192,75474,128,0,75560:0:0:0:0:
320,192,75517,128,0,75603:0:0:0:0:
448,192,75560,128,0,75645:0:0:0:0:
64,192,75645,128,0,75688:0:0:0:0:
192,192,75645,128,0,75688:0:0:0:0:
320,192,75731,1,0,0:0:0:70:K.wav
448,192,75731,1,0,0:0:0:0:
64,192,75817,128,0,75860:0:0:0:0:
192,192,75817,128,0,75860:0:0:0:0:
192,192,75903,128,0,75945:0:0:0:0:
320,192,75903,128,0,75945:0:0:0:0:
320,192,75988,128,0,76031:0:0:0:0:
448,192,75988,128,0,76031:0:0:0:0:
64,192,76074,1,0,0:0:0:70:K.wav
192,192,76074,1,0,0:0:0:0:
320,192,76160,128,0,76245:0:0:0:0:
192,192,76203,128,0,76288:0:0:0:0:
64,192,76245,128,0,76331:0:0:0:0:
320,192,76331,128,0,76374:0:0:0:0:
448,192,76331,128,0,76374:0:0:0:0:
64,192,76417,128,0,76503:0:0:0:70:K.wav
192,192,76417,1,0,0:0:0:0:
448,192,76460,128,0,76653:0:0:0:0:
320,192,76503,128,0,76674:0:0:0:0:
64,192,76588,128,0,76717:0:0:0:0:
192,192,76588,128,0,76695:0:0:0:0:
320,192,76760,1,0,0:0:0:70:K.wav
448,192,76760,1,0,0:0:0:0:
192,192,76845,128,0,76931:0:0:0:0:
320,192,76888,128,0,76974:0:0:0:0:
448,192,76931,128,0,77017:0:0:0:0:
64,192,77017,128,0,77060:0:0:0:0:
192,192,77017,128,0,77060:0:0:0:0:
320,192,77103,1,0,0:0:0:70:K.wav
448,192,77103,1,0,0:0:0:0:
64,192,77188,128,0,77231:0:0:0:0:
192,192,77188,128,0,77231:0:0:0:0:
320,192,77274,128,0,77360:0:0:0:0:
448,192,77274,128,0,77360:0:0:0:0:
192,192,77445,128,0,77681:0:0:0:70:K.wav
320,192,77445,128,0,77703:0:0:0:0:
448,192,77445,128,0,77724:0:0:0:0:
64,192,77788,128,0,78067:0:0:0:70:K.wav
192,192,77788,128,0,78045:0:0:0:0:
320,192,77788,128,0,78024:0:0:0:0:
320,192,78131,1,0,0:0:0:70:K.wav
448,192,78131,1,0,0:0:0:0:
192,192,78217,128,0,78303:0:0:0:0:
320,192,78260,128,0,78345:0:0:0:0:
448,192,78303,128,0,78388:0:0:0:0:
64,192,78388,128,0,78431:0:0:0:0:
192,192,78388,128,0,78431:0:0:0:0:
320,192,78474,1,0,0:0:0:70:K.wav
448,192,78474,1,0,0:0:0:0:
64,192,78560,128,0,78603:0:0:0:0:
192,192,78560,128,0,78603:0:0:0:0:
192,192,78645,128,0,78688:0:0:0:0:
320,192,78645,128,0,78688:0:0:0:0:
320,192,78731,128,0,78774:0:0:0:0:
448,192,78731,128,0,78774:0:0:0:0:
64,192,78817,1,0,0:0:0:70:K.wav
192,192,78817,1,0,0:0:0:0:
320,192,78903,128,0,78988:0:0:0:0:
192,192,78945,128,0,79031:0:0:0:0:
64,192,78988,128,0,79074:0:0:0:0:
320,192,79074,128,0,79117:0:0:0:0:
448,192,79074,128,0,79117:0:0:0:0:
64,192,79160,1,0,0:0:0:70:K.wav
192,192,79160,1,0,0:0:0:0:
320,192,79245,1,0,0:0:0:0:
192,192,79331,128,0,79417:0:0:0:0:
64,192,79374,128,0,79460:0:0:0:0:
320,192,79503,1,0,0:0:0:70:K.wav
448,192,79503,1,0,0:0:0:0:
192,192,79588,128,0,79674:0:0:0:0:
320,192,79631,128,0,79717:0:0:0:0:
448,192,79674,128,0,79760:0:0:0:0:
64,192,79760,128,0,79803:0:0:0:0:
192,192,79760,128,0,79803:0:0:0:0:
320,192,79845,1,0,0:0:0:70:K.wav
448,192,79845,1,0,0:0:0:0:
64,192,79931,128,0,79974:0:0:0:0:
192,192,79931,128,0,79974:0:0:0:0:
320,192,80017,128,0,80060:0:0:0:0:
448,192,80017,128,0,80103:0:0:0:0:
64,192,80103,128,0,80145:0:0:0:0:
192,192,80103,128,0,80145:0:0:0:0:
320,192,80188,1,0,0:0:0:70:K.wav
448,192,80188,128,0,80274:0:0:0:0:
64,192,80274,128,0,80317:0:0:0:0:
192,192,80274,128,0,80317:0:0:0:0:
448,192,80360,128,0,80445:0:0:0:0:
320,192,80360,1,0,0:0:0:0:
192,192,80403,128,0,80488:0:0:0:0:
64,192,80445,128,0,80531:0:0:0:0:
320,192,80531,1,0,0:0:0:70:K.wav
448,192,80531,1,0,0:0:0:0:
64,192,80617,128,0,80703:0:0:0:0:
192,192,80645,128,0,80731:0:0:0:0:
320,192,80674,128,0,80760:0:0:0:0:
448,192,80703,128,0,80788:0:0:0:0:
320,192,80874,1,0,0:0:0:70:K.wav
448,192,80874,1,0,0:0:0:0:
192,192,80917,1,0,0:0:0:0:
64,192,80960,128,0,81045:0:0:0:0:
448,192,81003,128,0,81088:0:0:0:0:
64,192,81131,128,0,81174:0:0:0:0:
192,192,81131,128,0,81174:0:0:0:0:
320,192,81217,1,0,0:0:0:70:K.wav
448,192,81217,1,0,0:0:0:0:
64,192,81303,128,0,81345:0:0:0:0:
192,192,81303,128,0,81345:0:0:0:0:
64,192,81388,128,0,81431:0:0:0:0:
192,192,81388,128,0,81431:0:0:0:0:
320,192,81474,1,0,0:0:0:70:K.wav
448,192,81474,1,0,0:0:0:0:
320,192,81560,1,0,0:0:0:70:K.wav
448,192,81560,1,0,0:0:0:0:
192,192,81645,128,0,81731:0:0:0:0:
320,192,81731,1,0,0:0:0:70:K.wav
448,192,81731,1,0,0:0:0:0:
64,192,81817,1,0,0:0:0:0:
192,192,81903,1,0,0:0:0:70:S4.wav
320,192,81988,1,0,0:0:0:0:
64,192,82074,1,0,0:0:0:70:S3.wav
320,192,82160,1,0,0:0:0:70:S3.wav
64,192,82245,1,0,0:0:0:50:S2.wav
448,192,82245,1,0,0:0:0:0:
320,192,82417,1,0,0:0:0:70:S3.wav
64,192,82503,1,0,0:0:0:70:S4.wav
192,192,82503,1,0,0:0:0:0:
320,192,82588,1,0,0:0:0:0:
192,192,82674,1,0,0:0:0:70:S4.wav
64,192,82760,1,0,0:0:0:50:S2.wav
448,192,82760,1,0,0:0:0:0:
320,192,82931,1,0,0:0:0:0:
64,192,83017,1,0,0:0:0:70:S4.wav
192,192,83017,1,0,0:0:0:0:
320,192,83103,1,0,0:0:0:70:S3.wav
192,192,83188,1,0,0:0:0:70:S3.wav
64,192,83274,128,0,83553:0:0:0:70:K.wav
192,192,83274,128,0,83531:0:0:0:70:C1.wav
320,192,83274,128,0,83510:0:0:0:0:
448,192,83274,128,0,83488:0:0:0:0:
320,192,83617,1,0,0:0:0:70:K.wav
448,192,83617,1,0,0:0:0:70:C.wav
192,192,83703,128,0,83788:0:0:0:0:
320,192,83745,128,0,83831:0:0:0:0:
448,192,83788,128,0,83874:0:0:0:0:
64,192,83874,128,0,83917:0:0:0:0:
192,192,83874,128,0,83917:0:0:0:0:
320,192,83960,1,0,0:0:0:70:K.wav
448,192,83960,1,0,0:0:0:0:
64,192,84045,128,0,84088:0:0:0:0:
192,192,84045,128,0,84088:0:0:0:0:
192,192,84131,128,0,84174:0:0:0:0:
448,192,84131,128,0,84174:0:0:0:0:
320,192,84217,128,0,84260:0:0:0:0:
448,192,84217,128,0,84260:0:0:0:0:
64,192,84303,1,0,0:0:0:70:K.wav
192,192,84303,1,0,0:0:0:0:
320,192,84388,128,0,84474:0:0:0:0:
192,192,84431,128,0,84517:0:0:0:0:
64,192,84474,128,0,84560:0:0:0:0:
320,192,84560,128,0,84603:0:0:0:0:
448,192,84560,128,0,84603:0:0:0:0:
64,192,84645,1,0,0:0:0:70:K.wav
192,192,84645,1,0,0:0:0:0:
320,192,84731,1,0,0:0:0:0:
64,192,84817,128,0,84903:0:0:0:0:
448,192,84817,128,0,84903:0:0:0:0:
192,192,84903,1,0,0:0:0:0:
320,192,84988,1,0,0:0:0:70:K.wav
448,192,84988,1,0,0:0:0:0:
192,192,85074,128,0,85160:0:0:0:0:
320,192,85117,128,0,85203:0:0:0:0:
448,192,85160,128,0,85245:0:0:0:0:
64,192,85245,128,0,85288:0:0:0:0:
192,192,85245,128,0,85288:0:0:0:0:
320,192,85331,1,0,0:0:0:70:K.wav
448,192,85331,1,0,0:0:0:0:
64,192,85417,128,0,85460:0:0:0:0:
192,192,85417,128,0,85460:0:0:0:0:
192,192,85503,128,0,85545:0:0:0:0:
448,192,85503,128,0,85545:0:0:0:0:
320,192,85588,128,0,85631:0:0:0:0:
448,192,85588,128,0,85631:0:0:0:0:
64,192,85674,1,0,0:0:0:70:K.wav
192,192,85674,1,0,0:0:0:0:
64,192,85760,1,0,0:0:0:70:K.wav
192,192,85760,1,0,0:0:0:0:
320,192,85845,128,0,85931:0:0:0:0:
448,192,85845,128,0,85974:0:0:0:0:
64,192,86017,1,0,0:0:0:70:K.wav
192,192,86017,1,0,0:0:0:0:
448,192,86103,128,0,86217:0:0:0:0:
320,192,86131,128,0,86245:0:0:0:0:
192,192,86160,128,0,86274:0:0:0:0:
64,192,86188,128,0,86303:0:0:0:0:
320,192,86360,1,0,0:0:0:70:K.wav
448,192,86360,1,0,0:0:0:0:
192,192,86445,128,0,86531:0:0:0:0:
320,192,86488,128,0,86574:0:0:0:0:
448,192,86531,128,0,86617:0:0:0:0:
64,192,86617,128,0,86660:0:0:0:0:
192,192,86617,128,0,86660:0:0:0:0:
320,192,86703,1,0,0:0:0:70:K.wav
448,192,86703,1,0,0:0:0:0:
64,192,86788,128,0,86831:0:0:0:0:
192,192,86788,128,0,86831:0:0:0:0:
192,192,86874,128,0,86917:0:0:0:0:
448,192,86874,128,0,86917:0:0:0:0:
320,192,86960,128,0,87003:0:0:0:0:
448,192,86960,128,0,87003:0:0:0:0:
64,192,87045,1,0,0:0:0:70:K.wav
192,192,87045,1,0,0:0:0:0:
320,192,87131,128,0,87217:0:0:0:0:
192,192,87174,128,0,87260:0:0:0:0:
64,192,87217,128,0,87303:0:0:0:0:
320,192,87303,128,0,87345:0:0:0:0:
448,192,87303,128,0,87345:0:0:0:0:
64,192,87388,128,0,87431:0:0:0:70:K.wav
192,192,87388,1,0,0:0:0:0:
448,192,87474,128,0,87645:0:0:0:0:
320,192,87560,128,0,87645:0:0:0:0:
64,192,87645,1,0,0:0:0:70:K.wav
192,192,87645,1,0,0:0:0:0:
64,192,87731,128,0,87774:0:0:0:70:K.wav
192,192,87731,1,0,0:0:0:0:
320,192,87817,128,0,87903:0:0:0:0:
192,192,87860,128,0,87945:0:0:0:0:
64,192,87903,128,0,87988:0:0:0:0:
320,192,87988,1,0,0:0:0:70:K.wav
448,192,87988,1,0,0:0:0:0:
320,192,88074,1,0,0:0:0:70:K.wav
448,192,88074,128,0,88117:0:0:0:0:
64,192,88160,1,0,0:0:0:70:K.wav
192,192,88160,1,0,0:0:0:0:
64,192,88245,1,0,0:0:0:70:K.wav
192,192,88245,1,0,0:0:0:0:
192,192,88417,128,0,88653:0:0:0:70:K.wav
320,192,88417,128,0,88674:0:0:0:0:
448,192,88417,128,0,88695:0:0:0:0:
64,192,88760,1,0,0:0:0:70:K.wav
320,192,88760,1,0,0:0:0:70:C1.wav
448,192,88760,1,0,0:0:0:70:S3.wav
64,192,88931,1,0,0:0:0:70:K.wav
192,192,88931,1,0,0:0:0:0:
64,192,89103,1,0,0:0:0:70:K.wav
192,192,89103,1,0,0:0:0:70:C.wav
320,192,89188,128,0,89274:0:0:0:0:
192,192,89231,128,0,89317:0:0:0:0:
64,192,89274,128,0,89360:0:0:0:0:
320,192,89360,128,0,89403:0:0:0:0:
448,192,89360,128,0,89403:0:0:0:0:
64,192,89445,1,0,0:0:0:70:K.wav
192,192,89445,1,0,0:0:0:70:S3.wav
64,192,89531,128,0,89574:0:0:0:0:
192,192,89531,128,0,89574:0:0:0:0:
192,192,89617,128,0,89660:0:0:0:0:
448,192,89617,128,0,89660:0:0:0:0:
320,192,89703,128,0,89745:0:0:0:0:
448,192,89703,128,0,89745:0:0:0:0:
64,192,89788,1,0,0:0:0:70:K.wav
192,192,89788,1,0,0:0:0:0:
320,192,89874,128,0,89960:0:0:0:0:
192,192,89917,128,0,90003:0:0:0:0:
64,192,89960,128,0,90045:0:0:0:0:
320,192,90045,1,0,0:0:0:70:K.wav
448,192,90045,1,0,0:0:0:0:
320,192,90131,1,0,0:0:0:70:K.wav
448,192,90131,1,0,0:0:0:70:S3.wav
64,192,90217,1,0,0:0:0:0:
320,192,90303,1,0,0:0:0:70:K.wav
448,192,90303,1,0,0:0:0:0:
64,192,90388,1,0,0:0:0:0:
320,192,90474,1,0,0:0:0:70:K.wav
448,192,90474,1,0,0:0:0:0:
192,192,90560,128,0,90645:0:0:0:0:
320,192,90603,128,0,90688:0:0:0:0:
448,192,90645,128,0,90731:0:0:0:0:
64,192,90731,1,0,0:0:0:70:K.wav
192,192,90731,1,0,0:0:0:0:
64,192,90817,1,0,0:0:0:70:K.wav
192,192,90817,1,0,0:0:0:70:S3.wav
320,192,90903,128,0,90945:0:0:0:0:
448,192,90903,128,0,90945:0:0:0:0:
64,192,90988,1,0,0:0:0:70:K.wav
192,192,90988,1,0,0:0:0:0:
320,192,91074,128,0,91117:0:0:0:70:WB1.wav
448,192,91074,128,0,91160:0:0:0:0:
64,192,91160,1,0,0:0:0:70:K.wav
192,192,91160,1,0,0:0:0:0:
448,192,91245,1,0,0:0:0:0:
192,192,91331,1,0,0:0:0:70:K.wav
320,192,91374,1,0,0:0:0:70:K.wav
64,192,91417,1,0,0:0:0:70:K.wav
192,192,91460,1,0,0:0:0:70:K.wav
320,192,91503,1,0,0:0:0:70:K.wav
448,192,91503,1,0,0:0:0:70:C.wav
64,192,91560,128,0,91645:0:0:0:0:
192,192,91617,128,0,91703:0:0:0:0:
320,192,91674,128,0,91760:0:0:0:0:
448,192,91731,128,0,91817:0:0:0:0:
192,192,91845,1,0,0:0:0:70:S4.wav
64,192,91931,1,0,0:0:0:70:S4.wav
192,192,92017,1,0,0:0:0:70:S4.wav
64,192,92103,1,0,0:0:0:70:S4.wav
320,192,92188,1,0,0:0:0:70:S4.wav
192,192,92274,1,0,0:0:0:70:S4.wav
320,192,92360,1,0,0:0:0:70:S4.wav
192,192,92445,1,0,0:0:0:70:S4.wav
448,192,92531,1,0,0:0:0:70:S4.wav
320,192,92617,1,0,0:0:0:70:S4.wav
448,192,92703,1,0,0:0:0:70:S4.wav
320,192,92788,1,0,0:0:0:70:S4.wav
64,192,92874,1,0,0:0:0:70:S5.wav
64,192,92960,1,0,0:0:0:70:S5.wav
448,192,93045,1,0,0:0:0:70:S5.wav
448,192,93131,1,0,0:0:0:70:S5.wav
64,192,93217,1,0,0:0:0:70:S5.wav
192,192,93217,1,0,0:0:0:0:
64,192,93303,1,0,0:0:0:70:S5.wav
192,192,93303,1,0,0:0:0:0:
320,192,93388,1,0,0:0:0:70:S5.wav
448,192,93388,1,0,0:0:0:0:
320,192,93474,1,0,0:0:0:70:S5.wav
448,192,93474,1,0,0:0:0:0:
192,192,93560,1,0,0:0:0:70:S5.wav
320,192,93603,1,0,0:0:0:70:S5.wav
448,192,93645,1,0,0:0:0:70:S5.wav
64,192,93688,1,0,0:0:0:70:S5.wav
192,192,93731,1,0,0:0:0:70:S5.wav
448,192,93774,1,0,0:0:0:70:S5.wav
64,192,93817,1,0,0:0:0:70:S5.wav
320,192,93860,1,0,0:0:0:70:S5.wav
448,192,93903,1,0,0:0:0:70:S5.wav
192,192,93945,1,0,0:0:0:70:S5.wav
320,192,93988,1,0,0:0:0:70:S5.wav
64,192,94031,1,0,0:0:0:70:S5.wav
448,192,94074,1,0,0:0:0:70:S5.wav
192,192,94117,1,0,0:0:0:70:S5.wav
320,192,94160,1,0,0:0:0:70:S5.wav
64,192,94245,128,0,94524:0:0:0:70:K.wav
192,192,94245,128,0,94503:0:0:0:70:C1.wav
320,192,94245,128,0,94481:0:0:0:0:
448,192,94245,128,0,94460:0:0:0:0:
320,192,94588,1,0,0:0:0:70:S.wav
448,192,94588,1,0,0:0:0:70:C.wav
64,192,94588,1,0,0:0:0:0:
192,192,94674,128,0,94760:0:0:0:0:
320,192,94717,128,0,94803:0:0:0:0:
448,192,94760,128,0,94845:0:0:0:0:
64,192,94845,128,0,94888:0:0:0:0:
192,192,94845,128,0,94888:0:0:0:0:
320,192,94931,1,0,0:0:0:70:K.wav
448,192,94931,1,0,0:0:0:0:
64,192,95017,1,0,0:0:0:0:
192,192,95017,1,0,0:0:0:0:
192,192,95103,1,0,0:0:0:0:
320,192,95103,1,0,0:0:0:0:
320,192,95188,1,0,0:0:0:0:
64,192,95274,1,0,0:0:0:70:S.wav
192,192,95274,1,0,0:0:0:0:
448,192,95274,1,0,0:0:0:0:
320,192,95360,128,0,95445:0:0:0:0:
192,192,95403,128,0,95488:0:0:0:0:
64,192,95445,128,0,95531:0:0:0:0:
320,192,95531,128,0,95574:0:0:0:0:
448,192,95531,128,0,95574:0:0:0:0:
64,192,95617,1,0,0:0:0:70:K.wav
192,192,95617,1,0,0:0:0:0:
320,192,95703,1,0,0:0:0:0:
64,192,95788,128,0,95874:0:0:0:0:
192,192,95788,128,0,95831:0:0:0:0:
320,192,95874,1,0,0:0:0:0:
64,192,95960,1,0,0:0:0:70:S.wav
192,192,95960,1,0,0:0:0:0:
448,192,95960,1,0,0:0:0:0:
320,192,96045,128,0,96131:0:0:0:0:
192,192,96088,128,0,96174:0:0:0:0:
64,192,96131,128,0,96217:0:0:0:0:
320,192,96217,128,0,96260:0:0:0:0:
448,192,96217,128,0,96260:0:0:0:0:
64,192,96303,1,0,0:0:0:70:K.wav
192,192,96303,1,0,0:0:0:0:
320,192,96388,128,0,96431:0:0:0:0:
448,192,96388,128,0,96431:0:0:0:0:
448,192,96474,128,0,96517:0:0:0:0:
192,192,96474,128,0,96517:0:0:0:0:
64,192,96560,128,0,96603:0:0:0:0:
192,192,96560,128,0,96603:0:0:0:0:
320,192,96645,1,0,0:0:0:70:S.wav
448,192,96645,1,0,0:0:0:0:
64,192,96645,1,0,0:0:0:0:
64,192,96731,128,0,96774:0:0:0:0:
448,192,96731,128,0,96774:0:0:0:0:
192,192,96817,128,0,96945:0:0:0:0:
320,192,96817,128,0,96903:0:0:0:0:
64,192,96988,128,0,97245:0:0:0:0:
192,192,97074,128,0,97245:0:0:0:0:
448,192,97160,1,0,0:0:0:0:
320,192,97245,1,0,0:0:0:0:
64,192,97331,1,0,0:0:0:70:S.wav
192,192,97331,1,0,0:0:0:0:
448,192,97331,1,0,0:0:0:0:
320,192,97417,128,0,97503:0:0:0:0:
192,192,97460,128,0,97545:0:0:0:0:
64,192,97503,128,0,97588:0:0:0:0:
320,192,97588,128,0,97631:0:0:0:0:
448,192,97588,128,0,97631:0:0:0:0:
64,192,97674,1,0,0:0:0:70:K.wav
192,192,97674,1,0,0:0:0:0:
448,192,97760,1,0,0:0:0:0:
320,192,97760,1,0,0:0:0:0:
448,192,97845,1,0,0:0:0:0:
192,192,97845,1,0,0:0:0:0:
192,192,97931,1,0,0:0:0:0:
320,192,98017,1,0,0:0:0:70:S.wav
448,192,98017,1,0,0:0:0:0:
64,192,98017,1,0,0:0:0:0:
192,192,98103,128,0,98188:0:0:0:0:
320,192,98145,128,0,98231:0:0:0:0:
448,192,98188,128,0,98274:0:0:0:0:
64,192,98274,128,0,98317:0:0:0:0:
192,192,98274,128,0,98317:0:0:0:0:
320,192,98360,1,0,0:0:0:70:K.wav
448,192,98360,1,0,0:0:0:0:
192,192,98445,128,0,98531:0:0:0:0:
64,192,98488,128,0,98531:0:0:0:0:
320,192,98531,1,0,0:0:0:0:
448,192,98531,128,0,98617:0:0:0:0:
64,192,98703,1,0,0:0:0:70:S.wav
192,192,98703,1,0,0:0:0:0:
448,192,98703,1,0,0:0:0:0:
320,192,98788,128,0,98874:0:0:0:0:
192,192,98831,128,0,98917:0:0:0:0:
64,192,98874,128,0,98960:0:0:0:0:
320,192,98960,128,0,99003:0:0:0:0:
448,192,98960,128,0,99003:0:0:0:0:
64,192,99045,1,0,0:0:0:70:K.wav
192,192,99045,1,0,0:0:0:0:
320,192,99131,128,0,99174:0:0:0:0:
448,192,99131,128,0,99174:0:0:0:0:
64,192,99217,128,0,99345:0:0:0:0:
192,192,99217,128,0,99303:0:0:0:0:
192,192,99388,128,0,99624:0:0:0:70:S.wav
320,192,99388,128,0,99645:0:0:0:70:bassdrop.wav
448,192,99388,128,0,99667:0:0:0:0:
64,192,99731,128,0,100010:0:0:0:70:K.wav
192,192,99731,128,0,99988:0:0:0:70:C1.wav
320,192,99731,128,0,99967:0:0:0:0:
448,192,99731,128,0,99945:0:0:0:0:
64,192,100074,1,0,0:0:0:70:K.wav
320,192,100074,1,0,0:0:0:70:C.wav
448,192,100074,1,0,0:0:0:70:S1.wav
192,192,100160,1,0,0:0:0:0:
448,192,100245,1,0,0:0:0:0:
64,192,100331,1,0,0:0:0:70:K.wav
192,192,100331,1,0,0:0:0:0:
320,192,100417,1,0,0:0:0:0:
448,192,100503,1,0,0:0:0:0:
64,192,100588,1,0,0:0:0:70:K.wav
192,192,100588,1,0,0:0:0:0:
320,192,100674,1,0,0:0:0:0:
64,192,100760,1,0,0:0:0:70:S1.wav
320,192,100760,1,0,0:0:0:0:
448,192,100760,1,0,0:0:0:0:
64,192,100845,1,0,0:0:0:70:K.wav
192,192,100845,1,0,0:0:0:0:
320,192,100931,1,0,0:0:0:0:
64,192,101017,1,0,0:0:0:0:
320,192,101103,1,0,0:0:0:70:K.wav
448,192,101103,1,0,0:0:0:0:
192,192,101188,1,0,0:0:0:0:
320,192,101274,128,0,101360:0:0:0:0:
64,192,101445,1,0,0:0:0:70:K.wav
192,192,101445,1,0,0:0:0:70:S1.wav
448,192,101445,1,0,0:0:0:0:
320,192,101531,1,0,0:0:0:0:
192,192,101617,1,0,0:0:0:0:
320,192,101703,1,0,0:0:0:70:K.wav
448,192,101703,1,0,0:0:0:0:
64,192,101788,1,0,0:0:0:0:
64,192,101874,1,0,0:0:0:0:
320,192,101960,1,0,0:0:0:70:K.wav
448,192,101960,1,0,0:0:0:0:
192,192,102045,1,0,0:0:0:0:
64,192,102131,1,0,0:0:0:70:S1.wav
192,192,102131,1,0,0:0:0:0:
448,192,102131,1,0,0:0:0:0:
320,192,102217,1,0,0:0:0:70:K.wav
448,192,102217,1,0,0:0:0:0:
64,192,102303,128,0,102474:0:0:0:0:
192,192,102388,1,0,0:0:0:0:
320,192,102474,1,0,0:0:0:70:K.wav
448,192,102474,1,0,0:0:0:70:C1.wav
192,192,102517,1,0,0:0:0:0:
64,192,102560,1,0,0:0:0:0:
448,192,102603,1,0,0:0:0:0:
320,192,102645,1,0,0:0:0:0:
64,192,102688,1,0,0:0:0:0:
192,192,102731,1,0,0:0:0:0:
320,192,102774,1,0,0:0:0:0:
64,192,102817,1,0,0:0:0:70:K.wav
448,192,102817,1,0,0:0:0:70:S1.wav
320,192,102903,128,0,102988:0:0:0:0:
192,192,102945,128,0,103031:0:0:0:0:
64,192,102988,128,0,103074:0:0:0:0:
320,192,103074,1,0,0:0:0:70:K.wav
448,192,103074,1,0,0:0:0:0:
192,192,103160,128,0,103245:0:0:0:0:
320,192,103203,128,0,103288:0:0:0:0:
448,192,103245,128,0,103331:0:0:0:0:
64,192,103331,1,0,0:0:0:70:K.wav
192,192,103331,1,0,0:0:0:0:
320,192,103417,128,0,103503:0:0:0:0:
64,192,103503,1,0,0:0:0:70:S1.wav
192,192,103503,1,0,0:0:0:0:
448,192,103503,1,0,0:0:0:0:
320,192,103588,1,0,0:0:0:70:K.wav
448,192,103588,1,0,0:0:0:0:
64,192,103674,1,0,0:0:0:70:K.wav
192,192,103674,1,0,0:0:0:0:
64,192,103760,1,0,0:0:0:70:K.wav
192,192,103760,1,0,0:0:0:0:
448,192,103760,1,0,0:0:0:0:
320,192,103845,1,0,0:0:0:70:S4.wav
192,192,103931,1,0,0:0:0:0:
448,192,104017,1,0,0:0:0:70:S3.wav
192,192,104103,1,0,0:0:0:70:S3.wav
64,192,104188,1,0,0:0:0:50:S2.wav
448,192,104188,1,0,0:0:0:0:
320,192,104360,1,0,0:0:0:70:S3.wav
64,192,104445,1,0,0:0:0:70:S4.wav
192,192,104445,1,0,0:0:0:0:
320,192,104531,1,0,0:0:0:0:
192,192,104617,1,0,0:0:0:70:S4.wav
64,192,104703,1,0,0:0:0:50:S2.wav
448,192,104703,1,0,0:0:0:0:
192,192,104874,1,0,0:0:0:0:
320,192,104960,1,0,0:0:0:70:S4.wav
448,192,104960,1,0,0:0:0:0:
192,192,105045,1,0,0:0:0:70:S3.wav
320,192,105131,1,0,0:0:0:70:S3.wav
64,192,105217,128,0,105431:0:0:0:70:K.wav
192,192,105217,128,0,105453:0:0:0:70:C1.wav
320,192,105217,128,0,105474:0:0:0:0:
448,192,105217,128,0,105495:0:0:0:0:
64,192,105560,128,0,105731:0:0:0:70:S3.wav
192,192,105645,128,0,105817:0:0:0:70:S3.wav
320,192,105731,128,0,105903:0:0:0:70:S3.wav
448,192,105817,128,0,105988:0:0:0:70:S3.wav
64,192,105903,128,0,106160:0:0:0:70:S3.wav
192,192,105988,128,0,106245:0:0:0:70:S3.wav
320,192,106074,128,0,106331:0:0:0:70:S3.wav
448,192,106160,128,0,106417:0:0:0:70:S3.wav
64,192,106245,128,0,106545:0:0:0:70:S3.wav
192,192,106331,128,0,106545:0:0:0:70:S3.wav
320,192,106417,128,0,106545:0:0:0:70:S3.wav
448,192,106503,128,0,106545:0:0:0:70:S3.wav
64,192,106588,128,0,106867:0:0:0:70:K.wav
192,192,106588,128,0,106845:0:0:0:70:C1.wav
320,192,106588,128,0,106824:0:0:0:0:
448,192,106588,128,0,106803:0:0:0:0:
320,192,106931,1,0,0:0:0:70:S.wav
448,192,106931,1,0,0:0:0:70:C.wav
64,192,106931,1,0,0:0:0:0:
192,192,107017,128,0,107103:0:0:0:0:
320,192,107060,128,0,107145:0:0:0:0:
448,192,107103,128,0,107188:0:0:0:0:
64,192,107188,128,0,107231:0:0:0:0:
192,192,107188,128,0,107231:0:0:0:0:
320,192,107274,1,0,0:0:0:70:K.wav
448,192,107274,1,0,0:0:0:0:
64,192,107360,128,0,107403:0:0:0:0:
192,192,107360,128,0,107403:0:0:0:0:
64,192,107445,128,0,107488:0:0:0:0:
448,192,107445,128,0,107488:0:0:0:0:
320,192,107531,128,0,107574:0:0:0:0:
448,192,107531,128,0,107574:0:0:0:0:
64,192,107617,1,0,0:0:0:70:S.wav
192,192,107617,1,0,0:0:0:0:
320,192,107617,1,0,0:0:0:0:
64,192,107703,128,0,107745:0:0:0:0:
448,192,107703,128,0,107745:0:0:0:0:
192,192,107788,128,0,107874:0:0:0:0:
320,192,107788,128,0,107917:0:0:0:0:
64,192,107960,128,0,108217:0:0:0:0:
192,192,108045,128,0,108217:0:0:0:0:
320,192,108131,1,0,0:0:0:70:K.wav
448,192,108131,1,0,0:0:0:0:
320,192,108303,1,0,0:0:0:70:S.wav
448,192,108303,1,0,0:0:0:0:
64,192,108303,1,0,0:0:0:0:
192,192,108388,128,0,108474:0:0:0:0:
320,192,108474,1,0,0:0:0:70:K.wav
448,192,108474,1,0,0:0:0:0:
192,192,108560,128,0,108645:0:0:0:0:
320,192,108645,1,0,0:0:0:70:K.wav
448,192,108645,1,0,0:0:0:0:
64,192,108731,1,0,0:0:0:0:
192,192,108731,1,0,0:0:0:0:
192,192,108817,1,0,0:0:0:0:
320,192,108817,1,0,0:0:0:0:
320,192,108903,1,0,0:0:0:0:
64,192,108988,1,0,0:0:0:70:S.wav
192,192,108988,1,0,0:0:0:0:
448,192,108988,1,0,0:0:0:0:
320,192,109074,128,0,109160:0:0:0:0:
192,192,109117,128,0,109203:0:0:0:0:
64,192,109160,128,0,109245:0:0:0:0:
320,192,109245,128,0,109288:0:0:0:0:
448,192,109245,128,0,109288:0:0:0:0:
64,192,109331,1,0,0:0:0:70:S2.wav
192,192,109331,1,0,0:0:0:0:
448,192,109331,1,0,0:0:0:0:
320,192,109417,1,0,0:0:0:0:
448,192,109503,128,0,109588:0:0:0:0:
192,192,109588,1,0,0:0:0:0:
64,192,109674,1,0,0:0:0:70:S2.wav
320,192,109674,1,0,0:0:0:0:
448,192,109674,1,0,0:0:0:0:
192,192,109760,128,0,109845:0:0:0:0:
320,192,109803,128,0,109888:0:0:0:0:
448,192,109845,128,0,109931:0:0:0:0:
64,192,109931,128,0,109974:0:0:0:0:
192,192,109931,128,0,109974:0:0:0:0:
64,192,110017,1,0,0:0:0:70:S2.wav
320,192,110017,1,0,0:0:0:0:
448,192,110017,1,0,0:0:0:0:
192,192,110188,128,0,110274:0:0:0:0:
320,192,110188,128,0,110274:0:0:0:0:
64,192,110360,128,0,110617:0:0:0:70:bassdrop.wav
448,192,110360,128,0,110617:0:0:0:0:
64,192,110703,128,0,110981:0:0:0:70:K.wav
192,192,110703,128,0,110960:0:0:0:70:C.wav
320,192,110703,128,0,110938:0:0:0:0:
448,192,110703,128,0,110917:0:0:0:0:
64,192,111045,1,0,0:0:0:70:K.wav
192,192,111045,1,0,0:0:0:70:S1.wav
448,192,111045,1,0,0:0:0:0:
320,192,111131,1,0,0:0:0:0:
448,192,111217,1,0,0:0:0:0:
64,192,111303,1,0,0:0:0:70:K.wav
192,192,111303,1,0,0:0:0:70:C1.wav
320,192,111388,1,0,0:0:0:0:
448,192,111474,1,0,0:0:0:0:
64,192,111560,1,0,0:0:0:70:K.wav
192,192,111560,1,0,0:0:0:70:C1.wav
320,192,111645,1,0,0:0:0:0:
64,192,111731,1,0,0:0:0:70:S1.wav
320,192,111731,1,0,0:0:0:0:
448,192,111731,1,0,0:0:0:0:
64,192,111817,1,0,0:0:0:70:K.wav
192,192,111817,1,0,0:0:0:0:
448,192,111903,1,0,0:0:0:0:
192,192,111988,1,0,0:0:0:0:
64,192,112074,128,0,112288:0:0:0:70:K.wav
192,192,112074,128,0,112310:0:0:0:70:C1.wav
320,192,112074,128,0,112331:0:0:0:0:
448,192,112074,128,0,112353:0:0:0:0:
64,192,112417,1,0,0:0:0:70:K.wav
320,192,112417,1,0,0:0:0:70:S1.wav
448,192,112417,1,0,0:0:0:0:
192,192,112503,1,0,0:0:0:0:
64,192,112588,1,0,0:0:0:0:
320,192,112674,1,0,0:0:0:70:K.wav
448,192,112674,1,0,0:0:0:70:C1.wav
192,192,112760,1,0,0:0:0:0:
64,192,112845,1,0,0:0:0:0:
320,192,112931,1,0,0:0:0:70:K.wav
448,192,112931,1,0,0:0:0:70:C1.wav
192,192,113017,1,0,0:0:0:0:
64,192,113103,1,0,0:0:0:70:S1.wav
192,192,113103,1,0,0:0:0:0:
448,192,113103,1,0,0:0:0:0:
320,192,113188,1,0,0:0:0:70:K.wav
448,192,113188,1,0,0:0:0:0:
64,192,113274,1,0,0:0:0:0:
64,192,113445,128,0,113703:0:0:0:70:K.wav
192,192,113445,128,0,113724:0:0:0:70:C.wav
320,192,113445,128,0,113745:0:0:0:0:
448,192,113445,128,0,113767:0:0:0:0:
64,192,113788,128,0,113874:0:0:0:0:
320,192,113874,1,0,0:0:0:70:K.wav
448,192,113874,1,0,0:0:0:70:C1.wav
320,192,113960,1,0,0:0:0:70:K.wav
448,192,113960,1,0,0:0:0:70:C1.wav
64,192,114045,1,0,0:0:0:70:K.wav
192,192,114045,1,0,0:0:0:70:C1.wav
64,192,114131,128,0,114453:0:0:0:70:K.wav
192,192,114131,128,0,114431:0:0:0:70:C.wav
320,192,114131,128,0,114410:0:0:0:0:
448,192,114131,128,0,114388:0:0:0:0:
448,192,114474,128,0,114560:0:0:0:0:
64,192,114560,1,0,0:0:0:70:K.wav
192,192,114560,1,0,0:0:0:70:C1.wav
64,192,114645,1,0,0:0:0:70:K.wav
192,192,114645,1,0,0:0:0:70:C1.wav
320,192,114731,1,0,0:0:0:70:K.wav
448,192,114731,1,0,0:0:0:70:C1.wav
320,192,114817,1,0,0:0:0:70:K.wav
448,192,114817,1,0,0:0:0:70:C.wav
192,192,114903,1,0,0:0:0:0:
320,192,114988,1,0,0:0:0:0:
64,192,115074,1,0,0:0:0:70:K.wav
192,192,115160,1,0,0:0:0:70:S5.wav
448,192,115160,128,0,115331:0:0:0:0:
192,192,115331,1,0,0:0:0:70:S5.wav
320,192,115503,1,0,0:0:0:70:S5.wav
192,192,115588,1,0,0:0:0:70:S5.wav
320,192,115674,1,0,0:0:0:70:S5.wav
192,192,115760,1,0,0:0:0:0:
448,192,115845,1,0,0:0:0:70:S5.wav
320,192,115888,1,0,0:0:0:0:
64,192,115931,1,0,0:0:0:70:tom01.wav
192,192,115974,1,0,0:0:0:0:
448,192,116017,1,0,0:0:0:70:tom02.wav
320,192,116060,1,0,0:0:0:0:
64,192,116103,1,0,0:0:0:0:
192,192,116145,1,0,0:0:0:0:
320,192,116188,128,0,116274:0:0:0:70:C.wav
448,192,116188,1,0,0:0:0:70:boom.wav
64,192,116360,1,0,0:0:0:70:S4.wav
64,192,116531,1,0,0:0:0:70:S3.wav
192,192,116531,128,0,116703:0:0:0:0:
448,192,116703,1,0,0:0:0:0:
320,192,116874,128,0,116960:0:0:0:70:S5.wav
448,192,116874,1,0,0:0:0:0:
64,192,117045,1,0,0:0:0:70:S4.wav
192,192,117045,128,0,117131:0:0:0:0:
448,192,117131,1,0,0:0:0:0:
64,192,117217,1,0,0:0:0:70:S3.wav
192,192,117217,128,0,117388:0:0:0:0:
320,192,117388,128,0,117474:0:0:0:70:S5.wav
448,192,117388,1,0,0:0:0:0:
64,192,117474,1,0,0:0:0:0:
320,192,117560,128,0,117645:0:0:0:70:S5.wav
448,192,117560,1,0,0:0:0:0:
64,192,117731,1,0,0:0:0:70:S4.wav
192,192,117731,128,0,117817:0:0:0:0:
64,192,117903,1,0,0:0:0:70:S3.wav
192,192,117903,128,0,118074:0:0:0:0:
448,192,118074,1,0,0:0:0:0:
64,192,118160,1,0,0:0:0:0:
320,192,118245,128,0,118331:0:0:0:70:S5.wav
448,192,118245,1,0,0:0:0:0:
64,192,118417,1,0,0:0:0:70:S4.wav
192,192,118417,128,0,118503:0:0:0:0:
448,192,118503,1,0,0:0:0:0:
64,192,118588,1,0,0:0:0:70:S3.wav
192,192,118588,128,0,118760:0:0:0:0:
448,192,118760,1,0,0:0:0:0:
64,192,118845,1,0,0:0:0:0:
320,192,118931,1,0,0:0:0:70:S5.wav
448,192,118931,128,0,119017:0:0:0:0:
64,192,119103,128,0,119188:0:0:0:70:S4.wav
192,192,119103,1,0,0:0:0:0:
320,192,119188,1,0,0:0:0:0:
64,192,119274,128,0,119445:0:0:0:70:S3.wav
192,192,119274,1,0,0:0:0:0:
320,192,119445,1,0,0:0:0:0:
192,192,119531,1,0,0:0:0:0:
320,192,119617,1,0,0:0:0:70:S5.wav
448,192,119617,128,0,119703:0:0:0:0:
64,192,119788,128,0,119874:0:0:0:70:S4.wav
192,192,119788,1,0,0:0:0:0:
320,192,119874,1,0,0:0:0:0:
64,192,119960,128,0,120131:0:0:0:70:S3.wav
192,192,119960,1,0,0:0:0:0:
320,192,120131,1,0,0:0:0:70:S5.wav
448,192,120131,128,0,120217:0:0:0:0:
192,192,120217,1,0,0:0:0:0:
320,192,120303,1,0,0:0:0:70:S5.wav
448,192,120303,128,0,120388:0:0:0:0:
64,192,120388,1,0,0:0:0:0:
192,192,120474,1,0,0:0:0:0:
320,192,120474,128,0,120560:0:0:0:0:
320,192,120645,1,0,0:0:0:70:S5.wav
448,192,120645,128,0,120731:0:0:0:0:
64,192,120731,1,0,0:0:0:0:
320,192,120817,1,0,0:0:0:70:S5.wav
448,192,120817,128,0,120903:0:0:0:0:
192,192,120903,1,0,0:0:0:0:
320,192,120988,1,0,0:0:0:70:S5.wav
448,192,120988,128,0,121074:0:0:0:0:
64,192,121074,1,0,0:0:0:0:
320,192,121160,1,0,0:0:0:70:S5.wav
448,192,121160,128,0,121245:0:0:0:0:
192,192,121245,1,0,0:0:0:0:
64,192,121331,1,0,0:0:0:70:K.wav
320,192,121331,1,0,0:0:0:0:
448,192,121331,1,0,0:0:0:0:
192,192,121417,1,0,0:0:0:0:
320,192,121503,128,0,121674:0:0:0:0:
64,192,121674,1,0,0:0:0:70:K.wav
192,192,121674,128,0,121760:0:0:0:70:C.wav
448,192,121674,1,0,0:0:0:70:S5.wav
320,192,121760,128,0,121845:0:0:0:0:
64,192,121845,128,0,121931:0:0:0:70:S4.wav
192,192,121845,1,0,0:0:0:70:K.wav
448,192,121931,128,0,122017:0:0:0:0:
64,192,122017,1,0,0:0:0:70:K.wav
192,192,122017,128,0,122103:0:0:0:70:S5.wav
320,192,122103,128,0,122188:0:0:0:0:
64,192,122188,128,0,122274:0:0:0:70:S4.wav
192,192,122188,1,0,0:0:0:70:K.wav
448,192,122274,128,0,122360:0:0:0:0:
64,192,122360,1,0,0:0:0:70:K.wav
192,192,122360,128,0,122445:0:0:0:70:S5.wav
320,192,122445,128,0,122531:0:0:0:0:
64,192,122531,128,0,122617:0:0:0:70:S4.wav
192,192,122531,1,0,0:0:0:70:K.wav
448,192,122617,128,0,122703:0:0:0:0:
64,192,122703,1,0,0:0:0:70:K.wav
192,192,122703,128,0,122788:0:0:0:70:S5.wav
320,192,122788,128,0,122874:0:0:0:0:
64,192,122874,128,0,122960:0:0:0:70:S4.wav
448,192,122874,1,0,0:0:0:70:K.wav
192,192,122960,128,0,123045:0:0:0:0:
320,192,123045,128,0,123131:0:0:0:70:K.wav
448,192,123045,1,0,0:0:0:70:S5.wav
64,192,123131,128,0,123217:0:0:0:0:
320,192,123217,1,0,0:0:0:70:S4.wav
448,192,123217,128,0,123303:0:0:0:70:K.wav
192,192,123303,128,0,123388:0:0:0:0:
320,192,123388,128,0,123474:0:0:0:70:K.wav
448,192,123388,1,0,0:0:0:70:S5.wav
64,192,123474,128,0,123560:0:0:0:0:
320,192,123560,1,0,0:0:0:70:S4.wav
448,192,123560,128,0,123645:0:0:0:70:K.wav
192,192,123645,128,0,123731:0:0:0:0:
320,192,123731,128,0,123817:0:0:0:70:K.wav
448,192,123731,1,0,0:0:0:70:S5.wav
64,192,123817,128,0,123903:0:0:0:0:
320,192,123903,1,0,0:0:0:70:S4.wav
448,192,123903,128,0,123988:0:0:0:70:K.wav
192,192,123988,128,0,124074:0:0:0:0:
320,192,124074,128,0,124160:0:0:0:70:K.wav
448,192,124074,1,0,0:0:0:70:S5.wav
64,192,124160,128,0,124245:0:0:0:0:
320,192,124245,1,0,0:0:0:70:S4.wav
448,192,124245,128,0,124331:0:0:0:70:K.wav
192,192,124331,128,0,124417:0:0:0:0:
320,192,124417,1,0,0:0:0:70:K.wav
448,192,124417,1,0,0:0:0:50:S3.wav
64,192,124503,1,0,0:0:0:70:K.wav
320,192,124503,1,0,0:0:0:50:S3.wav
192,192,124588,1,0,0:0:0:70:K.wav
64,192,124588,1,0,0:0:0:50:S3.wav
448,192,124674,1,0,0:0:0:70:K.wav
320,192,124674,1,0,0:0:0:50:S3.wav
192,192,124760,1,0,0:0:0:70:K.wav
64,192,124760,1,0,0:0:0:50:S3.wav
448,192,124845,1,0,0:0:0:70:K.wav
192,192,124845,1,0,0:0:0:50:S3.wav
320,192,124931,1,0,0:0:0:70:K.wav
448,192,124931,1,0,0:0:0:50:S3.wav
64,192,125017,1,0,0:0:0:70:K.wav
192,192,125017,1,0,0:0:0:50:S3.wav
320,192,125103,1,0,0:0:0:70:K.wav
448,192,125103,1,0,0:0:0:50:S3.wav
320,192,125188,1,0,0:0:0:70:K.wav
448,192,125188,1,0,0:0:0:50:S3.wav
64,192,125274,1,0,0:0:0:70:K.wav
192,192,125274,1,0,0:0:0:50:S3.wav
64,192,125360,1,0,0:0:0:70:K.wav
192,192,125360,1,0,0:0:0:50:S3.wav
320,192,125445,1,0,0:0:0:50:S3.wav
448,192,125488,1,0,0:0:0:0:
192,192,125531,1,0,0:0:0:50:S3.wav
64,192,125574,1,0,0:0:0:0:
320,192,125617,1,0,0:0:0:50:S3.wav
448,192,125660,1,0,0:0:0:0:
192,192,125703,1,0,0:0:0:50:S3.wav
64,192,125745,1,0,0:0:0:0:
320,192,125788,1,0,0:0:0:70:K.wav
448,192,125788,128,0,125960:0:0:0:0:
64,192,125960,1,0,0:0:0:70:S4.wav
192,192,125960,1,0,0:0:0:0:
64,192,126045,1,0,0:0:0:70:S4.wav
192,192,126045,1,0,0:0:0:0:
64,192,126131,128,0,126303:0:0:0:50:S2.wav
320,192,126131,1,0,0:0:0:0:
448,192,126131,1,0,0:0:0:0:
320,192,126303,1,0,0:0:0:70:S4.wav
448,192,126303,1,0,0:0:0:0:
320,192,126388,1,0,0:0:0:70:S4.wav
448,192,126388,1,0,0:0:0:0:
64,192,126474,1,0,0:0:0:50:S2.wav
192,192,126474,1,0,0:0:0:0:
448,192,126474,128,0,126645:0:0:0:0:
64,192,126645,1,0,0:0:0:70:S4.wav
192,192,126731,1,0,0:0:0:0:
320,192,126817,1,0,0:0:0:70:snare_wave.wav
448,192,126817,128,0,126988:0:0:0:0:
64,192,126903,1,0,0:0:0:70:tom01.wav
192,192,126903,1,0,0:0:0:0:
192,192,126988,1,0,0:0:0:70:tom02.wav
320,192,126988,1,0,0:0:0:0:
64,192,127160,128,0,127503:0:0:0:70:K.wav
192,192,127160,128,0,127460:0:0:0:70:C1.wav
320,192,127160,128,0,127417:0:0:0:70:push_scratch.wav
448,192,127160,128,0,127374:0:0:0:0:
320,192,127503,128,0,127545:0:0:0:0:
448,192,127503,128,0,127545:0:0:0:0:
64,192,127588,128,0,127631:0:0:0:0:
192,192,127588,128,0,127674:0:0:0:0:
320,192,127631,128,0,127760:0:0:0:0:
448,192,127674,128,0,127760:0:0:0:0:
64,192,127760,128,0,127803:0:0:0:0:
192,192,127760,128,0,127803:0:0:0:0:
192,192,127845,1,0,0:0:0:70:S2.wav
320,192,127845,1,0,0:0:0:0:
448,192,127845,128,0,127888:0:0:0:0:
448,192,127931,128,0,127974:0:0:0:0:
64,192,128017,128,0,128060:0:0:0:0:
64,192,128103,128,0,128145:0:0:0:0:
320,192,128188,128,0,128231:0:0:0:0:
320,192,128274,128,0,128445:0:0:0:0:
192,192,128317,128,0,128445:0:0:0:0:
64,192,128360,128,0,128445:0:0:0:0:
448,192,128445,128,0,128531:0:0:0:0:
64,192,128531,1,0,0:0:0:70:K.wav
192,192,128531,1,0,0:0:0:0:
320,192,128617,128,0,128745:0:0:0:0:
320,192,128817,128,0,128874:0:0:0:0:
448,192,128960,128,0,129088:0:0:0:0:
192,192,129003,128,0,129131:0:0:0:0:
320,192,129088,128,0,129131:0:0:0:0:
64,192,129131,128,0,129217:0:0:0:0:
192,192,129217,1,0,0:0:0:70:S2.wav
320,192,129217,1,0,0:0:0:0:
448,192,129217,1,0,0:0:0:0:
320,192,129388,128,0,129774:0:0:0:0:
192,192,129431,128,0,129731:0:0:0:0:
64,192,129474,128,0,129688:0:0:0:70:WB1.wav
448,192,129560,128,0,129817:0:0:0:0:
64,192,129903,1,0,0:0:0:70:K.wav
192,192,129903,1,0,0:0:0:0:
320,192,129988,128,0,130160:0:0:0:0:
192,192,130245,128,0,130288:0:0:0:0:
64,192,130245,128,0,130288:0:0:0:0:
448,192,130331,128,0,130374:0:0:0:0:
320,192,130331,128,0,130417:0:0:0:0:
192,192,130374,128,0,130503:0:0:0:0:
64,192,130417,128,0,130503:0:0:0:0:
320,192,130503,128,0,130545:0:0:0:0:
448,192,130503,128,0,130545:0:0:0:0:
64,192,130588,128,0,130631:0:0:0:70:S2.wav
192,192,130588,1,0,0:0:0:0:
320,192,130588,1,0,0:0:0:0:
448,192,130674,128,0,130717:0:0:0:0:
192,192,130760,128,0,130803:0:0:0:0:
448,192,130845,128,0,130888:0:0:0:0:
320,192,130931,128,0,130974:0:0:0:0:
64,192,131017,128,0,131060:0:0:0:0:
192,192,131017,128,0,131103:0:0:0:0:
320,192,131060,128,0,131188:0:0:0:0:
448,192,131103,128,0,131188:0:0:0:0:
64,192,131188,128,0,131231:0:0:0:0:
192,192,131188,128,0,131231:0:0:0:0:
320,192,131274,1,0,0:0:0:70:K.wav
448,192,131274,1,0,0:0:0:0:
192,192,131445,128,0,131488:0:0:0:0:
448,192,131531,128,0,131574:0:0:0:0:
64,192,131617,128,0,131660:0:0:0:0:
320,192,131703,128,0,131745:0:0:0:0:
64,192,131788,128,0,131831:0:0:0:0:
448,192,131874,128,0,131917:0:0:0:0:
64,192,131960,1,0,0:0:0:70:S2.wav
192,192,131960,1,0,0:0:0:0:
320,192,131960,1,0,0:0:0:0:
192,192,132131,128,0,132303:0:0:0:0:
64,192,132303,128,0,132560:0:0:0:0:
448,192,132303,128,0,132560:0:0:0:0:
64,192,132645,128,0,132988:0:0:0:70:K.wav
192,192,132645,128,0,132945:0:0:0:70:C1.wav
320,192,132645,128,0,132903:0:0:0:70:push_scratch.wav
448,192,132645,128,0,132860:0:0:0:0:
320,192,132988,128,0,133031:0:0:0:0:
448,192,132988,128,0,133031:0:0:0:0:
64,192,133074,128,0,133117:0:0:0:0:
192,192,133074,128,0,133160:0:0:0:0:
320,192,133117,128,0,133245:0:0:0:0:
448,192,133160,128,0,133245:0:0:0:0:
192,192,133245,128,0,133288:0:0:0:0:
64,192,133245,128,0,133288:0:0:0:0:
448,192,133331,128,0,133374:0:0:0:70:S2.wav
320,192,133331,1,0,0:0:0:0:
64,192,133331,1,0,0:0:0:0:
448,192,133417,128,0,133460:0:0:0:0:
192,192,133503,128,0,133545:0:0:0:0:
192,192,133588,128,0,133631:0:0:0:0:
320,192,133674,128,0,133717:0:0:0:0:
320,192,133760,128,0,133845:0:0:0:0:
448,192,133931,128,0,133974:0:0:0:0:
64,192,134017,1,0,0:0:0:70:K.wav
192,192,134017,1,0,0:0:0:0:
320,192,134103,128,0,134188:0:0:0:0:
448,192,134145,128,0,134188:0:0:0:0:
320,192,134274,128,0,134317:0:0:0:0:
64,192,134360,1,0,0:0:0:0:
448,192,134445,128,0,134574:0:0:0:0:
192,192,134488,128,0,134617:0:0:0:0:
320,192,134574,128,0,134617:0:0:0:0:
64,192,134617,128,0,134703:0:0:0:0:
192,192,134703,1,0,0:0:0:70:S2.wav
320,192,134703,1,0,0:0:0:0:
448,192,134703,1,0,0:0:0:0:
448,192,134788,128,0,135131:0:0:0:0:
320,192,134874,128,0,135088:0:0:0:0:
64,192,134960,128,0,135260:0:0:0:70:WB1.wav
192,192,135131,128,0,135217:0:0:0:0:
320,192,135174,128,0,135303:0:0:0:0:
448,192,135217,128,0,135303:0:0:0:0:
192,192,135303,128,0,135388:0:0:0:0:
64,192,135345,128,0,135388:0:0:0:0:
320,192,135388,1,0,0:0:0:70:K.wav
448,192,135388,1,0,0:0:0:0:
320,192,135474,128,0,135560:0:0:0:0:
192,192,135517,128,0,135603:0:0:0:0:
64,192,135560,128,0,135645:0:0:0:0:
320,192,135731,1,0,0:0:0:70:K.wav
448,192,135731,1,0,0:0:0:0:
320,192,135817,128,0,135903:0:0:0:0:
192,192,135860,128,0,135945:0:0:0:0:
64,192,135903,128,0,135988:0:0:0:0:
448,192,136074,128,0,136117:0:0:0:70:S2.wav
320,192,136074,1,0,0:0:0:0:
64,192,136074,1,0,0:0:0:0:
448,192,136160,128,0,136203:0:0:0:0:
192,192,136245,128,0,136288:0:0:0:0:
192,192,136331,128,0,136374:0:0:0:0:
320,192,136417,128,0,136460:0:0:0:0:
320,192,136503,128,0,136588:0:0:0:0:
448,192,136674,128,0,136717:0:0:0:0:
64,192,136760,1,0,0:0:0:70:K.wav
192,192,136760,1,0,0:0:0:0:
192,192,136931,128,0,137017:0:0:0:0:
64,192,137103,1,0,0:0:0:70:S3.wav
192,192,137103,128,0,137188:0:0:0:0:
448,192,137103,1,0,0:0:0:0:
448,192,137274,1,0,0:0:0:0:
192,192,137274,128,0,137360:0:0:0:0:
320,192,137360,1,0,0:0:0:70:S5.wav
192,192,137445,128,0,137531:0:0:0:50:S4.wav
320,192,137531,1,0,0:0:0:70:S5.wav
64,192,137617,1,0,0:0:0:70:S3.wav
192,192,137617,128,0,137703:0:0:0:0:
448,192,137617,1,0,0:0:0:0:
192,192,137788,128,0,138045:0:0:0:70:S3.wav
448,192,137788,1,0,0:0:0:0:
320,192,137874,1,0,0:0:0:70:S5.wav
320,192,138045,1,0,0:0:0:70:S5.wav
64,192,138131,128,0,138345:0:0:0:70:K.wav
192,192,138131,128,0,138388:0:0:0:70:C1.wav
320,192,138131,128,0,138431:0:0:0:70:push_scratch.wav
448,192,138131,128,0,138474:0:0:0:0:
192,192,138474,128,0,138517:0:0:0:0:
64,192,138474,128,0,138517:0:0:0:0:
320,192,138560,128,0,138645:0:0:0:0:
448,192,138560,128,0,138603:0:0:0:0:
192,192,138603,128,0,138731:0:0:0:0:
64,192,138645,128,0,138731:0:0:0:0:
448,192,138731,128,0,138774:0:0:0:0:
320,192,138731,128,0,138774:0:0:0:0:
64,192,138817,128,0,138860:0:0:0:70:S2.wav
192,192,138817,1,0,0:0:0:0:
320,192,138817,1,0,0:0:0:0:
64,192,138903,128,0,138945:0:0:0:0:
192,192,138988,128,0,139031:0:0:0:0:
192,192,139074,128,0,139117:0:0:0:0:
320,192,139160,128,0,139203:0:0:0:0:
320,192,139245,128,0,139331:0:0:0:0:
448,192,139417,128,0,139460:0:0:0:0:
64,192,139503,1,0,0:0:0:70:K.wav
192,192,139503,1,0,0:0:0:0:
320,192,139588,128,0,139674:0:0:0:0:
192,192,139631,128,0,139717:0:0:0:0:
64,192,139674,128,0,139760:0:0:0:70:S5.wav
448,192,139674,1,0,0:0:0:0:
320,192,139760,128,0,139845:0:0:0:0:
64,192,139845,1,0,0:0:0:70:S1.wav
448,192,139845,1,0,0:0:0:0:
192,192,139931,128,0,140017:0:0:0:0:
64,192,139974,128,0,140060:0:0:0:0:
448,192,140017,1,0,0:0:0:70:S5.wav
192,192,140103,1,0,0:0:0:70:K.wav
320,192,140103,1,0,0:0:0:0:
448,192,140188,128,0,140274:0:0:0:0:
320,192,140274,1,0,0:0:0:70:S5.wav
64,192,140360,1,0,0:0:0:70:K.wav
192,192,140360,1,0,0:0:0:0:
320,192,140445,128,0,140531:0:0:0:70:WB1.wav
192,192,140488,128,0,140531:0:0:0:0:
64,192,140531,128,0,140617:0:0:0:70:S1.wav
448,192,140531,1,0,0:0:0:0:
320,192,140617,1,0,0:0:0:70:K.wav
448,192,140703,128,0,140788:0:0:0:0:
320,192,140745,128,0,140831:0:0:0:0:
64,192,140788,1,0,0:0:0:100:WB2.wav
320,192,140874,1,0,0:0:0:70:K.wav
448,192,140874,1,0,0:0:0:0:
192,192,140960,128,0,141045:0:0:0:0:
320,192,141003,128,0,141088:0:0:0:0:
448,192,141045,128,0,141217:0:0:0:0:
64,192,141217,128,0,141260:0:0:0:0:
448,192,141303,128,0,141345:0:0:0:0:
320,192,141303,128,0,141388:0:0:0:0:
192,192,141345,128,0,141474:0:0:0:0:
64,192,141388,128,0,141474:0:0:0:0:
320,192,141474,128,0,141517:0:0:0:0:
448,192,141474,128,0,141517:0:0:0:0:
64,192,141560,128,0,141603:0:0:0:70:S2.wav
192,192,141560,1,0,0:0:0:0:
320,192,141560,1,0,0:0:0:0:
64,192,141645,128,0,141688:0:0:0:0:
192,192,141731,128,0,141774:0:0:0:0:
192,192,141817,128,0,141860:0:0:0:0:
320,192,141903,128,0,141945:0:0:0:0:
320,192,141988,128,0,142074:0:0:0:0:
448,192,142160,128,0,142203:0:0:0:0:
64,192,142245,1,0,0:0:0:70:K.wav
192,192,142245,1,0,0:0:0:0:
192,192,142417,128,0,142460:0:0:0:70:S5.wav
448,192,142503,128,0,142545:0:0:0:0:
64,192,142588,128,0,142631:0:0:0:70:S1.wav
320,192,142588,1,0,0:0:0:0:
448,192,142674,128,0,142717:0:0:0:0:
64,192,142760,128,0,142803:0:0:0:70:S5.wav
320,192,142845,1,0,0:0:0:70:K.wav
448,192,142845,128,0,142888:0:0:0:0:
192,192,142931,128,0,142974:0:0:0:0:
64,192,143017,128,0,143060:0:0:0:70:S5.wav
320,192,143103,1,0,0:0:0:70:K.wav
448,192,143103,1,0,0:0:0:0:
192,192,143188,128,0,143274:0:0:0:70:WB1.wav
64,192,143274,128,0,143960:0:0:0:70:S1.wav
448,192,143274,128,0,143617:0:0:0:0:
320,192,143617,128,0,143960:0:0:0:0:
192,192,143960,128,0,144003:0:0:0:0:
192,192,144045,128,0,144131:0:0:0:0:
320,192,144088,128,0,144174:0:0:0:0:
448,192,144131,128,0,144217:0:0:0:0:
64,192,144217,128,0,144303:0:0:0:0:
192,192,144303,128,0,144345:0:0:0:70:S2.wav
320,192,144303,1,0,0:0:0:0:
448,192,144303,1,0,0:0:0:0:
192,192,144388,128,0,144431:0:0:0:0:
64,192,144474,128,0,144517:0:0:0:0:
448,192,144560,128,0,144603:0:0:0:0:
64,192,144645,128,0,144988:0:0:0:70:K.wav
192,192,144645,128,0,144945:0:0:0:70:C1.wav
320,192,144645,128,0,144903:0:0:0:70:push_scratch.wav
448,192,144988,128,0,145031:0:0:0:0:
448,192,145074,128,0,145160:0:0:0:0:
320,192,145117,128,0,145203:0:0:0:0:
192,192,145160,128,0,145245:0:0:0:0:
64,192,145245,128,0,145288:0:0:0:0:
320,192,145331,1,0,0:0:0:70:K.wav
448,192,145331,1,0,0:0:0:0:
192,192,145417,128,0,145460:0:0:0:0:
320,192,145503,128,0,145545:0:0:0:0:
320,192,145588,128,0,145631:0:0:0:0:
64,192,145674,1,0,0:0:0:70:S2.wav
448,192,145674,128,0,145760:0:0:0:0:
192,192,145845,1,0,0:0:0:0:
320,192,145845,128,0,145931:0:0:0:0:
192,192,146017,128,0,146103:0:0:0:0:
320,192,146017,1,0,0:0:0:0:
64,192,146360,128,0,146703:0:0:0:70:K.wav
192,192,146360,128,0,146660:0:0:0:70:C.wav
448,192,146360,128,0,146617:0:0:0:70:push_scratch.wav
320,192,146531,1,0,0:0:0:0:
320,192,146703,1,0,0:0:0:0:
192,192,146874,1,0,0:0:0:0:
192,192,146960,1,0,0:0:0:0:
192,192,147045,1,0,0:0:0:0:
320,192,147217,1,0,0:0:0:0:
192,192,147388,1,0,0:0:0:0:
320,192,147560,1,0,0:0:0:0:
320,192,147645,1,0,0:0:0:0:
64,192,147731,128,0,147817:0:0:0:0:
320,192,147731,1,0,0:0:0:0:
448,192,147817,128,0,147903:0:0:0:0:
64,192,147903,128,0,147988:0:0:0:0:
192,192,147903,1,0,0:0:0:0:
448,192,147988,128,0,148074:0:0:0:0:
64,192,148074,128,0,148160:0:0:0:0:
320,192,148074,1,0,0:0:0:0:
448,192,148160,128,0,148245:0:0:0:0:
64,192,148245,128,0,148331:0:0:0:0:
192,192,148245,1,0,0:0:0:0:
448,192,148331,128,0,148417:0:0:0:0:
64,192,148417,128,0,148503:0:0:0:0:
320,192,148417,1,0,0:0:0:0:
448,192,148503,128,0,148588:0:0:0:0:
64,192,148588,128,0,148674:0:0:0:0:
192,192,148588,1,0,0:0:0:0:
448,192,148674,128,0,148760:0:0:0:0:
64,192,148760,128,0,149017:0:0:0:0:
320,192,148760,1,0,0:0:0:0:
448,192,148845,128,0,149017:0:0:0:0:
192,192,148931,1,0,0:0:0:0:
64,192,149103,128,0,149360:0:0:0:70:K.wav
192,192,149103,128,0,149317:0:0:0:70:C1.wav
320,192,149103,128,0,149274:0:0:0:70:push_scratch.wav
448,192,149103,128,0,149231:0:0:0:0:
64,192,149445,1,0,0:0:0:70:K.wav
448,192,149445,1,0,0:0:0:70:C.wav
320,192,149617,1,0,0:0:0:0:
448,192,149617,128,0,149788:0:0:0:0:
64,192,149703,1,0,0:0:0:70:K.wav
192,192,149703,1,0,0:0:0:70:C1.wav
64,192,149788,1,0,0:0:0:0:
320,192,149874,1,0,0:0:0:0:
64,192,149960,1,0,0:0:0:70:K.wav
192,192,149960,1,0,0:0:0:0:
64,192,150131,1,0,0:0:0:70:S1.wav
448,192,150131,1,0,0:0:0:0:
192,192,150217,1,0,0:0:0:70:K.wav
320,192,150217,1,0,0:0:0:0:
64,192,150303,128,0,150474:0:0:0:0:
448,192,150303,1,0,0:0:0:0:
448,192,150388,1,0,0:0:0:0:
192,192,150474,1,0,0:0:0:70:K.wav
320,192,150474,1,0,0:0:0:0:
320,192,150645,128,0,150731:0:0:0:0:
192,192,150688,128,0,150774:0:0:0:0:
64,192,150817,1,0,0:0:0:70:K.wav
448,192,150817,1,0,0:0:0:70:S1.wav
192,192,150903,128,0,150988:0:0:0:0:
320,192,150945,128,0,151031:0:0:0:0:
448,192,150988,128,0,151074:0:0:0:0:
64,192,151074,1,0,0:0:0:70:K.wav
192,192,151074,1,0,0:0:0:0:
320,192,151160,128,0,151203:0:0:0:0:
192,192,151245,128,0,151288:0:0:0:0:
320,192,151331,1,0,0:0:0:70:K.wav
448,192,151331,1,0,0:0:0:0:
192,192,151417,128,0,151588:0:0:0:70:WB1.wav
320,192,151460,128,0,151545:0:0:0:0:
64,192,151503,1,0,0:0:0:70:S1.wav
448,192,151503,1,0,0:0:0:0:
64,192,151674,128,0,151760:0:0:0:0:
320,192,151717,128,0,151803:0:0:0:0:
448,192,151760,128,0,151845:0:0:0:100:WB2.wav
64,192,151845,1,0,0:0:0:70:K.wav
192,192,151845,1,0,0:0:0:0:
320,192,151931,128,0,152188:0:0:0:0:
192,192,151974,128,0,152188:0:0:0:0:
448,192,152017,1,0,0:0:0:0:
64,192,152188,1,0,0:0:0:70:K.wav
448,192,152188,1,0,0:0:0:70:S1.wav
320,192,152360,1,0,0:0:0:0:
448,192,152360,128,0,152531:0:0:0:0:
64,192,152445,1,0,0:0:0:70:K.wav
192,192,152445,1,0,0:0:0:70:C1.wav
64,192,152531,1,0,0:0:0:0:
320,192,152617,1,0,0:0:0:0:
64,192,152703,1,0,0:0:0:70:K.wav
192,192,152703,1,0,0:0:0:0:
64,192,152874,1,0,0:0:0:70:S1.wav
448,192,152874,1,0,0:0:0:0:
192,192,152960,1,0,0:0:0:70:K.wav
320,192,152960,1,0,0:0:0:0:
64,192,153045,128,0,153217:0:0:0:0:
448,192,153045,1,0,0:0:0:0:
448,192,153131,1,0,0:0:0:0:
192,192,153217,1,0,0:0:0:70:K.wav
320,192,153217,1,0,0:0:0:0:
448,192,153303,128,0,153388:0:0:0:0:
320,192,153345,128,0,153431:0:0:0:0:
192,192,153388,128,0,153474:0:0:0:0:
64,192,153560,1,0,0:0:0:70:K.wav
448,192,153560,1,0,0:0:0:70:S1.wav
192,192,153645,128,0,153731:0:0:0:0:
320,192,153688,128,0,153774:0:0:0:0:
448,192,153731,128,0,153817:0:0:0:0:
64,192,153817,1,0,0:0:0:70:K.wav
192,192,153817,1,0,0:0:0:0:
320,192,153903,128,0,153945:0:0:0:0:
192,192,153988,128,0,154031:0:0:0:0:
320,192,154074,1,0,0:0:0:70:K.wav
448,192,154074,1,0,0:0:0:0:
192,192,154160,128,0,154245:0:0:0:70:WB1.wav
320,192,154203,128,0,154245:0:0:0:0:
64,192,154245,128,0,154588:0:0:0:0:
448,192,154245,128,0,154503:0:0:0:0:
192,192,154588,128,0,154845:0:0:0:70:C1.wav
320,192,154588,128,0,154931:0:0:0:70:S2.wav
64,192,154931,1,0,0:0:0:70:K.wav
448,192,154931,1,0,0:0:0:70:C.wav
192,192,155017,1,0,0:0:0:0:
320,192,155103,1,0,0:0:0:0:
448,192,155103,128,0,155274:0:0:0:0:
64,192,155188,1,0,0:0:0:70:K.wav
192,192,155188,1,0,0:0:0:70:C1.wav
64,192,155274,1,0,0:0:0:0:
448,192,155360,1,0,0:0:0:0:
64,192,155445,1,0,0:0:0:70:K.wav
192,192,155445,1,0,0:0:0:0:
320,192,155531,1,0,0:0:0:0:
64,192,155617,1,0,0:0:0:70:S1.wav
448,192,155617,1,0,0:0:0:0:
192,192,155703,1,0,0:0:0:70:K.wav
320,192,155703,1,0,0:0:0:0:
64,192,155788,128,0,155960:0:0:0:0:
448,192,155788,1,0,0:0:0:0:
448,192,155874,1,0,0:0:0:0:
192,192,155960,1,0,0:0:0:70:K.wav
320,192,155960,1,0,0:0:0:0:
448,192,156045,1,0,0:0:0:0:
64,192,156131,1,0,0:0:0:0:
320,192,156217,1,0,0:0:0:0:
64,192,156303,1,0,0:0:0:70:K.wav
448,192,156303,1,0,0:0:0:70:S1.wav
320,192,156388,128,0,156474:0:0:0:0:
192,192,156431,128,0,156517:0:0:0:0:
64,192,156474,128,0,156560:0:0:0:0:
320,192,156560,1,0,0:0:0:70:K.wav
448,192,156560,1,0,0:0:0:0:
192,192,156645,128,0,156688:0:0:0:0:
320,192,156731,128,0,156774:0:0:0:0:
64,192,156817,1,0,0:0:0:70:K.wav
192,192,156817,1,0,0:0:0:0:
320,192,156903,128,0,157074:0:0:0:70:WB1.wav
192,192,156945,128,0,157031:0:0:0:0:
64,192,156988,1,0,0:0:0:70:S1.wav
448,192,156988,1,0,0:0:0:0:
192,192,157160,128,0,157245:0:0:0:0:
320,192,157203,128,0,157245:0:0:0:0:
64,192,157245,1,0,0:0:0:100:WB2.wav
448,192,157245,1,0,0:0:0:0:
192,192,157331,128,0,157588:0:0:0:70:K.wav
320,192,157331,128,0,157503:0:0:0:0:
320,192,157674,1,0,0:0:0:0:
448,192,157674,1,0,0:0:0:0:
320,192,157845,128,0,157931:0:0:0:0:
64,192,157931,1,0,0:0:0:0:
192,192,157931,128,0,158017:0:0:0:0:
320,192,158017,128,0,158103:0:0:0:0:
448,192,158103,1,0,0:0:0:0:
320,192,158188,128,0,158274:0:0:0:0:
64,192,158274,1,0,0:0:0:0:
320,192,158360,128,0,158445:0:0:0:0:
448,192,158445,1,0,0:0:0:0:
192,192,158531,128,0,158617:0:0:0:0:
320,192,158617,128,0,158703:0:0:0:0:
64,192,158703,1,0,0:0:0:0:
192,192,158703,128,0,158788:0:0:0:0:
448,192,158788,1,0,0:0:0:0:
64,192,158874,1,0,0:0:0:0:
192,192,158874,128,0,158960:0:0:0:0:
320,192,158960,1,0,0:0:0:0:
64,192,159045,1,0,0:0:0:0:
192,192,159045,128,0,159131:0:0:0:0:
448,192,159131,1,0,0:0:0:0:
64,192,159217,1,0,0:0:0:0:
192,192,159217,128,0,159303:0:0:0:0:
320,192,159303,1,0,0:0:0:0:
64,192,159388,128,0,159603:0:0:0:0:
192,192,159431,128,0,159645:0:0:0:0:
320,192,159474,128,0,159688:0:0:0:0:
448,192,159517,128,0,159731:0:0:0:0:
192,192,159731,1,0,0:0:0:0:
320,192,159774,1,0,0:0:0:0:
64,192,159817,1,0,0:0:0:0:
448,192,159860,1,0,0:0:0:0:
192,192,159903,1,0,0:0:0:0:
320,192,159945,1,0,0:0:0:0:
64,192,159988,1,0,0:0:0:0:
448,192,160031,1,0,0:0:0:0:
64,192,160074,1,0,0:0:0:70:C.wav
192,192,160074,1,0,0:0:0:70:boom.wav
320,192,160074,1,0,0:0:0:70:push_scratch.wav
448,192,160417,1,0,0:0:0:0:
448,192,160588,1,0,0:0:0:0:
448,192,160931,1,0,0:0:0:0:
448,192,161103,1,0,0:0:0:0:
192,192,161445,128,0,161503:0:0:0:0:
448,192,161445,1,0,0:0:0:0:
448,192,161788,1,0,0:0:0:0:
448,192,161960,1,0,0:0:0:0:
64,192,162131,128,0,162188:0:0:0:0:
448,192,162303,1,0,0:0:0:0:
448,192,162474,1,0,0:0:0:0:
320,192,162817,1,0,0:0:0:0:
448,192,162817,128,0,162874:0:0:0:0:
320,192,163160,1,0,0:0:0:0:
320,192,163331,1,0,0:0:0:0:
320,192,163674,1,0,0:0:0:0:
320,192,163845,1,0,0:0:0:0:
192,192,164188,128,0,164245:0:0:0:0:
320,192,164188,1,0,0:0:0:0:
320,192,164531,1,0,0:0:0:0:
320,192,164703,1,0,0:0:0:0:
448,192,164874,128,0,165560:0:0:0:0:
320,192,165045,1,0,0:0:0:0:
320,192,165217,1,0,0:0:0:0:
64,192,165560,128,0,165617:0:0:0:0:
320,192,165560,1,0,0:0:0:0:
320,192,165903,1,0,0:0:0:0:
320,192,166074,1,0,0:0:0:0:
320,192,166417,1,0,0:0:0:0:
192,192,166588,128,0,166645:0:0:0:0:
448,192,166588,1,0,0:0:0:0:
320,192,166931,128,0,166988:0:0:0:0:
448,192,166931,1,0,0:0:0:0:
448,192,167274,1,0,0:0:0:0:
448,192,167445,1,0,0:0:0:0:
448,192,167788,1,0,0:0:0:0:
192,192,167960,128,0,168017:0:0:0:0:
448,192,167960,1,0,0:0:0:0:
320,192,168303,128,0,168360:0:0:0:0:
448,192,168303,1,0,0:0:0:0:
448,192,168645,1,0,0:0:0:0:
448,192,168817,1,0,0:0:0:0:
448,192,169160,1,0,0:0:0:0:
448,192,169331,1,0,0:0:0:0:
192,192,169674,128,0,169731:0:0:0:0:
448,192,169674,1,0,0:0:0:0:
64,192,170017,128,0,170074:0:0:0:0:
448,192,170017,1,0,0:0:0:0:
192,192,170360,128,0,170417:0:0:0:0:
448,192,170360,128,0,170445:0:0:0:0:
320,192,170703,128,0,170760:0:0:0:0:
448,192,170703,128,0,170788:0:0:0:0:
64,192,171045,128,0,171103:0:0:0:0:
320,192,171045,128,0,171131:0:0:0:0:
448,192,171217,128,0,171303:0:0:0:0:
64,192,171388,1,0,0:0:0:0:
320,192,171388,128,0,171474:0:0:0:0:
64,192,171560,1,0,0:0:0:0:
192,192,171560,128,0,171645:0:0:0:0:
64,192,171903,1,0,0:0:0:0:
192,192,171903,128,0,171988:0:0:0:0:
64,192,172074,1,0,0:0:0:0:
448,192,172074,128,0,172160:0:0:0:0:
320,192,172245,128,0,172331:0:0:0:0:
64,192,172417,128,0,172474:0:0:0:0:
64,192,172760,1,0,0:0:0:0:
64,192,172931,1,0,0:0:0:0:
320,192,173103,128,0,173188:0:0:0:0:
448,192,173103,128,0,173160:0:0:0:0:
64,192,173274,1,0,0:0:0:0:
64,192,173445,1,0,0:0:0:0:
192,192,173445,128,0,173531:0:0:0:0:
64,192,173788,128,0,173874:0:0:0:0:
192,192,173788,128,0,173845:0:0:0:0:
448,192,173960,128,0,174045:0:0:0:0:
192,192,174131,1,0,0:0:0:0:
320,192,174131,128,0,174217:0:0:0:0:
192,192,174303,1,0,0:0:0:0:
448,192,174303,128,0,174388:0:0:0:0:
64,192,174645,128,0,174731:0:0:0:0:
192,192,174645,1,0,0:0:0:0:
192,192,174817,1,0,0:0:0:0:
320,192,174817,128,0,174903:0:0:0:0:
448,192,174988,128,0,175074:0:0:0:0:
192,192,175160,128,0,175217:0:0:0:0:
192,192,175503,1,0,0:0:0:0:
192,192,175674,1,0,0:0:0:0:
64,192,175845,128,0,176531:0:0:0:0:
448,192,175845,128,0,175931:0:0:0:0:
192,192,176017,1,0,0:0:0:0:
192,192,176188,1,0,0:0:0:0:
320,192,176188,128,0,176274:0:0:0:0:
192,192,176531,128,0,176588:0:0:0:0:
320,192,176531,128,0,176617:0:0:0:0:
64,192,176703,128,0,176788:0:0:0:0:
192,192,176874,1,0,0:0:0:0:
320,192,176874,128,0,176960:0:0:0:0:
192,192,177045,1,0,0:0:0:0:
448,192,177045,128,0,177131:0:0:0:0:
192,192,177388,1,0,0:0:0:0:
320,192,177388,128,0,177474:0:0:0:0:
64,192,177560,128,0,177617:0:0:0:0:
448,192,177560,128,0,177645:0:0:0:0:
64,192,177903,128,0,177960:0:0:0:0:
320,192,177903,128,0,177988:0:0:0:0:
192,192,178074,128,0,178160:0:0:0:0:
64,192,178245,1,0,0:0:0:0:
320,192,178245,128,0,178331:0:0:0:0:
64,192,178417,1,0,0:0:0:0:
448,192,178417,128,0,178503:0:0:0:0:
64,192,178760,1,0,0:0:0:0:
192,192,178760,128,0,178845:0:0:0:0:
64,192,178931,128,0,178988:0:0:0:0:
448,192,178931,128,0,179017:0:0:0:0:
192,192,179274,128,0,179360:0:0:0:0:
448,192,179274,128,0,179331:0:0:0:0:
320,192,179445,128,0,179531:0:0:0:0:
64,192,179617,128,0,180645:0:0:0:0:
448,192,179788,128,0,180645:0:0:0:0:
320,192,180645,128,0,180903:0:0:0:0:
192,192,180817,128,0,181503:0:0:0:0:
64,192,180988,1,0,0:0:0:70:snare_wave.wav
320,192,180988,128,0,181503:0:0:0:0:
448,192,180988,1,0,0:0:0:0:
320,192,181674,1,0,0:0:0:70:tom01.wav
448,192,181674,1,0,0:0:0:0:
64,192,181760,1,0,0:0:0:70:tom01.wav
320,192,181760,1,0,0:0:0:0:
192,192,181845,1,0,0:0:0:70:tom02.wav
448,192,181845,1,0,0:0:0:0:
64,192,181931,1,0,0:0:0:70:tom03.wav
192,192,181931,1,0,0:0:0:0:
64,192,182017,128,0,182231:0:0:0:70:K.wav
320,192,182017,128,0,182274:0:0:0:70:C1.wav
448,192,182017,128,0,182660:0:0:0:0:
64,192,182360,128,0,182531:0:0:0:70:K.wav
192,192,182360,128,0,182574:0:0:0:70:C1.wav
320,192,182360,128,0,182617:0:0:0:0:
64,192,182703,128,0,182874:0:0:0:70:tom01.wav
192,192,182703,1,0,0:0:0:0:
320,192,182874,1,0,0:0:0:70:tom02.wav
448,192,182874,128,0,183045:0:0:0:0:
64,192,183045,1,0,0:0:0:70:tom03.wav
192,192,183045,128,0,183217:0:0:0:0:
64,192,183217,128,0,183731:0:0:0:70:K.wav
320,192,183217,128,0,183774:0:0:0:70:C.wav
448,192,183217,128,0,183817:0:0:0:0:
64,192,183903,128,0,184674:0:0:0:70:K.wav
192,192,183903,128,0,184631:0:0:0:70:C.wav
448,192,183903,128,0,184588:0:0:0:0:
64,192,184760,128,0,185403:0:0:0:70:K.wav
192,192,184760,128,0,185017:0:0:0:70:C1.wav
448,192,184760,128,0,184974:0:0:0:0:
192,192,185103,128,0,185360:0:0:0:70:K.wav
320,192,185103,128,0,185317:0:0:0:70:C1.wav
448,192,185103,128,0,185274:0:0:0:0:
448,192,185445,1,0,0:0:0:70:tom01.wav
320,192,185488,1,0,0:0:0:0:
192,192,185531,1,0,0:0:0:0:
448,192,185574,1,0,0:0:0:0:
320,192,185617,1,0,0:0:0:0:
64,192,185660,1,0,0:0:0:0:
448,192,185703,1,0,0:0:0:0:
192,192,185745,1,0,0:0:0:0:
64,192,185788,1,0,0:0:0:0:
320,192,185831,1,0,0:0:0:0:
192,192,185874,1,0,0:0:0:0:
64,192,185917,1,0,0:0:0:0:
320,192,185960,128,0,186388:0:0:0:70:K.wav
448,192,185960,128,0,186388:0:0:0:70:C.wav
64,192,186303,128,0,186924:0:0:0:0:
448,192,186474,128,0,186560:0:0:0:0:
320,192,186474,128,0,186538:0:0:0:0:
192,192,186645,128,0,186924:0:0:0:0:
448,192,186645,128,0,186731:0:0:0:0:
320,192,186645,128,0,186710:0:0:0:0:
448,192,186817,128,0,186903:0:0:0:0:
320,192,186817,128,0,186881:0:0:0:0:
64,192,186988,128,0,187074:0:0:0:70:K.wav
192,192,186988,128,0,187117:0:0:0:70:C1.wav
448,192,186988,128,0,187160:0:0:0:0:
64,192,187245,128,0,187331:0:0:0:70:K.wav
192,192,187245,128,0,187374:0:0:0:70:C1.wav
448,192,187245,128,0,187417:0:0:0:0:
64,192,187503,128,0,187760:0:0:0:70:K.wav
320,192,187503,128,0,187717:0:0:0:70:C1.wav
448,192,187503,128,0,187674:0:0:0:0:
64,192,187845,128,0,188103:0:0:0:70:K.wav
320,192,187845,128,0,188060:0:0:0:70:C1.wav
448,192,187845,128,0,188017:0:0:0:0:
448,192,188131,1,0,0:0:0:0:
64,192,188188,1,0,0:0:0:70:tom01.wav
320,192,188245,1,0,0:0:0:0:
192,192,188303,1,0,0:0:0:70:tom02.wav
64,192,188360,1,0,0:0:0:70:tom03.wav
448,192,188360,1,0,0:0:0:0:
320,192,188417,1,0,0:0:0:0:
192,192,188474,1,0,0:0:0:0:
64,192,188531,1,0,0:0:0:0:
448,192,188617,1,0,0:0:0:0:
64,192,188703,128,0,189217:0:0:0:70:K.wav
192,192,188703,128,0,189260:0:0:0:70:C.wav
320,192,188703,128,0,189303:0:0:0:0:
192,192,189388,128,0,190160:0:0:0:70:K.wav
320,192,189388,128,0,190117:0:0:0:70:C.wav
448,192,189388,128,0,190074:0:0:0:0:
64,192,190245,128,0,190503:0:0:0:70:K.wav
192,192,190245,128,0,190460:0:0:0:70:C1.wav
448,192,190245,128,0,190717:0:0:0:0:
64,192,190588,128,0,190845:0:0:0:70:K.wav
192,192,190588,128,0,190803:0:0:0:70:C1.wav
320,192,190588,128,0,190760:0:0:0:0:
320,192,190931,1,0,0:0:0:50:S4.wav
448,192,190931,128,0,191360:0:0:0:0:
64,192,191017,1,0,0:0:0:0:
192,192,191103,1,0,0:0:0:70:S3.wav
64,192,191188,1,0,0:0:0:70:S5.wav
192,192,191274,1,0,0:0:0:0:
320,192,191360,1,0,0:0:0:70:S5.wav
64,192,191445,128,0,191960:0:0:0:50:S4.wav
192,192,191445,1,0,0:0:0:0:
448,192,191531,1,0,0:0:0:0:
320,192,191617,1,0,0:0:0:70:S3.wav
448,192,191703,1,0,0:0:0:70:S5.wav
320,192,191788,1,0,0:0:0:50:S4.wav
192,192,191874,1,0,0:0:0:70:S5.wav
320,192,191960,1,0,0:0:0:50:S4.wav
448,192,191960,1,0,0:0:0:0:
64,192,192045,1,0,0:0:0:70:S5.wav
192,192,192131,128,0,192645:0:0:0:70:tom01.wav
448,192,192217,1,0,0:0:0:70:tom02.wav
64,192,192303,1,0,0:0:0:70:tom03.wav
320,192,192388,1,0,0:0:0:70:tom02.wav
448,192,192474,1,0,0:0:0:70:tom01.wav
64,192,192560,1,0,0:0:0:70:tom03.wav
320,192,192645,128,0,192731:0:0:0:50:S4.wav
64,192,192731,128,0,192817:0:0:0:70:S5.wav
448,192,192817,128,0,192903:0:0:0:70:S3.wav
192,192,192903,128,0,192988:0:0:0:70:S5.wav
64,192,192988,128,0,193203:0:0:0:70:K.wav
320,192,192988,128,0,193245:0:0:0:70:C1.wav
448,192,192988,128,0,193631:0:0:0:0:
64,192,193331,128,0,193503:0:0:0:70:K.wav
192,192,193331,128,0,193545:0:0:0:70:C1.wav
320,192,193331,128,0,193588:0:0:0:0:
64,192,193674,128,0,193845:0:0:0:70:tom02.wav
192,192,193674,1,0,0:0:0:0:
320,192,193845,1,0,0:0:0:70:tom03.wav
448,192,193845,128,0,194017:0:0:0:0:
64,192,194017,1,0,0:0:0:0:
192,192,194017,128,0,194188:0:0:0:0:
64,192,194188,128,0,194703:0:0:0:70:K.wav
320,192,194188,128,0,194745:0:0:0:70:C.wav
448,192,194188,128,0,194788:0:0:0:0:
64,192,194874,128,0,195645:0:0:0:70:K.wav
192,192,194874,128,0,195603:0:0:0:70:C.wav
448,192,194874,128,0,195560:0:0:0:0:
64,192,195731,128,0,196374:0:0:0:70:K.wav
192,192,195731,128,0,195988:0:0:0:70:C1.wav
448,192,195731,128,0,195945:0:0:0:0:
192,192,196074,128,0,196331:0:0:0:70:K.wav
320,192,196074,128,0,196288:0:0:0:70:C1.wav
448,192,196074,128,0,196245:0:0:0:0:
448,192,196417,1,0,0:0:0:70:tom01.wav
320,192,196460,1,0,0:0:0:0:
192,192,196503,1,0,0:0:0:0:
448,192,196545,1,0,0:0:0:0:
320,192,196588,1,0,0:0:0:0:
64,192,196631,1,0,0:0:0:0:
448,192,196674,1,0,0:0:0:0:
192,192,196717,1,0,0:0:0:0:
64,192,196760,1,0,0:0:0:0:
320,192,196803,1,0,0:0:0:0:
192,192,196845,1,0,0:0:0:0:
64,192,196888,1,0,0:0:0:0:
320,192,196931,128,0,197360:0:0:0:70:K.wav
448,192,196931,128,0,197403:0:0:0:70:C.wav
64,192,197445,128,0,197617:0:0:0:70:tom01.wav
192,192,197617,128,0,197788:0:0:0:70:tom02.wav
320,192,197617,1,0,0:0:0:0:
320,192,197788,128,0,197960:0:0:0:70:tom03.wav
448,192,197788,1,0,0:0:0:0:
64,192,197960,128,0,198045:0:0:0:70:K.wav
192,192,197960,128,0,198088:0:0:0:70:C1.wav
448,192,197960,128,0,198131:0:0:0:0:
64,192,198217,128,0,198303:0:0:0:70:K.wav
192,192,198217,128,0,198345:0:0:0:70:C1.wav
448,192,198217,128,0,198388:0:0:0:0:
64,192,198474,128,0,198731:0:0:0:70:K.wav
320,192,198474,128,0,198688:0:0:0:70:C1.wav
448,192,198474,128,0,198645:0:0:0:0:
64,192,198817,128,0,198903:0:0:0:0:
192,192,198817,1,0,0:0:0:0:
320,192,198903,1,0,0:0:0:0:
64,192,198988,128,0,199074:0:0:0:0:
192,192,198988,1,0,0:0:0:0:
320,192,199074,1,0,0:0:0:0:
64,192,199160,128,0,199245:0:0:0:70:S1.wav
192,192,199160,1,0,0:0:0:0:
448,192,199160,1,0,0:0:0:0:
320,192,199245,1,0,0:0:0:0:
192,192,199331,1,0,0:0:0:0:
320,192,199417,1,0,0:0:0:0:
64,192,199503,128,0,200103:0:0:0:70:K.wav
192,192,199503,128,0,200060:0:0:0:70:C.wav
448,192,199503,128,0,200017:0:0:0:0:
64,192,200188,128,0,200445:0:0:0:70:K.wav
320,192,200188,128,0,201088:0:0:0:70:C.wav
448,192,200188,128,0,200445:0:0:0:0:
64,192,200531,128,0,201003:0:0:0:70:S1.wav
192,192,200531,128,0,201045:0:0:0:0:
448,192,200531,128,0,201131:0:0:0:0:
64,192,201217,128,0,201817:0:0:0:70:K.wav
320,192,201217,128,0,201817:0:0:0:70:C1.wav
448,192,201217,128,0,201988:0:0:0:0:
64,192,201903,128,0,202117:0:0:0:70:S1.wav
192,192,201903,128,0,202160:0:0:0:0:
320,192,201903,128,0,202203:0:0:0:0:
448,192,202074,128,0,202245:0:0:0:0:
64,192,202245,128,0,202417:0:0:0:70:K.wav
192,192,202245,1,0,0:0:0:70:C1.wav
192,192,202417,128,0,202588:0:0:0:70:K.wav
320,192,202417,1,0,0:0:0:70:C1.wav
320,192,202588,128,0,202631:0:0:0:0:
448,192,202674,128,0,202717:0:0:0:0:
320,192,202760,128,0,202803:0:0:0:0:
448,192,202845,128,0,202888:0:0:0:0:
192,192,202931,128,0,202988:0:0:0:0:
320,192,203017,128,0,203074:0:0:0:0:
192,192,203103,128,0,203160:0:0:0:0:
320,192,203188,128,0,203245:0:0:0:0:
64,192,203274,128,0,203360:0:0:0:0:
448,192,203274,128,0,203531:0:0:0:0:
192,192,203360,128,0,203445:0:0:0:0:
64,192,203445,128,0,203531:0:0:0:0:
192,192,203531,128,0,203617:0:0:0:0:
64,192,203617,128,0,203874:0:0:0:0:
320,192,203617,1,0,0:0:0:0:
448,192,203617,128,0,203874:0:0:0:0:
192,192,203960,1,0,0:0:0:70:K.wav
320,192,203960,1,0,0:0:0:70:C.wav
448,192,203960,128,0,204045:0:0:0:70:S5.wav
64,192,204045,1,0,0:0:0:0:
320,192,204131,128,0,204217:0:0:0:70:K.wav
448,192,204131,1,0,0:0:0:70:S4.wav
64,192,204217,1,0,0:0:0:0:
192,192,204303,128,0,204388:0:0:0:70:K.wav
320,192,204303,1,0,0:0:0:70:S3.wav
448,192,204388,1,0,0:0:0:0:
64,192,204474,128,0,204560:0:0:0:70:K.wav
192,192,204474,1,0,0:0:0:0:
320,192,204560,1,0,0:0:0:0:
64,192,204645,1,0,0:0:0:70:K.wav
448,192,204645,1,0,0:0:0:70:S5.wav
320,192,204731,1,0,0:0:0:0:
64,192,204817,128,0,204903:0:0:0:70:K.wav
192,192,204817,1,0,0:0:0:70:S4.wav
448,192,204903,1,0,0:0:0:0:
192,192,204988,1,0,0:0:0:70:K.wav
320,192,204988,128,0,205074:0:0:0:70:S3.wav
448,192,205074,1,0,0:0:0:0:
64,192,205160,1,0,0:0:0:70:K.wav
192,192,205160,128,0,205245:0:0:0:70:S5.wav
320,192,205245,1,0,0:0:0:0:
64,192,205331,1,0,0:0:0:70:K.wav
448,192,205331,1,0,0:0:0:70:S5.wav
192,192,205417,1,0,0:0:0:0:
320,192,205503,1,0,0:0:0:70:K.wav
448,192,205503,1,0,0:0:0:70:S4.wav
192,192,205588,1,0,0:0:0:0:
64,192,205674,1,0,0:0:0:70:K.wav
448,192,205674,1,0,0:0:0:70:S3.wav
320,192,205760,1,0,0:0:0:0:
64,192,205845,1,0,0:0:0:70:K.wav
192,192,205845,1,0,0:0:0:0:
448,192,205931,1,0,0:0:0:0:
192,192,206017,1,0,0:0:0:70:K.wav
320,192,206017,128,0,206103:0:0:0:70:S5.wav
64,192,206103,1,0,0:0:0:0:
320,192,206188,1,0,0:0:0:70:K.wav
448,192,206188,1,0,0:0:0:70:S4.wav
64,192,206274,1,0,0:0:0:0:
192,192,206360,128,0,206445:0:0:0:70:K.wav
320,192,206360,1,0,0:0:0:70:S3.wav
448,192,206445,1,0,0:0:0:0:
64,192,206531,1,0,0:0:0:70:K.wav
192,192,206531,1,0,0:0:0:0:
320,192,206617,1,0,0:0:0:0:
64,192,206703,128,0,206788:0:0:0:70:K.wav
192,192,206703,1,0,0:0:0:70:S5.wav
448,192,206788,1,0,0:0:0:0:
192,192,206874,1,0,0:0:0:70:K.wav
320,192,206874,128,0,206960:0:0:0:70:S4.wav
64,192,206960,1,0,0:0:0:0:
192,192,207045,128,0,207131:0:0:0:70:K.wav
320,192,207045,1,0,0:0:0:70:S3.wav
64,192,207131,1,0,0:0:0:0:
320,192,207217,1,0,0:0:0:70:K.wav
448,192,207217,128,0,207303:0:0:0:0:
192,192,207303,1,0,0:0:0:0:
64,192,207388,1,0,0:0:0:70:K.wav
448,192,207388,1,0,0:0:0:70:S5.wav
320,192,207474,1,0,0:0:0:0:
64,192,207560,128,0,207645:0:0:0:70:K.wav
192,192,207560,1,0,0:0:0:70:S4.wav
448,192,207645,1,0,0:0:0:0:
192,192,207731,128,0,207817:0:0:0:70:K.wav
320,192,207731,1,0,0:0:0:70:S3.wav
64,192,207817,1,0,0:0:0:0:
320,192,207903,128,0,207988:0:0:0:70:K.wav
448,192,207903,1,0,0:0:0:70:S5.wav
192,192,207988,1,0,0:0:0:0:
64,192,208074,1,0,0:0:0:70:K.wav
448,192,208074,1,0,0:0:0:70:S5.wav
320,192,208160,1,0,0:0:0:0:
64,192,208245,1,0,0:0:0:70:K.wav
192,192,208245,1,0,0:0:0:70:S4.wav
320,192,208331,1,0,0:0:0:0:
64,192,208417,1,0,0:0:0:70:K.wav
448,192,208417,1,0,0:0:0:70:S3.wav
192,192,208503,1,0,0:0:0:0:
320,192,208588,1,0,0:0:0:70:K.wav
448,192,208588,1,0,0:0:0:0:
192,192,208674,1,0,0:0:0:0:
320,192,208760,1,0,0:0:0:70:K.wav
448,192,208760,128,0,208845:0:0:0:50:S5.wav
64,192,208845,1,0,0:0:0:0:
192,192,208931,1,0,0:0:0:70:K.wav
320,192,208931,1,0,0:0:0:70:S4.wav
448,192,209017,1,0,0:0:0:0:
192,192,209103,1,0,0:0:0:70:K.wav
320,192,209103,128,0,209188:0:0:0:70:S3.wav
448,192,209188,1,0,0:0:0:0:
64,192,209274,1,0,0:0:0:70:K.wav
192,192,209274,1,0,0:0:0:50:S5.wav
448,192,209360,1,0,0:0:0:50:S5.wav
64,192,209445,1,0,0:0:0:70:K.wav
192,192,209445,128,0,209531:0:0:0:70:S5.wav
320,192,209531,1,0,0:0:0:0:
64,192,209617,128,0,209703:0:0:0:70:K.wav
192,192,209617,1,0,0:0:0:70:S4.wav
448,192,209703,1,0,0:0:0:0:
192,192,209788,128,0,209874:0:0:0:70:K.wav
320,192,209788,1,0,0:0:0:70:S3.wav
64,192,209874,1,0,0:0:0:0:
320,192,209960,128,0,210045:0:0:0:70:K.wav
448,192,209960,1,0,0:0:0:0:
192,192,210045,1,0,0:0:0:0:
64,192,210131,1,0,0:0:0:70:K.wav
448,192,210131,1,0,0:0:0:70:S5.wav
320,192,210217,1,0,0:0:0:0:
64,192,210303,128,0,210388:0:0:0:70:K.wav
192,192,210303,1,0,0:0:0:70:S4.wav
448,192,210388,1,0,0:0:0:0:
192,192,210474,1,0,0:0:0:70:K.wav
320,192,210474,128,0,210560:0:0:0:70:S3.wav
64,192,210560,1,0,0:0:0:0:
320,192,210645,1,0,0:0:0:70:K.wav
448,192,210645,1,0,0:0:0:70:S5.wav
192,192,210731,1,0,0:0:0:0:
320,192,210817,128,0,210903:0:0:0:70:K.wav
448,192,210817,1,0,0:0:0:70:S5.wav
64,192,210903,1,0,0:0:0:0:
192,192,210988,128,0,211074:0:0:0:70:K.wav
320,192,210988,1,0,0:0:0:70:S4.wav
448,192,211074,1,0,0:0:0:0:
192,192,211160,1,0,0:0:0:70:K.wav
320,192,211160,128,0,211245:0:0:0:70:S3.wav
64,192,211245,1,0,0:0:0:0:
320,192,211331,1,0,0:0:0:70:K.wav
448,192,211331,128,0,211417:0:0:0:0:
192,192,211417,1,0,0:0:0:0:
64,192,211503,1,0,0:0:0:70:K.wav
448,192,211503,1,0,0:0:0:70:S5.wav
320,192,211588,1,0,0:0:0:0:
64,192,211674,1,0,0:0:0:70:K.wav
192,192,211674,128,0,211760:0:0:0:70:S4.wav
448,192,211760,1,0,0:0:0:0:
192,192,211845,1,0,0:0:0:70:K.wav
320,192,211845,128,0,211931:0:0:0:70:S3.wav
64,192,211931,1,0,0:0:0:0:
192,192,212017,1,0,0:0:0:70:K.wav
320,192,212017,1,0,0:0:0:0:
64,192,212103,1,0,0:0:0:0:
320,192,212188,1,0,0:0:0:70:K.wav
448,192,212188,128,0,212274:0:0:0:70:S5.wav
64,192,212274,1,0,0:0:0:0:
192,192,212360,128,0,212445:0:0:0:70:K.wav
320,192,212360,1,0,0:0:0:70:S4.wav
448,192,212445,1,0,0:0:0:0:
192,192,212531,1,0,0:0:0:70:K.wav
320,192,212531,128,0,212617:0:0:0:70:S3.wav
448,192,212617,1,0,0:0:0:0:
64,192,212703,128,0,212788:0:0:0:70:K.wav
192,192,212703,1,0,0:0:0:0:
320,192,212788,1,0,0:0:0:0:
64,192,212874,1,0,0:0:0:70:K.wav
448,192,212874,1,0,0:0:0:50:S5.wav
192,192,212960,1,0,0:0:0:0:
320,192,213045,1,0,0:0:0:70:K.wav
448,192,213045,1,0,0:0:0:70:S4.wav
64,192,213131,1,0,0:0:0:0:
192,192,213217,128,0,213303:0:0:0:70:K.wav
320,192,213217,1,0,0:0:0:70:S3.wav
448,192,213303,1,0,0:0:0:0:
64,192,213388,1,0,0:0:0:70:K.wav
192,192,213388,1,0,0:0:0:50:S5.wav
448,192,213474,1,0,0:0:0:0:
64,192,213560,1,0,0:0:0:70:K.wav
320,192,213560,128,0,213645:0:0:0:70:S4.wav
448,192,213731,1,0,0:0:0:70:S3.wav
192,192,213817,1,0,0:0:0:70:S3.wav
64,192,213903,128,0,213988:0:0:0:70:S4.wav
320,192,213903,1,0,0:0:0:0:
192,192,214074,1,0,0:0:0:70:S3.wav
448,192,214160,1,0,0:0:0:70:S3.wav
192,192,214245,128,0,214331:0:0:0:70:S4.wav
448,192,214331,1,0,0:0:0:0:
192,192,214417,1,0,0:0:0:70:S3.wav
448,192,214588,128,0,214674:0:0:0:70:S4.wav
192,192,214674,1,0,0:0:0:70:tom01.wav
448,192,214760,1,0,0:0:0:70:tom02.wav
64,192,214931,1,0,0:0:0:70:K.wav
192,192,214931,1,0,0:0:0:70:C.wav
320,192,214931,1,0,0:0:0:70:S5.wav
448,192,215017,1,0,0:0:0:70:K.wav
192,192,215103,1,0,0:0:0:70:K.wav
448,192,215188,1,0,0:0:0:70:K.wav
64,192,215274,1,0,0:0:0:70:K.wav
192,192,215274,1,0,0:0:0:70:S5.wav
320,192,215274,1,0,0:0:0:0:
448,192,215360,1,0,0:0:0:70:K.wav
192,192,215445,1,0,0:0:0:70:K.wav
448,192,215531,1,0,0:0:0:70:K.wav
64,192,215617,1,0,0:0:0:70:K.wav
192,192,215617,1,0,0:0:0:70:C1.wav
320,192,215617,1,0,0:0:0:70:S5.wav
448,192,215703,1,0,0:0:0:70:K.wav
192,192,215788,1,0,0:0:0:70:K.wav
448,192,215874,1,0,0:0:0:70:K.wav
64,192,215960,1,0,0:0:0:70:K.wav
192,192,215960,1,0,0:0:0:70:S5.wav
320,192,215960,1,0,0:0:0:0:
448,192,216045,1,0,0:0:0:70:K.wav
192,192,216131,1,0,0:0:0:70:K.wav
448,192,216217,1,0,0:0:0:70:K.wav
64,192,216303,1,0,0:0:0:70:K.wav
192,192,216303,1,0,0:0:0:70:C1.wav
320,192,216303,1,0,0:0:0:70:S5.wav
448,192,216388,1,0,0:0:0:70:K.wav
192,192,216474,1,0,0:0:0:70:K.wav
448,192,216560,1,0,0:0:0:70:K.wav
64,192,216645,1,0,0:0:0:70:K.wav
192,192,216645,1,0,0:0:0:70:S5.wav
320,192,216645,1,0,0:0:0:0:
448,192,216731,1,0,0:0:0:70:K.wav
192,192,216817,1,0,0:0:0:70:K.wav
448,192,216903,1,0,0:0:0:70:K.wav
64,192,216988,1,0,0:0:0:70:K.wav
192,192,216988,1,0,0:0:0:70:C.wav
320,192,217031,1,0,0:0:0:70:K.wav
448,192,217074,1,0,0:0:0:70:K.wav
192,192,217117,1,0,0:0:0:70:K.wav
320,192,217160,1,0,0:0:0:70:K.wav
64,192,217203,1,0,0:0:0:70:K.wav
192,192,217245,1,0,0:0:0:70:K.wav
448,192,217288,1,0,0:0:0:70:K.wav
64,192,217331,128,0,217674:0:0:0:70:K.wav
320,192,217331,1,0,0:0:0:70:S3.wav
192,192,217674,1,0,0:0:0:70:K.wav
320,192,217674,1,0,0:0:0:70:C.wav
448,192,217674,1,0,0:0:0:70:S5.wav
64,192,217760,1,0,0:0:0:70:K.wav
320,192,217845,1,0,0:0:0:70:K.wav
64,192,217931,1,0,0:0:0:70:K.wav
192,192,218017,1,0,0:0:0:70:K.wav
320,192,218017,1,0,0:0:0:70:S5.wav
448,192,218017,1,0,0:0:0:0:
64,192,218103,1,0,0:0:0:70:K.wav
320,192,218188,1,0,0:0:0:70:K.wav
64,192,218274,1,0,0:0:0:70:K.wav
192,192,218360,1,0,0:0:0:70:K.wav
320,192,218360,1,0,0:0:0:70:C1.wav
448,192,218360,1,0,0:0:0:70:S5.wav
64,192,218445,1,0,0:0:0:70:K.wav
320,192,218531,1,0,0:0:0:70:K.wav
64,192,218617,1,0,0:0:0:70:K.wav
192,192,218703,1,0,0:0:0:70:K.wav
320,192,218703,1,0,0:0:0:70:S5.wav
448,192,218703,1,0,0:0:0:0:
64,192,218788,1,0,0:0:0:70:K.wav
320,192,218874,1,0,0:0:0:70:K.wav
64,192,218960,1,0,0:0:0:70:K.wav
192,192,219045,1,0,0:0:0:70:K.wav
320,192,219045,1,0,0:0:0:70:C1.wav
448,192,219045,1,0,0:0:0:70:S5.wav
64,192,219131,1,0,0:0:0:70:K.wav
320,192,219217,1,0,0:0:0:70:K.wav
64,192,219303,1,0,0:0:0:70:K.wav
192,192,219388,1,0,0:0:0:70:K.wav
320,192,219388,1,0,0:0:0:70:S5.wav
448,192,219388,1,0,0:0:0:0:
64,192,219474,1,0,0:0:0:70:K.wav
320,192,219560,1,0,0:0:0:70:K.wav
64,192,219645,1,0,0:0:0:70:K.wav
448,192,219731,128,0,219988:0:0:0:70:K.wav
192,192,219903,128,0,220074:0:0:0:70:S4.wav
64,192,219988,128,0,220074:0:0:0:70:S3.wav
320,192,220074,1,0,0:0:0:70:K.wav
448,192,220074,128,0,220417:0:0:0:0:
64,192,220417,1,0,0:0:0:70:K.wav
192,192,220417,1,0,0:0:0:70:C.wav
320,192,220460,1,0,0:0:0:70:K.wav
448,192,220503,1,0,0:0:0:70:K.wav
64,192,220545,1,0,0:0:0:70:K.wav
192,192,220588,1,0,0:0:0:70:K.wav
448,192,220631,1,0,0:0:0:70:K.wav
64,192,220674,1,0,0:0:0:70:K.wav
320,192,220717,1,0,0:0:0:70:K.wav
448,192,220760,1,0,0:0:0:70:K.wav
192,192,220803,1,0,0:0:0:70:K.wav
64,192,220845,1,0,0:0:0:70:K.wav
320,192,220888,1,0,0:0:0:70:K.wav
192,192,220931,1,0,0:0:0:70:K.wav
448,192,220974,1,0,0:0:0:70:K.wav
320,192,221017,1,0,0:0:0:70:K.wav
192,192,221060,1,0,0:0:0:70:K.wav
64,192,221103,1,0,0:0:0:70:K.wav
320,192,221145,1,0,0:0:0:70:K.wav
448,192,221188,1,0,0:0:0:70:K.wav
64,192,221231,1,0,0:0:0:70:K.wav
192,192,221274,1,0,0:0:0:70:K.wav
320,192,221317,1,0,0:0:0:70:K.wav
64,192,221360,1,0,0:0:0:70:K.wav
192,192,221403,1,0,0:0:0:70:K.wav
448,192,221445,1,0,0:0:0:70:K.wav
320,192,221488,1,0,0:0:0:70:K.wav
64,192,221531,1,0,0:0:0:70:K.wav
448,192,221574,1,0,0:0:0:70:K.wav
320,192,221617,1,0,0:0:0:70:K.wav
192,192,221660,1,0,0:0:0:70:K.wav
448,192,221703,1,0,0:0:0:70:K.wav
64,192,221745,1,0,0:0:0:70:K.wav
192,192,221788,1,0,0:0:0:70:K.wav
320,192,221831,1,0,0:0:0:70:K.wav
64,192,221874,1,0,0:0:0:70:K.wav
192,192,221917,1,0,0:0:0:70:K.wav
448,192,221960,1,0,0:0:0:70:K.wav
64,192,222003,1,0,0:0:0:70:K.wav
320,192,222045,1,0,0:0:0:70:K.wav
448,192,222088,1,0,0:0:0:70:K.wav
192,192,222131,1,0,0:0:0:70:K.wav
64,192,222174,1,0,0:0:0:70:K.wav
448,192,222217,1,0,0:0:0:70:K.wav
320,192,222260,1,0,0:0:0:70:K.wav
192,192,222303,1,0,0:0:0:70:K.wav
64,192,222345,1,0,0:0:0:70:K.wav
448,192,222388,1,0,0:0:0:70:K.wav
320,192,222431,1,0,0:0:0:70:K.wav
64,192,222474,1,0,0:0:0:70:K.wav
192,192,222517,1,0,0:0:0:70:K.wav
320,192,222560,1,0,0:0:0:70:K.wav
64,192,222603,1,0,0:0:0:70:K.wav
192,192,222645,1,0,0:0:0:70:K.wav
448,192,222688,1,0,0:0:0:70:K.wav
64,192,222731,1,0,0:0:0:70:K.wav
320,192,222774,1,0,0:0:0:70:K.wav
448,192,222817,1,0,0:0:0:70:K.wav
192,192,222860,1,0,0:0:0:70:K.wav
64,192,222903,1,0,0:0:0:70:K.wav
320,192,222945,1,0,0:0:0:70:K.wav
192,192,222988,1,0,0:0:0:70:K.wav
64,192,223031,1,0,0:0:0:70:K.wav
320,192,223074,1,0,0:0:0:70:K.wav
448,192,223117,1,0,0:0:0:70:K.wav
64,192,223160,1,0,0:0:0:70:K.wav
192,192,223160,1,0,0:0:0:70:C1.wav
64,192,223245,1,0,0:0:0:70:K.wav
192,192,223245,1,0,0:0:0:0:
320,192,223331,1,0,0:0:0:70:K.wav
448,192,223331,1,0,0:0:0:50:S3.wav
320,192,223417,1,0,0:0:0:70:K.wav
448,192,223417,1,0,0:0:0:0:
64,192,223503,1,0,0:0:0:70:K.wav
192,192,223503,1,0,0:0:0:50:S3.wav
192,192,223588,1,0,0:0:0:70:K.wav
448,192,223588,1,0,0:0:0:0:
64,192,223674,1,0,0:0:0:70:K.wav
320,192,223674,1,0,0:0:0:50:S3.wav
320,192,223760,1,0,0:0:0:70:K.wav
448,192,223760,1,0,0:0:0:0:
64,192,223845,1,0,0:0:0:70:K.wav
192,192,223845,1,0,0:0:0:70:C1.wav
64,192,223931,1,0,0:0:0:70:K.wav
448,192,223931,1,0,0:0:0:0:
320,192,224017,1,0,0:0:0:70:K.wav
448,192,224017,1,0,0:0:0:50:S3.wav
192,192,224188,1,0,0:0:0:0:
448,192,224360,1,0,0:0:0:0:
64,192,224531,1,0,0:0:0:70:K.wav
192,192,224531,1,0,0:0:0:0:
320,192,224703,1,0,0:0:0:70:K.wav
320,192,224788,1,0,0:0:0:70:K.wav
64,192,224874,1,0,0:0:0:70:S2.wav
448,192,224874,1,0,0:0:0:0:
320,192,225045,1,0,0:0:0:70:K.wav
320,192,225131,1,0,0:0:0:70:K.wav
64,192,225217,1,0,0:0:0:70:S2.wav
448,192,225217,1,0,0:0:0:0:
448,192,225388,128,0,225560:0:0:0:70:K.wav
192,192,225474,128,0,225645:0:0:0:0:
320,192,225560,128,0,225731:0:0:0:100:snare_wave.wav
64,192,225645,128,0,225817:0:0:0:0:
448,192,225731,128,0,225817:0:0:0:70:tom02.wav
192,192,225817,128,0,226160:0:0:0:0:
64,192,225903,128,0,226074:0:0:0:70:K.wav
320,192,225903,128,0,225988:0:0:0:70:C.wav
448,192,225903,128,0,226160:0:0:0:70:Cheer.wav
320,192,226074,1,0,0:0:0:0:
64,192,226160,128,0,226245:0:0:0:0:
192,192,226245,128,0,226417:0:0:0:70:S.wav
320,192,226245,128,0,226503:0:0:0:0:
448,192,226245,128,0,226331:0:0:0:0:
64,192,226331,128,0,226503:0:0:0:0:
448,192,226417,1,0,0:0:0:0:
64,192,226588,128,0,226674:0:0:0:70:K.wav
320,192,226588,128,0,226760:0:0:0:0:
448,192,226588,128,0,226845:0:0:0:0:
64,192,226760,1,0,0:0:0:0:
192,192,226845,128,0,226931:0:0:0:0:
64,192,226931,128,0,227103:0:0:0:70:S.wav
320,192,226931,128,0,227188:0:0:0:0:
448,192,226931,128,0,227017:0:0:0:0:
192,192,227017,128,0,227188:0:0:0:0:
448,192,227103,1,0,0:0:0:0:
64,192,227274,128,0,227360:0:0:0:70:K.wav
192,192,227274,128,0,227531:0:0:0:0:
448,192,227274,128,0,227445:0:0:0:0:
64,192,227445,1,0,0:0:0:0:
320,192,227531,128,0,227617:0:0:0:0:
64,192,227617,128,0,227874:0:0:0:70:S.wav
192,192,227617,128,0,227703:0:0:0:0:
448,192,227617,128,0,227788:0:0:0:0:
320,192,227703,128,0,227874:0:0:0:0:
192,192,227788,1,0,0:0:0:0:
64,192,227960,128,0,228045:0:0:0:70:K.wav
320,192,227960,128,0,228217:0:0:0:0:
448,192,227960,128,0,228131:0:0:0:0:
64,192,228131,1,0,0:0:0:0:
192,192,228217,128,0,228303:0:0:0:0:
64,192,228303,128,0,228474:0:0:0:70:S.wav
320,192,228303,128,0,228560:0:0:0:0:
448,192,228303,128,0,228388:0:0:0:0:
192,192,228388,128,0,228560:0:0:0:0:
448,192,228474,128,0,228560:0:0:0:0:
64,192,228645,128,0,228903:0:0:0:70:K.wav
192,192,228645,128,0,228817:0:0:0:0:
320,192,228645,128,0,228731:0:0:0:0:
320,192,228817,1,0,0:0:0:0:
448,192,228903,128,0,228988:0:0:0:0:
64,192,228988,128,0,229074:0:0:0:70:S.wav
192,192,228988,128,0,229245:0:0:0:0:
320,192,228988,128,0,229160:0:0:0:0:
448,192,229074,128,0,229245:0:0:0:0:
64,192,229160,1,0,0:0:0:0:
64,192,229331,128,0,229588:0:0:0:70:K.wav
192,192,229331,128,0,229503:0:0:0:0:
448,192,229331,128,0,229417:0:0:0:0:
448,192,229503,1,0,0:0:0:0:
320,192,229588,128,0,229674:0:0:0:0:
64,192,229674,128,0,229760:0:0:0:70:S.wav
192,192,229674,128,0,229931:0:0:0:0:
448,192,229674,128,0,229845:0:0:0:0:
320,192,229760,128,0,229931:0:0:0:0:
64,192,229845,1,0,0:0:0:0:
64,192,230017,128,0,230188:0:0:0:70:K.wav
320,192,230017,128,0,230274:0:0:0:0:
448,192,230017,128,0,230103:0:0:0:0:
448,192,230188,1,0,0:0:0:0:
192,192,230274,128,0,230360:0:0:0:0:
64,192,230360,128,0,230531:0:0:0:70:S.wav
320,192,230360,128,0,230445:0:0:0:0:
448,192,230360,128,0,230617:0:0:0:0:
192,192,230445,128,0,230617:0:0:0:0:
320,192,230531,1,0,0:0:0:0:
64,192,230703,128,0,230788:0:0:0:70:K.wav
192,192,230703,128,0,230874:0:0:0:0:
320,192,230703,128,0,230960:0:0:0:0:
448,192,230874,1,0,0:0:0:0:
64,192,231045,128,0,231131:0:0:0:70:S.wav
320,192,231045,128,0,231217:0:0:0:0:
448,192,231045,128,0,231217:0:0:0:0:
64,192,231217,1,0,0:0:0:70:K.wav
192,192,231217,128,0,231303:0:0:0:0:
320,192,231303,128,0,231388:0:0:0:70:K.wav
448,192,231303,1,0,0:0:0:0:
64,192,231388,128,0,231560:0:0:0:70:K.wav
192,192,231388,128,0,231474:0:0:0:0:
448,192,231560,1,0,0:0:0:0:
192,192,231645,128,0,231731:0:0:0:0:
64,192,231731,128,0,231903:0:0:0:70:S.wav
320,192,231731,128,0,231817:0:0:0:0:
448,192,231731,128,0,231988:0:0:0:0:
192,192,231817,128,0,231988:0:0:0:0:
320,192,231903,1,0,0:0:0:0:
64,192,232074,128,0,232160:0:0:0:70:K.wav
320,192,232074,128,0,232245:0:0:0:0:
448,192,232074,128,0,232331:0:0:0:0:
64,192,232245,1,0,0:0:0:0:
192,192,232331,128,0,232417:0:0:0:0:
64,192,232417,128,0,232588:0:0:0:70:S.wav
320,192,232417,128,0,232674:0:0:0:0:
448,192,232417,128,0,232503:0:0:0:0:
192,192,232503,128,0,232674:0:0:0:0:
448,192,232588,1,0,0:0:0:0:
64,192,232760,128,0,232845:0:0:0:70:K.wav
192,192,232760,128,0,233017:0:0:0:0:
448,192,232760,128,0,232931:0:0:0:0:
64,192,232931,1,0,0:0:0:0:
320,192,233017,128,0,233103:0:0:0:0:
64,192,233103,128,0,233360:0:0:0:70:S.wav
192,192,233103,128,0,233188:0:0:0:0:
448,192,233103,128,0,233274:0:0:0:0:
320,192,233188,128,0,233360:0:0:0:0:
192,192,233274,1,0,0:0:0:0:
64,192,233445,128,0,233531:0:0:0:70:K.wav
320,192,233445,128,0,233703:0:0:0:0:
448,192,233445,128,0,233617:0:0:0:0:
64,192,233617,1,0,0:0:0:0:
192,192,233703,128,0,233788:0:0:0:0:
64,192,233788,128,0,234045:0:0:0:70:S.wav
320,192,233788,128,0,233874:0:0:0:0:
448,192,233788,128,0,233874:0:0:0:0:
192,192,233874,128,0,234045:0:0:0:0:
320,192,233960,1,0,0:0:0:0:
448,192,233960,128,0,234045:0:0:0:0:
64,192,234131,128,0,234217:0:0:0:70:K.wav
192,192,234131,128,0,234303:0:0:0:0:
448,192,234131,128,0,234388:0:0:0:0:
64,192,234303,1,0,0:0:0:0:
320,192,234388,128,0,234474:0:0:0:0:
64,192,234474,128,0,234731:0:0:0:70:S.wav
192,192,234474,128,0,234560:0:0:0:0:
448,192,234474,128,0,234645:0:0:0:0:
320,192,234560,128,0,234731:0:0:0:0:
192,192,234645,1,0,0:0:0:0:
64,192,234817,128,0,234903:0:0:0:70:K.wav
320,192,234817,128,0,235074:0:0:0:0:
448,192,234817,128,0,234988:0:0:0:0:
64,192,234988,1,0,0:0:0:0:
192,192,235074,128,0,235160:0:0:0:0:
64,192,235160,128,0,235417:0:0:0:70:S.wav
320,192,235160,128,0,235245:0:0:0:0:
448,192,235160,128,0,235245:0:0:0:0:
192,192,235245,128,0,235417:0:0:0:0:
320,192,235331,1,0,0:0:0:0:
448,192,235331,128,0,235503:0:0:0:0:
64,192,235503,128,0,235674:0:0:0:70:K.wav
192,192,235503,128,0,235631:0:0:0:70:C1.wav
320,192,235503,128,0,235588:0:0:0:0:
64,192,235760,128,0,235845:0:0:0:70:S.wav
192,192,235760,128,0,235845:0:0:0:70:C1.wav
448,192,235760,128,0,235845:0:0:0:0:
64,192,235931,128,0,236017:0:0:0:70:K.wav
320,192,235931,128,0,236060:0:0:0:70:C1.wav
448,192,235931,128,0,236103:0:0:0:0:
64,192,236188,128,0,236360:0:0:0:70:S.wav
192,192,236188,128,0,236317:0:0:0:70:C1.wav
448,192,236188,128,0,236274:0:0:0:0:
448,192,236360,1,0,0:0:0:70:K.wav
192,192,236403,1,0,0:0:0:70:K.wav
320,192,236445,1,0,0:0:0:70:K.wav
64,192,236488,1,0,0:0:0:70:K.wav
192,192,236531,1,0,0:0:0:70:K.wav
448,192,236531,128,0,236617:0:0:0:70:snare_wave.wav
64,192,236703,1,0,0:0:0:70:K.wav
320,192,236745,1,0,0:0:0:70:K.wav
192,192,236788,1,0,0:0:0:70:K.wav
448,192,236831,1,0,0:0:0:70:K.wav
64,192,236874,128,0,236960:0:0:0:70:K.wav
192,192,236874,128,0,237045:0:0:0:70:C.wav
320,192,236874,128,0,237131:0:0:0:70:push_scratch.wav
448,192,237045,1,0,0:0:0:0:
64,192,237131,128,0,237217:0:0:0:0:
192,192,237217,128,0,237303:0:0:0:70:S.wav
320,192,237217,128,0,237474:0:0:0:0:
448,192,237217,128,0,237388:0:0:0:0:
64,192,237303,128,0,237474:0:0:0:0:
192,192,237388,1,0,0:0:0:0:
64,192,237560,128,0,237817:0:0:0:70:K.wav
320,192,237560,128,0,237731:0:0:0:0:
448,192,237560,128,0,237645:0:0:0:0:
448,192,237731,1,0,0:0:0:0:
192,192,237817,128,0,237903:0:0:0:0:
64,192,237903,128,0,238074:0:0:0:70:S.wav
320,192,237903,128,0,237988:0:0:0:0:
448,192,237903,128,0,238160:0:0:0:0:
192,192,237988,128,0,238160:0:0:0:0:
320,192,238074,1,0,0:0:0:0:
64,192,238245,128,0,238503:0:0:0:70:K.wav
320,192,238245,128,0,238331:0:0:0:0:
448,192,238245,128,0,238417:0:0:0:0:
320,192,238417,1,0,0:0:0:0:
192,192,238503,128,0,238588:0:0:0:0:
64,192,238588,128,0,238760:0:0:0:70:S.wav
320,192,238588,128,0,238674:0:0:0:0:
448,192,238588,1,0,0:0:0:0:
192,192,238674,128,0,238845:0:0:0:0:
448,192,238760,1,0,0:0:0:70:K.wav
320,192,238803,1,0,0:0:0:70:K.wav
64,192,238888,1,0,0:0:0:70:K.wav
320,192,238931,128,0,239017:0:0:0:70:K.wav
448,192,238931,128,0,239103:0:0:0:0:
64,192,239103,128,0,239274:0:0:0:70:K.wav
320,192,239103,128,0,239188:0:0:0:0:
192,192,239188,128,0,239274:0:0:0:0:
320,192,239274,128,0,239360:0:0:0:70:S.wav
448,192,239274,128,0,239360:0:0:0:0:
64,192,239360,128,0,239445:0:0:0:70:K.wav
192,192,239360,128,0,239531:0:0:0:0:
448,192,239445,128,0,239531:0:0:0:0:
320,192,239531,128,0,239617:0:0:0:70:K.wav
64,192,239617,128,0,239788:0:0:0:70:K.wav
192,192,239617,128,0,239874:0:0:0:0:
448,192,239617,128,0,239703:0:0:0:0:
320,192,239788,1,0,0:0:0:0:
448,192,239874,128,0,239960:0:0:0:0:
64,192,239960,128,0,240045:0:0:0:70:S.wav
192,192,239960,128,0,240217:0:0:0:0:
320,192,239960,128,0,240131:0:0:0:0:
448,192,240045,128,0,240217:0:0:0:0:
64,192,240131,1,0,0:0:0:0:
64,192,240303,128,0,240560:0:0:0:70:K.wav
192,192,240303,128,0,240474:0:0:0:0:
448,192,240303,128,0,240388:0:0:0:0:
448,192,240474,1,0,0:0:0:0:
320,192,240560,128,0,240645:0:0:0:0:
192,192,240645,128,0,240731:0:0:0:70:S.wav
448,192,240645,128,0,240731:0:0:0:0:
320,192,240731,128,0,240903:0:0:0:0:
64,192,240817,128,0,240903:0:0:0:70:K.wav
192,192,240817,128,0,240903:0:0:0:0:
448,192,240903,128,0,240988:0:0:0:70:K.wav
64,192,240988,128,0,241160:0:0:0:70:K.wav
192,192,240988,128,0,241074:0:0:0:0:
320,192,240988,1,0,0:0:0:0:
448,192,241160,1,0,0:0:0:70:K.wav
320,192,241203,1,0,0:0:0:70:K.wav
192,192,241245,128,0,241331:0:0:0:70:K.wav
64,192,241288,1,0,0:0:0:70:K.wav
448,192,241331,128,0,241417:0:0:0:70:S.wav
192,192,241417,128,0,241588:0:0:0:0:
448,192,241503,1,0,0:0:0:70:K.wav
320,192,241545,1,0,0:0:0:70:K.wav
64,192,241631,1,0,0:0:0:70:K.wav
192,192,241674,1,0,0:0:0:70:K.wav
320,192,241674,1,0,0:0:0:70:C1.wav
448,192,241674,1,0,0:0:0:0:
64,192,241788,1,0,0:0:0:70:K.wav
448,192,241788,1,0,0:0:0:70:C1.wav
64,192,241903,1,0,0:0:0:70:K.wav
320,192,241903,1,0,0:0:0:70:C1.wav
192,192,242017,1,0,0:0:0:70:S.wav
320,192,242017,1,0,0:0:0:70:C1.wav
448,192,242017,1,0,0:0:0:0:
64,192,242131,1,0,0:0:0:70:K.wav
192,192,242131,1,0,0:0:0:70:C1.wav
320,192,242245,1,0,0:0:0:70:K.wav
448,192,242245,1,0,0:0:0:70:C1.wav
64,192,242360,128,0,242531:0:0:0:70:K.wav
192,192,242360,128,0,242445:0:0:0:70:C.wav
448,192,242360,1,0,0:0:0:0:
320,192,242531,128,0,242703:0:0:0:70:K.wav
448,192,242531,128,0,242617:0:0:0:0:
192,192,242617,128,0,242703:0:0:0:0:
64,192,242703,1,0,0:0:0:70:S1.wav
448,192,242703,1,0,0:0:0:0:
192,192,242788,128,0,242960:0:0:0:70:K.wav
320,192,242788,128,0,242874:0:0:0:0:
448,192,242874,128,0,243045:0:0:0:0:
64,192,243045,1,0,0:0:0:70:K.wav
192,192,243045,128,0,243131:0:0:0:0:
320,192,243045,128,0,243217:0:0:0:0:
192,192,243217,128,0,243388:0:0:0:70:K.wav
448,192,243217,1,0,0:0:0:0:
320,192,243303,128,0,243388:0:0:0:0:
64,192,243388,1,0,0:0:0:70:S1.wav
448,192,243388,1,0,0:0:0:0:
192,192,243474,128,0,243645:0:0:0:70:K.wav
320,192,243474,128,0,243560:0:0:0:0:
64,192,243560,128,0,243645:0:0:0:70:K.wav
448,192,243560,128,0,243645:0:0:0:0:
320,192,243645,128,0,243731:0:0:0:70:K.wav
64,192,243731,1,0,0:0:0:70:K.wav
192,192,243731,128,0,243817:0:0:0:0:
448,192,243731,128,0,243903:0:0:0:0:
64,192,243903,128,0,243988:0:0:0:70:K.wav
192,192,243903,128,0,244074:0:0:0:0:
320,192,243988,128,0,244074:0:0:0:0:
64,192,244074,1,0,0:0:0:70:S1.wav
448,192,244074,1,0,0:0:0:0:
192,192,244160,128,0,244245:0:0:0:70:K.wav
320,192,244160,128,0,244331:0:0:0:0:
448,192,244245,128,0,244331:0:0:0:0:
64,192,244417,128,0,244503:0:0:0:70:K.wav
192,192,244417,1,0,0:0:0:0:
448,192,244417,128,0,244588:0:0:0:0:
64,192,244588,1,0,0:0:0:70:K.wav
320,192,244588,128,0,244760:0:0:0:0:
192,192,244674,128,0,244760:0:0:0:0:
64,192,244760,1,0,0:0:0:70:S1.wav
448,192,244760,1,0,0:0:0:0:
192,192,244845,128,0,245017:0:0:0:70:K.wav
320,192,244845,128,0,244931:0:0:0:0:
64,192,244931,128,0,245017:0:0:0:70:K.wav
448,192,244931,128,0,245017:0:0:0:0:
320,192,245017,128,0,245103:0:0:0:70:K.wav
64,192,245103,128,0,245274:0:0:0:70:K.wav
192,192,245103,128,0,245317:0:0:0:70:C.wav
448,192,245103,128,0,245360:0:0:0:0:
320,192,245360,128,0,245445:0:0:0:0:
320,192,245531,128,0,245703:0:0:0:0:
448,192,245788,128,0,245960:0:0:0:0:
192,192,246045,128,0,246131:0:0:0:0:
192,192,246217,128,0,246388:0:0:0:0:
64,192,246474,128,0,246531:0:0:0:0:
192,192,246731,128,0,246788:0:0:0:0:
448,192,246903,128,0,246960:0:0:0:0:
320,192,247160,128,0,247217:0:0:0:0:
64,192,247503,128,0,247760:0:0:0:70:snare_wave.wav
192,192,247588,128,0,247760:0:0:0:0:
320,192,247674,128,0,247845:0:0:0:0:
448,192,247760,128,0,247845:0:0:0:0:
64,192,247845,128,0,247931:0:0:0:70:K.wav
192,192,247845,1,0,0:0:0:0:
320,192,247931,1,0,0:0:0:70:K.wav
448,192,247931,128,0,248017:0:0:0:0:
64,192,248017,128,0,248874:0:0:0:70:K.wav
192,192,248017,1,0,0:0:0:0:
192,192,248188,128,0,248445:0:0:0:70:S.wav
320,192,248188,128,0,248360:0:0:0:70:C.wav
448,192,248188,1,0,0:0:0:70:push_scratch.wav
448,192,248274,128,0,248531:0:0:0:0:
192,192,248531,128,0,248617:0:0:0:70:K.wav
320,192,248531,128,0,248703:0:0:0:0:
192,192,248703,1,0,0:0:0:0:
448,192,248788,128,0,248874:0:0:0:0:
192,192,248874,128,0,248960:0:0:0:70:S.wav
320,192,248874,1,0,0:0:0:0:
448,192,248960,128,0,249131:0:0:0:0:
192,192,249045,1,0,0:0:0:0:
320,192,249045,128,0,249731:0:0:0:0:
64,192,249217,128,0,249388:0:0:0:70:K.wav
192,192,249217,128,0,249474:0:0:0:0:
448,192,249217,128,0,249303:0:0:0:0:
448,192,249388,1,0,0:0:0:0:
64,192,249474,128,0,249560:0:0:0:0:
448,192,249560,128,0,249645:0:0:0:70:S.wav
64,192,249645,128,0,249817:0:0:0:0:
192,192,249731,128,0,250245:0:0:0:0:
448,192,249731,1,0,0:0:0:0:
64,192,249903,128,0,249988:0:0:0:70:K.wav
320,192,249903,128,0,250160:0:0:0:0:
448,192,249903,128,0,250074:0:0:0:0:
64,192,250074,1,0,0:0:0:0:
64,192,250245,128,0,250503:0:0:0:70:S.wav
320,192,250245,1,0,0:0:0:0:
448,192,250245,128,0,250417:0:0:0:0:
192,192,250331,128,0,250503:0:0:0:0:
320,192,250417,128,0,250588:0:0:0:0:
448,192,250503,128,0,250588:0:0:0:0:
64,192,250588,128,0,251274:0:0:0:70:K.wav
192,192,250588,128,0,250845:0:0:0:0:
320,192,250760,1,0,0:0:0:0:
448,192,250845,128,0,250931:0:0:0:0:
192,192,250931,128,0,251188:0:0:0:70:S.wav
320,192,250931,128,0,251103:0:0:0:0:
448,192,251017,128,0,251188:0:0:0:0:
192,192,251274,128,0,251360:0:0:0:70:K.wav
320,192,251274,128,0,251788:0:0:0:0:
448,192,251274,128,0,251531:0:0:0:0:
192,192,251445,1,0,0:0:0:0:
64,192,251531,128,0,251617:0:0:0:0:
192,192,251617,128,0,251788:0:0:0:70:S.wav
448,192,251617,128,0,251703:0:0:0:0:
64,192,251703,128,0,251874:0:0:0:0:
448,192,251788,128,0,252131:0:0:0:0:
64,192,251960,128,0,252131:0:0:0:70:K.wav
192,192,251960,128,0,252045:0:0:0:0:
320,192,252131,128,0,252474:0:0:0:0:
64,192,252217,128,0,252303:0:0:0:70:K.wav
192,192,252217,128,0,252388:0:0:0:0:
64,192,252388,128,0,252560:0:0:0:70:K.wav
448,192,252388,128,0,252474:0:0:0:0:
192,192,252474,128,0,252817:0:0:0:0:
64,192,252645,128,0,252731:0:0:0:70:K.wav
320,192,252645,128,0,252817:0:0:0:0:
448,192,252731,128,0,252903:0:0:0:70:K.wav
64,192,252817,128,0,253331:0:0:0:0:
192,192,252903,128,0,252988:0:0:0:70:K.wav
320,192,252903,128,0,253074:0:0:0:0:
192,192,253074,1,0,0:0:0:0:
448,192,253160,1,0,0:0:0:70:K.wav
320,192,253203,1,0,0:0:0:0:
192,192,253245,1,0,0:0:0:70:K.wav
448,192,253288,1,0,0:0:0:70:K.wav
192,192,253331,1,0,0:0:0:70:K.wav
320,192,253331,128,0,254360:0:0:0:0:
64,192,253503,1,0,0:0:0:70:K.wav
448,192,253503,1,0,0:0:0:0:
64,192,253674,128,0,253845:0:0:0:70:S.wav
192,192,253674,128,0,253931:0:0:0:70:C.wav
448,192,253674,128,0,253760:0:0:0:70:push_scratch.wav
64,192,254017,128,0,254188:0:0:0:70:K.wav
192,192,254017,128,0,254103:0:0:0:0:
448,192,254017,128,0,254274:0:0:0:0:
192,192,254188,1,0,0:0:0:0:
64,192,254274,128,0,254360:0:0:0:0:
192,192,254360,128,0,254445:0:0:0:70:S.wav
448,192,254360,128,0,254531:0:0:0:0:
64,192,254445,128,0,254617:0:0:0:0:
192,192,254531,128,0,255217:0:0:0:0:
320,192,254531,1,0,0:0:0:0:
64,192,254703,128,0,254960:0:0:0:70:K.wav
320,192,254703,128,0,254788:0:0:0:0:
448,192,254703,128,0,254874:0:0:0:0:
320,192,254874,1,0,0:0:0:0:
448,192,254960,128,0,255045:0:0:0:0:
64,192,255045,128,0,255131:0:0:0:70:S.wav
320,192,255045,128,0,255217:0:0:0:0:
448,192,255131,128,0,255303:0:0:0:0:
64,192,255217,128,0,255560:0:0:0:0:
192,192,255388,128,0,255560:0:0:0:70:K.wav
320,192,255388,128,0,255645:0:0:0:0:
448,192,255388,128,0,255474:0:0:0:0:
448,192,255560,128,0,255645:0:0:0:0:
320,192,255731,128,0,255988:0:0:0:70:S.wav
448,192,255731,128,0,255817:0:0:0:0:
192,192,255817,128,0,255988:0:0:0:0:
64,192,255903,128,0,256074:0:0:0:0:
448,192,255988,128,0,256074:0:0:0:0:
192,192,256074,1,0,0:0:0:70:K.wav
320,192,256074,128,0,256417:0:0:0:70:C.wav
64,192,256503,1,0,0:0:0:70:K.wav
192,192,256503,1,0,0:0:0:0:
192,192,256588,1,0,0:0:0:70:K.wav
448,192,256588,1,0,0:0:0:0:
64,192,256674,1,0,0:0:0:70:K.wav
320,192,256674,1,0,0:0:0:0:
320,192,256760,1,0,0:0:0:70:C.wav
448,192,256760,128,0,257188:0:0:0:70:K.wav
64,192,257188,1,0,0:0:0:70:K.wav
192,192,257188,1,0,0:0:0:0:
64,192,257274,1,0,0:0:0:70:K.wav
320,192,257274,1,0,0:0:0:0:
192,192,257360,1,0,0:0:0:70:K.wav
448,192,257360,1,0,0:0:0:0:
320,192,257445,128,0,257960:0:0:0:70:K.wav
448,192,257445,1,0,0:0:0:70:C1.wav
64,192,257788,128,0,258345:0:0:0:0:
192,192,257960,128,0,258303:0:0:0:0:
320,192,258131,128,0,258388:0:0:0:0:
448,192,258303,128,0,258431:0:0:0:0:
64,192,258474,128,0,258731:0:0:0:0:
192,192,258560,128,0,258731:0:0:0:0:
320,192,258645,128,0,258731:0:0:0:0:
448,192,258731,128,0,258817:0:0:0:0:
64,192,258817,1,0,0:0:0:70:K.wav
192,192,258817,1,0,0:0:0:70:C.wav
320,192,258817,1,0,0:0:0:70:S5.wav
448,192,258903,1,0,0:0:0:70:K.wav
64,192,258988,1,0,0:0:0:70:K.wav
192,192,258988,1,0,0:0:0:0:
448,192,259074,1,0,0:0:0:70:K.wav
64,192,259160,1,0,0:0:0:70:K.wav
192,192,259160,1,0,0:0:0:70:S5.wav
320,192,259160,1,0,0:0:0:0:
448,192,259245,1,0,0:0:0:70:K.wav
64,192,259331,1,0,0:0:0:70:K.wav
192,192,259331,1,0,0:0:0:0:
448,192,259417,1,0,0:0:0:70:K.wav
64,192,259503,1,0,0:0:0:70:K.wav
192,192,259503,1,0,0:0:0:70:C1.wav
320,192,259503,1,0,0:0:0:70:S5.wav
448,192,259588,1,0,0:0:0:70:K.wav
64,192,259674,1,0,0:0:0:70:K.wav
192,192,259674,1,0,0:0:0:0:
448,192,259760,1,0,0:0:0:70:K.wav
64,192,259845,1,0,0:0:0:70:K.wav
192,192,259845,1,0,0:0:0:70:S5.wav
320,192,259845,1,0,0:0:0:0:
448,192,259931,1,0,0:0:0:70:K.wav
64,192,260017,1,0,0:0:0:70:K.wav
192,192,260017,1,0,0:0:0:0:
448,192,260103,1,0,0:0:0:70:K.wav
64,192,260188,1,0,0:0:0:70:K.wav
192,192,260188,1,0,0:0:0:70:C1.wav
320,192,260188,1,0,0:0:0:70:S5.wav
448,192,260274,1,0,0:0:0:70:K.wav
64,192,260360,1,0,0:0:0:70:K.wav
192,192,260360,1,0,0:0:0:0:
448,192,260445,1,0,0:0:0:70:K.wav
64,192,260531,1,0,0:0:0:70:K.wav
192,192,260531,1,0,0:0:0:70:S5.wav
320,192,260531,1,0,0:0:0:0:
448,192,260617,1,0,0:0:0:70:K.wav
64,192,260703,1,0,0:0:0:70:K.wav
192,192,260703,1,0,0:0:0:0:
448,192,260788,1,0,0:0:0:70:K.wav
64,192,260874,1,0,0:0:0:70:K.wav
192,192,260874,1,0,0:0:0:70:C.wav
320,192,260917,1,0,0:0:0:70:K.wav
448,192,260960,1,0,0:0:0:70:K.wav
192,192,261003,1,0,0:0:0:70:K.wav
64,192,261045,1,0,0:0:0:70:K.wav
448,192,261088,1,0,0:0:0:70:K.wav
192,192,261131,1,0,0:0:0:70:K.wav
64,192,261174,1,0,0:0:0:70:K.wav
448,192,261217,128,0,261474:0:0:0:70:K.wav
320,192,261303,128,0,261474:0:0:0:0:
192,192,261388,128,0,261474:0:0:0:0:
64,192,261474,128,0,261560:0:0:0:0:
192,192,261560,1,0,0:0:0:70:K.wav
320,192,261560,1,0,0:0:0:70:C.wav
448,192,261560,1,0,0:0:0:70:S5.wav
64,192,261645,1,0,0:0:0:70:K.wav
320,192,261731,1,0,0:0:0:70:K.wav
448,192,261731,1,0,0:0:0:0:
64,192,261817,1,0,0:0:0:70:K.wav
192,192,261903,1,0,0:0:0:70:K.wav
320,192,261903,1,0,0:0:0:70:S5.wav
448,192,261903,1,0,0:0:0:0:
64,192,261988,1,0,0:0:0:70:K.wav
320,192,262074,1,0,0:0:0:70:K.wav
448,192,262074,1,0,0:0:0:0:
64,192,262160,1,0,0:0:0:70:K.wav
192,192,262245,1,0,0:0:0:70:K.wav
320,192,262245,1,0,0:0:0:70:C1.wav
448,192,262245,1,0,0:0:0:70:S5.wav
64,192,262331,1,0,0:0:0:70:K.wav
320,192,262417,1,0,0:0:0:70:K.wav
448,192,262417,1,0,0:0:0:0:
64,192,262503,1,0,0:0:0:70:K.wav
192,192,262588,1,0,0:0:0:70:K.wav
320,192,262588,1,0,0:0:0:70:S5.wav
448,192,262588,1,0,0:0:0:0:
64,192,262674,1,0,0:0:0:70:K.wav
320,192,262760,1,0,0:0:0:70:K.wav
448,192,262760,1,0,0:0:0:0:
64,192,262845,1,0,0:0:0:70:K.wav
192,192,262931,1,0,0:0:0:70:K.wav
320,192,262931,1,0,0:0:0:70:C1.wav
448,192,262931,1,0,0:0:0:70:S5.wav
64,192,263017,1,0,0:0:0:70:K.wav
320,192,263103,1,0,0:0:0:70:K.wav
448,192,263103,1,0,0:0:0:0:
64,192,263188,1,0,0:0:0:70:K.wav
192,192,263274,1,0,0:0:0:70:K.wav
320,192,263274,1,0,0:0:0:70:S5.wav
448,192,263274,1,0,0:0:0:0:
64,192,263360,1,0,0:0:0:70:K.wav
320,192,263445,1,0,0:0:0:70:K.wav
448,192,263445,128,0,263788:0:0:0:0:
64,192,263531,1,0,0:0:0:70:K.wav
192,192,263617,1,0,0:0:0:70:K.wav
64,192,263788,128,0,264217:0:0:0:70:S4.wav
320,192,263788,1,0,0:0:0:0:
192,192,263874,1,0,0:0:0:70:S3.wav
320,192,263960,1,0,0:0:0:70:K.wav
448,192,263960,1,0,0:0:0:0:
192,192,264045,1,0,0:0:0:0:
448,192,264131,1,0,0:0:0:70:tom02.wav
320,192,264217,1,0,0:0:0:70:tom03.wav
64,192,264303,1,0,0:0:0:70:K.wav
192,192,264303,1,0,0:0:0:70:C.wav
448,192,264345,1,0,0:0:0:70:K.wav
320,192,264388,1,0,0:0:0:70:K.wav
64,192,264431,1,0,0:0:0:70:K.wav
448,192,264474,1,0,0:0:0:70:K.wav
192,192,264517,1,0,0:0:0:70:K.wav
64,192,264560,1,0,0:0:0:70:K.wav
320,192,264603,1,0,0:0:0:70:K.wav
192,192,264645,1,0,0:0:0:70:K.wav
64,192,264688,1,0,0:0:0:70:K.wav
448,192,264731,1,0,0:0:0:70:K.wav
320,192,264774,1,0,0:0:0:70:K.wav
192,192,264817,1,0,0:0:0:70:K.wav
448,192,264860,1,0,0:0:0:70:K.wav
320,192,264903,1,0,0:0:0:70:K.wav
64,192,264945,1,0,0:0:0:70:K.wav
192,192,264988,1,0,0:0:0:70:K.wav
448,192,265031,1,0,0:0:0:70:K.wav
64,192,265074,1,0,0:0:0:70:K.wav
320,192,265117,1,0,0:0:0:70:K.wav
448,192,265160,1,0,0:0:0:70:K.wav
192,192,265203,1,0,0:0:0:70:K.wav
320,192,265245,1,0,0:0:0:70:K.wav
448,192,265288,1,0,0:0:0:70:K.wav
192,192,265331,1,0,0:0:0:70:K.wav
64,192,265374,1,0,0:0:0:70:K.wav
320,192,265417,1,0,0:0:0:70:K.wav
192,192,265460,1,0,0:0:0:70:K.wav
448,192,265503,1,0,0:0:0:70:K.wav
320,192,265545,1,0,0:0:0:70:K.wav
192,192,265588,1,0,0:0:0:70:K.wav
64,192,265631,1,0,0:0:0:70:K.wav
320,192,265674,1,0,0:0:0:70:K.wav
448,192,265717,1,0,0:0:0:70:K.wav
192,192,265760,1,0,0:0:0:70:K.wav
320,192,265803,1,0,0:0:0:70:K.wav
64,192,265845,1,0,0:0:0:70:K.wav
192,192,265888,1,0,0:0:0:70:K.wav
448,192,265931,1,0,0:0:0:70:K.wav
320,192,265974,1,0,0:0:0:70:K.wav
64,192,266017,1,0,0:0:0:70:K.wav
192,192,266060,1,0,0:0:0:70:K.wav
448,192,266103,1,0,0:0:0:70:K.wav
320,192,266145,1,0,0:0:0:70:K.wav
192,192,266188,1,0,0:0:0:70:K.wav
64,192,266231,1,0,0:0:0:70:K.wav
448,192,266274,1,0,0:0:0:70:K.wav
320,192,266317,1,0,0:0:0:70:K.wav
192,192,266360,1,0,0:0:0:70:K.wav
448,192,266403,1,0,0:0:0:70:K.wav
64,192,266445,1,0,0:0:0:70:K.wav
192,192,266488,1,0,0:0:0:70:K.wav
320,192,266531,1,0,0:0:0:70:K.wav
64,192,266574,1,0,0:0:0:70:K.wav
448,192,266617,1,0,0:0:0:70:K.wav
192,192,266660,1,0,0:0:0:70:K.wav
320,192,266703,1,0,0:0:0:70:K.wav
64,192,266745,1,0,0:0:0:70:K.wav
448,192,266788,1,0,0:0:0:70:K.wav
192,192,266831,1,0,0:0:0:70:K.wav
64,192,266874,1,0,0:0:0:70:K.wav
320,192,266917,1,0,0:0:0:70:K.wav
192,192,266960,1,0,0:0:0:70:K.wav
64,192,267003,1,0,0:0:0:70:K.wav
320,192,267045,1,0,0:0:0:70:K.wav
448,192,267045,1,0,0:0:0:70:C1.wav
64,192,267131,1,0,0:0:0:70:K.wav
192,192,267131,1,0,0:0:0:0:
320,192,267217,1,0,0:0:0:70:K.wav
448,192,267217,1,0,0:0:0:50:S3.wav
64,192,267303,1,0,0:0:0:70:K.wav
192,192,267303,1,0,0:0:0:0:
320,192,267388,1,0,0:0:0:70:K.wav
448,192,267388,1,0,0:0:0:50:S3.wav
320,192,267474,1,0,0:0:0:70:K.wav
448,192,267474,1,0,0:0:0:0:
64,192,267560,1,0,0:0:0:70:K.wav
192,192,267560,1,0,0:0:0:50:S3.wav
64,192,267645,1,0,0:0:0:70:K.wav
192,192,267645,1,0,0:0:0:0:
320,192,267731,1,0,0:0:0:70:K.wav
448,192,267731,1,0,0:0:0:70:C1.wav
64,192,267817,1,0,0:0:0:70:K.wav
320,192,267817,1,0,0:0:0:0:
192,192,267903,1,0,0:0:0:70:K.wav
448,192,267903,1,0,0:0:0:50:S3.wav
64,192,267988,1,0,0:0:0:70:K.wav
192,192,267988,1,0,0:0:0:0:
64,192,268074,1,0,0:0:0:70:K.wav
320,192,268074,1,0,0:0:0:70:C1.wav
448,192,268074,1,0,0:0:0:0:
64,192,268245,1,0,0:0:0:70:K.wav
192,192,268245,1,0,0:0:0:70:C1.wav
448,192,268245,1,0,0:0:0:0:
192,192,268760,1,0,0:0:0:70:tom03.wav
320,192,268760,1,0,0:0:0:0:
192,192,269103,128,0,269188:0:0:0:70:S4.wav
320,192,269445,128,0,269531:0:0:0:70:S5.wav
64,192,269531,1,0,0:0:0:70:tom01.wav
448,192,269531,1,0,0:0:0:0:
64,192,269788,1,0,0:0:0:70:C.wav
192,192,269788,1,0,0:0:0:70:push_scratch.wav
448,192,269788,128,0,269874:0:0:0:70:boom.wav
320,192,269960,128,0,270045:0:0:0:0:
192,192,270131,128,0,270217:0:0:0:0:
64,192,270303,128,0,270388:0:0:0:0:
192,192,270645,128,0,270731:0:0:0:0:
64,192,270817,128,0,271160:0:0:0:0:
448,192,270817,128,0,270903:0:0:0:0:
320,192,270988,128,0,271074:0:0:0:0:
192,192,271160,1,0,0:0:0:0:
448,192,271160,1,0,0:0:0:0:
320,192,271845,128,0,271931:0:0:0:0:
448,192,271845,1,0,0:0:0:0:
192,192,272188,128,0,272274:0:0:0:0:
64,192,272531,128,0,272617:0:0:0:0:
320,192,272531,1,0,0:0:0:0:
192,192,272703,128,0,272788:0:0:0:0:
320,192,272874,128,0,272960:0:0:0:0:
448,192,273045,128,0,273131:0:0:0:0:
192,192,273388,128,0,273474:0:0:0:0:
64,192,273560,128,0,273903:0:0:0:0:
320,192,273560,128,0,273645:0:0:0:0:
448,192,273731,128,0,273817:0:0:0:0:
192,192,273903,1,0,0:0:0:0:
320,192,273903,128,0,273945:0:0:0:0:
64,192,274588,128,0,275274:0:0:0:0:
448,192,274588,128,0,274674:0:0:0:0:
320,192,274931,128,0,275017:0:0:0:0:
192,192,275274,128,0,275360:0:0:0:0:
448,192,275274,1,0,0:0:0:0:
64,192,275445,128,0,275531:0:0:0:0:
192,192,275617,128,0,275703:0:0:0:0:
320,192,275788,128,0,275874:0:0:0:0:
64,192,276131,128,0,276217:0:0:0:0:
192,192,276303,1,0,0:0:0:0:
448,192,276303,128,0,276388:0:0:0:0:
448,192,276645,1,0,0:0:0:0:
320,192,276645,128,0,276731:0:0:0:0:
192,192,276817,128,0,276903:0:0:0:0:
320,192,276988,128,0,277074:0:0:0:0:
448,192,277160,128,0,277245:0:0:0:0:
64,192,277503,128,0,277588:0:0:0:0:
192,192,277674,128,0,277760:0:0:0:0:
64,192,277674,1,0,0:0:0:0:
64,192,278017,1,0,0:0:0:0:
448,192,278017,128,0,278103:0:0:0:0:
320,192,278188,128,0,278274:0:0:0:0:
192,192,278360,128,0,278445:0:0:0:0:
64,192,278531,128,0,278617:0:0:0:0:
192,192,279045,128,0,279388:0:0:0:0:
320,192,279045,128,0,279131:0:0:0:0:
64,192,279388,128,0,279474:0:0:0:0:
448,192,279388,1,0,0:0:0:0:
64,192,279731,1,0,0:0:0:0:
192,192,279731,128,0,279817:0:0:0:0:
192,192,280074,1,0,0:0:0:0:
320,192,280074,128,0,280160:0:0:0:0:
320,192,280417,1,0,0:0:0:0:
448,192,280417,128,0,280503:0:0:0:0:
64,192,280760,1,0,0:0:0:0:
192,192,280760,1,0,0:0:0:0:
448,192,280760,128,0,280845:0:0:0:0:
320,192,280931,128,0,281017:0:0:0:0:
192,192,281103,128,0,281188:0:0:0:0:
64,192,281274,128,0,281360:0:0:0:0:
192,192,281617,128,0,281703:0:0:0:0:
64,192,281788,128,0,282131:0:0:0:0:
448,192,281788,128,0,281874:0:0:0:0:
320,192,281960,128,0,282045:0:0:0:0:
192,192,282131,1,0,0:0:0:0:
448,192,282131,1,0,0:0:0:0:
320,192,282817,128,0,282903:0:0:0:0:
448,192,282817,1,0,0:0:0:0:
192,192,283160,128,0,283245:0:0:0:0:
64,192,283503,128,0,283588:0:0:0:0:
320,192,283503,1,0,0:0:0:0:
192,192,283674,128,0,283760:0:0:0:0:
320,192,283845,128,0,283931:0:0:0:0:
448,192,284017,128,0,284103:0:0:0:0:
192,192,284360,128,0,284445:0:0:0:0:
320,192,284360,1,0,0:0:0:0:
64,192,284531,128,0,284874:0:0:0:0:
320,192,284531,128,0,284617:0:0:0:0:
448,192,284703,128,0,284788:0:0:0:0:
192,192,284874,1,0,0:0:0:0:
320,192,284874,128,0,284960:0:0:0:0:
64,192,285560,128,0,286245:0:0:0:0:
448,192,285560,128,0,285645:0:0:0:0:
320,192,285903,128,0,285988:0:0:0:0:
192,192,286245,128,0,286331:0:0:0:0:
448,192,286245,1,0,0:0:0:0:
64,192,286417,128,0,286503:0:0:0:0:
192,192,286588,128,0,286674:0:0:0:0:
320,192,286760,128,0,286845:0:0:0:0:
64,192,287103,128,0,287188:0:0:0:0:
192,192,287274,1,0,0:0:0:0:
448,192,287274,128,0,287360:0:0:0:0:
64,192,287617,1,0,0:0:0:0:
320,192,287617,128,0,287703:0:0:0:0:
192,192,287788,128,0,287874:0:0:0:0:
320,192,287960,128,0,288045:0:0:0:0:
448,192,288131,128,0,288217:0:0:0:0:
64,192,288474,128,0,288560:0:0:0:0:
192,192,288645,128,0,288731:0:0:0:0:
448,192,288645,1,0,0:0:0:0:
320,192,288988,1,0,0:0:0:0:
448,192,288988,128,0,289074:0:0:0:0:
64,192,289160,128,0,289245:0:0:0:0:
448,192,289331,128,0,289417:0:0:0:0:
192,192,289503,128,0,293103:0:0:0:0:
