osu file format v14

[General]
AudioFilename: audio.mp3
AudioLeadIn: 0
PreviewTime: 70949
Countdown: 0
SampleSet: Soft
StackLeniency: 0.7
Mode: 0
LetterboxInBreaks: 0
WidescreenStoryboard: 0

[Editor]
Bookmarks: 28435,50378,94264,127178
DistanceSpacing: 1.3
BeatDivisor: 8
GridSize: 4
TimelineZoom: 3.899998

[Metadata]
Title:Beyond the Geostationary Orbit Level
TitleUnicode:Beyond the Geostationary Orbit Level
Artist:Camellia
ArtistUnicode:かめりあ
Creator:Ambrew
Version:Primordial Supernova
Source:
Tags:cametek
BeatmapID:1897053
BeatmapSetID:909056

[Difficulty]
HPDrainRate:3
CircleSize:4
OverallDifficulty:7
ApproachRate:9.3
SliderMultiplier:2.6
SliderTickRate:1

[Events]
//Background and Video events
0,0,"serenitybg.png",0,0
//Break Periods
2,50578,54967
2,56321,59424
2,116578,119767
//Storyboard Layer 0 (Background)
//Storyboard Layer 1 (Fail)
//Storyboard Layer 2 (Pass)
//Storyboard Layer 3 (Foreground)
//Storyboard Sound Samples

[TimingPoints]
1007,342.857142857143,4,2,0,100,1,0
5121,-399.999999999997,4,2,0,40,0,0
5635,-399.999999999997,4,2,0,5,0,0
5807,-399.999999999997,4,2,0,40,0,0
6492,-181.818181818181,4,2,0,40,0,0
7864,-181.818181818181,4,2,0,20,0,0
8464,-181.818181818181,4,2,0,5,0,0
8549,-181.818181818181,4,2,0,40,0,0
10607,-181.818181818181,4,2,0,20,0,0
11207,-181.818181818181,4,2,0,5,0,0
11292,-181.818181818181,4,2,0,40,0,0
15664,-181.818181818181,4,2,0,5,0,0
15749,-181.818181818181,4,2,0,40,0,0
16092,-285.714285714284,4,2,0,40,0,0
16349,-285.714285714284,4,2,0,5,0,0
16435,-222.222222222221,4,2,0,40,0,0
16692,-222.222222222221,4,2,0,5,0,0
16778,-181.818181818181,4,2,0,40,0,0
17035,-181.818181818181,4,2,0,5,0,0
17121,-153.846153846153,4,2,0,40,0,0
17378,-153.846153846153,4,2,0,5,0,0
17464,-181.818181818181,4,2,0,40,0,0
18835,-181.818181818181,4,2,0,30,0,0
19435,-181.818181818181,4,2,0,5,0,0
19521,-181.818181818181,4,2,0,40,0,0
21578,-181.818181818181,4,2,0,30,0,0
22178,-181.818181818181,4,2,0,5,0,0
22264,-133.333333333333,4,2,0,40,0,0
22864,-133.333333333333,4,2,0,5,0,0
22949,-181.818181818181,4,2,0,40,0,0
25349,-153.846153846153,4,2,0,40,0,0
25607,-153.846153846153,4,2,0,5,0,0
25692,-153.846153846153,4,2,0,40,0,0
26207,-86.9565217391303,4,2,0,40,0,0
27064,-133.333333333333,4,2,0,40,0,0
27407,-100,4,2,0,40,0,0
27749,-80,4,2,0,40,0,0
28435,-47.6190476190476,4,2,0,70,0,0
29635,-71.4285714285714,4,2,0,70,0,0
31178,-47.6190476190476,4,2,0,70,0,0
32892,-133.333333333333,4,2,0,40,0,0
33064,-100,4,2,0,40,0,0
33235,-80,4,2,0,40,0,0
33407,-50,4,2,0,70,0,0
35121,-71.4285714285714,4,2,0,70,0,0
36664,-50,4,2,0,70,0,0
37349,-66.6666666666667,4,2,0,40,0,0
38378,-100,4,2,0,40,0,0
39407,-47.6190476190476,4,2,0,70,0,0
40092,-100,4,2,0,70,0,0
40607,-71.4285714285714,4,2,0,70,0,0
42149,-47.6190476190476,4,2,0,70,0,0
43778,-66.6666666666667,4,2,0,40,0,0
44035,-71.4285714285714,4,2,0,40,0,0
44378,-47.6190476190476,4,2,0,70,0,0
45235,-222.222222222221,4,2,0,40,0,0
45407,-181.818181818181,4,2,0,40,0,0
45578,-153.846153846153,4,2,0,40,0,0
45749,-117.647058823529,4,2,0,40,0,0
45921,-117.647058823529,4,2,0,70,0,0
49007,-117.647058823529,4,2,0,50,0,0
50035,-66.6666666666667,4,2,0,40,0,0
55521,-41.6666666666667,4,2,0,40,0,0
61349,-66.6666666666667,4,2,0,50,0,0
71292,-100,4,2,0,40,0,0
72321,-62.5,4,2,1,80,0,0
73007,-100,4,2,1,80,0,0
73349,-62.5,4,2,1,80,0,0
73692,-100,4,2,1,80,0,0
74035,-62.5,4,2,1,80,0,0
74378,-100,4,2,1,80,0,0
74721,-62.5,4,2,1,80,0,0
76435,-50,4,2,1,80,0,0
76607,-62.5,4,2,1,80,0,0
77464,-47.6190476190476,4,2,1,80,0,0
78149,-62.5,4,2,1,80,0,0
78492,-100,4,2,1,80,0,0
78835,-62.5,4,2,1,80,0,0
79178,-100,4,2,1,80,0,0
79521,-62.5,4,2,1,80,0,0
79864,-100,4,2,1,80,0,0
80207,-62.5,4,2,1,80,0,0
80892,-100,4,2,1,80,0,0
81921,-133.333333333333,4,2,1,60,0,0
83292,-47.6190476190476,4,2,1,80,0,0
83635,-62.5,4,2,1,80,0,0
83978,-100,4,2,1,80,0,0
84321,-62.5,4,2,1,80,0,0
84664,-100,4,2,1,80,0,0
85007,-62.5,4,2,1,80,0,0
85349,-100,4,2,1,80,0,0
85864,-62.5,4,2,1,80,0,0
86035,-50,4,2,1,80,0,0
86378,-62.5,4,2,1,80,0,0
86721,-100,4,2,1,80,0,0
87064,-62.5,4,2,1,80,0,0
87407,-62.5,4,2,1,80,0,0
91864,-62.5,4,2,1,50,0,0
93235,-62.5,4,2,1,70,0,0
94264,-47.6190476190476,4,2,1,80,0,0
94607,-66.6666666666667,4,2,1,80,0,0
97007,-133.333333333333,4,2,1,60,0,0
97349,-66.6666666666667,4,2,1,80,0,0
99407,-52.6315789473684,4,2,1,80,0,0
100092,-71.4285714285714,4,2,1,80,0,0
101121,-90.9090909090909,4,2,1,80,0,0
104207,-133.333333333333,4,2,1,80,0,0
105235,-100,4,2,1,80,0,0
105578,-133.333333333333,4,2,1,80,0,0
105921,-117.647058823529,4,2,1,80,0,0
106264,-100,4,2,1,80,0,0
106607,-52.6315789473684,4,2,1,80,0,0
106949,-66.6666666666667,4,2,1,80,0,0
107292,-100,4,2,1,80,0,0
107807,-66.6666666666667,4,2,1,80,0,0
110378,-100,4,2,1,80,0,0
110721,-66.6666666666667,4,2,1,80,0,0
111064,-100,4,2,1,80,0,0
111835,-66.6666666666667,4,2,1,80,0,0
112435,-100,4,2,1,80,0,0
113121,-66.6666666666667,4,2,1,80,0,0
114835,-83.3333333333333,4,2,1,80,0,0
115864,-71.4285714285714,4,2,1,80,0,0
116207,-50,4,2,1,80,0,0
120321,-50,4,2,1,50,0,0
121007,-100,4,2,1,50,0,0
121349,-83.3333333333333,4,2,1,80,0,0
121692,-83.3333333333333,4,2,1,50,0,0
124435,-83.3333333333333,4,2,1,60,0,0
125978,-133.333333333333,4,2,1,40,0,0
126835,-133.333333333333,4,2,1,60,0,0
127178,-40,4,2,1,80,0,0
127521,-52.6315789473684,4,2,1,80,0,0
127907,-52.6315789473684,4,2,1,5,0,0
127949,-52.6315789473684,4,2,1,80,0,0
127992,-52.6315789473684,4,2,1,5,0,0
128035,-52.6315789473684,4,2,1,80,0,0
128078,-52.6315789473684,4,2,1,5,0,0
128121,-52.6315789473684,4,2,1,80,0,0
128164,-52.6315789473684,4,2,1,5,0,0
128207,-52.6315789473684,4,2,1,80,0,0
129235,-66.6666666666667,4,2,1,80,0,0
129578,-52.6315789473684,4,2,1,80,0,0
129835,-52.6315789473684,4,2,1,5,0,0
129921,-40,4,2,1,80,0,0
130264,-52.6315789473684,4,2,1,80,0,0
130649,-52.6315789473684,4,2,1,5,0,0
130692,-52.6315789473684,4,2,1,80,0,0
130735,-52.6315789473684,4,2,1,5,0,0
130778,-52.6315789473684,4,2,1,80,0,0
130821,-52.6315789473684,4,2,1,5,0,0
130864,-52.6315789473684,4,2,1,80,0,0
130907,-52.6315789473684,4,2,1,5,0,0
130949,-52.6315789473684,4,2,1,80,0,0
131721,-52.6315789473684,4,2,1,80,0,0
131764,-52.6315789473684,4,2,1,5,0,0
131807,-52.6315789473684,4,2,1,80,0,0
131849,-52.6315789473684,4,2,1,5,0,0
131892,-52.6315789473684,4,2,1,80,0,0
131935,-52.6315789473684,4,2,1,5,0,0
131978,-52.6315789473684,4,2,1,80,0,0
132149,-133.333333333333,4,2,1,80,0,0
132321,-47.6190476190476,4,2,1,80,0,0
132578,-47.6190476190476,4,2,1,5,0,0
132664,-40,4,2,1,80,0,0
132921,-40,4,2,1,5,0,0
133007,-52.6315789473684,4,2,1,80,0,0
133392,-52.6315789473684,4,2,1,5,0,0
133435,-52.6315789473684,4,2,1,80,0,0
133478,-52.6315789473684,4,2,1,5,0,0
133521,-52.6315789473684,4,2,1,80,0,0
133564,-52.6315789473684,4,2,1,5,0,0
133607,-52.6315789473684,4,2,1,80,0,0
133649,-52.6315789473684,4,2,1,5,0,0
133692,-52.6315789473684,4,2,1,80,0,0
134721,-58.8235294117647,4,2,1,80,0,0
134892,-100,4,2,1,80,0,0
135064,-50,4,2,1,80,0,0
135321,-50,4,2,1,5,0,0
135407,-50,4,2,1,80,0,0
136092,-52.6315789473684,4,2,1,80,0,0
136135,-52.6315789473684,4,2,1,5,0,0
136178,-52.6315789473684,4,2,1,80,0,0
136221,-52.6315789473684,4,2,1,5,0,0
136264,-52.6315789473684,4,2,1,80,0,0
136307,-52.6315789473684,4,2,1,5,0,0
136349,-52.6315789473684,4,2,1,80,0,0
136392,-52.6315789473684,4,2,1,5,0,0
136435,-52.6315789473684,4,2,1,80,0,0
136949,-133.333333333333,4,2,1,40,0,0
137121,-117.647058823529,4,2,1,50,0,0
137292,-105.263157894737,4,2,1,60,0,0
137464,-80,4,2,1,60,0,0
137635,-68.9655172413793,4,2,1,80,0,0
137807,-58.8235294117647,4,2,1,80,0,0
138064,-58.8235294117647,4,2,1,5,0,0
138149,-47.6190476190476,4,2,1,80,0,0
138492,-52.6315789473684,4,2,1,80,0,0
138878,-52.6315789473684,4,2,1,5,0,0
138921,-52.6315789473684,4,2,1,80,0,0
138964,-52.6315789473684,4,2,1,5,0,0
139007,-52.6315789473684,4,2,1,80,0,0
139049,-52.6315789473684,4,2,1,5,0,0
139092,-52.6315789473684,4,2,1,80,0,0
139135,-52.6315789473684,4,2,1,5,0,0
139178,-52.6315789473684,4,2,1,80,0,0
139521,-52.6315789473684,4,2,1,80,0,0
139692,-66.6666666666667,4,2,1,80,0,0
140035,-100,4,2,1,80,0,0
140549,-66.6666666666667,4,2,1,80,0,0
140635,-66.6666666666667,4,2,1,5,0,0
140721,-66.6666666666667,4,2,1,80,0,0
140807,-66.6666666666667,4,2,1,5,0,0
140892,-47.6190476190476,4,2,1,80,0,0
141235,-52.6315789473684,4,2,1,80,0,0
141621,-52.6315789473684,4,2,1,5,0,0
141664,-52.6315789473684,4,2,1,80,0,0
141707,-52.6315789473684,4,2,1,5,0,0
141749,-52.6315789473684,4,2,1,80,0,0
141792,-52.6315789473684,4,2,1,5,0,0
141835,-52.6315789473684,4,2,1,80,0,0
141878,-52.6315789473684,4,2,1,5,0,0
141921,-52.6315789473684,4,2,1,80,0,0
142349,-66.6666666666667,4,2,1,80,0,0
142607,-55.5555555555556,4,2,1,80,0,0
142778,-100,4,2,1,80,0,0
143292,-52.6315789473684,4,2,1,80,0,0
143549,-52.6315789473684,4,2,1,5,0,0
143635,-100,4,2,1,80,0,0
144664,-66.6666666666667,4,2,1,80,0,0
146292,-66.6666666666667,4,2,1,5,0,0
146378,-66.6666666666667,4,2,1,80,0,0
147064,-66.6666666666667,4,2,1,50,0,0
147407,-76.9230769230769,4,2,1,50,0,0
147749,-90.9090909090909,4,2,1,50,0,0
148092,-111.111111111111,4,2,1,50,0,0
149121,-62.5,4,2,1,90,0,0
149464,-100,4,2,1,90,0,0
149635,-66.6666666666667,4,2,1,90,0,0
149807,-100,4,2,1,90,0,0
150321,-66.6666666666667,4,2,1,90,0,0
150492,-133.333333333333,4,2,1,90,0,0
150664,-100,4,2,1,90,0,0
151864,-52.6315789473684,4,2,1,90,0,0
152207,-100,4,2,1,90,0,0
152378,-66.6666666666667,4,2,1,90,0,0
152549,-100,4,2,1,90,0,0
153064,-66.6666666666667,4,2,1,90,0,0
153235,-100,4,2,1,90,0,0
154264,-55.5555555555556,4,2,1,90,0,0
154521,-55.5555555555556,4,2,1,5,0,0
154607,-66.6666666666667,4,2,1,90,0,0
154949,-100,4,2,1,90,0,0
155121,-66.6666666666667,4,2,1,90,0,0
155292,-100,4,2,1,90,0,0
155807,-66.6666666666667,4,2,1,90,0,0
156321,-100,4,2,1,90,0,0
157007,-66.6666666666667,4,2,1,90,0,0
158035,-100,4,2,1,90,0,0
159407,-50,4,2,1,90,0,0
159749,-29.4117647058824,4,2,1,90,0,0
160092,-454.545454545455,4,2,1,90,0,0
160178,-454.545454545455,4,2,1,5,0,0
169692,-285.714285714284,4,2,1,40,0,0
170035,-222.222222222221,4,2,1,40,0,0
170378,-181.818181818181,4,2,1,50,0,0
170721,-153.846153846153,4,2,1,50,0,0

[HitObjects]
256,192,3749,12,0,5635,0:0:0:0:
95,310,5807,6,0,L|89:240,1,65
81,167,6492,5,0,0:0:0:0:
83,193,6664,1,0,0:0:0:0:
86,222,6835,1,0,0:0:0:0:
172,197,7007,2,0,B|164:104|164:104|128:65,1,143.000004364014
130,67,7521,2,0,L|202:58,1,71.5000021820069
271,185,7864,6,0,B|206:173|152:223|174:303|218:317|218:317|209:255,1,250.250007637024
212,277,8549,2,0,B|281:267|277:327|362:300,1,143.000004364014
412,287,9235,5,0,0:0:0:0:
387,294,9407,1,0,0:0:0:0:
362,297,9578,1,0,0:0:0:0:
354,185,9749,2,0,P|413:182|503:203,1,143.000004364014
494,199,10264,2,0,L|489:120,1,71.5000021820069
313,33,10607,6,0,B|329:-21|397:23|370:108|300:99|261:125|272:196,1,250.250007637024
274,194,11292,2,0,B|206:200|206:200|196:209|196:209|119:216,1,143.000004364014
86,125,11978,5,0,0:0:0:0:
82,148,12149,1,0,0:0:0:0:
77,173,12321,1,0,0:0:0:0:
153,235,12492,2,0,B|196:257|196:257|177:138,1,143.000004364014
167,82,13007,1,0,0:0:0:0:
403,47,13349,5,0,0:0:0:0:
397,81,13521,1,0,0:0:0:0:
389,117,13692,1,0,0:0:0:0:
282,46,13864,2,0,B|278:92|278:92|301:199,1,143.000004364014
322,271,14378,1,0,0:0:0:0:
44,201,14721,5,0,0:0:0:0:
83,186,14892,1,0,0:0:0:0:
125,174,15064,1,0,0:0:0:0:
200,279,15235,2,0,B|143:272|143:272|88:304|88:304|13:295,1,178.750005455017
11,299,15749,2,0,P|-1:259|55:207,1,107.25000327301
126,254,16092,6,0,L|197:262,1,68.2499979171754
144,207,16435,2,0,L|209:280,1,87.7499973220826
196,178,16778,2,0,L|211:306,1,107.25000327301
242,176,17121,2,0,L|207:319,1,126.749994197846
189,375,17464,5,0,0:0:0:0:
226,370,17635,1,0,0:0:0:0:
265,363,17807,1,0,0:0:0:0:
395,315,17978,2,0,B|340:300|340:300|265:255,1,143.000004364014
266,255,18492,2,0,P|260:219|240:173,1,71.5000021820069
447,131,18835,6,0,B|493:120|493:120|386:60|280:145,1,250.250007637024
301,129,19521,2,0,B|297:210|355:171|348:265,1,143.000004364014
176,343,20207,5,0,0:0:0:0:
172,316,20378,1,0,0:0:0:0:
167,286,20549,1,0,0:0:0:0:
91,245,20721,2,0,B|63:273|63:273|84:172,1,143.000004364014
84,172,21235,2,0,L|78:86,1,71.5000021820069
249,38,21578,6,0,B|262:56|250:136|202:162|167:152|159:117|207:92|251:91|295:107,1,250.250007637024
373,136,22264,2,0,B|411:169|451:200|527:173|524:115|444:88|345:174|332:298,1,341.250013017655
297,337,22949,6,0,L|207:328,1,71.5000021820069
375,346,23292,1,0,0:0:0:0:
191,253,23464,2,0,B|221:262|221:262|301:248|301:248|330:225,1,143.000004364014
245,173,23978,1,0,0:0:0:0:
430,33,24321,6,0,B|444:51|444:51|433:115,1,71.5000021820069
406,197,24664,1,0,0:0:0:0:
380,0,24835,2,0,B|336:16|336:16|458:39,1,143.000004364014
406,197,25349,2,0,B|362:199|363:234|374:270|339:292|298:287,1,126.749994197846
305,345,25692,6,0,P|300:279|270:249,1,84.4999961318971
177,168,26035,1,0,0:0:0:0:
79,334,26207,6,0,B|41:383|-35:326|-19:246|55:214|112:254|112:254|160:296|237:305|313:245|329:120|259:36|130:59,1,672.750012831688
166,158,27064,6,0,P|167:185|184:150,1,97.50000371933
329,178,27407,6,0,P|300:200|352:191,1,130
261,322,27749,6,0,P|234:288|245:348,1,162.5
49,228,28092,5,0,0:0:0:0:
82,199,28178,1,0,0:0:0:0:
96,134,28264,1,0,0:0:0:0:
77,71,28349,1,0,0:0:0:0:
22,18,28435,6,0,B|90:14|90:14|93:11|93:11|96:13|96:13|146:11|146:11|150:20|150:20|201:55|201:55|292:51,1,272.999991668701
21,27,28778,6,0,B|89:23|89:23|93:26|93:26|95:22|95:22|145:20|145:20|149:29|149:29|200:64|200:64|291:60,1,272.999991668701
354,286,29121,2,0,B|347:341|347:341|381:317,1,68.2499979171754
373,156,29292,2,0,B|366:211|366:211|400:187,1,68.2499979171754
394,26,29464,2,0,B|387:81|387:81|421:57,1,68.2499979171754
51,171,29635,6,0,B|9:62|99:2|257:1|286:157|163:229|157:280|188:313|204:353|204:353|181:264|250:207|250:207,1,636.999980560303
307,255,30321,2,0,P|496:223|390:64,1,454.999986114502
267,72,30835,5,0,0:0:0:0:
248,96,30921,1,0,0:0:0:0:
241,142,31007,1,0,0:0:0:0:
260,206,31092,1,0,0:0:0:0:
307,255,31178,6,0,B|213:260|213:260|175:284|175:284|133:259|133:259|36:263,1,272.999991668701,0|0,0:3|0:3,0:3:0:0:
307,255,31521,6,0,B|213:257|213:257|173:236|173:236|134:265|134:265|36:270,1,272.999991668701,0|0,0:3|0:3,0:3:0:0:
83,114,31864,2,0,B|77:76|77:76|95:47,1,68.2499979171754
190,15,32035,2,0,B|229:27|229:27|254:55,1,68.2499979171754
221,140,32207,2,0,B|186:159|186:159|146:159,1,68.2499979171754
161,82,32378,6,0,B|65:61|65:61|136:7|136:7|231:25|231:25|271:18|271:18|306:41|306:41|398:59|398:59|451:155|451:155|326:127,1,682.499979171754
214,277,32892,6,0,L|225:214,1,48.750001859665
214,277,33064,6,0,P|226:233|246:203,1,65
214,277,33235,6,0,P|235:229|279:204,1,81.25
409,273,33407,2,0,B|477:311|477:311|367:314|261:281,1,260
108,138,33664,2,0,B|40:100|40:100|128:88|256:130,1,260
272,309,33921,6,0,B|231:159|363:222|307:43,1,260
461,263,34264,2,0,B|429:112|340:227|308:42,1,260
94,51,34607,2,0,B|41:48|41:48|60:62,1,65
138,131,34778,2,0,B|85:128|85:128|104:142,1,65
185,208,34949,2,0,B|132:205|132:205|151:219,1,65
491,312,35121,6,0,B|450:322|410:266|418:211|476:181|476:181|336:216|344:121|219:112|219:112|280:133|309:223|254:284,1,636.999980560303
68,373,35807,6,0,B|3:223|122:267|33:91|33:91|96:209|218:187,1,454.999986114502
267,150,36321,5,0,0:0:0:0:
269,122,36407,1,0,0:0:0:0:
270,100,36492,1,0,0:0:0:0:
272,70,36578,1,0,0:0:0:0:
159,62,36664,6,0,B|229:60|282:16|282:16|310:75|425:122,1,260
161,55,37007,6,0,B|231:53|284:9|284:9|312:68|427:115,1,260
74,155,37349,2,0,B|44:135|44:135|129:145,1,97.50000371933
225,163,37522,1,0,0:0:0:0:
225,163,37607,1,0,0:0:0:0:
225,163,37692,2,0,L|216:270,1,97.50000371933
89,285,37864,1,0,0:0:0:0:
89,285,37949,1,0,0:0:0:0:
86,302,38035,5,0,0:0:0:0:
110,310,38121,1,0,0:0:0:0:
137,317,38207,2,0,B|165:323|165:323|233:311,1,97.50000371933
314,271,38378,2,0,L|307:367,1,65
237,246,38549,2,0,L|230:342,1,65
295,188,38721,6,0,B|408:171|364:279|490:248,1,195
452,170,39064,5,0,0:0:0:0:
451,139,39149,1,0,0:0:0:0:
439,98,39235,1,0,0:0:0:0:
389,64,39321,1,0,0:0:0:0:
308,67,39407,6,0,B|255:121|293:189|293:189|304:187|304:187|349:274|256:345,1,272.999991668701
308,67,39749,6,0,B|349:130|299:189|299:189|289:185|289:185|228:262|305:349,1,272.999991668701
64,73,40092,6,0,L|44:128,1,32.5
228,82,40264,2,0,L|208:32,1,32.5
152,183,40435,2,0,L|160:237,1,32.5
80,330,40607,6,0,B|22:372|-25:310|14:263|44:235|75:230|83:336|154:328|222:303|256:234|256:234|279:228|334:235|371:269|371:269|289:268|237:305,1,636.999980560303
368,365,41292,6,0,B|397:244|359:66|359:66|389:182|431:208,1,454.999986114502
493,111,41807,5,0,0:0:0:0:
471,102,41892,1,0,0:0:0:0:
422,75,41978,1,0,0:0:0:0:
400,79,42064,1,0,0:0:0:0:
340,126,42149,6,0,B|281:118|281:118|225:166|225:166|222:181|222:181|143:206|143:206|98:181,1,272.999991668701
342,136,42492,6,0,B|283:128|283:128|227:176|227:176|224:191|224:191|145:216|145:216|100:191,1,272.999991668701
32,74,42835,2,0,B|36:33|36:33|67:36,1,68.2499979171754
138,85,43007,2,0,B|142:44|142:44|173:47,1,68.2499979171754
240,99,43178,2,0,B|244:58|244:58|275:61,1,68.2499979171754
73,181,43349,6,0,B|38:224|38:224|96:322|96:322|190:237|190:237|158:143|158:143|238:96|238:96|284:185,1,545.999983337403
304,243,43778,1,0,0:0:0:0:
313,257,43864,6,0,B|359:269|359:269|416:252,1,97.50000371933
489,137,44035,2,0,L|388:128,1,90.9999972229005
276,63,44207,2,0,B|258:84|258:84|269:191,1,90.9999972229005
131,328,44378,6,0,P|49:292|176:232,1,272.999991668701
240,192,44635,2,0,P|336:178|256:66,1,272.999991668701
94,32,44892,6,0,B|30:10|30:10|94:68|94:68|120:166|120:166|105:252|105:252|152:185,1,409.499987503052
246,58,45235,6,0,L|294:64,1,29.2499991073609
246,58,45407,6,0,P|276:67|293:80,1,35.7500010910034
246,58,45578,6,0,P|277:73|290:88,1,42.2499980659486
246,58,45749,6,0,P|275:80|290:105,1,55.2500010538101
205,273,45921,6,0,B|156:280|107:208|205:105|321:178|270:305|333:350|442:316,1,386.750007376671
411,323,46607,6,0,P|448:285|392:314,1,165.75000316143
261,329,46949,2,0,B|226:354|226:354|138:346|138:346|115:310,1,165.75000316143
66,231,47292,5,0,0:0:0:0:
67,216,47378,1,0,0:0:0:0:
69,201,47464,1,0,0:0:0:0:
70,180,47549,1,0,0:0:0:0:
76,138,47635,6,0,B|159:161|159:161|191:245|191:245|137:214,1,221.000004215241
191,75,48149,1,0,0:0:0:0:
323,111,48321,2,0,L|269:99,1,55.2500010538101
356,36,48492,1,0,0:0:0:0:
288,189,48664,1,0,0:0:0:0:
480,46,48835,1,0,0:0:0:0:
362,214,49007,5,0,0:0:0:0:
357,230,49092,1,0,0:0:0:0:
404,257,49178,1,0,0:0:0:0:
410,269,49264,1,0,0:0:0:0:
354,306,49349,1,0,0:0:0:0:
346,322,49435,1,0,0:0:0:0:
275,315,49521,1,0,0:0:0:0:
261,295,49607,1,0,0:0:0:0:
199,255,49692,5,0,0:0:0:0:
155,268,49778,1,0,0:0:0:0:
125,336,49864,1,0,0:0:0:0:
88,324,49949,1,0,0:0:0:0:
51,247,50035,6,0,B|63:172|155:142|226:176|226:176|164:158|104:213,1,292.50001115799
0,152,50378,1,0,0:0:0:0:
261,87,55521,6,0,B|343:95|394:13|394:13|342:172|283:97|240:178|263:266|311:289,1,467.999985717774
375,314,55864,2,0,P|377:241|312:367,1,467.999985717774
256,192,59978,12,0,61178,0:0:0:0:
67,186,61349,6,0,B|80:137|136:88|177:146|245:136|245:136|194:141|165:194,1,292.50001115799
169,181,61692,2,0,P|156:221|180:279,1,97.50000371933
341,212,61864,1,0,0:0:0:0:
341,212,61949,1,0,0:0:0:0:
341,212,62035,2,0,L|238:222,1,97.50000371933
234,323,62207,2,0,L|113:307,1,97.50000371933
365,346,62378,1,0,0:0:0:0:
366,329,62464,1,0,0:0:0:0:
368,314,62549,1,0,0:0:0:0:
368,298,62635,1,0,0:0:0:0:
370,280,62721,6,0,L|378:162,1,97.50000371933
473,242,62892,2,0,L|480:119,1,97.50000371933
272,12,63064,2,0,B|223:39|223:39|247:207,1,195.00000743866
256,262,63321,1,0,0:0:0:0:
259,273,63407,2,0,L|137:264,1,97.50000371933
339,170,63578,2,0,L|230:177,1,97.50000371933
264,281,63749,2,0,B|143:271|143:271|113:244|113:244|78:263|78:263|-37:254,1,292.50001115799
123,60,64092,6,0,B|96:116|96:116|115:248,1,195.00000743866
214,134,64349,1,0,0:0:0:0:
223,140,64435,2,0,B|268:134|268:134|320:161,1,97.50000371933
493,214,64607,2,0,B|448:208|448:208|396:235,1,97.50000371933
317,352,64778,6,0,L|306:239,1,97.50000371933
393,141,64949,1,0,0:0:0:0:
393,141,65035,1,0,0:0:0:0:
393,141,65121,2,0,L|402:27,1,97.50000371933
221,19,65292,1,0,0:0:0:0:
221,19,65378,1,0,0:0:0:0:
221,19,65464,6,0,B|214:69|214:69|219:81|219:81|210:145,1,97.50000371933
133,190,65635,2,0,P|167:154|254:156,1,97.50000371933
315,225,65807,2,0,B|339:268|339:268|239:276|198:217,1,195.00000743866
118,278,66064,1,0,0:0:0:0:
100,286,66149,2,0,P|149:304|178:338,1,97.50000371933
343,334,66321,2,0,P|292:329|247:359,1,97.50000371933
229,258,66492,5,0,0:0:0:0:
329,83,66664,1,0,0:0:0:0:
338,93,66749,1,0,0:0:0:0:
350,101,66835,6,0,P|404:95|451:44,1,97.50000371933
372,133,67007,2,0,P|416:111|437:60,1,97.50000371933
278,175,67178,2,0,P|226:166|187:122,1,97.50000371933
263,197,67349,2,0,P|209:165|190:122,1,97.50000371933
387,157,67521,6,0,P|453:155|482:118,1,97.50000371933
403,185,67692,2,0,P|455:197|500:174,1,97.50000371933
256,213,67864,2,0,P|207:215|168:173,1,97.50000371933
234,245,68035,2,0,P|175:253|138:224,1,97.50000371933
50,29,68207,6,0,B|34:46|34:46|44:124,1,97.50000371933
23,60,68378,2,0,B|15:88|15:88|48:154,1,97.50000371933
218,79,68549,2,0,B|218:108|218:108|154:175,1,97.50000371933
230,125,68721,2,0,B|220:152|220:152|130:181,1,97.50000371933
8,157,68892,6,0,L|94:208,1,97.50000371933
14,212,69064,2,0,L|115:233,1,97.50000371933
294,205,69235,2,0,L|145:265,1,97.50000371933
282,256,69407,2,0,L|131:254,1,97.50000371933
349,109,69578,5,0,0:0:0:0:
353,141,69664,1,0,0:0:0:0:
357,171,69749,1,0,0:0:0:0:
360,203,69835,1,0,0:0:0:0:
409,206,69921,5,0,0:0:0:0:
409,165,70007,1,0,0:0:0:0:
405,133,70092,1,0,0:0:0:0:
403,90,70178,1,0,0:0:0:0:
351,89,70264,5,0,0:0:0:0:
353,141,70349,1,0,0:0:0:0:
356,189,70435,1,0,0:0:0:0:
359,233,70521,1,0,0:0:0:0:
420,259,70607,5,0,0:0:0:0:
416,203,70692,1,0,0:0:0:0:
411,143,70778,1,0,0:0:0:0:
405,79,70864,1,0,0:0:0:0:
399,20,70949,5,0,0:0:0:0:
52,304,71121,1,0,0:0:0:0:
52,304,71207,1,0,0:0:0:0:
52,304,71292,2,0,L|41:225,1,65
217,155,71464,1,0,0:0:0:0:
217,155,71549,1,0,0:0:0:0:
217,155,71635,2,0,B|248:171|248:171|219:201,1,65
75,151,71807,2,0,B|42:130|42:130|76:108,1,65
308,40,71978,5,0,0:0:0:0:
229,50,72064,1,0,0:0:0:0:
149,60,72149,1,0,0:0:0:0:
377,193,72321,6,0,B|319:171|278:218|278:218|238:256|176:228|176:228|123:208|87:258,1,312
62,324,72664,2,0,B|18:362|18:362|-6:174,1,208,8|0,0:0|0:0,0:0:0:0:
90,123,72921,1,0,0:0:0:0:
60,109,73007,2,0,P|80:142|80:194,1,65
160,226,73178,2,0,P|175:198|180:166,1,65
121,356,73349,2,0,B|93:343|61:325|61:325|116:291|252:312,1,208,8|0,0:0|0:0,0:0:0:0:
330,310,73607,1,0,0:0:0:0:
344,317,73692,6,0,L|337:219,1,65
263,112,73864,2,0,L|255:216,1,65
424,216,74035,6,0,B|410:76|410:76|315:43,1,208,8|0,0:0|0:0,0:0:0:0:
186,19,74292,1,0,0:0:0:0:
169,46,74378,2,0,P|208:25|270:36,1,65
391,128,74549,2,0,P|349:148|302:136,1,65
122,121,74721,1,8,0:0:0:0:
119,155,74807,1,0,0:0:0:0:
87,130,74892,2,0,B|72:91|72:91|91:25,1,104
369,62,75064,6,0,B|302:57|302:57|296:63|296:63|283:56|283:56|273:62|273:62|267:55|267:55|157:46,1,208
170,47,75407,2,0,P|216:63|179:207,1,208,8|0,0:0|0:0,0:0:0:0:
87,298,75664,1,0,0:0:0:0:
68,283,75749,2,0,L|176:294,1,104
307,269,75921,1,0,0:0:0:0:
333,270,76007,1,0,0:0:0:0:
366,248,76092,2,0,L|359:365,1,104,8|0,0:0|0:0,0:0:0:0:
235,221,76264,2,0,L|227:94,1,104
416,8,76435,6,0,B|439:39|421:73|421:73|448:102|432:162,1,130
235,221,76607,2,0,B|217:192|235:163|235:163|214:136|232:84,1,104
421,164,76778,2,0,B|460:205|460:205|291:201,1,208,8|0,0:0|0:0,0:0:0:0:
187,92,77035,1,0,0:0:0:0:
177,73,77121,2,0,B|96:62|96:62|127:104,1,104
113,246,77292,2,0,B|38:263|38:263|60:232,1,104
13,135,77464,6,0,B|32:45|160:22|217:162|154:190|129:211|112:245|112:245|104:313|198:337,1,409.499987503052,10|0,0:0|0:0,0:0:0:0:
345,322,77807,6,0,B|480:283|480:283|204:267,1,409.499987503052,4|0,0:0|0:0,0:0:0:0:
344,122,78149,6,0,P|339:51|390:117,1,208,8|0,0:0|0:0,0:0:0:0:
129,162,78407,1,0,0:0:0:0:
158,173,78492,2,0,L|144:77,1,65
256,191,78664,2,0,L|244:108,1,65
21,263,78835,2,0,B|9:217|9:217|64:205|110:206|138:244|146:307|150:331,1,208,8|0,0:0|0:0,0:0:0:0:
230,347,79092,1,0,0:0:0:0:
225,364,79178,6,0,L|134:354,1,65
272,272,79349,2,0,L|367:285,1,65
221,98,79521,2,0,B|162:63|162:63|183:240,1,208,8|0,0:0|0:0,0:0:0:0:
327,124,79778,1,0,0:0:0:0:
318,149,79864,6,0,P|365:134|405:140,1,65
375,213,80035,2,0,P|420:223|448:257,1,65
300,348,80207,2,0,L|288:230,1,104,8|0,0:0|0:0,0:0:0:0:
120,225,80378,2,0,L|130:342,1,104
412,78,80549,6,0,B|413:52|429:34|429:34|399:29|383:10|383:10|376:36|351:54|351:54|380:60|393:89,1,208
412,78,80892,1,8,0:0:0:0:
408,87,80978,2,0,P|375:99|334:91,1,65
235,32,81149,1,0,0:0:0:0:
237,44,81235,2,0,L|242:133,1,65
353,239,81407,2,0,L|356:159,1,65
228,49,81578,2,0,L|233:138,1,65
344,244,81750,2,0,L|347:164,1,65
215,51,81921,6,0,L|159:48,1,48.750001859665
123,122,82092,2,0,L|49:142,1,48.750001859665
42,272,82264,2,0,B|35:226|35:226|170:259,1,146.250005578995
144,259,82607,2,0,L|147:312,1,48.750001859665
231,228,82778,2,0,L|234:282,1,48.750001859665
212,75,82949,2,0,L|216:40,6,24.3750009298325
212,75,83292,6,0,B|325:33|457:58|457:58|406:85|388:126|388:126|365:98|317:93,1,409.499987503052,4|0,0:0|0:0,0:0:0:0:
269,352,83635,2,0,B|259:209|259:209|324:165,1,208,8|0,0:0|0:0,0:0:0:0:
471,248,83892,1,0,0:0:0:0:
466,270,83978,2,0,B|427:276|427:276|353:262,1,65
312,172,84149,2,0,B|275:160|275:160|209:175,1,65
111,325,84321,2,0,B|9:281|9:281|95:193,1,208,8|0,0:0|0:0,0:0:0:0:
150,129,84578,1,0,0:0:0:0:
178,108,84664,6,0,L|186:206,1,65
39,81,84835,2,0,L|47:180,1,65
341,27,85007,2,0,B|387:69|387:69|195:52,1,208,8|0,0:0|0:0,0:0:0:0:
135,34,85264,1,0,0:0:0:0:
118,50,85349,6,0,P|146:62|179:112,1,65
254,131,85521,2,0,P|219:171|168:181,1,65
75,319,85692,1,8,0:0:0:0:
67,290,85778,1,0,0:0:0:0:
98,304,85864,2,0,L|243:311,1,104
508,293,86035,6,0,B|500:258|487:230|435:206|385:232|385:232|353:268|285:280|250:255|250:255|297:237|318:187,1,390
310,203,86378,2,0,B|351:217|381:235|381:235|362:75,1,208,8|0,0:0|0:0,0:0:0:0:
237,11,86635,1,0,0:0:0:0:
227,37,86721,2,0,B|266:29|266:29|317:38,1,65
499,114,86892,2,0,B|465:121|465:121|404:105,1,65
147,192,87064,2,0,B|170:154|170:154|296:169|296:169|313:210,1,208,8|0,0:0|0:0,0:0:0:0:
275,328,87321,1,0,0:0:0:0:
255,330,87407,6,0,P|231:317|270:317,1,104
68,246,87578,2,0,P|100:256|68:236,1,104
293,221,87749,2,0,B|242:195|193:217|193:217|168:158|117:146,1,208,8|0,0:0|0:0,0:0:0:0:
220,22,88007,1,0,0:0:0:0:
234,32,88092,6,0,P|245:61|182:104,1,104
52,36,88264,2,0,P|101:16|135:50,1,104
50,274,88435,2,0,B|36:256|29:203|70:155|118:141|167:163|167:208|239:188|281:150,1,312,2|0,0:0|0:0,0:0:0:0:
274,155,88778,6,0,B|273:210|273:210|279:219|279:219|276:273,1,104,4|0,0:0|0:0,0:0:0:0:
471,110,88949,2,0,B|424:105|424:105|414:101|414:101|350:96,1,104
442,318,89121,2,0,B|370:325|370:325|376:184,1,208
377,47,89378,1,0,0:0:0:0:
375,70,89464,2,0,B|328:65|328:65|318:61|318:61|254:56,1,104
127,95,89635,1,0,0:0:0:0:
129,118,89721,1,0,0:0:0:0:
131,138,89807,2,0,B|198:128|198:128|205:133|205:133|244:127|244:127|265:235,1,208
339,277,90064,1,0,0:0:0:0:
362,309,90149,6,0,B|292:298|292:298|252:319,1,104
55,328,90321,2,0,B|128:347|128:347|169:338,1,104
261,217,90492,2,0,B|273:194|273:194|193:189|193:189|126:233|126:233|157:254,1,208
226,317,90749,5,0,0:0:0:0:
217,289,90835,2,0,L|192:182,1,104
68,185,91007,2,0,L|160:125,1,104
101,53,91178,2,0,L|218:59,1,104
276,13,91349,2,0,L|289:131,1,104
422,265,91521,6,0,B|374:292|374:292|348:224|401:120,1,208
100,55,91864,5,0,0:0:0:0:
87,70,91949,1,0,0:0:0:0:
81,90,92035,1,0,0:0:0:0:
81,114,92121,1,0,0:0:0:0:
89,141,92207,1,0,0:0:0:0:
105,160,92292,1,0,0:0:0:0:
135,177,92378,1,0,0:0:0:0:
169,174,92464,1,0,0:0:0:0:
200,150,92549,1,0,0:0:0:0:
227,113,92635,1,0,0:0:0:0:
278,105,92721,1,0,0:0:0:0:
321,125,92807,1,0,0:0:0:0:
352,175,92892,5,0,0:0:0:0:
335,232,92978,1,0,0:0:0:0:
288,269,93064,1,0,0:0:0:0:
285,325,93149,1,0,0:0:0:0:
329,362,93235,5,0,0:0:0:0:
387,376,93321,1,0,0:0:0:0:
432,339,93407,1,0,0:0:0:0:
437,277,93492,1,0,0:0:0:0:
405,226,93578,5,0,0:0:0:0:
335,197,93664,1,0,0:0:0:0:
261,228,93749,1,0,0:0:0:0:
227,293,93835,1,0,0:0:0:0:
176,357,93921,2,0,B|115:327|46:329|46:329|99:289|129:241|129:241|128:287|144:317,1,312
135,296,94264,6,0,B|93:199|157:61|161:48|213:35|237:56|208:156|101:179|48:106,1,409.499987503052,4|0,0:0|0:0,0:0:0:0:
84,134,94607,2,0,B|193:109|163:215|287:171,1,195.00000743866,8|0,0:0|0:0,0:0:0:0:
376,168,94864,1,0,0:0:0:0:
394,143,94949,2,0,P|403:184|385:256,1,97.50000371933
281,109,95121,1,0,0:0:0:0:
270,93,95207,1,0,0:0:0:0:
259,80,95292,2,0,B|281:37|281:37|384:28|384:28|419:62,1,195.00000743866,8|0,0:0|0:0,0:0:0:0:
475,162,95549,1,0,0:0:0:0:
493,141,95635,6,0,L|490:253,1,97.50000371933
323,304,95807,2,0,L|321:203,1,97.50000371933
493,141,95978,2,0,B|379:130|434:231|305:204,1,195.00000743866,8|0,0:0|0:0,0:0:0:0:
172,180,96235,1,0,0:0:0:0:
152,167,96321,6,0,P|165:212|163:272,1,97.50000371933
261,35,96492,1,0,0:0:0:0:
242,54,96578,1,0,0:0:0:0:
261,75,96664,2,0,P|257:115|268:173,1,97.50000371933,8|0,0:0|0:0,0:0:0:0:
132,82,96835,2,0,P|101:87|134:58,1,97.50000371933
358,61,97007,6,0,P|401:59|460:44,1,97.50000371933
453,46,97349,6,0,B|372:87|401:120|439:168|347:217,1,195.00000743866,8|0,0:0|0:0,0:0:0:0:
310,137,97607,1,0,0:0:0:0:
293,152,97692,6,0,P|257:145|191:155,1,97.50000371933
57,278,97864,1,0,0:0:0:0:
72,254,97949,1,0,0:0:0:0:
85,280,98035,2,0,B|192:264|167:356|297:328,1,195.00000743866,8|0,0:0|0:0,0:0:0:0:
375,314,98292,1,0,0:0:0:0:
395,361,98378,6,0,L|401:263,1,97.50000371933
231,156,98549,2,0,L|239:261,1,97.50000371933
418,54,98721,2,0,B|401:89|413:141|465:160|503:145|513:94|396:71|298:117,1,292.50001115799,8|0,0:0|0:0,0:0:0:0:
231,156,99064,1,0,0:0:0:0:
230,138,99149,1,0,0:0:0:0:
229,121,99235,1,0,0:0:0:0:
229,101,99321,1,0,0:0:0:0:
226,54,99407,2,0,B|131:52|172:117|65:92|65:92|75:44|132:50|132:50|116:191,1,370.499990106583,10|0,0:0|0:0,0:0:0:0:
97,286,99749,6,0,B|63:258|18:265|18:265|69:246|69:246|166:286|178:209|236:225|236:225|205:243|200:273,1,370.499990106583,4|0,0:0|0:0,0:0:0:0:
265,382,100092,2,0,L|277:277,1,90.9999972229005,4|0,0:0|0:0,0:0:0:0:
444,257,100264,2,0,L|434:353,1,90.9999972229005,0|4,0:0|0:0,0:0:0:0:
274,205,100435,1,0,0:0:0:0:
287,192,100521,1,0,0:0:0:0:
362,168,100607,1,4,0:0:0:0:
378,154,100692,1,0,0:0:0:0:
412,86,100778,5,0,0:0:0:0:
456,131,100864,2,0,L|262:110,1,181.999994445801,4|0,0:0|0:0,0:0:0:0:
256,91,101121,6,0,L|265:186,1,71.5000021820069,4|0,0:0|0:0,0:0:0:0:
119,257,101292,2,0,L|111:175,1,71.5000021820069
104,70,101464,1,4,0:0:0:0:
88,53,101549,2,0,L|173:42,1,71.5000021820069
256,97,101721,1,4,0:0:0:0:
275,111,101807,2,0,L|196:121,1,71.5000021820069
129,170,101978,2,0,L|32:162,1,71.5000021820069,4|0,0:0|0:0,0:0:0:0:
100,329,102149,1,0,0:0:0:0:
87,294,102235,1,4,0:0:0:0:
69,261,102321,2,0,L|172:252,1,71.5000021820069
290,339,102492,6,0,B|286:278|286:278|291:273|291:273|287:270|287:270|281:174,1,143.000004364014,4|0,0:0|0:0,0:0:0:0:
282,199,102835,1,4,0:0:0:0:
306,184,102921,2,0,L|312:285,1,71.5000021820069
442,236,103092,1,4,0:0:0:0:
466,250,103178,2,0,L|460:160,1,71.5000021820069
252,87,103349,2,0,L|336:99,1,71.5000021820069,4|0,0:0|0:0,0:0:0:0:
212,171,103521,1,0,0:0:0:0:
184,151,103607,1,4,0:0:0:0:
169,119,103692,1,0,0:0:0:0:
166,85,103778,1,0,0:0:0:0:
174,47,103864,5,0,0:0:0:0:
46,140,104035,1,0,0:0:0:0:
46,140,104121,1,0,0:0:0:0:
46,140,104207,2,0,B|9:153|9:153|69:163|113:201,1,146.250005578995
151,261,104549,2,0,P|159:288|161:317,1,48.750001859665
242,255,104721,2,0,P|240:293|232:325,1,48.750001859665
196,182,104892,2,0,L|199:142,6,24.3750009298325
248,99,105235,6,0,P|279:86|329:91,3,65,4|0|0|0,0:0|0:0|0:0|0:0,0:0:0:0:
341,226,105578,2,0,P|375:239|405:235,3,48.750001859665
447,152,105921,6,0,P|454:107|444:79,3,55.2500010538101
371,32,106264,2,0,L|272:22,3,65
140,123,106607,6,0,B|176:7|176:7|256:115|224:258,1,370.499990106583,4|0,0:0|0:0,0:0:0:0:
46,117,106949,2,0,B|2:144|2:144|92:162|152:113,1,195.00000743866,8|0,0:0|0:0,0:0:0:0:
254,157,107207,1,0,0:0:0:0:
272,182,107292,2,0,P|309:196|352:190,1,65
469,56,107464,2,0,P|432:40|384:43,1,65
249,59,107635,1,8,0:0:0:0:
249,59,107721,1,0,0:0:0:0:
249,59,107807,2,0,L|254:178,1,97.50000371933
253,156,108149,6,0,P|260:137|239:160,1,97.50000371933
153,194,108321,2,0,P|190:232|239:240,1,97.50000371933,8|0,0:0|0:0,0:0:0:0:
342,175,108492,2,0,P|312:219|266:236,1,97.50000371933
253,156,108664,1,0,0:0:0:0:
250,128,108749,1,0,0:0:0:0:
247,102,108835,1,0,0:0:0:0:
244,77,108921,1,0,0:0:0:0:
241,46,109007,2,0,B|175:23|140:20|63:43|34:78|58:124|121:123|144:58,1,292.50001115799,8|0,0:0|0:0,0:0:0:0:
144,67,109349,6,0,B|148:114|148:114|144:122|144:122|149:178,1,97.50000371933
306,294,109521,2,0,B|310:247|310:247|306:239|306:239|311:183,1,97.50000371933
144,325,109692,2,0,B|105:281|105:281|175:264|234:281|224:320|222:369|273:388|335:390,1,292.50001115799
388,335,110035,2,0,B|417:317|417:317|407:214,1,97.50000371933
334,209,110207,2,0,B|305:191|305:191|315:88,1,97.50000371933
449,76,110378,2,0,B|471:62|467:16|426:-17|340:-4|320:95,1,195
286,129,110721,6,0,B|203:122|203:122|196:188|196:188|187:192|187:192|195:199|195:199|188:261|188:261|271:269,1,292.50001115799,4|0,0:0|0:0,0:0:0:0:
286,129,111064,2,0,L|277:38,1,65,4|0,0:0|0:0,0:0:0:0:
146,13,111235,1,0,0:0:0:0:
146,13,111321,1,4,0:0:0:0:
146,13,111407,2,0,L|141:94,1,65
42,174,111578,2,0,B|56:138|56:138|97:170,1,65,4|0,0:0|0:0,0:0:0:0:
227,232,111749,5,0,0:0:0:0:
211,219,111835,2,0,B|141:210|91:300|96:320|135:326|144:263,1,195.00000743866,4|0,0:0|0:0,0:0:0:0:
23,319,112092,6,0,B|50:381|50:381|118:384|118:384|121:377|121:377|124:384|124:384|209:389|209:389|240:332,1,292.50001115799,4|0,0:0|0:0,0:0:0:0:
359,301,112435,2,0,L|442:294,1,65,4|0,0:0|0:0,0:0:0:0:
326,176,112607,1,0,0:0:0:0:
326,176,112692,1,4,0:0:0:0:
326,176,112778,2,0,L|245:171,1,65
429,99,112949,2,0,B|420:67|420:67|393:96,1,65,4|0,0:0|0:0,0:0:0:0:
459,216,113121,5,0,0:0:0:0:
473,252,113207,2,0,B|419:254|390:284|378:315|355:319|335:306|335:264|388:266,1,195.00000743866,4|0,0:0|0:0,0:0:0:0:
452,340,113464,6,0,B|433:393|433:393|347:391|338:341|338:341|344:338|344:338|331:236|234:256|234:256|253:312,1,390.00001487732,4|0,0:0|0:0,0:0:0:0:
146,297,113892,1,0,0:0:0:0:
133,320,113978,1,0,0:0:0:0:
121,344,114064,1,0,0:0:0:0:
79,368,114149,6,0,B|-3:316|14:175|141:173|184:225|184:225|136:206|86:236,1,390.00001487732
35,194,114578,1,0,0:0:0:0:
22,141,114664,1,0,0:0:0:0:
34,88,114749,1,0,0:0:0:0:
70,53,114835,6,0,L|166:66,1,77.999997619629
285,88,115007,1,0,0:0:0:0:
233,212,115178,2,0,P|204:182|284:203,1,233.999992858887
283,271,115521,2,0,L|276:325,6,38.9999988098145
440,296,115864,2,0,L|433:352,6,45.4999986114502
277,309,116207,6,0,B|186:265|186:265|362:285,1,260
109,134,120321,5,0,0:0:0:0:
96,118,120407,1,0,0:0:0:0:
89,66,120492,1,0,0:0:0:0:
103,50,120578,1,0,0:0:0:0:
192,50,120664,1,0,0:0:0:0:
202,132,120749,1,0,0:0:0:0:
214,210,120835,1,0,0:0:0:0:
229,287,120921,1,0,0:0:0:0:
171,346,121007,6,0,L|71:334,1,65
293,279,121178,2,0,L|212:289,1,65
401,215,121349,1,0,0:0:0:0:
403,232,121435,1,0,0:0:0:0:
410,279,121521,1,0,0:0:0:0:
285,111,121692,6,0,L|272:211,1,77.999997619629
270,122,121864,2,0,L|257:211,1,77.999997619629
409,146,122035,2,0,L|414:228,1,77.999997619629
428,156,122207,2,0,L|434:246,1,77.999997619629
249,167,122378,6,0,P|236:201|207:244,1,77.999997619629
224,181,122549,2,0,P|196:212|155:234,1,77.999997619629
421,205,122721,2,0,P|431:250|451:285,1,77.999997619629
438,228,122892,2,0,P|465:274|491:294,1,77.999997619629
241,323,123064,6,0,L|112:317,1,77.999997619629
231,303,123235,2,0,L|113:296,1,77.999997619629
4,227,123407,2,0,L|91:222,1,77.999997619629
15,204,123578,2,0,L|117:198,1,77.999997619629
308,200,123749,6,0,P|261:186|229:166,1,77.999997619629
298,173,123921,2,0,P|254:153|231:120,1,77.999997619629
6,104,124092,2,0,P|58:97|87:84,1,77.999997619629
28,83,124264,2,0,P|62:70|98:41,1,77.999997619629
329,27,124435,5,0,0:0:0:0:
353,20,124521,1,0,0:0:0:0:
375,15,124607,1,0,0:0:0:0:
397,11,124692,1,0,0:0:0:0:
432,7,124778,5,0,0:0:0:0:
425,48,124864,1,0,0:0:0:0:
419,85,124949,1,0,0:0:0:0:
413,119,125035,1,0,0:0:0:0:
428,161,125121,5,0,0:0:0:0:
380,145,125207,1,0,0:0:0:0:
328,125,125292,1,0,0:0:0:0:
283,110,125378,1,0,0:0:0:0:
245,65,125464,5,0,0:0:0:0:
253,129,125549,1,0,0:0:0:0:
261,197,125635,1,0,0:0:0:0:
269,262,125721,1,0,0:0:0:0:
280,328,125807,5,0,0:0:0:0:
44,203,125978,2,0,L|110:214,1,48.750001859665
174,100,126149,2,0,L|183:165,1,48.750001859665
49,195,126321,2,0,L|115:206,1,48.750001859665
187,93,126492,1,0,0:0:0:0:
139,322,126664,1,0,0:0:0:0:
124,0,126835,1,0,0:0:0:0:
204,17,126921,1,0,0:0:0:0:
286,37,127007,1,0,0:0:0:0:
156,221,127178,6,0,B|138:260|71:287|50:237|53:182|114:152|173:146|218:181|235:233|235:288|267:342|289:367|352:325|369:291|276:255,1,487.5,4|0,0:0|0:0,0:0:0:0:
348,112,127521,1,0,0:0:0:0:
490,212,127607,2,0,B|343:205|343:205|279:192|259:126,1,246.999993404389
128,56,127864,2,0,B|90:48|90:48|120:39,1,61.7499983510972,8|0,0:0|0:0,0:0:0:0:
134,68,127949,2,0,B|181:62|181:62|158:50,1,61.7499983510972
132,77,128035,2,0,B|94:69|94:69|124:60,1,61.7499983510972
138,89,128120,2,0,B|185:83|185:83|162:71,1,61.7499983510972
140,107,128207,5,0,0:0:0:0:
75,222,128292,2,0,B|68:247|26:243|-12:224|-8:167|48:143|94:154|50:178|75:222|134:229|203:192,1,246.999993404389
273,323,128549,6,0,B|244:251|254:179|254:179|248:173|248:173|254:169|254:169|253:134|268:80|268:80|259:165|298:223,1,370.499990106583,4|0,0:0|0:0,0:0:0:0:
439,132,128892,1,0,0:0:0:0:
443,160,128978,1,0,0:0:0:0:
377,205,129064,1,0,0:0:0:0:
382,229,129149,1,0,0:0:0:0:
445,297,129235,2,0,L|288:272,1,97.50000371933,8|0,0:0|0:0,0:0:0:0:
230,173,129407,2,0,B|209:184|209:184|310:197,1,97.50000371933
230,173,129578,6,0,B|288:102|288:102|309:289|309:289|380:175,1,370.499990106583
463,72,129921,2,0,B|423:32|423:32|352:32|352:32|330:25|330:25|276:26|276:26|273:21|273:21|274:26|274:26|180:27|180:27|147:66|147:66|185:103|185:103|214:70|214:70|182:35,1,487.5,4|0,0:0|0:0,0:0:0:0:
78,140,130264,5,0,0:0:0:0:
14,236,130349,2,0,B|72:348|72:348|145:210,1,246.999993404389
265,142,130607,2,0,B|255:95|255:95|244:115,1,61.7499983510972,8|0,0:0|0:0,0:0:0:0:
265,142,130692,2,0,B|218:128|218:128|231:147,1,61.7499983510972
265,142,130778,2,0,B|231:176|231:176|254:174,1,61.7499983510972
265,142,130864,2,0,B|279:187|279:187|288:166,1,61.7499983510972
265,142,130949,1,0,0:0:0:0:
464,223,131035,2,0,B|397:215|397:215|333:312|333:312|247:302,1,246.999993404389
98,314,131292,6,0,B|72:278|72:278|165:291,1,123.499996702194,4|0,0:0|0:0,0:0:0:0:
240,233,131464,2,0,B|274:220|274:220|283:160|283:160|260:137,1,123.499996702194
112,69,131635,2,0,L|98:2,1,61.7499983510972
120,71,131721,2,0,L|106:140,1,61.7499983510972
128,70,131807,2,0,L|114:3,1,61.7499983510972
136,72,131893,2,0,L|122:141,1,61.7499983510972
148,73,131978,2,0,B|212:77|212:77|224:82|224:82|291:88,1,123.499996702194,8|0,0:0|0:0,0:0:0:0:
400,274,132149,2,0,L|404:220,1,48.750001859665
425,106,132321,2,2,B|505:82|505:82|433:53|400:16|400:16|358:153|358:153|254:189,1,409.499987503052
141,253,132664,6,0,B|72:186|72:186|210:209|210:209|209:200|209:200|221:210|221:210|362:231|362:231|272:140,1,487.5,4|0,0:0|0:0,0:0:0:0:
92,82,133007,5,0,0:0:0:0:
190,26,133092,2,0,P|199:107|56:182,1,246.999993404389
94,323,133349,2,0,P|66:301|53:272,1,61.7499983510972,8|0,0:0|0:0,0:0:0:0:
95,316,133435,2,0,P|82:282|80:246,1,61.7499983510972
102,309,133521,2,0,P|103:268|112:239,1,61.7499983510972
110,303,133607,2,0,P|126:271|149:250,1,61.7499983510972
126,297,133692,1,0,0:0:0:0:
282,334,133778,2,0,B|329:290|392:279|392:279|328:278|274:230,1,246.999993404389
188,157,134035,6,0,P|172:52|308:152,1,370.499990106583,4|0,0:0|0:0,0:0:0:0:
280,235,134378,1,0,0:0:0:0:
373,292,134464,2,0,B|429:319|429:319|457:209|407:116,1,246.999993404389
366,69,134721,2,0,B|320:76|320:76|314:82|314:82|255:92,1,110.50000210762,8|0,0:0|0:0,0:0:0:0:
196,220,134892,2,0,L|186:138,1,65
20,107,135064,2,0,B|12:20|12:20|84:38|84:38|109:287,1,390
204,326,135407,6,0,B|283:359|316:293|316:293|354:207|464:255,1,260,4|0,0:0|0:0,0:0:0:0:
204,326,135749,6,0,B|283:359|316:293|316:293|354:207|464:255,1,260,4|0,0:0|0:0,0:0:0:0:
316,39,136092,6,0,B|327:50|327:50|316:113,1,61.7499983510972,8|0,0:0|0:0,0:0:0:0:
344,45,136178,2,0,B|348:60|348:60|307:109,1,61.7499983510972
361,59,136264,2,0,B|358:74|358:74|301:103,1,61.7499983510972
371,78,136349,2,0,B|362:91|362:91|299:95,1,61.7499983510972
375,98,136435,1,0,0:0:0:0:
284,186,136521,2,0,B|110:160|110:160|202:84,1,246.999993404389
222,56,136778,5,4,0:0:0:0:
385,297,136949,2,0,L|391:237,1,48.750001859665
393,303,137121,2,0,L|388:235,1,55.2500010538101
383,309,137292,6,0,L|390:236,1,61.7499983510972
406,326,137464,2,0,P|394:286|388:241,1,81.25
377,340,137635,2,0,P|386:291|390:234,1,94.2500028762818
467,207,137807,6,0,B|452:178|431:168|431:168|446:169|446:169|426:137|391:122|391:122|398:115|398:115|352:101|308:132|308:132|309:118|309:118|268:136|259:195,1,331.500006322861
96,349,138149,6,0,B|53:330|27:253|67:151|130:204|169:241|196:203|194:158|177:100|128:63|87:91|78:148|111:195,1,409.499987503052,4|0,0:0|0:0,0:0:0:0:
153,291,138492,5,0,0:0:0:0:
273,365,138578,2,0,B|334:277|284:186|284:186|242:226,1,246.999993404389
144,159,138835,2,0,B|113:154|113:154|73:175,1,61.7499983510972,8|0,0:0|0:0,0:0:0:0:
144,159,138921,2,0,B|114:144|114:144|78:157,1,61.7499983510972
144,159,139007,2,0,B|119:139|119:139|82:142,1,61.7499983510972
144,159,139092,2,0,B|123:131|123:131|92:130,1,61.7499983510972
144,159,139178,1,0,0:0:0:0:
219,254,139264,2,0,B|225:196|225:196|241:185|241:185|249:91|249:91|230:69|230:69|232:3,1,246.999993404389
379,37,139521,6,0,P|383:64|359:29,1,123.499996702194,4|0,0:0|0:0,0:0:0:0:
144,159,139692,2,0,P|169:155|193:223,1,97.50000371933
329,333,139864,2,0,P|333:251|347:202,1,97.50000371933,4|0,0:0|0:0,0:0:0:0:
259,92,140035,1,0,0:0:0:0:
238,107,140121,2,0,P|213:92|175:84,1,65,4|0,0:0|0:0,0:0:0:0:
377,156,140292,1,0,0:0:0:0:
395,178,140378,2,0,P|430:157|457:154,1,65,4|0,0:0|0:0,0:0:0:0:
277,250,140549,6,0,L|131:257,1,97.50000371933,0|4,0:0|0:0,0:0:0:0:
178,270,140721,2,0,L|275:265,1,97.50000371933
53,266,140892,6,0,B|46:324|46:324|107:363|107:363|170:328|170:328|177:271|177:271|130:235|130:235|140:123,1,409.499987503052,4|0,0:0|0:0,0:0:0:0:
147,11,141235,1,0,0:0:0:0:
229,20,141321,2,0,B|384:35|384:35|301:102,1,246.999993404389
259,207,141578,6,0,L|251:137,1,61.7499983510972,8|0,0:0|0:0,0:0:0:0:
269,210,141664,2,0,L|261:140,1,61.7499983510972
277,213,141749,2,0,L|269:143,1,61.7499983510972
287,216,141835,2,0,L|279:146,1,61.7499983510972
298,220,141921,1,0,0:0:0:0:
211,342,142007,2,0,B|167:320|167:320|368:294,1,246.999993404389
422,347,142264,6,0,P|446:305|413:232,1,123.499996702194,4|0,0:0|0:0,0:0:0:0:
357,111,142435,2,0,B|341:86|348:60|348:60|364:79|363:105,1,97.50000371933
298,220,142607,2,0,P|207:215|174:221,1,116.999996429443,4|0,0:0|0:0,0:0:0:0:
49,61,142778,1,0,0:0:0:0:
34,106,142864,2,0,P|35:141|41:181,1,65,4|0,0:0|0:0,0:0:0:0:
153,42,143035,1,0,0:0:0:0:
186,71,143121,2,0,P|197:98|204:138,1,65,4|0,0:0|0:0,0:0:0:0:
298,220,143292,2,2,P|159:299|210:186,1,370.499990106583,0|0,0:0|0:0,0:0:0:0:
300,78,143635,6,0,B|415:56|365:165|487:127,1,195
482,108,143978,1,0,0:0:0:0:
479,145,144064,1,0,0:0:0:0:
477,175,144149,1,0,0:0:0:0:
475,210,144235,1,0,0:0:0:0:
368,177,144321,1,0,0:0:0:0:
371,217,144407,1,0,0:0:0:0:
376,253,144492,1,0,0:0:0:0:
380,290,144578,1,0,0:0:0:0:
457,265,144664,6,0,B|430:252|430:252|313:273|313:273|301:299|301:299|223:315|223:315|176:294,1,292.50001115799,4|0,0:0|0:0,0:0:0:0:
183,211,145007,5,0,0:0:0:0:
109,339,145092,2,0,B|100:183|100:183|73:151,1,195.00000743866
132,101,145349,6,0,P|133:69|145:48,1,48.750001859665,4|0,0:0|0:0,0:0:0:0:
123,79,145435,2,0,P|142:60|161:45,1,48.750001859665
123,57,145521,2,0,P|151:43|180:39,1,48.750001859665
130,35,145607,2,0,P|172:29|193:34,1,48.750001859665
150,10,145692,2,0,P|200:39|245:37,1,97.50000371933,8|0,0:0|0:0,0:0:0:0:
247,129,145864,2,0,P|297:105|321:55,1,97.50000371933
481,177,146035,2,0,P|487:123|437:204,1,292.50001115799
452,304,146378,6,0,B|396:292|396:292|373:299|373:299|292:278|292:278|331:259,1,195.00000743866,4|0,0:0|0:0,0:0:0:0:
61,173,146721,1,0,0:0:0:0:
74,149,146807,2,0,B|99:100|164:84|218:93|207:145|178:149|129:144,1,195.00000743866
125,254,147064,6,0,P|122:274|126:306,1,48.750001859665
137,271,147149,2,0,P|143:302|154:318,1,48.750001859665
156,290,147235,2,0,P|171:314|192:324,1,48.750001859665
179,307,147321,2,0,P|205:315|230:311,1,48.750001859665
215,298,147407,6,0,L|255:328,1,42.2499980659486
247,286,147492,2,0,L|267:343,1,42.2499980659486
282,296,147578,2,0,L|283:349,1,42.2499980659486
311,314,147664,2,0,L|293:357,1,42.2499980659486
335,331,147749,6,0,B|335:306|335:306|326:286,1,35.7500010910034
353,316,147835,2,0,B|348:289|348:289|331:282,1,35.7500010910034
368,298,147921,2,0,B|355:280|355:280|340:276,1,35.7500010910034
379,283,148007,2,0,B|360:268|360:268|341:268,1,35.7500010910034
379,261,148092,6,0,L|372:230,1,29.2499991073609
364,228,148178,2,0,L|369:187,1,29.2499991073609
354,201,148264,2,0,L|377:179,1,29.2499991073609
356,176,148349,2,0,L|391:168,1,29.2499991073609
374,156,148435,5,0,0:0:0:0:
428,144,148521,1,0,0:0:0:0:
460,100,148607,1,0,0:0:0:0:
459,47,148692,1,0,0:0:0:0:
425,2,148778,2,0,L|350:6,1,58.4999982147217
123,71,148949,2,0,L|204:80,1,58.4999982147217
374,156,149121,6,0,B|413:196|413:196|212:189,1,208,4|0,0:0|0:0,0:0:0:0:
124,223,149378,1,0,0:0:0:0:
117,236,149464,2,0,L|122:331,1,65
260,190,149635,2,2,L|254:55,1,97.50000371933
63,63,149807,5,0,0:0:0:0:
47,45,149892,1,0,0:0:0:0:
71,36,149978,2,0,L|163:40,1,65
126,195,150149,2,0,L|37:204,1,65
255,92,150321,2,2,L|260:190,1,97.50000371933
385,320,150492,6,0,L|383:269,1,48.750001859665
198,194,150664,2,0,B|233:202|233:202|264:187,1,65
384,49,150835,1,0,0:0:0:0:
399,87,150921,1,0,0:0:0:0:
365,63,151007,1,0,0:0:0:0:
403,59,151092,1,0,0:0:0:0:
373,90,151178,2,0,L|288:100,1,65
179,47,151349,1,0,0:0:0:0:
180,57,151435,2,0,L|186:128,1,65
82,143,151607,1,0,0:0:0:0:
81,132,151692,2,0,L|76:56,1,65
62,278,151864,6,0,B|35:221|35:221|129:233|129:233|177:330|177:330|213:315|213:315|245:326|245:326|303:317,1,370.499990106583
354,271,152207,2,0,L|362:180,1,65
269,125,152378,2,2,L|261:-12,1,97.50000371933
451,66,152549,1,0,0:0:0:0:
471,90,152635,1,0,0:0:0:0:
436,93,152721,2,0,L|366:98,1,65
200,211,152892,2,0,L|282:206,1,65
263,27,153064,2,2,L|269:125,1,97.50000371933
120,256,153235,6,0,B|107:223|107:223|115:180,1,65
344,170,153407,2,0,B|357:203|357:203|349:246,1,65
230,343,153578,1,0,0:0:0:0:
242,290,153664,1,0,0:0:0:0:
263,342,153749,1,0,0:0:0:0:
217,314,153835,1,0,0:0:0:0:
272,310,153921,2,0,L|347:301,1,65
492,190,154092,2,0,L|424:181,1,65
252,133,154264,2,0,P|231:66|376:139,1,350.99998928833
257,115,154607,6,0,P|305:3|383:98,1,292.50001115799
262,227,154949,2,0,L|152:214,1,65
380,345,155121,2,2,L|389:210,1,97.50000371933
196,333,155292,1,0,0:0:0:0:
192,304,155378,1,0,0:0:0:0:
220,318,155464,2,0,L|302:309,1,65
332,158,155635,2,0,L|250:147,1,65
386,247,155807,2,2,L|380:345,1,97.50000371933
463,152,155978,5,0,0:0:0:0:
451,125,156064,1,0,0:0:0:0:
354,104,156149,1,0,0:0:0:0:
360,77,156235,1,0,0:0:0:0:
431,13,156321,2,0,L|341:2,1,65
214,79,156492,2,0,L|279:72,1,65
72,87,156664,5,0,0:0:0:0:
100,43,156749,1,0,0:0:0:0:
102,100,156835,1,0,0:0:0:0:
69,57,156921,1,0,0:0:0:0:
119,64,157007,2,0,B|146:72|146:72|118:91,6,48.750001859665
0,178,157349,6,0,B|116:149|62:260|205:212,1,195.00000743866
437,31,157692,5,0,0:0:0:0:
434,55,157778,1,0,0:0:0:0:
433,87,157864,1,0,0:0:0:0:
435,109,157949,1,0,0:0:0:0:
440,143,158035,6,0,P|404:127|374:119,1,65
291,87,158207,2,0,P|252:93|224:101,1,65
302,186,158378,2,0,P|300:228|304:259,1,65
451,327,158549,1,0,0:0:0:0:
456,295,158635,1,0,0:0:0:0:
460,264,158721,5,0,0:0:0:0:
412,250,158806,1,0,0:0:0:0:
365,277,158892,1,0,0:0:0:0:
339,315,158978,1,0,0:0:0:0:
300,349,159064,1,0,0:0:0:0:
246,350,159149,1,0,0:0:0:0:
196,335,159235,1,0,0:0:0:0:
165,298,159321,1,0,0:0:0:0:
154,248,159407,6,0,P|163:228|165:248,10,43.3333333333333
303,144,159749,2,0,P|291:172|265:147,10,73.6666680717469
376,101,160092,6,0,B|351:76|351:42|351:42|271:16|218:50|200:78|154:126|71:113|71:113|105:51|168:86|198:-1|198:-1|173:65|170:143|170:143|177:143|177:143|162:214|212:232|206:318|206:318|222:269|254:239|254:239|290:253|343:242|368:191|368:191|385:207|385:207|409:189|456:187|499:220|523:276|513:333|464:364|411:376|366:375|332:347|325:323|325:323|362:349|415:330,1,1587.30004844055
374,255,169692,6,0,L|364:183,1,68.2499979171754
399,232,170035,2,0,L|350:150,1,87.7499973220826
421,204,170378,2,0,L|333:138,1,107.25000327301
434,170,170721,2,0,L|295:125,1,126.749994197846
243,66,171064,5,0,0:0:0:0:
