osu file format v14

[General]
AudioFilename: audio.mp3
AudioLeadIn: 0
PreviewTime: 198053
Countdown: 1
SampleSet: Normal
StackLeniency: 0.7
Mode: 0
LetterboxInBreaks: 0
WidescreenStoryboard: 1

[Editor]
Bookmarks: 23435,26565,33174,40130,45695,67956,81869,93695,98565,98923,101348,104130,114565,115261,120826,126391,137521,147261,148652,159782,169521,170913,176478,187608,193174,198739,209869,219608,221000,230739,232130,243261,253695,254391,259956,271087,274043
DistanceSpacing: 0.5
BeatDivisor: 4
GridSize: 16
TimelineZoom: 4.599998

[Metadata]
Title:Berserkerz' Warfare 345
TitleUnicode:Berserkerz' Warfare 345
Artist:Camellia
ArtistUnicode:Camellia
Creator:kirbob
Version:LIMITATION (2018)
Source:
Tags:
BeatmapID:1652021
BeatmapSetID:664373

[Difficulty]
HPDrainRate:0.5
CircleSize:4.1
OverallDifficulty:7.7
ApproachRate:10
SliderMultiplier:1.8
SliderTickRate:1

[Events]
//Background and Video events
0,0,"youreanalcoholic.jpg",0,0
//Break Periods
2,108513,113879
//Storyboard Layer 0 (Background)
//Storyboard Layer 1 (Fail)
//Storyboard Layer 2 (Pass)
//Storyboard Layer 3 (Foreground)
//Storyboard Sound Samples

[TimingPoints]
1184,173.913043478261,4,1,1,100,1,0
25531,-83.3333333333333,4,1,1,100,0,0
26227,-100,4,1,1,100,0,0
31097,-80.6451612903226,4,1,1,100,0,0
31792,-100,4,1,1,100,0,0
33184,-72.992700729927,4,1,1,100,0,0
34575,-78.125,4,1,1,100,0,0
34923,-111.111111111111,4,1,1,100,0,0
35271,-48.5436893203883,4,1,1,100,0,0
35618,-107.52688172043,4,1,1,100,0,0
35966,-47.1698113207547,4,1,1,100,0,0
36314,-75.7575757575758,4,1,1,100,0,0
38053,-46.2962962962963,4,1,1,100,0,0
38401,-71.4285714285714,4,1,1,100,0,0
38749,-66.6666666666667,4,1,1,100,0,0
38923,-83.3333333333333,4,1,1,100,0,0
39097,-90.9090909090909,4,1,1,100,0,0
39271,-100,4,1,1,100,0,0
40140,-68.9655172413793,4,1,1,100,0,0
44314,-25,4,1,1,100,0,0
45705,-61.7283950617284,4,1,1,100,0,0
46923,-54.9450549450549,4,1,1,100,0,0
47097,-61.7283950617284,4,1,1,100,0,0
49879,-26.3157894736842,4,1,1,100,0,0
50923,-66.6666666666667,4,1,1,100,0,0
51271,-60.9756097560976,4,1,1,100,0,0
53705,-58.1395348837209,4,1,1,100,0,0
54053,-65.359477124183,4,1,1,100,0,0
55618,-25.3164556962025,4,1,1,100,0,0
56140,-45.2488687782805,4,1,1,100,0,0
56662,-28.0898876404494,4,1,1,100,0,0
56836,-60.2409638554217,4,1,1,100,0,0
58053,-53.1914893617021,4,1,1,100,0,0
58227,-60.2409638554217,4,1,1,100,0,0
59618,-51.8134715025907,4,1,1,100,0,0
60314,-54.054054054054,4,1,1,100,0,0
61010,-53.1914893617021,4,1,1,100,0,0
61531,-28.4090909090909,4,1,1,100,0,0
62053,-25.1889168765743,4,1,1,100,0,0
62401,-59.5238095238095,4,1,1,100,0,0
65184,-47.1698113207547,4,1,1,100,0,0
67271,-56.1797752808989,4,1,1,100,0,0
80488,-109.89010989011,4,1,1,100,0,0
81879,-83.3333333333333,4,1,1,100,0,0
83271,-69.9300699300699,4,1,1,100,0,0
84662,-83.3333333333333,4,1,1,100,0,0
88836,-75.187969924812,4,1,1,100,0,0
90227,-43.2900432900433,4,1,1,100,0,0
91618,-59.8802395209581,4,1,1,100,0,0
92662,-47.1698113207547,4,1,1,100,0,0
93010,-25.1256281407035,4,1,1,100,0,0
93705,-83.3333333333333,4,1,1,100,0,0
94401,-67.5675675675676,4,1,1,100,0,0
95792,-83.3333333333333,4,1,1,100,0,0
98575,-55.5555555555556,4,1,1,100,0,0
99966,-52.0833333333333,4,1,1,100,0,0
101357,-111.111111111111,4,1,1,100,0,0
104140,-192.307692307692,4,1,1,100,0,0
114575,-47.1698113207547,4,1,1,100,0,0
115270,-10000,4,1,1,100,0,0
116662,-76.9230769230769,4,1,1,100,0,0
118053,-10000,4,1,1,100,0,0
119444,-73.5294117647059,4,1,1,100,0,0
120836,-10000,4,1,1,100,0,0
121531,-64.9350649350649,4,1,1,100,0,0
122227,-10000,4,1,1,100,0,0
122923,-62.8930817610063,4,1,1,100,0,0
123618,-62.8930817610063,4,1,1,100,0,1
123662,-62.8930817610063,4,1,1,100,0,0
124314,-62.8930817610063,4,1,1,100,0,1
124357,-62.8930817610063,4,1,1,100,0,0
125010,-62.8930817610063,4,1,1,100,0,1
125705,-43.2900432900433,4,1,1,100,0,0
126401,-55.5555555555556,4,1,1,100,0,1
130575,-26.4550264550265,4,1,1,100,0,1
130618,-26.4550264550265,4,1,1,100,0,0
130836,-26.4550264550265,4,1,1,100,0,1
130879,-26.4550264550265,4,1,1,100,0,0
131097,-26.4550264550265,4,1,1,100,0,1
131140,-26.4550264550265,4,1,1,100,0,0
131357,-26.4550264550265,4,1,1,100,0,1
131401,-26.4550264550265,4,1,1,100,0,0
131618,-42.7350427350427,4,1,1,100,0,1
131879,-42.7350427350427,4,1,1,100,0,0
131966,-42.7350427350427,4,1,1,100,0,1
134749,-10,4,1,1,100,0,1
134836,-42.7350427350427,4,1,1,100,0,0
135097,-10,4,1,1,100,0,1
135184,-42.7350427350427,4,1,1,100,0,0
135444,-10,4,1,1,100,0,1
135531,-42.7350427350427,4,1,1,100,0,0
135792,-10,4,1,1,100,0,1
135879,-42.7350427350427,4,1,1,100,0,0
136140,-32.258064516129,4,1,1,100,0,1
136227,-69.9300699300699,4,1,1,100,0,0
137531,-42.7350427350427,4,1,1,100,0,1
138836,-125,4,1,1,100,0,0
139270,-42.7350427350427,4,1,1,100,0,1
143097,-75.187969924812,4,1,1,100,0,1
143184,-81.9672131147541,4,1,1,100,0,1
143270,-90.0900900900901,4,1,1,100,0,1
143357,-99.009900990099,4,1,1,100,0,1
143444,-75.187969924812,4,1,1,100,0,0
143792,-75.187969924812,4,1,1,100,0,1
144140,-75.187969924812,4,1,1,100,0,0
144488,-75.187969924812,4,1,1,100,0,1
144749,-40,4,1,1,100,0,1
145184,-75.187969924812,4,1,1,100,0,1
145531,-75.187969924812,4,1,1,100,0,0
145879,-75.187969924812,4,1,1,100,0,1
147270,-75.187969924812,4,1,1,100,0,0
148662,-105.263157894737,4,1,1,100,0,0
159792,-69.4444444444444,4,1,1,100,0,0
170923,-200,4,1,1,100,0,0
177879,-166.666666666667,4,1,1,100,0,0
193184,-111.111111111111,4,1,1,100,0,0
198053,-10,4,1,1,100,0,1
198662,-10,4,1,1,100,0,0
198749,-40,4,1,1,100,0,1
201444,-30.3030303030303,4,1,1,100,0,1
201531,-40,4,1,1,100,0,1
203792,-15,4,1,1,100,0,1
204314,-40,4,1,1,100,0,1
206575,-29.4117647058824,4,1,1,100,0,1
207097,-38.4615384615385,4,1,1,100,0,1
208227,-27.027027027027,4,1,1,100,0,1
208488,-26.3157894736842,4,1,1,100,0,1
209184,-25.6410256410256,4,1,1,100,0,1
209879,-10000,4,1,1,100,0,0
211270,-32.258064516129,4,1,1,100,0,1
211357,-32.258064516129,4,1,1,100,0,0
211531,-32.258064516129,4,1,1,100,0,1
211618,-32.258064516129,4,1,1,100,0,0
211792,-32.258064516129,4,1,1,100,0,1
211879,-32.258064516129,4,1,1,100,0,0
212053,-26.3157894736842,4,1,1,100,0,1
212531,-26.3157894736842,4,1,1,100,0,0
213010,-37.037037037037,4,1,1,100,0,1
214836,-25.974025974026,4,1,1,100,0,1
215444,-36.3636363636364,4,1,1,100,0,1
216488,-10000,4,1,1,100,0,0
216836,-35.7142857142857,4,1,1,100,0,1
217879,-10000,4,1,1,100,0,0
218227,-33.3333333333333,4,1,1,100,0,1
219618,-25,4,1,1,100,0,1
219662,-25,4,1,1,100,0,0
219705,-25,4,1,1,100,0,1
219749,-25,4,1,1,100,0,0
219792,-25,4,1,1,100,0,1
219836,-25,4,1,1,100,0,0
219879,-25,4,1,1,100,0,1
219923,-25,4,1,1,100,0,0
219966,-25,4,1,1,100,0,1
220010,-25,4,1,1,100,0,0
220053,-25,4,1,1,100,0,1
220097,-25,4,1,1,100,0,0
220140,-25,4,1,1,100,0,1
220184,-25,4,1,1,100,0,0
220227,-25,4,1,1,100,0,1
220270,-25,4,1,1,100,0,0
220314,-25,4,1,1,100,0,1
220357,-25,4,1,1,100,0,0
220401,-25,4,1,1,100,0,1
220444,-25,4,1,1,100,0,0
220488,-25,4,1,1,100,0,1
220531,-25,4,1,1,100,0,0
220575,-25,4,1,1,100,0,1
220618,-25,4,1,1,100,0,0
220662,-25,4,1,1,100,0,1
220705,-25,4,1,1,100,0,0
220749,-25,4,1,1,100,0,1
220792,-25,4,1,1,100,0,0
220836,-25,4,1,1,100,0,1
220923,-25,4,1,1,100,0,0
221010,-62.5,4,1,1,100,0,0
230749,695.652173913044,4,1,1,100,1,0
230749,-10000,4,1,1,100,0,0
231444,173.913043478261,4,1,1,100,1,0
232139,-32.258064516129,5,1,1,100,0,1
240487,-32.258064516129,5,1,1,100,0,0
242835,-26.3157894736842,5,1,1,100,0,1
243270,-30.3030303030303,5,1,1,100,0,1
253009,-1,5,1,1,100,0,1
253704,-100,5,1,1,100,0,0
259270,-33.3333333333333,5,1,1,100,0,0
259965,-50,5,1,1,100,0,0
271096,-25,5,1,1,100,0,1
272748,-15,5,1,1,100,0,1
273009,-1,5,1,1,100,0,1
274088,-1,5,1,1,100,0,0

[Colours]
Combo1 : 80,151,171
Combo2 : 209,46,46
Combo3 : 72,179,173
Combo4 : 222,107,107

[HitObjects]
192,78,23445,6,0,P|243:68|289:87,1,90,0|0,0:0|0:0,0:0:0:0:
364,180,23618,2,0,P|312:189|266:170,1,90,0|0,0:0|0:0,0:0:0:0:
447,104,23792,2,0,L|440:302,1,180,0|0,0:0|0:0,0:0:0:0:
163,237,24053,6,0,P|153:185|172:139,1,90,0|0,0:0|0:0,0:0:0:0:
310,326,24227,2,0,L|121:315,1,180,0|0,0:0|0:0,0:0:0:0:
406,282,24488,1,0,0:0:0:0:
406,282,24662,1,0,0:0:0:0:
52,294,24836,5,0,0:0:0:0:
90,305,24923,1,0,0:0:0:0:
128,295,25010,1,0,0:0:0:0:
156,267,25097,1,0,0:0:0:0:
166,229,25184,6,0,B|178:191|145:132|145:132|194:117|194:117|165:51|177:-1,1,270,0|0,0:0|0:0,0:0:0:0:
425,48,25531,6,0,L|340:120,1,107.999996704102,0|0,0:0|0:0,0:0:0:0:
86,335,25705,2,0,L|171:263,1,107.999996704102,0|0,0:0|0:0,0:0:0:0:
477,210,25879,2,0,L|366:200,1,107.999996704102,0|0,0:0|0:0,0:0:0:0:
34,173,26053,2,0,L|145:183,1,107.999996704102,0|0,0:0|0:0,0:0:0:0:
406,368,26227,5,0,0:0:0:0:
406,368,26401,1,0,0:0:0:0:
406,368,26575,2,0,L|399:170,1,180,0|0,0:0|0:0,0:0:0:0:
241,62,26836,2,0,P|189:52|143:71,1,90,0|0,0:0|0:0,0:0:0:0:
194,313,27010,2,0,L|201:115,1,180,0|0,0:0|0:0,0:0:0:0:
76,274,27271,1,0,0:0:0:0:
76,274,27445,1,0,0:0:0:0:
375,218,27618,5,0,0:0:0:0:
387,165,27705,1,0,0:0:0:0:
358,119,27792,1,0,0:0:0:0:
305,107,27879,1,0,0:0:0:0:
259,136,27966,6,0,L|268:322,1,180,0|0,0:0|0:0,0:0:0:0:
351,37,28227,2,0,P|296:30|251:39,1,90,0|0,0:0|0:0,0:0:0:0:
461,242,28401,2,0,L|470:56,1,180,0|0,0:0|0:0,0:0:0:0:
125,86,28662,5,0,0:0:0:0:
109,137,28749,1,0,0:0:0:0:
111,190,28836,1,0,0:0:0:0:
131,239,28923,1,0,0:0:0:0:
167,278,29010,6,0,P|218:287|264:268,1,90,0|0,0:0|0:0,0:0:0:0:
351,178,29184,2,0,P|299:168|253:187,1,90,0|0,0:0|0:0,0:0:0:0:
441,261,29358,2,0,L|432:73,1,180,0|0,0:0|0:0,0:0:0:0:
275,330,29618,2,0,P|326:339|372:320,1,90,0|0,0:0|0:0,0:0:0:0:
264,179,29792,2,0,L|76:188,1,180,0|0,0:0|0:0,0:0:0:0:
324,259,30053,1,0,0:0:0:0:
324,259,30227,1,0,0:0:0:0:
401,162,30401,5,0,0:0:0:0:
412,124,30488,1,0,0:0:0:0:
402,86,30575,1,0,0:0:0:0:
374,58,30662,1,0,0:0:0:0:
336,48,30749,6,0,B|280:78|238:31|238:31|206:67|206:67|169:22|99:38,1,270,0|0,0:0|0:0,0:0:0:0:
446,339,31097,6,0,L|350:265,1,111.59999557251,0|0,0:0|0:0,0:0:0:0:
66,45,31271,2,0,L|161:118,1,111.59999557251,0|0,0:0|0:0,0:0:0:0:
496,182,31445,2,0,L|375:187,1,111.59999557251,0|0,0:0|0:0,0:0:0:0:
15,201,31618,2,0,L|136:196,1,111.59999557251,0|0,0:0|0:0,0:0:0:0:
433,30,31792,5,0,0:0:0:0:
433,30,31966,1,0,0:0:0:0:
433,30,32140,2,0,L|443:217,1,180,0|0,0:0|0:0,0:0:0:0:
250,249,32401,2,0,P|240:197|259:151,1,90,0|0,0:0|0:0,0:0:0:0:
447,322,32575,2,0,L|260:331,1,180,0|0,0:0|0:0,0:0:0:0:
109,253,32836,1,0,0:0:0:0:
109,253,33010,1,0,0:0:0:0:
109,253,33184,6,0,P|115:214|106:188,4,61.6500017403031,0|0|0|0|0,0:0|0:0|0:0|0:0|0:0,0:0:0:0:
30,215,33445,2,0,L|43:88,1,123.300003480606,0|0,0:0|0:0,0:0:0:0:
37,303,33618,1,0,0:0:0:0:
231,278,33705,2,0,P|299:275|357:295,1,123.300003480606,0|0,0:0|0:0,0:0:0:0:
185,348,33879,2,0,B|139:347|139:347|119:334,6,61.6500017403031,0|0|0|0|0|0|0,0:0|0:0|0:0|0:0|0:0|0:0|0:0,0:0:0:0:
460,160,34227,5,0,0:0:0:0:
374,172,34314,1,0,0:0:0:0:
288,184,34401,1,0,0:0:0:0:
202,196,34488,1,0,0:0:0:0:
116,208,34575,6,0,P|45:204|6:177,1,115.2,0|0,0:0|0:0,0:0:0:0:
288,57,34749,2,0,P|359:61|398:88,1,115.2,0|0,0:0|0:0,0:0:0:0:
156,329,34923,6,0,L|162:287,6,40.4999987640381,0|0|0|0|0|0|0,0:0|0:0|0:0|0:0|0:0|0:0|0:0,0:0:0:0:
176,99,35271,6,0,B|307:27|388:121|388:121|446:198|400:261|400:261|306:298|257:196|299:156,1,556.199995332184,0|0,0:0|0:0,0:0:0:0:
481,346,35618,2,0,L|467:292,6,41.8500013090897,0|0|0|0|0|0|0,0:0|0:0|0:0|0:0|0:0|0:0|0:0,0:0:0:0:
164,320,35966,6,0,B|143:242|88:206|88:206|179:265|395:246|362:33|221:0|176:115|223:150,1,572.400000873413,0|0,0:0|0:0,0:0:0:0:
417,85,36314,2,0,B|462:72|462:72|482:78,6,59.3999998187256,0|0|0|0|0|0|0,0:0|0:0|0:0|0:0|0:0|0:0|0:0,0:0:0:0:
462,263,36662,6,0,P|379:267|336:248,1,118.799999637451,0|0,0:0|0:0,0:0:0:0:
93,133,36836,2,0,P|176:129|219:148,1,118.799999637451,0|0,0:0|0:0,0:0:0:0:
346,381,37010,2,0,P|289:319|276:274,1,118.799999637451,0|0,0:0|0:0,0:0:0:0:
208,14,37184,2,0,P|264:75|277:120,1,118.799999637451,0|0,0:0|0:0,0:0:0:0:
120,215,37358,6,0,P|49:211|10:184,1,118.799999637451,0|0,0:0|0:0,0:0:0:0:
351,152,37531,2,0,P|422:156|461:183,1,118.799999637451,0|0,0:0|0:0,0:0:0:0:
43,41,37705,2,0,B|100:37|100:37|150:73,3,118.799999637451,0|0|0|0,0:0|0:0|0:0|0:0,0:0:0:0:
213,307,38053,6,0,B|281:271|369:322|369:322|331:300|313:188|313:188|163:269|30:205,1,583.200014238282,0|0,0:0|0:0,0:0:0:0:
301,89,38401,6,0,B|377:92|377:92|427:204|427:204|475:75|475:75|452:30,1,377.999988464356,0|0,0:0|0:0,0:0:0:0:
80,68,38749,6,0,P|90:134|134:186,1,135.000005149842,0|0,0:0|0:0,0:0:0:0:
422,292,38923,2,0,P|413:239|379:198,1,107.999996704102,0|0,0:0|0:0,0:0:0:0:
71,225,39097,2,0,P|108:257|157:265,1,99.0000030212403,0|0,0:0|0:0,0:0:0:0:
432,154,39271,2,0,P|398:125|354:118,1,90,0|0,0:0|0:0,0:0:0:0:
231,316,39445,1,0,0:0:0:0:
245,305,40140,6,0,P|272:233|255:174,1,130.500003982544,0|0,0:0|0:0,0:0:0:0:
41,126,40314,2,0,P|89:185|149:200,1,130.500003982544,0|0,0:0|0:0,0:0:0:0:
298,38,40488,2,0,P|222:50|194:227,1,261.000007965088,0|0,0:0|0:0,0:0:0:0:
437,152,40749,6,0,L|302:143,1,130.500003982544,0|0,0:0|0:0,0:0:0:0:
82,293,40923,2,0,L|349:310,1,261.000007965088,0|0,0:0|0:0,0:0:0:0:
213,99,41184,6,0,B|218:169|218:169|257:227,1,130.500003982544,0|0,0:0|0:0,0:0:0:0:
441,351,41358,2,0,B|436:281|436:281|397:223,1,130.500003982544,0|0,0:0|0:0,0:0:0:0:
138,78,41531,5,0,0:0:0:0:
138,78,41618,2,0,L|154:340,1,261.000007965088,0|0,0:0|0:0,0:0:0:0:
469,170,41879,2,0,L|329:162,1,130.500003982544,0|0,0:0|0:0,0:0:0:0:
233,299,42053,2,0,L|373:307,1,130.500003982544,0|0,0:0|0:0,0:0:0:0:
474,48,42227,5,0,0:0:0:0:
474,48,42314,2,0,L|212:64,1,261.000007965088,0|0,0:0|0:0,0:0:0:0:
56,363,42575,6,0,B|126:358|126:358|184:319,1,130.500003982544,0|0,0:0|0:0,0:0:0:0:
308,135,42749,2,0,B|238:140|238:140|180:179,1,130.500003982544,0|0,0:0|0:0,0:0:0:0:
425,344,42923,6,0,L|318:265,1,130.500003982544,0|0,0:0|0:0,0:0:0:0:
87,40,43097,2,0,L|194:119,1,130.500003982544,0|0,0:0|0:0,0:0:0:0:
481,219,43271,2,0,L|348:216,1,130.500003982544,0|0,0:0|0:0,0:0:0:0:
30,164,43445,2,0,L|163:167,1,130.500003982544,0|0,0:0|0:0,0:0:0:0:
456,85,43618,2,0,L|345:158,1,130.500003982544,0|0,0:0|0:0,0:0:0:0:
55,298,43792,2,0,L|166:225,1,130.500003982544,0|0,0:0|0:0,0:0:0:0:
359,0,43966,2,0,L|310:113,1,130.500003982544,0|0,0:0|0:0,0:0:0:0:
152,394,44140,2,0,L|201:270,1,130.500003982544,0|0,0:0|0:0,0:0:0:0:
223,54,44314,6,0,P|206:-13|228:52,16,180,0|0|0|0|0|0|0|0|0|0|0|0|0|0|0|0|0,0:0|0:0|0:0|0:0|0:0|0:0|0:0|0:0|0:0|0:0|0:0|0:0|0:0|0:0|0:0|0:0|0:0,0:0:0:0:
43,244,45705,6,0,L|193:207,1,145.80000355957,0|0,0:0|0:0,0:0:0:0:
468,139,45879,2,0,L|318:176,1,145.80000355957,0|0,0:0|0:0,0:0:0:0:
59,95,46053,2,0,L|198:163,1,145.80000355957,0|0,0:0|0:0,0:0:0:0:
452,288,46227,2,0,L|313:220,1,145.80000355957,0|0,0:0|0:0,0:0:0:0:
167,0,46401,2,0,L|229:133,1,145.80000355957,0|0,0:0|0:0,0:0:0:0:
344,391,46575,2,0,L|282:250,1,145.80000355957,0|0,0:0|0:0,0:0:0:0:
409,26,46749,6,0,P|354:77|278:70,1,145.80000355957,0|0,0:0|0:0,0:0:0:0:
88,363,46923,2,0,P|147:307|230:315,1,163.800005498657,0|0,0:0|0:0,0:0:0:0:
472,203,47097,6,0,L|320:196,1,145.80000355957,0|0,0:0|0:0,0:0:0:0:
39,182,47271,2,0,L|191:189,1,145.80000355957,0|0,0:0|0:0,0:0:0:0:
439,77,47445,2,0,L|310:158,1,145.80000355957,0|0,0:0|0:0,0:0:0:0:
72,308,47618,2,0,L|201:227,1,145.80000355957,0|0,0:0|0:0,0:0:0:0:
339,0,47792,2,0,L|280:133,1,145.80000355957,0|0,0:0|0:0,0:0:0:0:
228,350,47966,5,0,0:0:0:0:
291,314,48053,1,0,0:0:0:0:
310,244,48140,1,0,0:0:0:0:
274,181,48227,1,0,0:0:0:0:
204,162,48314,2,0,L|53:224,1,145.80000355957,0|0,0:0|0:0,0:0:0:0:
382,305,48488,6,0,P|403:229|371:173,1,145.80000355957,0|0,0:0|0:0,0:0:0:0:
191,71,48662,2,0,P|170:147|202:203,1,145.80000355957,0|0,0:0|0:0,0:0:0:0:
403,92,48836,2,0,P|327:71|271:103,1,145.80000355957,0|0,0:0|0:0,0:0:0:0:
169,283,49010,2,0,P|245:304|301:272,1,145.80000355957,0|0,0:0|0:0,0:0:0:0:
251,19,49184,1,0,0:0:0:0:
106,234,49358,1,0,0:0:0:0:
106,234,49879,6,0,L|282:226,1,170.999995433807,0|0,0:0|0:0,0:0:0:0:
299,212,50227,6,0,L|123:204,1,170.999995433807,0|0,0:0|0:0,0:0:0:0:
153,178,50575,6,0,L|329:170,1,170.999995433807,0|0,0:0|0:0,0:0:0:0:
469,120,50923,6,0,P|485:89|476:58,6,67.5000025749208,0|0|0|0|0|0|0,0:0|0:0|0:0|0:0|0:0|0:0|0:0,0:0:0:0:
60,269,51271,6,0,L|218:232,1,147.600002252197,0|0,0:0|0:0,0:0:0:0:
449,118,51445,2,0,L|291:155,1,147.600002252197,0|0,0:0|0:0,0:0:0:0:
47,160,51618,2,0,L|203:207,1,147.600002252197,0|0,0:0|0:0,0:0:0:0:
460,224,51792,2,0,L|304:177,1,147.600002252197,0|0,0:0|0:0,0:0:0:0:
91,60,51966,2,0,L|202:179,1,147.600002252197,0|0,0:0|0:0,0:0:0:0:
416,322,52140,2,0,L|305:203,1,147.600002252197,0|0,0:0|0:0,0:0:0:0:
179,0,52314,2,0,L|214:149,1,147.600002252197,0|0,0:0|0:0,0:0:0:0:
329,385,52488,2,0,L|293:227,1,147.600002252197,0|0,0:0|0:0,0:0:0:0:
338,7,52662,6,0,B|305:29|305:29|284:137,1,147.600002252197,0|0,0:0|0:0,0:0:0:0:
174,377,52836,2,0,B|207:355|207:355|228:247,1,147.600002252197,0|0,0:0|0:0,0:0:0:0:
437,102,53010,2,0,B|398:98|398:98|312:167,1,147.600002252197,0|0,0:0|0:0,0:0:0:0:
74,281,53184,2,0,B|113:285|113:285|199:216,1,147.600002252197,0|0,0:0|0:0,0:0:0:0:
417,309,53358,5,0,0:0:0:0:
332,282,53445,1,0,0:0:0:0:
277,211,53531,1,0,0:0:0:0:
273,121,53618,1,0,0:0:0:0:
321,45,53705,6,0,B|383:20|442:59|442:59|435:157|317:199|317:199|239:222|179:156,1,464.400007086182,0|0,0:0|0:0,0:0:0:0:
61,94,54053,6,0,L|73:19,2,68.8500030991746,0|0|0,0:0|0:0|0:0,0:0:0:0:
101,177,54227,1,0,0:0:0:0:
61,259,54314,1,0,0:0:0:0:
101,341,54401,2,0,L|239:327,1,137.700006198349,0|0,0:0|0:0,0:0:0:0:
451,289,54575,6,0,L|439:364,2,68.8500030991746,0|0|0,0:0|0:0|0:0,0:0:0:0:
411,207,54749,1,0,0:0:0:0:
451,125,54836,1,0,0:0:0:0:
411,43,54923,2,0,L|273:57,1,137.700006198349,0|0,0:0|0:0,0:0:0:0:
72,183,55097,6,0,P|37:196|15:221,2,68.8500030991746,0|0|0,0:0|0:0|0:0,0:0:0:0:
167,203,55271,1,0,0:0:0:0:
262,183,55358,1,0,0:0:0:0:
357,203,55445,2,0,L|497:181,1,137.700006198349,0|0,0:0|0:0,0:0:0:0:
234,281,55618,6,0,B|168:215|58:105|-21:141|-21:141|3:170|29:167,1,177.749998982906,0|0,0:0|0:0,0:0:0:0:
234,281,55705,2,0,B|178:225|138:108|66:56|66:56|54:93|69:114,1,177.749998982906,0|0,0:0|0:0,0:0:0:0:
234,281,55792,2,0,B|190:237|205:176|215:88|215:88|176:96|166:120,1,177.749998982906,0|0,0:0|0:0,0:0:0:0:
234,281,55879,2,0,B|201:248|212:259|293:223|293:223|267:194|241:197,1,177.749998982906,0|0,0:0|0:0,0:0:0:0:
234,281,55966,2,0,B|211:258|171:294|243:347|243:347|255:310|239:289,1,177.749998982906,0|0,0:0|0:0,0:0:0:0:
234,281,56053,2,0,B|222:269|150:273|140:361|140:361|179:353|189:329,1,177.749998982906,0|0,0:0|0:0,0:0:0:0:
234,281,56140,6,0,B|122:317|28:180|135:102|135:102|159:130|159:130|187:127|187:127|215:140,1,397.800015326615,0|0,0:0|0:0,0:0:0:0:
434,272,56401,2,0,B|388:275|388:275|343:266|343:266|320:281|320:281|313:238|281:213|281:213|316:155|316:155|314:119|314:119|329:91|329:91|315:44|315:44|315:11,1,397.800015326615,0|0,0:0|0:0,0:0:0:0:
414,173,56662,6,0,B|336:176|336:176|295:155|295:155|253:168|253:168|228:158|228:158|132:176|132:176|95:168,1,320.400000244446,0|0,0:0|0:0,0:0:0:0:
69,51,56836,6,0,L|195:147,1,149.40000216568,0|0,0:0|0:0,0:0:0:0:
442,332,57010,2,0,L|316:236,1,149.40000216568,0|0,0:0|0:0,0:0:0:0:
24,164,57184,2,0,L|181:183,1,149.40000216568,0|0,0:0|0:0,0:0:0:0:
487,219,57358,2,0,L|330:200,1,149.40000216568,0|0,0:0|0:0,0:0:0:0:
41,283,57531,2,0,L|187:221,1,149.40000216568,0|0,0:0|0:0,0:0:0:0:
470,100,57705,2,0,L|324:162,1,149.40000216568,0|0,0:0|0:0,0:0:0:0:
185,317,57879,6,0,P|260:306|327:351,1,149.40000216568,0|0,0:0|0:0,0:0:0:0:
327,67,58053,2,0,P|226:88|174:47,1,169.199997418213,0|0,0:0|0:0,0:0:0:0:
415,362,58227,6,0,L|307:246,1,149.40000216568,0|0,0:0|0:0,0:0:0:0:
96,21,58401,2,0,L|204:137,1,149.40000216568,0|0,0:0|0:0,0:0:0:0:
489,199,58575,2,0,L|330:194,1,149.40000216568,0|0,0:0|0:0,0:0:0:0:
22,184,58749,2,0,L|181:189,1,149.40000216568,0|0,0:0|0:0,0:0:0:0:
426,32,58923,2,0,L|310:140,1,149.40000216568,0|0,0:0|0:0,0:0:0:0:
85,351,59097,5,0,0:0:0:0:
155,295,59184,1,0,0:0:0:0:
241,273,59271,1,0,0:0:0:0:
328,289,59358,1,0,0:0:0:0:
401,341,59445,2,0,P|461:362|534:318,1,149.40000216568,0|0,0:0|0:0,0:0:0:0:
435,132,59618,6,0,L|445:219,4,86.8499979127694,0|0|0|0|0,0:0|0:0|0:0|0:0|0:0,0:0:0:0:
366,77,59879,1,0,0:0:0:0:
278,80,59966,1,0,0:0:0:0:
212,138,60053,1,0,0:0:0:0:
199,225,60140,1,0,0:0:0:0:
245,300,60227,1,0,0:0:0:0:
328,327,60314,6,0,L|494:354,1,166.499999364853,0|0,0:0|0:0,0:0:0:0:
197,183,60488,2,0,L|30:155,1,166.499999364853,0|0,0:0|0:0,0:0:0:0:
387,140,60662,6,0,P|434:79|378:0,3,166.499999364853,0|0|0|0,0:0|0:0|0:0|0:0,0:0:0:0:
358,74,61010,6,0,L|13:116,1,338.399994836426,0|0,0:0|0:0,0:0:0:0:
79,252,61271,2,0,L|423:209,1,338.399994836426,0|0,0:0|0:0,0:0:0:0:
348,49,61531,2,0,B|320:45|320:45|245:68|245:68|216:64|216:64|145:86|145:86|97:77|97:77|25:95,1,316.800009667969,0|0,0:0|0:0,0:0:0:0:
36,124,61705,5,0,0:0:0:0:
28,218,61792,1,0,0:0:0:0:
68,303,61879,1,0,0:0:0:0:
145,356,61966,1,0,0:0:0:0:
239,364,62053,6,0,B|358:345|358:345|418:335|516:282|421:90|214:193|266:368|381:398|485:317|403:220|403:220|345:154|346:118|346:118|343:46|443:42|467:91|464:189|355:184|346:118|346:118|348:54|317:38,1,1071.89998793753,0|0,0:0|0:0,0:0:0:0:
299,0,62401,6,0,L|264:148,1,151.199995385742,0|0,0:0|0:0,0:0:0:0:
212,383,62575,2,0,L|247:235,1,151.199995385742,0|0,0:0|0:0,0:0:0:0:
166,16,62749,2,0,L|234:152,1,151.199995385742,0|0,0:0|0:0,0:0:0:0:
345,367,62923,2,0,L|277:231,1,151.199995385742,0|0,0:0|0:0,0:0:0:0:
68,131,63097,2,0,L|213:179,1,151.199995385742,0|0,0:0|0:0,0:0:0:0:
443,252,63271,2,0,L|298:204,1,151.199995385742,0|0,0:0|0:0,0:0:0:0:
89,296,63445,2,0,L|218:216,1,151.199995385742,0|0,0:0|0:0,0:0:0:0:
422,87,63618,2,0,L|293:167,1,151.199995385742,0|0,0:0|0:0,0:0:0:0:
246,384,63792,5,0,0:0:0:0:
145,183,63901,1,0,0:0:0:0:
369,196,64031,1,0,0:0:0:0:
145,353,64140,5,0,0:0:0:0:
160,82,64249,1,0,0:0:0:0:
385,230,64379,1,0,0:0:0:0:
40,281,64488,6,0,L|195:242,1,151.199995385742,0|0,0:0|0:0,0:0:0:0:
471,103,64662,2,0,L|324:139,1,151.199995385742,0|0,0:0|0:0,0:0:0:0:
36,148,64836,2,0,B|283:92|231:307|471:275,1,453.599986157227,0|0,0:0|0:0,0:0:0:0:
468,256,65184,6,0,P|482:236|483:206,6,47.7000000727844,0|0|0|0|0|0|0,0:0|0:0|0:0|0:0|0:0|0:0|0:0,0:0:0:0:
442,269,65358,2,0,P|417:271|391:256,6,47.7000000727844,0|0|0|0|0|0|0,0:0|0:0|0:0|0:0|0:0|0:0|0:0,0:0:0:0:
439,237,65531,6,0,L|379:49,1,190.800000291138,0|0,0:0|0:0,0:0:0:0:
314,266,65705,2,0,P|324:304|371:337,4,95.4000001455689,0|0|0|0|0,0:0|0:0|0:0|0:0|0:0,0:0:0:0:
468,346,65966,1,0,0:0:0:0:
227,357,66053,2,0,L|169:362,6,47.7000000727844,0|0|0|0|0|0|0,0:0|0:0|0:0|0:0|0:0|0:0|0:0,0:0:0:0:
257,342,66227,2,0,P|283:238|257:149,1,190.800000291138,0|0,0:0|0:0,0:0:0:0:
197,42,66401,2,0,P|171:146|197:235,1,190.800000291138,0|0,0:0|0:0,0:0:0:0:
437,138,66575,6,0,B|414:79|367:45|367:45|328:161|328:161|308:220|330:331|472:229|390:178|328:160|328:160|279:145|279:145|255:160,1,572.400000873413,0|0,0:0|0:0,0:0:0:0:
260,156,67097,1,0,0:0:0:0:
107,22,67271,6,0,B|57:28|28:11|28:11|180:104|155:200|155:200|129:286|-50:249|3:52|183:93|155:200|155:200|135:266|39:225|26:359|26:359|150:262|243:297,1,1121.40000085556,0|0,0:0|0:0,0:0:0:0:
248,302,67966,5,0,0:0:0:0:
254,294,68140,5,0,0:0:0:0:
442,252,68227,1,0,0:0:0:0:
440,243,68401,5,0,0:0:0:0:
233,196,68488,1,0,0:0:0:0:
236,182,68662,5,0,0:0:0:0:
463,130,68749,1,0,0:0:0:0:
459,116,68923,5,0,0:0:0:0:
209,58,69010,1,0,0:0:0:0:
75,65,69358,6,0,P|53:100|61:136,2,80.1000000611114,0|0|0,0:0|0:0|0:0,0:0:0:0:
90,64,69531,5,0,0:0:0:0:
278,106,69618,1,0,0:0:0:0:
283,118,69792,5,0,0:0:0:0:
76,164,69879,1,0,0:0:0:0:
82,174,70053,5,0,0:0:0:0:
206,201,70140,1,0,0:0:0:0:
179,325,70227,1,0,0:0:0:0:
55,298,70314,1,0,0:0:0:0:
131,250,70401,5,0,0:0:0:0:
131,250,70749,5,0,0:0:0:0:
137,242,70923,5,0,0:0:0:0:
325,200,71010,1,0,0:0:0:0:
323,191,71184,5,0,0:0:0:0:
116,144,71271,1,0,0:0:0:0:
119,130,71445,5,0,0:0:0:0:
346,78,71531,1,0,0:0:0:0:
342,64,71705,5,0,0:0:0:0:
92,6,71792,1,0,0:0:0:0:
79,35,72140,5,0,0:0:0:0:
79,35,72227,1,0,0:0:0:0:
249,11,72314,2,0,P|246:55|230:90,2,80.1000000611114,0|0|0,0:0|0:0|0:0,0:0:0:0:
166,157,72488,5,0,0:0:0:0:
166,157,72575,1,0,0:0:0:0:
13,131,72662,2,0,P|15:175|31:210,2,80.1000000611114,0|0|0,0:0|0:0|0:0,0:0:0:0:
30,324,72836,6,0,L|174:231,1,160.200000122223,0|0,0:0|0:0,0:0:0:0:
415,76,73010,2,0,L|271:169,1,160.200000122223,0|0,0:0|0:0,0:0:0:0:
3,132,73184,2,0,L|167:182,1,160.200000122223,0|0,0:0|0:0,0:0:0:0:
441,267,73358,2,0,L|277:217,1,160.200000122223,0|0,0:0|0:0,0:0:0:0:
152,42,73531,5,0,0:0:0:0:
157,51,73705,5,0,0:0:0:0:
332,96,73792,1,0,0:0:0:0:
328,112,73966,5,0,0:0:0:0:
133,161,74053,1,0,0:0:0:0:
138,178,74227,5,0,0:0:0:0:
354,232,74314,1,0,0:0:0:0:
348,249,74488,5,0,0:0:0:0:
108,308,74575,1,0,0:0:0:0:
389,345,74923,6,0,P|431:331|457:298,2,80.1000000611114,0|0|0,0:0|0:0|0:0,0:0:0:0:
378,340,75097,5,0,0:0:0:0:
184,300,75184,1,0,0:0:0:0:
190,281,75358,5,0,0:0:0:0:
409,235,75445,1,0,0:0:0:0:
404,221,75618,5,0,0:0:0:0:
280,194,75705,1,0,0:0:0:0:
307,70,75792,1,0,0:0:0:0:
431,97,75879,1,0,0:0:0:0:
355,145,75966,5,0,0:0:0:0:
52,298,76314,5,0,0:0:0:0:
63,282,76488,5,0,0:0:0:0:
106,118,76575,1,0,0:0:0:0:
119,123,76749,5,0,0:0:0:0:
167,306,76836,1,0,0:0:0:0:
177,301,77010,5,0,0:0:0:0:
190,296,77184,5,0,0:0:0:0:
243,91,77271,1,0,0:0:0:0:
254,96,77445,5,0,0:0:0:0:
313,325,77531,1,0,0:0:0:0:
378,73,77705,6,0,P|397:22|428:8,2,80.1000000611114,0|0|0,0:0|0:0|0:0,0:0:0:0:
425,157,77879,1,0,0:0:0:0:
378,241,77966,1,0,0:0:0:0:
462,288,78053,1,0,0:0:0:0:
415,372,78140,1,0,0:0:0:0:
331,327,78227,6,0,P|280:308|266:277,2,80.1000000611114,0|0|0,0:0|0:0|0:0,0:0:0:0:
378,241,78401,1,0,0:0:0:0:
329,159,78488,1,0,0:0:0:0:
233,160,78575,1,0,0:0:0:0:
185,243,78662,1,0,0:0:0:0:
300,222,78749,6,0,L|378:199,2,80.1000000611114,0|0|0,0:0|0:0|0:0,0:0:0:0:
49,277,78923,1,0,0:0:0:0:
134,132,79010,1,0,0:0:0:0:
127,343,79097,1,0,0:0:0:0:
256,192,79118,12,0,80227,0:0:0:0:
122,102,80488,5,0,0:0:0:0:
103,72,80575,2,0,L|57:60,4,40.9500013746644,0|0|0|0|0,0:0|0:0|0:0|0:0|0:0,0:0:0:0:
188,163,80836,5,0,0:0:0:0:
207,133,80923,2,0,L|253:121,2,40.9500013746644,0|0|0,0:0|0:0|0:0,0:0:0:0:
323,103,81097,1,0,0:0:0:0:
435,242,81184,5,0,0:0:0:0:
416,212,81271,2,0,L|370:200,2,40.9500013746644,0|0|0,0:0|0:0|0:0,0:0:0:0:
300,182,81445,1,0,0:0:0:0:
346,343,81531,5,0,0:0:0:0:
335,340,81879,6,0,P|307:288|317:232,1,107.999996704102,0|0,0:0|0:0,0:0:0:0:
474,88,82053,2,0,P|442:138|389:157,1,107.999996704102,0|0,0:0|0:0,0:0:0:0:
187,94,82227,2,0,P|246:95|289:132,1,107.999996704102,0|0,0:0|0:0,0:0:0:0:
179,320,82401,2,0,L|159:210,1,107.999996704102,0|0,0:0|0:0,0:0:0:0:
228,38,82575,6,0,P|272:77|281:133,1,107.999996704102,0|0,0:0|0:0,0:0:0:0:
451,217,82749,2,0,P|394:235|341:215,1,107.999996704102,0|0,0:0|0:0,0:0:0:0:
183,321,82923,2,0,P|194:263|238:226,1,107.999996704102,0|0,0:0|0:0,0:0:0:0:
380,50,83097,2,0,L|400:160,1,107.999996704102,0|0,0:0|0:0,0:0:0:0:
118,116,83271,5,0,0:0:0:0:
123,125,83358,2,0,L|254:114,1,128.700001767426,0|0,0:0|0:0,0:0:0:0:
415,286,83531,2,0,L|284:297,1,128.700001767426,0|0,0:0|0:0,0:0:0:0:
65,225,83705,1,0,0:0:0:0:
70,231,83792,2,0,L|201:220,1,128.700001767426,0|0,0:0|0:0,0:0:0:0:
159,314,83966,1,0,0:0:0:0:
153,321,84053,2,0,L|22:332,1,128.700001767426,0|0,0:0|0:0,0:0:0:0:
159,39,84227,1,0,0:0:0:0:
168,31,84314,2,0,P|347:61|366:240,1,386.100005302277,0|0,0:0|0:0,0:0:0:0:
176,275,84662,6,0,P|207:224|260:205,1,107.999996704102,0|0,0:0|0:0,0:0:0:0:
315,23,84836,2,0,P|343:74|333:130,1,107.999996704102,0|0,0:0|0:0,0:0:0:0:
463,269,85010,2,0,P|403:266|360:229,1,107.999996704102,0|0,0:0|0:0,0:0:0:0:
158,98,85184,2,0,L|269:88,1,107.999996704102,0|0,0:0|0:0,0:0:0:0:
473,173,85357,6,0,L|362:163,1,107.999996704102,0|0,0:0|0:0,0:0:0:0:
183,232,85531,2,0,L|294:222,1,107.999996704102,0|0,0:0|0:0,0:0:0:0:
405,309,85705,2,0,L|294:299,1,107.999996704102,0|0,0:0|0:0,0:0:0:0:
215,384,85879,2,0,L|326:374,1,107.999996704102,0|0,0:0|0:0,0:0:0:0:
394,224,86053,5,0,0:0:0:0:
344,201,86140,1,0,0:0:0:0:
289,206,86227,1,0,0:0:0:0:
243,237,86314,1,0,0:0:0:0:
187,240,86401,1,0,0:0:0:0:
137,215,86488,1,0,0:0:0:0:
106,168,86575,1,0,0:0:0:0:
102,111,86662,1,0,0:0:0:0:
127,59,86749,6,0,L|177:34,2,53.9999983520508,0|0|0,0:0|0:0|0:0,0:0:0:0:
27,175,86923,1,0,0:0:0:0:
212,130,87010,2,0,L|267:133,2,53.9999983520508,0|0|0,0:0|0:0|0:0,0:0:0:0:
53,14,87184,2,0,L|-2:10,2,53.9999983520508,0|0|0,0:0|0:0|0:0,0:0:0:0:
228,339,87444,6,0,P|229:279|266:236,1,107.999996704102,0|0,0:0|0:0,0:0:0:0:
474,190,87618,2,0,P|421:217|365:207,1,107.999996704102,0|0,0:0|0:0,0:0:0:0:
222,51,87792,2,0,P|272:81|291:134,1,107.999996704102,0|0,0:0|0:0,0:0:0:0:
152,267,87966,2,0,L|44:253,1,107.999996704102,0|0,0:0|0:0,0:0:0:0:
243,46,88140,6,0,P|256:103|232:154,1,107.999996704102,0|0,0:0|0:0,0:0:0:0:
322,322,88314,2,0,P|265:305|233:258,1,107.999996704102,0|0,0:0|0:0,0:0:0:0:
44,253,88488,2,0,P|87:212|143:208,1,107.999996704102,0|0,0:0|0:0,0:0:0:0:
380,158,88662,2,0,L|308:243,1,107.999996704102,0|0,0:0|0:0,0:0:0:0:
31,144,88836,5,0,0:0:0:0:
38,133,88923,1,0,0:0:0:0:
46,124,89010,2,0,L|168:138,1,119.699995068512,0|0,0:0|0:0,0:0:0:0:
448,247,89184,1,0,0:0:0:0:
438,255,89270,2,0,L|316:241,1,119.699995068512,0|0,0:0|0:0,0:0:0:0:
132,49,89444,1,0,0:0:0:0:
142,40,89531,2,0,L|264:54,1,119.699995068512,0|0,0:0|0:0,0:0:0:0:
369,335,89705,1,0,0:0:0:0:
359,343,89792,2,0,P|224:307|395:165,1,478.799980274049,0|0,0:0|0:0,0:0:0:0:
319,241,90227,6,0,B|254:257|254:257|201:253|201:253|70:289|70:289|46:233|46:233|50:190|50:190|34:150|34:150|40:106|40:106|24:50|24:50|146:13,2,623.700005948067,0|0|0,0:0|0:0|0:0,0:0:0:0:
133,137,90923,2,0,B|223:114|223:114|280:120|280:120|438:87|438:87|466:168|466:168|409:187|409:187|434:257|434:257|422:300|422:300|434:347,2,623.700005948067,0|0|0,0:0|0:0|0:0,0:0:0:0:
199,250,91618,5,0,0:0:0:0:
281,190,91705,2,0,P|301:238|298:273,2,75.1499976492692,0|0|0,0:0|0:0|0:0,0:0:0:0:
110,182,91879,1,0,0:0:0:0:
110,182,91966,5,0,0:0:0:0:
44,99,92053,2,0,P|92:79|127:82,2,75.1499976492692,0|0|0,0:0|0:0|0:0,0:0:0:0:
67,288,92227,1,0,0:0:0:0:
67,288,92314,5,0,0:0:0:0:
127,365,92401,2,0,P|79:385|44:382,2,75.1499976492692,0|0|0,0:0|0:0|0:0,0:0:0:0:
15,198,92575,1,0,0:0:0:0:
288,115,92662,6,0,B|289:154|361:166|449:47|359:-84|50:-103|41:369|458:279|416:96,1,572.400000873413,0|0,0:0|0:0,0:0:0:0:
418,144,93010,6,0,B|435:96|435:96|466:183|466:183|479:145,14,179.10000444088,0|0|0|0|0|0|0|0|0|0|0|0|0|0|0,0:0|0:0|0:0|0:0|0:0|0:0|0:0|0:0|0:0|0:0|0:0|0:0|0:0|0:0|0:0,0:0:0:0:
405,161,93705,6,0,P|352:189|297:179,1,107.999996704102,0|0,0:0|0:0,0:0:0:0:
158,309,93879,2,0,P|159:250|195:207,1,107.999996704102,0|0,0:0|0:0,0:0:0:0:
153,22,94053,2,0,P|203:54|222:108,1,107.999996704102,0|0,0:0|0:0,0:0:0:0:
340,290,94227,2,0,L|229:280,1,107.999996704102,0|0,0:0|0:0,0:0:0:0:
27,142,94401,5,0,0:0:0:0:
36,129,94488,2,0,L|173:141,1,133.200003251953,0|0,0:0|0:0,0:0:0:0:
455,216,94662,1,0,0:0:0:0:
446,229,94749,2,0,L|310:217,1,133.200003251953,0|0,0:0|0:0,0:0:0:0:
218,68,94923,2,0,L|355:79,1,133.200003251953,0|0,0:0|0:0,0:0:0:0:
478,306,95097,2,0,L|341:294,1,133.200003251953,0|0,0:0|0:0,0:0:0:0:
117,84,95270,1,0,0:0:0:0:
127,69,95357,2,0,P|254:42|238:335,1,532.800013007813,0|0,0:0|0:0,0:0:0:0:
100,221,95792,6,0,P|146:183|202:183,1,107.999996704102,0|0,0:0|0:0,0:0:0:0:
316,31,95966,2,0,P|324:88|296:137,1,107.999996704102,0|0,0:0|0:0,0:0:0:0:
371,313,96140,2,0,P|315:289|287:240,1,107.999996704102,0|0,0:0|0:0,0:0:0:0:
144,43,96314,2,0,L|251:71,1,107.999996704102,0|0,0:0|0:0,0:0:0:0:
470,119,96488,6,0,L|359:109,1,107.999996704102,0|0,0:0|0:0,0:0:0:0:
180,176,96662,2,0,L|291:165,1,107.999996704102,0|0,0:0|0:0,0:0:0:0:
402,254,96836,2,0,L|290:244,1,107.999996704102,0|0,0:0|0:0,0:0:0:0:
212,329,97010,2,0,L|323:319,1,107.999996704102,0|0,0:0|0:0,0:0:0:0:
482,284,97184,5,0,0:0:0:0:
483,235,97270,1,0,0:0:0:0:
459,192,97357,1,0,0:0:0:0:
416,166,97444,1,0,0:0:0:0:
365,164,97531,1,0,0:0:0:0:
319,187,97618,2,0,P|242:222|119:190,1,215.999993408203,0|0,0:0|0:0,0:0:0:0:
272,28,97879,2,0,L|253:146,1,107.999996704102,0|0,0:0|0:0,0:0:0:0:
112,322,98053,1,0,0:0:0:0:
118,337,98140,2,0,P|217:334|212:231,2,215.999993408203,0|0|0,0:0|0:0|0:0,0:0:0:0:
35,108,98575,6,0,B|214:94|214:94|282:112,2,242.999992584229,0|0|0,0:0|0:0|0:0,0:0:0:0:
459,178,98923,2,0,B|280:192|280:192|212:174,2,242.999992584229,0|0|0,0:0|0:0|0:0,0:0:0:0:
3,262,99270,2,0,B|182:248|182:248|250:266,2,242.999992584229,0|0|0,0:0|0:0|0:0,0:0:0:0:
420,335,99618,2,0,B|293:357|293:357|159:324,2,242.999992584229,0|0|0,0:0|0:0|0:0,0:0:0:0:
376,34,99966,6,0,P|392:78|389:120,4,86.4000021093751,0|0|0|0|0,0:0|0:0|0:0|0:0|0:0,0:0:0:0:
118,93,100227,1,0,0:0:0:0:
103,105,100314,2,0,P|89:207|133:274,1,172.80000421875,0|0,0:0|0:0,0:0:0:0:
251,352,100488,1,0,0:0:0:0:
266,340,100575,2,0,P|280:238|236:171,1,172.80000421875,0|0,0:0|0:0,0:0:0:0:
38,331,100749,1,0,0:0:0:0:
38,331,100836,6,0,B|88:278|11:225|15:159|15:159|25:68|199:52|212:280|8:273|15:158|15:158|32:59|147:136|186:55|186:55|195:117|238:144,1,864.000021093751,0|0,0:0|0:0,0:0:0:0:
239,146,101357,6,0,L|484:133,2,242.999992584229,0|0|0,0:0|0:0|0:0,0:0:0:0:
226,156,102140,1,0,0:0:0:0:
235,309,102401,2,0,P|266:249|234:162,1,161.999995056153,0|0,0:0|0:0,0:0:0:0:
187,237,102749,2,0,B|125:268|108:295|108:295|150:228|53:120|53:120|105:177|152:168,1,404.999987640381,0|0,0:0|0:0,0:0:0:0:
150,159,103792,1,0,0:0:0:0:
153,152,104140,6,0,B|171:123|167:53|130:21|130:21|178:105|20:251|101:342|146:355|146:355|115:253|0:278|0:278|111:318|254:192|377:278|377:278|324:259|257:256|203:288|203:288|254:386|445:368|474:232|431:103|385:81|385:81|406:177|240:223|156:86|264:-29|340:3|358:27|358:27|294:3|250:48|257:91,1,2246.39998628906
166,90,114575,5,0,0:0:0:0:
174,81,114662,2,0,L|368:73,1,190.800000291138,0|0,0:0|0:0,0:0:0:0:
446,41,114836,2,0,B|459:179|459:179|441:236,1,190.800000291138,0|0,0:0|0:0,0:0:0:0:
374,219,115010,2,0,P|352:321|510:250,1,381.600000582275,0|0,0:0|0:0,0:0:0:0:
486,257,115270,6,0,L|495:129,1,126,0|0,0:0|0:0,0:0:0:0:
453,45,116662,5,0,0:0:0:0:
188,58,116749,2,0,L|201:122,1,58.4999973220826,0|0,0:0|0:0,0:0:0:0:
215,128,116836,1,0,0:0:0:0:
387,134,116923,1,0,0:0:0:0:
295,279,117010,1,0,0:0:0:0:
281,288,117184,5,0,0:0:0:0:
72,287,117270,2,0,L|86:226,1,58.4999973220826,0|0,0:0|0:0,0:0:0:0:
99,221,117357,1,0,0:0:0:0:
241,210,117444,1,0,0:0:0:0:
161,93,117531,1,0,0:0:0:0:
170,77,117705,5,0,0:0:0:0:
420,43,117792,2,0,L|415:105,1,58.4999973220826,0|0,0:0|0:0,0:0:0:0:
407,112,117879,1,0,0:0:0:0:
166,169,117966,1,0,0:0:0:0:
379,346,118053,6,0,L|385:220,1,126,0|0,0:0|0:0,0:0:0:0:
363,137,119444,5,0,0:0:0:0:
101,269,119531,2,0,L|172:259,1,61.2000003735352,0|0,0:0|0:0,0:0:0:0:
186,246,119618,1,0,0:0:0:0:
133,154,119705,1,0,0:0:0:0:
186,62,119792,1,0,0:0:0:0:
264,222,119879,1,0,0:0:0:0:
226,157,119966,1,0,0:0:0:0:
445,43,120140,6,0,L|427:298,1,244.800001494141,0|0,0:0|0:0,0:0:0:0:
287,336,120401,2,0,P|268:220|373:163,1,244.800001494141,0|0,0:0|0:0,0:0:0:0:
492,369,120662,2,0,L|354:355,1,122.40000074707,0|0,0:0|0:0,0:0:0:0:
111,320,120836,6,0,L|121:264,1,54,0|0,0:0|0:0,0:0:0:0:
92,186,121531,5,0,0:0:0:0:
285,101,121618,2,0,L|274:170,1,69.2999986253357,0|0,0:0|0:0,0:0:0:0:
261,184,121705,1,0,0:0:0:0:
67,91,121792,1,0,0:0:0:0:
404,65,121879,2,0,L|382:206,1,138.599997250671,0|0,0:0|0:0,0:0:0:0:
174,224,122053,2,0,L|186:304,1,69.2999986253357,0|0,0:0|0:0,0:0:0:0:
203,304,122140,1,0,0:0:0:0:
410,345,122227,6,0,L|406:292,1,54,0|0,0:0|0:0,0:0:0:0:
477,217,122923,5,0,0:0:0:0:
395,182,123010,1,0,0:0:0:0:
324,235,123097,1,0,0:0:0:0:
255,143,123270,5,0,0:0:0:0:
74,232,123357,2,0,L|97:153,1,71.5500001091766,0|0,0:0|0:0,0:0:0:0:
116,144,123444,1,0,0:0:0:0:
183,331,123531,1,0,0:0:0:0:
272,307,123618,5,0,0:0:0:0:
281,298,123792,5,0,0:0:0:0:
464,262,123879,1,0,0:0:0:0:
460,250,124053,5,0,0:0:0:0:
295,217,124140,1,0,0:0:0:0:
297,202,124314,5,0,0:0:0:0:
445,172,124401,1,0,0:0:0:0:
443,156,124575,5,0,0:0:0:0:
309,129,124662,1,0,0:0:0:0:
313,114,124836,5,0,0:0:0:0:
319,98,125010,5,0,0:0:0:0:
286,355,125184,1,0,0:0:0:0:
239,33,125357,1,0,0:0:0:0:
377,355,125531,1,0,0:0:0:0:
435,71,125705,6,0,B|453:54|469:76|469:76|454:54|489:47|489:47|454:54|466:21|466:21|454:54|435:35|435:35|454:54|434:70|434:70,3,207.900001982689,0|0|0|0,0:0|0:0|0:0|0:0,0:0:0:0:
462,154,126053,2,0,B|272:215|226:129|226:129|276:223|276:223|230:137|13:207,1,623.700005948067,0|0,0:0|0:0,0:0:0:0:
36,247,126401,6,0,P|105:300|187:289,1,161.999995056153,0|0,0:0|0:0,0:0:0:0:
476,137,126575,2,0,P|407:84|325:95,1,161.999995056153,0|0,0:0|0:0,0:0:0:0:
247,376,126749,2,0,P|282:288|245:226,1,161.999995056153,0|0,0:0|0:0,0:0:0:0:
265,8,126923,2,0,P|230:96|267:158,1,161.999995056153,0|0,0:0|0:0,0:0:0:0:
457,311,127097,2,0,P|386:221|321:197,1,161.999995056153,0|0,0:0|0:0,0:0:0:0:
55,73,127270,2,0,P|126:163|191:187,1,161.999995056153,0|0,0:0|0:0,0:0:0:0:
360,159,127444,6,0,L|388:-3,1,161.999995056153,0|0,0:0|0:0,0:0:0:0:
152,225,127618,2,0,L|124:387,1,161.999995056153,0|0,0:0|0:0,0:0:0:0:
422,248,127792,6,0,P|357:293|291:244,1,161.999995056153,0|0,0:0|0:0,0:0:0:0:
90,136,127966,2,0,P|155:91|221:140,1,161.999995056153,0|0,0:0|0:0,0:0:0:0:
459,334,128140,2,0,B|319:301|319:301|299:274,1,161.999995056153,0|0,0:0|0:0,0:0:0:0:
53,334,128314,2,0,B|193:301|193:301|213:274,1,161.999995056153,0|0,0:0|0:0,0:0:0:0:
407,62,128488,6,0,B|309:45|309:45|295:67|295:67|247:57,1,161.999995056153,0|0,0:0|0:0,0:0:0:0:
180,41,128662,6,0,P|182:75|206:123,1,80.9999975280763,0|0,0:0|0:0,0:0:0:0:
155,52,128749,2,0,P|172:89|201:117,1,80.9999975280763,0|0,0:0|0:0,0:0:0:0:
132,78,128836,2,0,P|163:104|201:117,1,80.9999975280763,0|0,0:0|0:0,0:0:0:0:
122,118,128923,2,0,P|161:125|201:117,1,80.9999975280763,0|0,0:0|0:0,0:0:0:0:
137,163,129010,2,0,P|173:146|201:117,1,80.9999975280763,0|0,0:0|0:0,0:0:0:0:
196,220,129097,1,0,0:0:0:0:
477,143,129184,6,0,P|359:189|316:182,1,161.999995056153,0|0,0:0|0:0,0:0:0:0:
35,143,129357,2,0,P|153:189|196:182,1,161.999995056153,0|0,0:0|0:0,0:0:0:0:
430,33,129531,2,0,P|353:96|331:175,1,161.999995056153,0|0,0:0|0:0,0:0:0:0:
82,351,129705,2,0,P|159:288|181:209,1,161.999995056153,0|0,0:0|0:0,0:0:0:0:
88,51,129879,2,0,L|265:30,1,161.999995056153,0|0,0:0|0:0,0:0:0:0:
465,251,130053,2,0,L|288:272,1,161.999995056153,0|0,0:0|0:0,0:0:0:0:
40,232,130227,2,0,P|123:185|212:190,1,161.999995056153,0|0,0:0|0:0,0:0:0:0:
472,152,130401,2,0,P|389:199|300:194,1,161.999995056153,0|0,0:0|0:0,0:0:0:0:
213,37,130575,6,0,L|229:214,1,170.099998896904,0|0,0:0|0:0,0:0:0:0:
251,223,130836,2,0,L|266:53,1,170.099998896904,0|0,0:0|0:0,0:0:0:0:
277,68,131097,2,0,L|292:237,1,170.099998896904,0|0,0:0|0:0,0:0:0:0:
321,261,131357,2,0,L|336:91,1,170.099998896904,0|0,0:0|0:0,0:0:0:0:
366,71,131618,6,0,L|371:182,6,105.300000401688,0|0|0|0|0|0|0,0:0|0:0|0:0|0:0|0:0|0:0|0:0,0:0:0:0:
490,270,131966,6,0,P|376:289|292:232,1,210.600000803375,0|0,0:0|0:0,0:0:0:0:
22,270,132140,2,0,P|136:289|220:232,1,210.600000803375,0|0,0:0|0:0,0:0:0:0:
114,29,132314,2,0,P|202:104|148:160,1,210.600000803375,0|0,0:0|0:0,0:0:0:0:
275,342,132488,2,0,P|187:267|241:211,1,210.600000803375,0|0,0:0|0:0,0:0:0:0:
474,344,132662,2,0,P|345:268|337:204,1,210.600000803375,0|0,0:0|0:0,0:0:0:0:
466,8,132836,2,0,P|390:137|326:145,1,210.600000803375,0|0,0:0|0:0,0:0:0:0:
24,92,133010,2,0,P|132:89|235:126,1,210.600000803375,0|0,0:0|0:0,0:0:0:0:
448,239,133184,2,0,P|340:242|237:205,1,210.600000803375,0|0,0:0|0:0,0:0:0:0:
487,133,133357,6,0,P|373:142|287:206,1,210.600000803375,0|0,0:0|0:0,0:0:0:0:
171,332,133531,2,0,P|285:323|371:259,1,210.600000803375,0|0,0:0|0:0,0:0:0:0:
176,50,133705,2,0,L|118:267,1,210.600000803375,0|0,0:0|0:0,0:0:0:0:
428,346,133879,2,0,L|486:129,1,210.600000803375,0|0,0:0|0:0,0:0:0:0:
321,41,134053,5,0,0:0:0:0:
231,191,134140,1,0,0:0:0:0:
403,104,134227,1,0,0:0:0:0:
114,121,134314,1,0,0:0:0:0:
419,187,134401,2,0,P|516:133|358:124,1,421.20000160675,0|0,0:0|0:0,0:0:0:0:
366,133,134749,6,0,B|309:57|461:5|484:172|325:208|325:208|199:242|224:468|459:356|325:208|325:208|279:167|238:109|302:15,1,900,0|0,0:0|0:0,0:0:0:0:
302,25,135097,6,0,B|176:271|15:22|277:72|277:72|326:81|391:122|382:206|382:206|361:345|513:328|511:164|295:207,1,900,0|0,0:0|0:0,0:0:0:0:
314,206,135444,6,0,B|126:146|95:349|299:350|295:129|295:129|291:-25|568:-6|535:202|452:281|321:213|400:100,1,900,0|0,0:0|0:0,0:0:0:0:
394,125,135792,6,0,B|477:57|573:143|491:294|304:116|304:116|212:30|19:82|125:391|370:200,1,900,0|0,0:0|0:0,0:0:0:0:
387,189,136140,5,0,0:0:0:0:
393,186,136227,2,0,B|447:277|272:322|226:107|399:76|399:76|227:107|163:34|163:34|226:107|98:365|-77:172|67:87|154:145|154:145|242:209|193:281|193:281|119:389|334:499|320:184|48:291|48:291|89:281|112:297,1,1673.10002297653,0|0,0:0|0:0,0:0:0:0:
352,353,137531,6,0,P|428:329|499:217,1,210.600000803375,0|0,0:0|0:0,0:0:0:0:
252,126,137705,1,0,0:0:0:0:
230,133,137792,2,0,P|212:210|274:328,1,210.600000803375,0|0,0:0|0:0,0:0:0:0:
476,159,137966,1,0,0:0:0:0:
481,137,138053,2,0,P|422:83|289:77,1,210.600000803375,0|0,0:0|0:0,0:0:0:0:
338,338,138227,5,0,0:0:0:0:
352,353,138314,2,0,P|428:329|499:217,1,210.600000803375,0|0,0:0|0:0,0:0:0:0:
230,133,138488,1,0,0:0:0:0:
214,151,138575,2,0,B|106:164|106:164|10:122,1,210.600000803375,0|0,0:0|0:0,0:0:0:0:
277,58,138749,1,0,0:0:0:0:
362,212,138836,6,0,P|341:261|342:187,1,216,0|0,0:0|0:0,0:0:0:0:
201,365,139270,6,0,P|131:266|137:171,1,210.600000803375,0|0,0:0|0:0,0:0:0:0:
230,133,139444,1,0,0:0:0:0:
51,128,139531,1,0,0:0:0:0:
148,228,139618,2,0,P|268:239|348:186,1,210.600000803375,0|0,0:0|0:0,0:0:0:0:
230,133,139792,1,0,0:0:0:0:
301,322,139879,1,0,0:0:0:0:
337,87,139966,2,0,B|332:62|345:37|345:37|352:66|336:88,6,105.300000401688,0|0|0|0|0|0|0,0:0|0:0|0:0|0:0|0:0|0:0|0:0,0:0:0:0:
327,185,140314,6,0,P|347:258|474:324,1,210.600000803375,0|0,0:0|0:0,0:0:0:0:
415,126,140488,1,0,0:0:0:0:
407,106,140575,2,0,P|333:86|213:163,1,210.600000803375,0|0,0:0|0:0,0:0:0:0:
414,211,140749,1,0,0:0:0:0:
435,214,140836,2,0,P|488:160|481:17,1,210.600000803375,0|0,0:0|0:0,0:0:0:0:
327,185,141010,1,0,0:0:0:0:
310,204,141097,2,0,L|92:233,1,210.600000803375,0|0,0:0|0:0,0:0:0:0:
14,69,141270,1,0,0:0:0:0:
31,88,141357,2,0,L|249:117,1,210.600000803375,0|0,0:0|0:0,0:0:0:0:
462,5,141531,2,0,L|433:223,1,210.600000803375,0|0,0:0|0:0,0:0:0:0:
192,339,141705,6,0,P|219:236|208:120,1,210.600000803375,0|0,0:0|0:0,0:0:0:0:
108,22,141879,1,0,0:0:0:0:
320,339,141966,2,0,P|293:236|304:120,1,210.600000803375,0|0,0:0|0:0,0:0:0:0:
404,22,142140,1,0,0:0:0:0:
20,263,142227,2,0,P|129:222|234:251,1,210.600000803375,0|0,0:0|0:0,0:0:0:0:
366,334,142401,6,0,B|373:357|373:357|390:341|390:341|366:334,10,52.6500002008438
329,244,142662,2,0,L|339:134,1,105.300000401688,0|0,0:0|0:0,0:0:0:0:
441,101,142749,2,0,L|431:211,1,105.300000401688,0|0,0:0|0:0,0:0:0:0:
253,142,142836,2,0,L|257:103,16,26.3250001004219
95,315,143097,6,0,P|128:312|159:316,1,59.8499975342561,0|0,0:0|0:0,0:0:0:0:
95,284,143184,2,0,P|128:281|159:285,1,54.8999977381898,0|0,0:0|0:0,0:0:0:0:
95,253,143270,2,0,P|128:250|159:254,1,49.9500012194825,0|0,0:0|0:0,0:0:0:0:
95,222,143357,2,0,P|128:219|159:223,1,45.4499990984345,0|0,0:0|0:0,0:0:0:0:
95,191,143444,2,0,B|241:159|285:323|448:266,1,359.099985205536,0|0,0:0|0:0,0:0:0:0:
407,57,143792,6,0,L|478:84,7,59.8499975342561
385,51,144140,2,0,P|314:78|450:124,1,359.099985205536,0|0,0:0|0:0,0:0:0:0:
209,55,144488,6,0,L|150:66,4,59.8499975342561,0|0|0|0|0,0:0|0:0|0:0|0:0|0:0,0:0:0:0:
283,172,144749,2,0,B|291:184|285:200|285:200|277:184|283:172,8,56.25,0|0|0|0|0|0|0|0|0,0:0|0:0|0:0|0:0|0:0|0:0|0:0|0:0|0:0,0:0:0:0:
183,202,144966,2,0,B|175:214|181:230|181:230|189:214|183:202,8,56.25,0|0|0|0|0|0|0|0|0,0:0|0:0|0:0|0:0|0:0|0:0|0:0|0:0|0:0,0:0:0:0:
439,131,145184,6,0,L|450:190,6,59.8499975342561,0|0|0|0|0|0|0,0:0|0:0|0:0|0:0|0:0|0:0|0:0,0:0:0:0:
431,100,145531,2,0,B|307:84|307:84|294:92|294:92|163:73|163:73|202:60|202:60|282:73,1,359.099985205536,0|0,0:0|0:0,0:0:0:0:
103,144,145879,6,0,P|91:206|107:272,1,119.699995068512,0|0,0:0|0:0,0:0:0:0:
358,108,146053,2,0,P|370:170|354:236,1,119.699995068512,0|0,0:0|0:0,0:0:0:0:
77,147,146227,2,0,P|63:222|82:301,1,119.699995068512,0|0,0:0|0:0,0:0:0:0:
383,104,146401,2,0,P|397:178|378:258,1,119.699995068512,0|0,0:0|0:0,0:0:0:0:
35,211,146575,5,0,0:0:0:0:
268,286,146662,1,0,0:0:0:0:
145,86,146749,1,0,0:0:0:0:
192,329,146836,1,0,0:0:0:0:
292,85,146923,2,0,B|301:66|291:53|291:53|284:66|292:85,8,59.8499975342561,0|0|0|0|0|0|0|0|0,0:0|0:0|0:0|0:0|0:0|0:0|0:0|0:0|0:0,0:0:0:0:
256,192,147292,12,0,148575,0:0:0:0:
315,108,148662,5,0,0:0:0:0:
358,224,148836,1,0,0:0:0:0:
116,198,149010,2,0,B|200:192|200:192|221:184|221:184|303:179,1,170.999995433807,0|0,0:0|0:0,0:0:0:0:
358,224,149270,1,0,0:0:0:0:
275,348,149357,2,0,L|283:262,1,85.4999977169037,0|0,0:0|0:0,0:0:0:0:
429,130,149531,2,0,L|426:179,2,42.7499988584519,0|0|0,0:0|0:0|0:0,0:0:0:0:
365,36,149705,6,0,B|280:30|280:30|259:22|259:22|177:17,1,170.999995433807,0|0,0:0|0:0,0:0:0:0:
123,71,149966,2,0,L|126:120,2,42.7499988584519,0|0|0,0:0|0:0|0:0,0:0:0:0:
196,167,150140,2,0,L|188:266,1,85.4999977169037,0|0,0:0|0:0,0:0:0:0:
117,320,150314,1,0,0:0:0:0:
218,341,150401,2,0,B|302:335|302:335|323:327|323:327|405:322,1,170.999995433807,0|0,0:0|0:0,0:0:0:0:
445,249,150662,1,0,0:0:0:0:
370,193,150749,6,0,L|279:196,1,85.4999977169037,0|0,0:0|0:0,0:0:0:0:
191,230,150923,2,0,L|188:279,2,42.7499988584519,0|0|0,0:0|0:0|0:0,0:0:0:0:
107,133,151097,2,0,L|155:128,4,42.7499988584519,0|0|0|0|0,0:0|0:0|0:0|0:0|0:0,0:0:0:0:
37,55,151357,1,0,0:0:0:0:
214,69,151444,6,0,L|316:76,1,85.4999977169037,0|0,0:0|0:0,0:0:0:0:
468,106,151618,2,0,L|366:113,1,85.4999977169037,0|0,0:0|0:0,0:0:0:0:
300,171,151792,2,0,B|215:176|215:176|194:184|194:184|112:189,1,170.999995433807,0|0,0:0|0:0,0:0:0:0:
50,140,152053,1,0,0:0:0:0:
18,231,152140,2,0,L|15:280,2,42.7499988584519,0|0|0,0:0|0:0|0:0,0:0:0:0:
92,333,152314,2,0,L|183:320,1,85.4999977169037,0|0,0:0|0:0,0:0:0:0:
247,250,152488,2,0,B|331:255|331:255|352:263|352:263|434:268,1,170.999995433807,0|0,0:0|0:0,0:0:0:0:
484,189,152749,2,0,L|486:146,2,42.7499988584519,0|0|0,0:0|0:0|0:0,0:0:0:0:
481,323,152923,5,0,0:0:0:0:
383,173,153010,1,0,0:0:0:0:
501,59,153097,2,0,B|416:53|416:53|395:45|395:45|313:40,1,170.999995433807,0|0,0:0|0:0,0:0:0:0:
228,72,153357,1,0,0:0:0:0:
299,144,153444,2,0,L|303:238,1,85.4999977169037,0|0,0:0|0:0,0:0:0:0:
238,296,153618,1,0,0:0:0:0:
161,237,153705,2,0,L|158:194,2,42.7499988584519,0|0|0,0:0|0:0|0:0,0:0:0:0:
79,305,153879,2,0,L|75:356,4,42.7499988584519,0|0|0|0|0,0:0|0:0|0:0|0:0|0:0,0:0:0:0:
37,202,154140,1,0,0:0:0:0:
97,124,154227,6,0,L|196:118,1,85.4999977169037,0|0,0:0|0:0,0:0:0:0:
250,183,154401,2,0,L|349:189,1,85.4999977169037,0|0,0:0|0:0,0:0:0:0:
420,60,154575,2,0,B|425:144|425:144|433:165|433:165|438:247,1,170.999995433807,0|0,0:0|0:0,0:0:0:0:
374,297,154836,1,0,0:0:0:0:
282,264,154923,2,0,L|183:270,1,85.4999977169037,0|0,0:0|0:0,0:0:0:0:
129,332,155097,2,0,L|125:383,2,42.7499988584519,0|0|0,0:0|0:0|0:0,0:0:0:0:
94,235,155270,2,0,B|99:150|99:150|107:129|107:129|111:65,1,170.999995433807,0|0,0:0|0:0,0:0:0:0:
209,138,155531,6,0,L|213:189,2,42.7499988584519,0|0|0,0:0|0:0|0:0,0:0:0:0:
259,44,155705,2,0,L|357:51,1,85.4999977169037,0|0,0:0|0:0,0:0:0:0:
443,8,155879,1,0,0:0:0:0:
471,121,155966,2,0,B|465:205|465:205|457:226|457:226|453:290,1,170.999995433807,0|0,0:0|0:0,0:0:0:0:
364,343,156227,1,0,0:0:0:0:
288,271,156314,2,0,L|190:278,1,85.4999977169037,0|0,0:0|0:0,0:0:0:0:
138,344,156488,2,0,L|40:337,1,85.4999977169037,0|0,0:0|0:0,0:0:0:0:
11,252,156662,2,0,L|15:201,4,42.7499988584519,0|0|0|0|0,0:0|0:0|0:0|0:0|0:0,0:0:0:0:
88,143,156923,1,0,0:0:0:0:
153,209,157010,6,0,L|249:202,1,85.4999977169037,0|0,0:0|0:0,0:0:0:0:
273,120,157184,2,0,L|369:127,1,85.4999977169037,0|0,0:0|0:0,0:0:0:0:
429,198,157357,2,0,B|419:282|419:282|423:304|423:304|416:367,1,170.999995433807,0|0,0:0|0:0,0:0:0:0:
303,304,157618,1,0,0:0:0:0:
215,351,157705,6,0,L|121:340,1,85.4999977169037,0|0,0:0|0:0,0:0:0:0:
55,258,157879,2,0,L|48:306,2,42.7499988584519,0|0|0,0:0|0:0|0:0,0:0:0:0:
154,223,158053,2,0,B|144:138|144:138|148:116|148:116|141:53,1,170.999995433807,0|0,0:0|0:0,0:0:0:0:
43,42,158314,2,0,L|36:-6,2,42.7499988584519,0|0|0,0:0|0:0|0:0,0:0:0:0:
17,158,158488,5,0,0:0:0:0:
126,113,158575,2,0,L|228:124,1,85.4999977169037,0|0,0:0|0:0,0:0:0:0:
278,194,158749,2,0,B|362:184|362:184|381:177|381:177|447:170,1,170.999995433807,0|0,0:0|0:0,0:0:0:0:
479,76,159010,1,0,0:0:0:0:
376,39,159097,6,0,L|278:33,1,85.4999977169037,0|0,0:0|0:0,0:0:0:0:
131,98,159270,1,0,0:0:0:0:
265,193,159357,1,0,0:0:0:0:
244,44,159444,2,0,L|237:-4,4,42.7499988584519,0|0|0|0|0,0:0|0:0|0:0|0:0|0:0,0:0:0:0:
180,169,159705,1,0,0:0:0:0:
326,264,159792,6,0,B|345:260|345:260|361:269|361:269|343:273|343:273|326:264,2,64.8000015820313,0|0|0,0:0|0:0|0:0,0:0:0:0:
109,292,159966,1,0,0:0:0:0:
356,191,160053,6,0,B|370:178|370:178|388:177|388:177|375:190|375:190|356:191,2,64.8000015820313,0|0|0,0:0|0:0|0:0,0:0:0:0:
182,323,160227,1,0,0:0:0:0:
347,111,160314,6,0,B|353:92|353:92|368:83|368:83|363:100|363:100|347:111,2,64.8000015820313,0|0|0,0:0|0:0|0:0,0:0:0:0:
262,312,160488,1,0,0:0:0:0:
300,48,160575,6,0,B|295:29|295:29|305:12|305:12|309:30|309:30|300:48,2,64.8000015820313,0|0|0,0:0|0:0|0:0,0:0:0:0:
326,264,160749,1,0,0:0:0:0:
226,17,160836,6,0,B|213:2|213:2|212:-15|212:-15|225:-2|225:-2|226:17,2,64.8000015820313,0|0|0,0:0|0:0|0:0,0:0:0:0:
356,191,161010,1,0,0:0:0:0:
148,26,161097,6,0,B|129:19|129:19|120:4|120:4|137:9|137:9|148:26,2,64.8000015820313,0|0|0,0:0|0:0|0:0,0:0:0:0:
347,111,161271,1,0,0:0:0:0:
86,74,161357,6,0,B|66:78|66:78|51:68|51:68|68:64|68:64|86:74,2,64.8000015820313,0|0|0,0:0|0:0|0:0,0:0:0:0:
300,48,161531,1,0,0:0:0:0:
54,147,161618,6,0,B|39:159|39:159|21:160|21:160|34:147|34:147|54:147,2,64.8000015820313,0|0|0,0:0|0:0|0:0,0:0:0:0:
226,17,161792,1,0,0:0:0:0:
68,230,161879,5,0,0:0:0:0:
300,48,162053,1,0,0:0:0:0:
229,101,162575,6,0,P|216:72|213:33,2,64.8000015820313,0|0|0,0:0|0:0|0:0,0:0:0:0:
297,300,162749,1,0,0:0:0:0:
285,91,162836,6,0,P|300:59|303:17,2,64.8000015820313,0|0|0,0:0|0:0|0:0,0:0:0:0:
210,310,163010,1,0,0:0:0:0:
223,81,163097,6,0,P|207:46|203:0,2,64.8000015820313,0|0|0,0:0|0:0|0:0,0:0:0:0:
305,322,163271,1,0,0:0:0:0:
291,70,163357,6,0,P|309:32|313:-19,2,64.8000015820313,0|0|0,0:0|0:0|0:0,0:0:0:0:
201,335,163531,1,0,0:0:0:0:
106,142,163618,6,0,L|25:149,2,64.8000015820313,0|0|0,0:0|0:0|0:0,0:0:0:0:
371,231,163792,1,0,0:0:0:0:
91,247,163879,6,0,L|1:239,2,64.8000015820313,0|0|0,0:0|0:0|0:0,0:0:0:0:
382,149,164053,1,0,0:0:0:0:
74,131,164140,6,0,L|-23:139,2,64.8000015820313,0|0|0,0:0|0:0|0:0,0:0:0:0:
395,239,164314,1,0,0:0:0:0:
56,258,164401,6,0,L|-51:249,2,64.8000015820313,0|0|0,0:0|0:0|0:0,0:0:0:0:
409,140,164575,1,0,0:0:0:0:
434,309,164662,6,0,B|468:337|499:330|499:330|477:305|435:310,3,129.600003164063,0|0|0|0,0:0|0:0|0:0|0:0,0:0:0:0:
342,305,165010,2,0,B|261:306|264:335|200:333|200:333|147:332|148:309|98:308|98:308|72:307|35:329|35:329|51:293|32:251,1,388.800009492188,0|0,0:0|0:0,0:0:0:0:
3,170,165357,6,0,L|8:99,2,64.8000015820313,0|0|0,0:0|0:0|0:0,0:0:0:0:
72,47,165531,1,0,0:0:0:0:
148,138,165618,6,0,L|152:202,2,64.8000015820313,0|0|0,0:0|0:0|0:0,0:0:0:0:
226,240,165792,1,0,0:0:0:0:
292,160,165879,6,0,L|298:67,2,64.8000015820313,0|0|0,0:0|0:0|0:0,0:0:0:0:
381,0,166053,1,0,0:0:0:0:
404,228,166140,6,0,L|479:218,2,64.8000015820313,0|0|0,0:0|0:0|0:0,0:0:0:0:
259,320,166314,1,0,0:0:0:0:
415,344,166401,6,0,L|505:360,2,64.8000015820313,0|0|0,0:0|0:0|0:0,0:0:0:0:
226,240,166575,1,0,0:0:0:0:
390,121,166662,6,0,B|423:106|423:106|470:115,4,64.8000015820313
497,286,166923,1,0,0:0:0:0:
226,240,167010,6,0,L|157:251,2,64.8000015820313
404,228,167184,1,0,0:0:0:0:
106,179,167270,6,0,L|23:192,2,64.8000015820313
319,164,167444,1,0,0:0:0:0:
83,266,167531,6,0,L|77:345,2,64.8000015820313
34,22,167705,1,0,0:0:0:0:
226,240,167792,6,0,L|260:311,2,64.8000015820313
13,100,167966,1,0,0:0:0:0:
235,40,168053,6,0,B|269:26|269:26|317:30,4,64.8000015820313
320,250,168314,1,0,0:0:0:0:
106,179,168401,6,0,L|39:191,2,64.8000015820313
315,164,168575,1,0,0:0:0:0:
128,251,168662,6,0,L|80:308,2,64.8000015820313
293,90,168836,1,0,0:0:0:0:
211,293,168923,6,0,L|211:375,2,64.8000015820313
235,40,169097,1,0,0:0:0:0:
295,286,169184,6,0,L|353:355,2,64.8000015820313
135,55,169358,1,0,0:0:0:0:
439,207,169444,6,0,P|410:218|373:212,1,64.8000015820313
360,195,169531,1,0,0:0:0:0:
256,192,169553,12,0,170749,0:0:0:0:
81,213,170923,6,0,B|45:235|25:310|40:354|40:354|7:290|36:202|133:139|151:29|75:-9|75:-9|31:31|33:115|98:164|183:145|180:244|119:333|119:333|151:180|262:159|363:172|440:231|440:231|321:194|320:98|355:38|444:23|488:45|492:133|447:144|447:144|514:144|572:194|559:290|512:379|458:409|323:373|390:179|288:179|193:184|152:317|168:384|243:399|364:387|311:276|271:124|271:124|204:132|126:31|221:-65|326:-28|318:79|263:59,1,2880
263,59,176488,6,0,L|258:118,7,45,0|0|0|0|0|0|0|0,0:0|0:0|0:0|0:0|0:0|0:0|0:0|0:0,0:0:0:0:
333,176,177184,2,0,L|328:117,1,45,0|0,0:0|0:0,0:0:0:0:
250,184,177357,2,0,L|246:228,1,45,0|0,0:0|0:0,0:0:0:0:
341,175,177531,2,0,L|335:109,1,45,0|0,0:0|0:0,0:0:0:0:
241,184,177705,2,0,L|237:238,1,45
372,256,177879,6,0,L|425:251,7,53.9999983520508,0|0|0|0|0|0|0|0,0:0|0:0|0:0|0:0|0:0|0:0|0:0|0:0,0:0:0:0:
313,321,178575,2,0,L|260:316,5,53.9999983520508,0|0|0|0|0|0,0:0|0:0|0:0|0:0|0:0|0:0,0:0:0:0:
111,328,179097,2,0,L|167:323,1,53.9999983520508,0|0,0:0|0:0,0:0:0:0:
54,260,179270,6,0,L|59:204,7,53.9999983520508,0|0|0|0|0|0|0|0,0:0|0:0|0:0|0:0|0:0|0:0|0:0|0:0,0:0:0:0:
131,154,179966,2,0,L|187:154,1,53.9999983520508,0|0,0:0|0:0,0:0:0:0:
187,245,180140,2,0,L|121:238,1,53.9999983520508,0|0,0:0|0:0,0:0:0:0:
125,144,180314,2,0,L|192:144,1,53.9999983520508,0|0,0:0|0:0,0:0:0:0:
192,254,180488,2,0,L|113:245,1,53.9999983520508,0|0,0:0|0:0,0:0:0:0:
251,59,180662,6,0,L|248:130,7,53.9999983520508,0|0|0|0|0|0|0|0,0:0|0:0|0:0|0:0|0:0|0:0|0:0|0:0,0:0:0:0:
323,25,181357,1,0,0:0:0:0:
395,44,181444,1,0,0:0:0:0:
437,104,181531,1,0,0:0:0:0:
430,178,181618,1,0,0:0:0:0:
378,229,181705,1,0,0:0:0:0:
371,303,181792,1,0,0:0:0:0:
413,363,181879,1,0,0:0:0:0:
485,382,181966,1,0,0:0:0:0:
336,371,182053,6,0,L|162:362,2,161.999995056153,0|0|0,0:0|0:0|0:0,0:0:0:0:
55,289,182836,2,0,L|224:286,1,161.999995056153,0|0,0:0|0:0,0:0:0:0:
242,60,183444,6,0,P|260:146|243:224,2,161.999995056153,0|0|0,0:0|0:0|0:0,0:0:0:0:
17,149,184227,2,0,L|185:144,1,161.999995056153,0|0,0:0|0:0,0:0:0:0:
493,200,184836,6,0,L|325:195,2,161.999995056153,0|0|0,0:0|0:0|0:0,0:0:0:0:
296,295,185618,2,0,L|474:285,1,161.999995056153,0|0,0:0|0:0,0:0:0:0:
217,101,186227,6,0,P|196:196|219:269,2,161.999995056153,0|0|0,0:0|0:0|0:0,0:0:0:0:
291,341,187010,2,0,L|297:171,1,161.999995056153,0|0,0:0|0:0,0:0:0:0:
173,342,187618,6,0,L|59:338,1,107.999996704102,0|0,0:0|0:0,0:0:0:0:
21,261,187879,2,0,L|135:257,1,107.999996704102,0|0,0:0|0:0,0:0:0:0:
192,194,188140,1,0,0:0:0:0:
68,41,188314,5,0,0:0:0:0:
56,117,188401,1,0,0:0:0:0:
272,180,188575,2,0,L|268:117,1,53.9999983520508,0|0,0:0|0:0,0:0:0:0:
192,194,188749,1,0,0:0:0:0:
243,253,188836,1,0,0:0:0:0:
403,37,189010,6,0,L|285:50,1,107.999996704102,0|0,0:0|0:0,0:0:0:0:
341,122,189270,2,0,L|459:135,1,107.999996704102,0|0,0:0|0:0,0:0:0:0:
483,57,189531,1,0,0:0:0:0:
431,319,189705,1,0,0:0:0:0:
481,262,189792,1,0,0:0:0:0:
199,249,189966,2,0,L|235:298,1,53.9999983520508,0|0,0:0|0:0,0:0:0:0:
300,265,190140,1,0,0:0:0:0:
260,197,190227,1,0,0:0:0:0:
256,361,190314,1,0,0:0:0:0:
318,111,190401,6,0,L|201:123,1,107.999996704102,0|0,0:0|0:0,0:0:0:0:
48,167,190662,2,0,L|165:179,1,107.999996704102,0|0,0:0|0:0,0:0:0:0:
155,62,190923,1,0,0:0:0:0:
55,319,191097,1,0,0:0:0:0:
122,360,191184,1,0,0:0:0:0:
24,48,191357,2,0,L|7:114,1,53.9999983520508,0|0,0:0|0:0,0:0:0:0:
48,167,191531,1,0,0:0:0:0:
155,62,191618,1,0,0:0:0:0:
195,324,191792,6,0,L|311:313,1,107.999996704102,0|0,0:0|0:0,0:0:0:0:
449,252,192053,2,0,L|333:241,1,107.999996704102,0|0,0:0|0:0,0:0:0:0:
474,331,192314,1,0,0:0:0:0:
429,35,192488,5,0,0:0:0:0:
406,59,192575,2,0,L|408:107,1,36,0|0,0:0|0:0,0:0:0:0:
466,171,192749,2,0,L|468:124,1,36,0|0,0:0|0:0,0:0:0:0:
379,169,192923,1,0,0:0:0:0:
277,119,193010,1,0,0:0:0:0:
167,195,193097,1,0,0:0:0:0:
45,70,193184,6,0,B|7:53|-34:67|-34:67|54:84|92:184|46:294|0:315|0:315|157:244|194:435|339:343|339:343|225:303|204:124|334:77|464:121|487:310|325:290|341:221,1,1214.99996292114
441,118,194575,6,0,B|490:158|506:248|450:313|450:313|547:204|456:18|312:18|312:18|283:64|215:61|215:61|165:45|165:45|206:123|138:157|163:248|163:248|145:166|229:100|281:122|304:187|245:194,1,1235.24996230316
249,193,195966,6,0,B|312:96|419:181|378:258|317:260|317:260|378:268|398:383|247:399|231:308,1,485.999985168458
7,199,196662,6,0,B|59:104|196:151|169:297|34:284|18:328|18:328|98:305|172:337,1,485.999985168458
301,179,197357,6,0,B|328:165|344:131|344:131|334:223|339:309|339:309|372:338|414:342|414:342|339:314|247:347,1,485.999985168458,0|0,0:0|0:0,0:0:0:0:
183,257,198053,6,0,B|199:259|209:275|209:275|222:265|238:265|238:265|239:248|250:234|250:234|238:223|235:208|235:208|217:210|202:202|202:202|195:219|176:227|176:227|186:240|183:256,28,225,0|0|0|0|0|0|0|0|0|0|0|0|0|0|0|0|0|0|0|0|0|0|0|0|0|0|0|0|0,0:0|0:0|0:0|0:0|0:0|0:0|0:0|0:0|0:0|0:0|0:0|0:0|0:0|0:0|0:0|0:0|0:0|0:0|0:0|0:0|0:0|0:0|0:0|0:0|0:0|0:0|0:0|0:0|0:0,0:0:0:0:
51,58,198749,6,0,B|242:51|242:51|291:61,1,225,0|0,0:0|0:0,0:0:0:0:
260,340,198923,1,0,0:0:0:0:
241,360,199010,2,0,B|8:349,1,225
25,85,199184,1,0,0:0:0:0:
51,58,199270,2,0,P|202:66|275:120,1,225,0|0,0:0|0:0,0:0:0:0:
426,344,199444,1,0,0:0:0:0:
449,325,199531,2,0,L|434:86,1,225,0|0,0:0|0:0,0:0:0:0:
210,335,199705,2,0,B|247:362|247:362|429:343,1,225,0|0,0:0|0:0,0:0:0:0:
146,147,199879,1,0,0:0:0:0:
127,164,199966,2,0,B|89:291|161:248|129:392,1,225,0|0,0:0|0:0,0:0:0:0:
11,182,200140,5,0,0:0:0:0:
422,42,200314,1,0,0:0:0:0:
445,69,200401,2,0,L|437:318,1,225,0|0,0:0|0:0,0:0:0:0:
317,110,200575,1,0,0:0:0:0:
294,137,200662,2,0,L|302:386,1,225,0|0,0:0|0:0,0:0:0:0:
68,58,200836,2,0,L|183:40,1,112.5,0|0,0:0|0:0,0:0:0:0:
214,125,200923,2,0,L|99:143,1,112.5,0|0,0:0|0:0,0:0:0:0:
400,60,201097,2,0,B|428:124|389:171|389:171|373:173|373:173|344:225|370:290,1,225,0|0,0:0|0:0,0:0:0:0:
479,329,201270,2,0,B|499:348|499:348|415:341,1,112.5,0|0,0:0|0:0,0:0:0:0:
216,271,201357,2,0,B|196:290|196:290|280:283,1,112.5,0|0,0:0|0:0,0:0:0:0:
480,247,201444,2,0,B|413:218|413:218|382:218|382:218|327:189,1,148.500001416206
208,46,201531,6,0,L|216:280,1,225
102,350,201705,1,0,0:0:0:0:
73,328,201792,2,0,L|69:92,1,225,0|0,0:0|0:0,0:0:0:0:
216,271,201966,1,0,0:0:0:0:
245,249,202053,2,0,P|268:133|249:13,1,225,0|0,0:0|0:0,0:0:0:0:
17,211,202227,1,0,0:0:0:0:
49,228,202314,1,0,0:0:0:0:
475,29,202488,2,0,B|430:12|430:12|248:28,1,225,0|0,0:0|0:0,0:0:0:0:
66,126,202662,1,0,0:0:0:0:
43,152,202749,2,0,P|32:233|133:341,1,225,0|0,0:0|0:0,0:0:0:0:
463,117,202923,6,0,L|205:108,1,225,0|0,0:0|0:0,0:0:0:0:
252,343,203097,2,0,B|419:348|419:348|356:313,1,225,0|0,0:0|0:0,0:0:0:0:
41,260,203270,1,0,0:0:0:0:
21,243,203357,2,0,L|19:0,1,225,0|0,0:0|0:0,0:0:0:0:
253,118,203531,2,0,L|251:361,1,225,0|0,0:0|0:0,0:0:0:0:
157,54,203705,5,0,0:0:0:0:
183,36,203792,2,0,B|270:24|270:24|365:57|365:57|331:68|331:68|240:36,1,300,0|0,0:0|0:0,0:0:0:0:
439,113,203879,2,0,B|294:170|294:170|393:169|393:169|448:200,1,300,0|0,0:0|0:0,0:0:0:0:
35,116,203966,2,0,B|189:110|189:110|34:160,1,300,0|0,0:0|0:0,0:0:0:0:
206,264,204053,2,0,B|371:289|371:289|505:247,1,300,0|0,0:0|0:0,0:0:0:0:
461,30,204140,2,0,B|397:171|397:171|521:240|521:240|369:291|369:291|193:262,1,600,0|0,0:0|0:0,0:0:0:0:
31,206,204314,6,0,L|271:190,1,225
348,49,204488,1,0,0:0:0:0:
335,25,204575,2,0,L|95:41,1,225
79,293,204749,1,0,0:0:0:0:
81,320,204836,2,0,P|216:322|245:219,1,225
18,94,205010,5,0,0:0:0:0:
0,124,205097,2,0,L|9:371,1,225
374,214,205270,2,0,B|218:216|292:264|142:266,1,225
203,34,205444,1,0,0:0:0:0:
223,17,205531,2,0,L|461:33,1,225
448,107,205705,1,0,0:0:0:0:
459,358,205792,5,0,0:0:0:0:
440,332,205879,2,0,L|449:100,1,225
295,384,206053,1,0,0:0:0:0:
314,358,206140,2,0,L|305:126,1,225
42,293,206314,1,0,0:0:0:0:
66,318,206401,2,0,B|196:337|196:337|306:319,1,225
175,120,206575,5,0,0:0:0:0:
161,95,206662,2,0,B|101:42|101:42|180:255,1,306.000005836487
259,32,206836,2,0,B|250:99|250:99|272:184,1,153.000002918243
371,165,206923,2,0,B|260:143|260:143|276:197,1,153.000002918243
222,174,207010,2,0,B|283:148|283:148|387:167,1,153.000002918243
492,42,207097,6,0,L|239:31,1,233.999989288331
0,172,207270,1,0,0:0:0:0:
27,195,207357,2,0,L|288:171,1,233.999989288331
486,286,207531,1,0,0:0:0:0:
457,314,207618,2,0,B|273:282|273:282|226:231,1,233.999989288331
450,48,207792,1,0,0:0:0:0:
461,76,207879,1,0,0:0:0:0:
47,349,208053,2,0,L|63:108,1,233.999989288331
297,49,208227,6,0,B|343:77|343:77|220:73,1,166.499999364853
140,174,208314,2,0,B|195:74|195:74|268:73,1,166.499999364853
331,239,208401,2,0,L|419:90,1,166.499999364853
164,250,208488,2,0,B|322:254|322:254|420:87,1,341.999990867615
91,67,208662,2,0,B|23:177|23:177|80:177,1,170.999995433807
38,287,208749,2,0,B|106:177|106:177|49:177,1,170.999995433807
499,98,208923,2,0,L|405:269,1,170.999995433807
457,369,209010,2,0,B|408:263|408:263|440:204,1,170.999995433807
239,15,209184,2,0,L|255:200,1,175.500000669479
269,364,209270,2,0,L|253:179,1,175.500000669479
425,214,209444,6,0,B|300:207|300:207|232:180,1,175.500000669479
83,245,209531,2,0,B|185:240|185:240|252:268,1,175.500000669479
421,129,209618,2,0,B|289:123|289:123|357:152,1,175.500000669479
77,173,209705,2,0,B|207:166|207:166|263:189,1,175.500000669479
359,56,209792,2,0,B|423:130|423:130|331:125,1,175.500000669479
120,72,209879,6,0,B|91:85|91:85|65:143|65:143|77:174,1,126
319,337,211270,6,0,L|303:50,1,279.000002128601
177,345,211444,1,0,0:0:0:0:
194,336,211531,2,0,L|210:49,1,279.000002128601
440,348,211705,1,0,0:0:0:0:
421,318,211792,2,0,B|167:280|167:280|132:288,1,279.000002128601
24,125,212053,6,0,B|80:153|80:153|186:122,1,170.999995433807
292,136,212140,2,0,B|236:108|236:108|130:139,1,170.999995433807
40,252,212227,2,0,B|84:151|84:151|162:129,1,170.999995433807
330,82,212314,2,0,B|213:115|213:115|152:85,1,170.999995433807
112,282,212401,2,0,L|186:103,1,170.999995433807
354,155,212488,2,0,B|232:188|232:188|216:238,1,170.999995433807
257,340,213010,5,0,0:0:0:0:
350,280,213097,1,0,0:0:0:0:
337,256,213184,2,0,L|92:238,1,243.000000926971
41,89,213357,1,0,0:0:0:0:
34,62,213444,2,0,L|286:46,1,243.000000926971
431,354,213618,2,0,L|439:94,1,243.000000926971
40,316,213792,1,0,0:0:0:0:
59,338,213879,2,0,L|335:338,1,243.000000926971
310,100,214053,6,0,B|261:238|340:187|301:341,1,243.000000926971
169,243,214227,2,0,L|183:-25,1,243.000000926971
419,83,214401,1,0,0:0:0:0:
438,111,214488,2,0,L|431:356,1,243.000000926971
17,181,214662,2,0,L|265:175,1,243.000000926971
412,282,214836,6,0,B|366:314|366:314|237:302,1,173.250001652241
128,291,214923,2,0,L|309:310,1,173.250001652241
314,188,215010,2,0,B|268:305|268:305|195:298,1,173.250001652241
161,203,215097,2,0,B|301:218|301:218|322:166,1,173.250001652241
306,62,215184,2,0,B|341:117|341:117|294:236,1,173.250001652241
110,125,215270,2,0,B|402:155|402:155|377:220,1,346.500003304481
42,350,215444,6,0,L|31:95,1,247.500002360344
173,24,215618,1,0,0:0:0:0:
198,48,215705,2,0,L|181:309,1,247.500002360344
306,62,215879,1,0,0:0:0:0:
331,86,215966,2,0,L|314:347,1,247.500002360344
478,218,216140,1,0,0:0:0:0:
468,177,216227,1,0,0:0:0:0:
42,350,216401,1,0,0:0:0:0:
39,181,216488,6,0,L|43:211,1,27
110,273,216836,6,0,L|376:265,1,251.999992309571
111,38,217010,1,0,0:0:0:0:
100,64,217097,2,0,L|111:326,1,251.999992309571
228,83,217270,1,0,0:0:0:0:
239,109,217357,2,0,L|228:371,1,251.999992309571
454,260,217531,1,0,0:0:0:0:
432,229,217618,2,0,L|174:200,1,251.999992309571
25,277,217792,1,0,0:0:0:0:
215,316,217879,6,0,L|244:314,1,27
312,46,218227,6,0,L|313:328,1,270.000010299683
72,190,218401,1,0,0:0:0:0:
103,175,218488,2,0,L|404:184,1,270.000010299683
127,363,218662,1,0,0:0:0:0:
108,331,218749,2,0,L|112:34,1,270.000010299683
443,71,218923,1,0,0:0:0:0:
436,114,219010,1,0,0:0:0:0:
45,371,219184,2,0,B|15:333|15:333|37:97,1,270.000010299683
160,49,219357,2,0,L|303:71,1,135.000005149842
339,136,219444,2,0,L|196:158,1,135.000005149842
144,227,219531,2,0,L|287:249,1,135.000005149842
350,313,219618,5,0,0:0:0:0:
256,192,219640,12,0,220923,0:0:0:0:
58,58,221010,5,0,0:0:0:0:
75,71,221184,5,0,0:0:0:0:
286,58,221270,1,0,0:0:0:0:
128,7,221444,5,0,0:0:0:0:
267,218,221530,1,0,0:0:0:0:
239,0,221705,5,0,0:0:0:0:
113,247,221791,1,0,0:0:0:0:
321,154,221966,5,0,0:0:0:0:
16,169,222052,1,0,0:0:0:0:
85,353,222401,6,0,B|62:357|62:357|13:339,2,72
100,344,222575,5,0,0:0:0:0:
318,337,222662,1,0,0:0:0:0:
55,169,222836,5,0,0:0:0:0:
181,372,222923,1,0,0:0:0:0:
282,68,223097,5,0,0:0:0:0:
157,298,223184,1,0,0:0:0:0:
161,122,223270,1,0,0:0:0:0:
318,337,223357,1,0,0:0:0:0:
395,24,223444,2,0,B|414:113|327:127|298:251|431:329|537:272|541:164|505:122|408:111|443:224,1,432
444,194,223792,5,0,0:0:0:0:
430,223,223966,5,0,0:0:0:0:
168,203,224053,1,0,0:0:0:0:
314,371,224227,5,0,0:0:0:0:
188,110,224314,1,0,0:0:0:0:
99,302,224488,5,0,0:0:0:0:
278,38,224575,1,0,0:0:0:0:
67,102,224749,5,0,0:0:0:0:
385,125,224836,1,0,0:0:0:0:
128,26,225184,5,0,0:0:0:0:
188,110,225270,1,0,0:0:0:0:
85,231,225357,2,0,L|2:221,2,72
301,119,225531,5,0,0:0:0:0:
241,203,225617,1,0,0:0:0:0:
344,324,225705,2,0,L|427:314,2,72
203,331,225879,6,0,L|125:328,2,72
241,203,226053,1,0,0:0:0:0:
85,231,226140,1,0,0:0:0:0:
344,324,226227,1,0,0:0:0:0:
301,119,226314,1,0,0:0:0:0:
172,334,226401,2,0,B|84:331|117:298|14:300,1,144
19,320,226575,5,0,0:0:0:0:
15,345,226749,5,0,0:0:0:0:
55,100,226836,1,0,0:0:0:0:
152,357,227010,5,0,0:0:0:0:
55,100,227097,1,0,0:0:0:0:
300,217,227270,5,0,0:0:0:0:
0,167,227357,1,0,0:0:0:0:
285,79,227531,5,0,0:0:0:0:
71,336,227618,1,0,0:0:0:0:
65,68,227966,6,0,B|57:46|57:46|66:-17,2,72
84,80,228140,5,0,0:0:0:0:
372,59,228227,1,0,0:0:0:0:
145,7,228401,5,0,0:0:0:0:
307,245,228488,1,0,0:0:0:0:
299,12,228662,5,0,0:0:0:0:
149,255,228749,1,0,0:0:0:0:
308,102,228836,1,0,0:0:0:0:
84,80,228923,1,0,0:0:0:0:
308,244,229010,1,0,0:0:0:0:
439,348,229357,5,0,0:0:0:0:
417,338,229531,5,0,0:0:0:0:
162,353,229618,1,0,0:0:0:0:
390,81,229792,5,0,0:0:0:0:
246,365,229879,1,0,0:0:0:0:
74,53,230053,5,0,0:0:0:0:
341,366,230140,2,0,L|332:288,1,72
291,222,230227,5,0,0:0:0:0:
318,147,230314,1,0,0:0:0:0:
332,110,230401,1,0,0:0:0:0:
338,91,230488,1,0,0:0:0:0:
341,82,230575,1,0,0:0:0:0:
343,77,230662,1,0,0:0:0:0:
345,73,230749,6,0,B|344:73|344:73|345:73|345:73|344:73|344:73|345:73|345:73|344:73|344:73|345:73|345:73|344:73|344:73|345:73|345:73|344:73|344:73|345:73|345:73|344:73|344:73|345:73|345:73|344:73|344:73|345:73|345:73|344:73|344:73|345:73|345:73|344:73|344:73|345:73|345:73|344:73|344:73|345:73|345:73|344:73|344:73|345:73|345:73|344:73|344:73|345:73|345:73|344:73|344:73|345:73|345:73,1,15.75
424,45,231444,6,0,B|434:135|434:135|423:153|423:153|436:273|436:273|426:293|426:293|429:335|429:335|410:358|410:358|343:371|343:371|325:358|325:358|308:258|308:258|321:239|321:239|308:139,1,630
146,30,232139,6,0,L|133:339,1,279.000002128601
359,346,232313,1,0,0:0:0:0:
380,339,232400,2,0,L|357:53,1,279.000002128601
40,342,232661,2,0,L|184:349,1,139.500001064301
264,352,232748,2,0,B|150:348|150:348|131:305,1,139.500001064301
122,189,232835,2,0,B|143:235|143:235|139:336,1,139.500001064301
282,352,232922,2,0,B|225:350|225:350|230:260,1,139.500001064301
417,11,233009,5,0,0:0:0:0:
436,25,233096,2,0,L|461:317,1,279.000002128601
152,113,233270,1,0,0:0:0:0:
141,90,233357,2,0,L|449:85,1,279.000002128601
382,368,233530,6,0,L|391:62,1,279.000002128601
205,25,233704,1,0,0:0:0:0:
194,53,233791,2,0,L|214:353,1,279.000002128601
418,130,234052,2,0,L|267:129,1,139.500001064301
210,203,234139,2,0,L|361:204,1,139.500001064301
353,28,234226,2,0,L|346:325,1,279.000002128601
434,164,234400,1,0,0:0:0:0:
418,130,234487,2,0,L|117:120,1,279.000002128601
55,326,234661,1,0,0:0:0:0:
80,353,234748,2,0,L|370:374,1,279.000002128601
81,48,234922,6,0,L|53:341,1,279.000002128601
319,86,235096,1,0,0:0:0:0:
300,64,235183,2,0,L|10:71,1,279.000002128601
361,342,235444,2,0,L|374:193,1,139.500001064301
459,120,235530,2,0,B|378:162|378:162|365:258,1,139.500001064301
268,251,235617,2,0,B|365:253|365:253|411:232,1,139.500001064301
491,258,235704,2,0,B|345:255,1,139.500001064301
468,50,235791,5,0,0:0:0:0:
484,28,235878,2,0,L|190:24,1,279.000002128601
77,194,236052,1,0,0:0:0:0:
99,214,236139,2,0,L|399:198,1,279.000002128601
129,195,236313,6,0,P|13:336|166:220,1,558.000004257202
167,221,236574,2,0,P|231:390|207:200,1,558.000004257202
210,199,236835,2,0,P|389:227|212:152,1,558.000004257202
212,152,237096,2,0,P|327:11|174:126,1,558.000004257202
174,126,237357,2,0,B|150:200|29:224|29:224|174:197|261:213|261:213|313:253|313:253|352:209|352:209|452:240|508:211|508:211|451:240|409:313,1,837.000006385803
402,324,237704,6,0,B|372:352|372:352|319:342|319:342|362:298,6,139.500001064301
512,210,238052,6,0,L|216:182,1,279.000002128601
46,333,238226,2,0,B|98:293|98:293|81:204,1,139.500001064301
194,103,238313,2,0,B|142:143|142:143|159:232,1,139.500001064301
121,367,238400,2,0,L|233:280,1,139.500001064301
143,144,238487,2,0,L|171:298,1,139.500001064301
324,347,238574,2,0,L|175:339,1,139.500001064301
0,101,238661,2,0,L|285:104,1,279.000002128601
477,216,238835,1,0,0:0:0:0:
463,233,238922,2,0,L|179:224,1,279.000002128601
148,22,239096,6,0,L|135:315,1,279.000002128601
325,348,239270,1,0,0:0:0:0:
345,337,239357,1,0,0:0:0:0:
74,35,239444,2,0,L|61:328,1,279.000002128601
325,348,239617,1,0,0:0:0:0:
345,337,239704,1,0,0:0:0:0:
449,56,239791,2,0,L|155:48,1,279.000002128601
212,229,239965,2,0,L|506:237,1,279.000002128601
71,178,240139,6,0,L|64:340,1,139.500001064301
0,314,240226,2,0,L|162:321,1,139.500001064301
135,378,240313,2,0,L|142:216,1,139.500001064301
209,240,240400,2,0,L|47:233,1,139.500001064301
43,193,240487,5,0,0:0:0:0:
333,149,240574,1,0,0:0:0:0:
34,117,240661,1,0,0:0:0:0:
316,227,240748,1,0,0:0:0:0:
43,193,240835,2,0,P|-29:157|106:176,1,558.000004257202
59,346,241183,5,0,0:0:0:0:
206,216,241270,1,0,0:0:0:0:
332,342,241357,1,0,0:0:0:0:
106,270,241444,1,0,0:0:0:0:
346,242,241530,2,0,B|417:212|472:285|473:357|473:357|474:271|521:222|521:222|472:273|378:355|204:326|170:172|269:85,1,837.000006385803
373,49,241878,6,0,L|339:349,1,279.000002128601
139,49,242052,2,0,L|173:349,1,279.000002128601
484,326,242226,2,0,P|270:158|2:197,1,558.000004257202
2,196,242487,2,0,P|216:364|484:325,1,558.000004257202
442,149,242748,1,0,0:0:0:0:
442,149,242835,6,0,B|405:130|387:21|387:21|369:130|332:149|303:176|193:155|193:155|290:210|295:251|311:287|254:383|254:383|338:311|378:320|418:318|488:404|488:404|449:300|472:267|484:227|587:191|587:191|477:192|453:159,1,1367.99996347046
73,40,243270,6,0,B|60:86|60:86|87:347,1,297.000002832413
276,333,243444,2,0,B|289:287|289:287|263:39,1,297.000002832413
73,40,243617,6,0,B|59:88|59:88|87:362,1,297.000002832413
285,347,243791,2,0,B|298:298|298:298|271:38,1,297.000002832413
73,40,243965,6,0,B|58:90|58:90|88:377,1,297.000002832413
295,362,244139,2,0,B|309:311|309:311|281:38,1,297.000002832413
73,40,244313,6,0,B|57:93|57:93|89:394,1,297.000002832413
305,377,244487,2,0,B|320:323|320:323|290:37,1,297.000002832413
29,315,244661,6,0,B|77:328|77:328|325:309,1,297.000002832413
378,153,244835,2,0,B|330:140|330:140|82:159,1,297.000002832413
29,315,245009,6,0,B|79:328|79:328|339:308,1,297.000002832413
395,145,245183,2,0,B|344:131|344:131|84:151,1,297.000002832413
29,315,245357,6,0,B|81:329|81:329|354:308,1,297.000002832413
412,136,245531,2,0,B|359:121|359:121|86:142,1,297.000002832413
29,315,245704,6,0,B|84:330|84:330|370:308,1,297.000002832413
430,127,245878,2,0,B|374:111|374:111|88:133,1,297.000002832413
415,341,246052,6,0,B|431:290|431:290|395:47,1,297.000002832413
220,67,246226,2,0,B|203:117|203:117|239:360,1,297.000002832413
415,341,246400,6,0,B|432:287|432:287|394:33,1,297.000002832413
210,53,246574,2,0,B|192:106|192:106|230:360,1,297.000002832413
413,340,246748,6,0,B|430:284|430:284|391:17,1,297.000002832413
197,37,246922,2,0,B|179:92|179:92|218:359,1,297.000002832413
413,340,247096,6,0,B|431:281|431:281|390:1,1,297.000002832413
186,22,247270,2,0,B|167:80|167:80|208:360,1,297.000002832413
492,98,247444,6,0,L|174:83,1,297.000002832413
77,273,247617,1,0,0:0:0:0:
95,294,247704,2,0,L|395:288,1,297.000002832413
100,33,247878,1,0,0:0:0:0:
78,56,247965,2,0,L|99:363,1,297.000002832413
377,53,248139,6,0,B|288:46|288:46|226:68,1,148.500001416206
237,142,248226,2,0,B|293:123|293:123|382:130,1,148.500001416206
492,94,248313,2,0,B|385:130|385:130|327:125,1,148.500001416206
354,270,248400,2,0,L|316:121,1,148.500001416206
478,181,248487,2,0,B|327:223|327:223|190:213|190:213|101:257|101:257|277:271|277:271|310:314|310:314|403:322|403:322|501:290|501:290|429:286,1,891.000008497238
115,17,248835,6,0,B|22:232|22:232|38:295,1,297.000002832413
258,332,249009,2,0,B|351:117|351:117|335:54,1,297.000002832413
115,17,249183,6,0,B|17:242|17:242|34:308,1,297.000002832413
265,347,249357,2,0,B|362:121|362:121|345:55,1,297.000002832413
115,17,249530,6,0,B|12:253|12:253|30:322,1,297.000002832413
272,363,249704,2,0,B|374:126|374:126|356:57,1,297.000002832413
115,17,249878,6,0,B|7:265|7:265|26:337,1,297.000002832413
279,379,250052,2,0,B|386:130|386:130|367:58,1,297.000002832413
33,356,250226,6,0,B|250:372|250:372|332:352,1,297.000002832413
379,105,250400,2,0,B|162:89|162:89|80:109,1,297.000002832413
33,356,250574,6,0,B|260:372|260:372|346:351,1,297.000002832413
395,92,250748,2,0,B|167:75|167:75|81:96,1,297.000002832413
33,356,250922,6,0,B|271:373|271:373|362:351,1,297.000002832413
412,79,251096,2,0,B|173:61|173:61|82:83,1,297.000002832413
33,356,251270,6,0,B|283:374|283:374|378:351,1,297.000002832413
430,65,251444,2,0,B|179:46|179:46|84:69,1,297.000002832413
479,359,251617,6,0,B|516:142|516:142|502:57,1,297.000002832413
134,57,251791,2,0,B|97:274|97:274|111:359,1,297.000002832413
479,359,251965,6,0,B|517:134|517:134|502:46,1,297.000002832413
122,46,252139,2,0,B|83:270|83:270|98:358,1,297.000002832413
477,358,252313,6,0,B|516:128|516:128|501:38,1,297.000002832413
111,37,252487,2,0,B|71:266|71:266|86:356,1,297.000002832413
477,358,252661,6,0,B|517:122|517:122|501:30,1,297.000002832413
102,29,252835,2,0,B|61:264|61:264|77:356,1,297.000002832413
340,18,253009,6,0,B|245:53|245:53|290:251|290:251|360:159|360:159|327:131,1,450
192,174,253096,6,0,B|229:325|229:325|334:352|334:352|462:183,1,450
439,111,253183,6,0,B|329:23|329:23|11:140,1,450
128,228,253270,6,0,B|162:368|162:368|73:336|73:336|26:114,1,450
489,266,253357,6,0,B|405:369|405:369|260:335|260:335|361:196,1,450
102,29,253444,6,0,B|13:58|13:58|74:337|74:337|195:376,1,450
504,163,253530,6,0,B|392:73|392:73|190:149|190:149|208:239,1,450
141,358,253617,6,0,B|239:386|239:386|165:31,1,450
167,45,253704,5,0,0:0:0:0:
188,45,254400,5,0,0:0:0:0:
333,41,254574,1,0,0:0:0:0:
281,218,254748,2,0,P|268:151|321:49,1,180
479,114,255009,2,0,L|374:117,1,90
188,45,255183,2,0,L|398:39,1,180
369,278,255444,2,0,L|366:173,1,90
450,337,255617,2,0,L|453:232,1,90
293,334,255791,6,0,B|246:324|246:324|195:333,3,90
130,313,256139,2,0,B|113:272|113:272|135:135,1,180
227,84,256400,2,0,L|321:86,1,90
399,163,256574,6,0,L|207:167,1,180
37,78,256835,2,0,P|85:66|148:74,1,90
124,211,257009,2,0,P|76:223|13:215,1,90
125,67,257183,6,0,B|172:-5|252:58|221:115|175:117|175:117|221:123|236:209|123:221|111:153,1,360
234,314,257879,6,0,B|191:244|273:173|358:245|299:328|321:355|321:355|336:294|385:258,1,360
318,161,258574,6,0,B|298:148|270:151|270:151|334:123|388:87|388:87|394:55|381:26|381:26|391:85|447:133,1,360
175,70,259270,6,0,P|153:111|151:88,14,135.000005149842
175,70,259965,5,0,0:0:0:0:
194,78,260139,5,0,0:0:0:0:
461,153,260226,1,0,0:0:0:0:
264,20,260400,5,0,0:0:0:0:
236,295,260487,1,0,0:0:0:0:
464,231,260661,5,0,0:0:0:0:
160,253,260748,1,0,0:0:0:0:
401,355,260922,5,0,0:0:0:0:
432,51,261009,1,0,0:0:0:0:
84,343,261357,6,0,B|32:346|32:346|-20:313,2,90
94,338,261530,5,0,0:0:0:0:
70,106,261617,1,0,0:0:0:0:
244,267,261791,5,0,0:0:0:0:
9,161,261878,1,0,0:0:0:0:
250,142,262052,5,0,0:0:0:0:
19,307,262139,1,0,0:0:0:0:
250,142,262226,1,0,0:0:0:0:
19,307,262313,1,0,0:0:0:0:
250,142,262400,1,0,0:0:0:0:
43,32,262748,5,0,0:0:0:0:
76,40,262922,5,0,0:0:0:0:
341,91,263009,1,0,0:0:0:0:
115,240,263183,5,0,0:0:0:0:
308,15,263270,1,0,0:0:0:0:
0,172,263444,5,0,0:0:0:0:
291,226,263531,1,0,0:0:0:0:
41,30,263704,5,0,0:0:0:0:
139,309,263791,1,0,0:0:0:0:
300,35,264139,5,0,0:0:0:0:
264,326,264226,1,0,0:0:0:0:
161,184,264313,2,0,L|179:87,2,90
377,33,264487,5,0,0:0:0:0:
465,202,264574,1,0,0:0:0:0:
189,320,264661,2,0,L|86:309,2,90
447,77,264835,5,0,0:0:0:0:
222,244,264922,1,0,0:0:0:0:
447,77,265009,5,0,0:0:0:0:
222,244,265096,1,0,0:0:0:0:
447,77,265183,5,0,0:0:0:0:
222,244,265270,1,0,0:0:0:0:
447,77,265357,5,0,0:0:0:0:
222,244,265444,1,0,0:0:0:0:
360,51,265530,5,0,0:0:0:0:
322,55,265704,5,0,0:0:0:0:
54,80,265791,1,0,0:0:0:0:
303,244,265965,5,0,0:0:0:0:
147,24,266052,1,0,0:0:0:0:
122,291,266226,5,0,0:0:0:0:
245,20,266313,1,0,0:0:0:0:
0,196,266487,5,0,0:0:0:0:
325,164,266574,1,0,0:0:0:0:
93,35,266922,6,0,B|44:31|44:31|5:57,2,90
113,49,267096,5,0,0:0:0:0:
71,320,267183,1,0,0:0:0:0:
256,178,267357,5,0,0:0:0:0:
0,276,267444,1,0,0:0:0:0:
374,333,267617,5,0,0:0:0:0:
160,160,267704,1,0,0:0:0:0:
374,333,267791,1,0,0:0:0:0:
160,160,267878,1,0,0:0:0:0:
374,333,267965,1,0,0:0:0:0:
448,30,268313,5,0,0:0:0:0:
434,41,268487,5,0,0:0:0:0:
99,41,268574,1,0,0:0:0:0:
339,290,268748,5,0,0:0:0:0:
171,0,268835,1,0,0:0:0:0:
105,333,269009,5,0,0:0:0:0:
117,315,269183,5,0,0:0:0:0:
464,199,269270,1,0,0:0:0:0:
66,48,269444,5,0,0:0:0:0:
339,290,269531,1,0,0:0:0:0:
399,53,269704,6,0,B|434:36|434:36|497:40,2,90
441,335,269878,1,0,0:0:0:0:
464,199,269965,1,0,0:0:0:0:
339,290,270052,1,0,0:0:0:0:
493,271,270139,1,0,0:0:0:0:
289,227,270226,6,0,B|244:227|244:227|194:248,2,90
394,136,270400,1,0,0:0:0:0:
174,116,270487,1,0,0:0:0:0:
339,290,270574,1,0,0:0:0:0:
277,58,270661,1,0,0:0:0:0:
206,317,270748,6,0,B|239:349|239:349|294:348,2,90
13,316,270922,2,0,L|179:241,1,180
427,235,271096,6,0,P|445:268|448:320,8,90
295,320,271357,2,0,L|197:316,4,90
324,220,271530,1,0,0:0:0:0:
139,218,271617,2,0,P|136:180|152:118,8,90
224,52,271878,2,0,P|234:95|231:140,4,90
63,142,272052,1,0,0:0:0:0:
224,224,272139,1,0,0:0:0:0:
121,46,272226,1,0,0:0:0:0:
14,232,272313,2,0,P|11:289|30:324,8,90
154,342,272574,6,0,B|204:329|204:329|257:342,4,90
368,192,272748,6,0,B|391:260|329:264|351:345,8,150
38,116,273009,6,0,B|112:92|112:92|262:137|262:137|470:58,1,450
492,132,273096,6,0,L|57:295,1,450
31,222,273183,6,0,B|315:117|315:117|472:146,1,450
458,327,273270,6,4,B|474:225|474:225|326:194|326:194|122:271,1,450
52,377,273357,6,0,B|337:270|337:270|410:143,1,450
379,334,273444,6,0,B|439:-5|439:-5|335:31,1,450
103,196,273530,6,0,B|345:106|345:106|322:195|322:195|226:232,1,450
218,368,273617,6,0,B|272:57|272:57|124:11,1,450
191,25,273704,6,0,B|157:74|7:112|7:112|95:98|173:135|173:135|203:107|203:107|257:178|152:269|259:333|259:333|362:263|257:178|305:107|305:107|343:136|343:136|428:86|526:94|526:94|389:72|299:20,1,1350
15,354,273878,6,0,B|410:382|410:382|469:361,1,450
485,45,274052,6,0,B|89:17|89:17|31:38,1,450
