osu file format v14

[General]
AudioFilename: audio.mp3
AudioLeadIn: 0
PreviewTime: 198053
Countdown: 1
SampleSet: Normal
StackLeniency: 0.7
Mode: 0
LetterboxInBreaks: 0
WidescreenStoryboard: 0

[Editor]
Bookmarks: 189338
DistanceSpacing: 0.3
BeatDivisor: 2
GridSize: 16
TimelineZoom: 4.099998

[Metadata]
Title:Berserkerz' Warfare 345
TitleUnicode:Berserkerz' Warfare 345
Artist:Camellia
ArtistUnicode:Camellia
Creator:kirbob
Version:ACCELERATION (2017)
Source:
Tags:
BeatmapID:1406189
BeatmapSetID:664373

[Difficulty]
HPDrainRate:3
CircleSize:4
OverallDifficulty:5
ApproachRate:9.6
SliderMultiplier:1.8
SliderTickRate:1

[Events]
//Background and Video events
0,0,"youreanalcoholic.jpg",0,0
//Break Periods
2,104816,114555
2,149338,158381
//Storyboard Layer 0 (Background)
//Storyboard Layer 1 (Fail)
//Storyboard Layer 2 (Pass)
//Storyboard Layer 3 (Foreground)
//Storyboard Sound Samples

[TimingPoints]
1184,173.913043478261,4,1,0,100,1,0
39445,-1000,4,1,0,100,0,0
40140,-100,4,1,0,100,0,0
45010,-25,4,1,0,100,0,0
45705,-76.9230769230769,4,1,0,100,0,0
49531,-200,4,1,0,100,0,0
49879,-66.6666666666667,4,1,0,100,0,0
50923,-100,4,1,0,100,0,0
51271,-71.4285714285714,4,1,0,100,0,0
63792,-62.5,4,1,0,100,0,0
92662,-1000,4,1,0,100,0,0
93010,-55.5555555555556,4,1,0,100,0,0
93705,-62.5,4,1,0,100,0,0
101358,-133.333333333333,4,1,0,100,0,0
115271,-100,4,1,0,100,0,0
123618,-76.9230769230769,4,1,0,100,0,0
125705,-50,4,1,0,100,0,0
136140,-200,4,1,0,100,0,0
137531,-76.9230769230769,4,1,0,100,0,0
138923,-500,4,1,0,100,0,0
139271,-76.9230769230769,4,1,0,100,0,0
159792,-500,4,1,0,100,0,0
169531,-100,4,1,0,100,0,0
170923,-500,4,1,0,100,0,0
176488,-333.333333333333,4,1,0,50,0,0
187618,-133.333333333333,4,1,0,100,0,0
192488,-111.111111111111,4,1,0,100,0,0
193879,-83.3333333333333,4,1,0,100,0,0
200140,-71.4285714285714,4,1,0,100,0,0
209879,-1000,4,1,0,100,0,0
211271,-250,4,1,0,100,0,0
211531,-166.666666666667,4,1,0,100,0,0
211792,-125,4,1,0,100,0,0
213010,-71.4285714285714,4,1,0,100,0,0
230749,-250,4,1,0,100,0,0
231445,-71.4285714285714,4,1,0,100,0,0
253705,-200,4,1,0,100,0,0
259966,-50,4,1,0,100,0,0
271097,-333.333333333333,4,1,0,100,0,0

[HitObjects]
91,47,23445,6,0,P|150:51|179:92,1,90
278,225,23618,2,0,P|219:221|190:180,1,90
82,73,23792,2,0,P|133:112|132:231,1,180
283,184,24053,6,0,B|263:124|203:128,1,90
222,254,24227,2,0,B|310:334|382:221,1,180
336,72,24488,6,0,L|234:81,1,90
36,96,24662,2,0,L|138:87,1,90
272,135,24836,5,0,0:0:0:0:
315,145,24923,1,0,0:0:0:0:
345,177,25010,1,0,0:0:0:0:
354,220,25097,1,0,0:0:0:0:
351,268,25184,6,0,P|270:321|181:247,1,180
163,95,25531,6,0,L|249:120,1,90
413,222,25705,2,0,L|327:197,1,90
104,156,25879,2,0,L|190:181,1,90
428,302,26053,2,0,L|342:277,1,90
41,209,26227,6,0,B|55:255|55:255|119:274,1,90
290,312,26401,2,0,P|282:271|212:247,1,90
135,193,26575,2,0,P|215:162|214:53,1,180
177,265,26836,2,0,P|208:305|211:357,1,90
243,157,27010,6,0,P|299:224|289:311,1,180
181,209,27271,2,0,B|128:169|160:122,1,90
275,54,27445,2,0,B|328:94|296:141,1,90
278,256,27618,5,0,0:0:0:0:
322,252,27705,1,0,0:0:0:0:
362,231,27792,1,0,0:0:0:0:
386,193,27879,1,0,0:0:0:0:
393,148,27966,1,0,0:0:0:0:
382,104,28053,1,0,0:0:0:0:
226,34,28227,5,0,0:0:0:0:
68,96,28401,2,0,P|144:152|141:277,1,180
159,277,28662,5,0,0:0:0:0:
186,313,28749,1,0,0:0:0:0:
228,327,28836,1,0,0:0:0:0:
271,316,28923,1,0,0:0:0:0:
304,286,29010,6,0,P|335:246|329:189,1,90
306,85,29184,2,0,P|275:124|281:182,1,90,0|0,0:3|0:3,0:3:0:0:
415,230,29358,2,0,P|459:148|382:106,1,180
349,179,29618,6,0,B|370:236|422:228,1,90
204,253,29792,2,0,B|265:336|368:302,1,180
447,251,30053,6,0,L|341:213,1,90
102,121,30227,2,0,L|208:159,1,90
423,144,30401,5,0,0:0:0:0:
415,188,30488,1,0,0:0:0:0:
394,228,30575,1,0,0:0:0:0:
364,261,30662,1,0,0:0:0:0:
319,267,30749,6,0,P|235:229|226:142,1,180
401,95,31097,6,0,L|314:137,1,90
111,289,31271,2,0,L|198:246,1,90
422,167,31445,2,0,L|326:177,1,90
89,216,31618,2,0,L|185:206,1,90
417,243,31792,6,0,L|324:219,1,90
94,140,31966,2,0,L|187:164,1,90
334,168,32140,6,0,P|351:93|446:94,1,180
257,82,32401,6,0,P|248:136|202:160,1,90
107,244,32575,2,0,P|131:189|254:199,1,180,0|0,0:3|0:3,0:3:0:0:
450,309,32836,6,0,L|397:226,1,90
281,46,33010,2,0,L|334:129,1,90
463,247,33184,6,0,L|435:204,4,45
376,68,33445,6,0,P|320:95|292:138,1,90
182,278,33618,2,0,P|238:251|266:208,1,90,0|0,0:3|0:3,0:3:0:0:
322,44,33792,6,0,L|266:66,4,45
176,171,34053,6,0,L|232:149,4,45
334,137,34314,5,0,0:0:0:0:
377,149,34401,1,0,0:0:0:0:
409,179,34488,1,0,0:0:0:0:
422,221,34575,1,0,0:0:0:0:
416,265,34662,6,0,P|405:306|359:332,1,90
132,336,34836,2,0,P|143:295|189:269,1,90
353,220,35010,6,0,L|304:189,4,45
146,58,35271,6,0,P|165:108|195:135,1,90
444,327,35445,2,0,P|425:277|395:250,1,90
119,137,35618,6,0,L|166:151,6,45
435,134,35966,6,0,P|392:167|340:174,1,90
124,224,36140,2,0,P|167:191|219:184,1,90
414,207,36314,6,0,L|363:206,8,45
114,186,36749,6,0,L|213:143,1,90
379,70,36923,2,0,L|280:112,1,90
117,269,37097,6,0,L|216:226,1,90
432,129,37271,2,0,L|333:171,1,90
187,318,37445,6,0,P|231:301|257:266,1,90
346,57,37618,2,0,P|302:74|276:109,1,90
288,293,37792,6,0,L|288:246,4,45
265,36,38053,6,0,P|248:89|261:137,1,90
299,351,38227,2,0,P|316:298|303:250,1,90
204,90,38401,6,0,L|227:131,6,45
282,257,38749,6,0,P|339:269|384:258,1,90
446,289,38923,2,0,P|389:301|344:290,1,90
189,299,39097,2,0,P|246:311|291:300,1,90
512,329,39271,2,0,P|455:341|410:330,1,90
332,195,39445,6,0,L|323:174,1,18
163,194,39705,2,0,L|145:221,1,27
428,314,40140,6,0,B|380:307|380:307|345:278,1,90
113,92,40314,2,0,B|161:99|161:99|196:128,1,90
377,343,40488,2,0,B|277:335|277:335|203:277,1,180
65,175,40749,6,0,B|119:186|119:186|178:180,1,90
452,153,40923,2,0,B|398:142|398:142|339:148,1,90
70,241,41097,2,0,B|125:233|125:233|178:207,1,90,0|0,0:3|0:3,0:3:0:0:
426,88,41271,2,0,B|372:96|372:96|318:122,1,90,0|0,0:3|0:3,0:3:0:0:
161,304,41445,6,0,B|194:269|194:269|205:229,1,90
263,21,41618,2,0,B|230:56|230:56|219:96,1,90
231,287,41792,2,0,B|309:240|309:240|325:143,1,180
321,30,42053,2,0,B|243:77|243:77|227:174,1,180
255,323,42314,6,0,P|336:308|355:274,1,90
421,148,42488,2,0,P|340:163|321:197,1,90
351,355,42662,2,0,P|392:283|378:247,1,90
324,115,42836,2,0,P|283:187|297:223,1,90
433,314,43010,6,0,L|423:267,12,45
334,225,43618,2,0,L|340:177,14,45
433,159,44314,2,0,L|414:114,14,45,0|0|0|0|0|0|0|0|0|0|0|0|0|0|0,0:3|0:3|0:3|0:3|0:3|0:3|0:3|0:3|0:3|0:3|0:3|0:3|0:3|0:3|0:3,0:3:0:0:
301,100,45010,6,0,P|268:131|301:99,14,180
286,231,45705,6,0,P|252:297|214:324,1,116.999994644165
88,237,45879,2,0,P|122:171|160:144,1,116.999994644165
226,231,46053,6,0,P|260:297|298:324,1,116.999994644165
424,237,46227,2,0,P|390:171|352:144,1,116.999994644165
112,46,46401,6,0,B|153:106|153:106|208:117,1,116.999994644165
400,46,46575,2,0,B|359:106|359:106|304:117,1,116.999994644165
109,146,46749,6,0,P|87:203|112:259,1,116.999994644165
405,252,46923,2,0,P|424:198|403:146,1,116.999994644165
237,19,47097,5,0,0:0:0:0:
180,34,47183,1,0,0:0:0:0:
132,67,47270,1,0,0:0:0:0:
98,114,47357,1,0,0:0:0:0:
81,170,47444,1,0,0:0:0:0:
83,228,47531,1,0,0:0:0:0:
104,282,47618,1,0,0:0:0:0:
141,327,47705,1,0,0:0:0:0:
191,356,47792,1,0,0:0:0:0:
248,368,47879,1,0,0:0:0:0:
307,360,47966,6,0,L|415:301,1,116.999994644165
438,61,48140,2,0,L|329:119,1,116.999994644165
328,270,48314,2,0,L|436:211,1,116.999994644165
453,149,48488,6,0,P|382:146|321:169,1,116.999994644165
59,235,48662,2,0,P|130:238|191:215,1,116.999994644165
426,84,48836,2,0,P|358:105|309:148,1,116.999994644165
85,299,49010,2,0,P|153:278|202:235,1,116.999994644165
379,32,49184,2,0,P|322:75|291:132,1,116.999994644165
132,351,49358,2,0,P|189:308|220:251,1,116.999994644165
291,72,49531,6,0,L|313:138,3,45
416,276,49879,6,0,B|416:344|416:344|437:312|437:312|438:239|438:239|417:214|417:214|417:139|417:139,1,270.000010299683
325,206,50227,2,0,B|325:138|325:138|304:170|304:170|303:243|303:243|324:268|324:268|324:343|324:343,1,270.000010299683
222,261,50575,2,0,B|195:289|195:289|195:235|195:235|223:230|223:230|224:182|224:182|201:165|201:165|203:56,1,270.000010299683
102,156,50923,6,0,L|103:107,6,45
174,39,51271,6,0,B|210:48|210:48|255:137,1,125.999996154785
338,345,51445,2,0,B|302:336|302:336|257:247,1,125.999996154785
291,22,51618,2,0,B|313:52|313:52|290:149,1,125.999996154785
220,361,51792,2,0,B|198:331|198:331|221:234,1,125.999996154785
104,69,51966,6,0,P|173:88|208:147,1,125.999996154785
379,40,52140,2,0,P|360:109|301:144,1,125.999996154785
408,315,52314,2,0,P|339:296|304:237,1,125.999996154785
133,344,52488,2,0,P|152:275|211:240,1,125.999996154785
127,44,52662,6,0,P|192:75|216:139,1,125.999996154785
403,63,52836,2,0,P|372:128|308:152,1,125.999996154785
384,339,53010,2,0,P|319:308|295:244,1,125.999996154785
108,320,53184,2,0,P|139:255|203:231,1,125.999996154785
336,165,53358,5,0,0:0:0:0:
318,131,53445,1,0,0:0:0:0:
290,105,53531,1,0,0:0:0:0:
256,87,53618,1,0,0:0:0:0:
218,80,53705,6,0,P|180:166|389:231,1,377.999988464356
365,31,54053,5,0,0:0:0:0:
385,62,54140,1,0,0:0:0:0:
396,98,54227,1,0,0:0:0:0:
397,135,54314,1,0,0:0:0:0:
394,172,54401,1,0,0:0:0:0:
295,125,54575,5,0,0:0:0:0:
287,161,54662,1,0,0:0:0:0:
269,194,54749,1,0,0:0:0:0:
244,221,54836,1,0,0:0:0:0:
215,245,54923,1,0,0:0:0:0:
201,138,55097,5,0,0:0:0:0:
169,157,55184,1,0,0:0:0:0:
133,168,55271,1,0,0:0:0:0:
97,169,55358,1,0,0:0:0:0:
59,166,55445,1,0,0:0:0:0:
175,310,55618,6,0,P|255:312|315:335,1,125.999996154785
403,206,55792,2,0,P|323:204|263:181,1,125.999996154785
150,333,55966,6,0,P|230:335|290:358,1,125.999996154785
427,180,56140,1,0,0:0:0:0:
268,190,56227,6,0,L|171:209,2,62.9999980773926
430,151,56401,2,0,P|439:125|346:61,1,125.999996154785
222,93,56575,2,0,P|213:119|306:183,1,125.999996154785
450,293,56836,6,0,B|404:340|404:340|339:325,1,125.999996154785
58,293,57010,2,0,B|104:340|104:340|169:325,1,125.999996154785
464,148,57184,6,0,B|447:211|447:211|383:231,1,125.999996154785
44,148,57358,2,0,B|60:211|60:211|124:231,1,125.999996154785
376,31,57531,6,0,B|403:90|403:90|366:146,1,125.999996154785
136,31,57705,2,0,B|108:90|108:90|145:146,1,125.999996154785
215,340,57879,6,0,P|208:316|219:211,1,125.999996154785
297,44,58053,2,0,P|303:68|293:173,1,125.999996154785
79,343,58227,6,0,L|143:222,1,125.999996154785
433,41,58401,2,0,L|369:162,1,125.999996154785,0|0,0:3|0:3,0:3:0:0:
38,273,58575,6,0,L|139:181,1,125.999996154785
473,110,58749,2,0,L|372:202,1,125.999996154785,0|0,0:3|0:3,0:3:0:0:
23,193,58923,6,0,L|150:142,1,125.999996154785
439,249,59097,6,0,P|376:275|308:248,1,125.999996154785
72,134,59271,2,0,P|135:108|203:135,1,125.999996154785
408,308,59445,2,0,P|340:311|286:263,1,125.999996154785
182,65,59618,6,0,L|217:123,4,62.9999980773926
269,198,59879,5,0,0:0:0:0:
306,200,59966,1,0,0:0:0:0:
343,195,60053,1,0,0:0:0:0:
377,178,60140,1,0,0:0:0:0:
411,152,60227,6,0,P|406:229|364:268,1,125.999996154785
334,170,60401,2,0,P|291:234|235:246,1,125.999996154785
237,161,60575,2,0,P|167:195|113:178,1,125.999996154785
164,106,60749,2,0,P|87:100|47:58,1,125.999996154785
141,30,60923,6,0,L|307:55,1,125.999996154785
399,80,61097,6,0,P|421:153|323:301,1,251.999992309571
255,241,61358,2,0,P|348:167|269:71,1,251.999992309571
73,171,61705,6,0,P|107:227|176:228,1,125.999996154785
439,213,61879,2,0,P|405:157|336:156,1,125.999996154785
86,272,62053,5,0,0:0:0:0:
145,292,62140,1,0,0:0:0:0:
207,283,62227,1,0,0:0:0:0:
258,247,62314,1,0,0:0:0:0:
268,184,62401,6,0,B|235:123|235:123|166:100,1,125.999996154785
9,120,62575,2,0,B|42:181|42:181|111:204,1,125.999996154785
214,184,62749,6,0,B|247:123|247:123|316:100,1,125.999996154785
473,120,62923,2,0,B|440:181|440:181|371:204,1,125.999996154785
110,209,63097,6,0,P|54:269|70:333,1,125.999996154785
266,166,63271,2,0,P|322:106|306:42,1,125.999996154785
402,209,63445,6,0,P|458:269|442:333,1,125.999996154785
246,166,63619,2,0,P|190:106|206:42,1,125.999996154785
82,65,63792,6,0,P|110:126|181:170,1,144
430,319,63966,2,0,P|402:258|331:214,1,144,0|0,0:3|0:3,0:3:0:0:
42,169,64140,2,0,P|96:207|180:210,1,144
470,214,64314,2,0,P|415:176|331:173,1,144,0|0,0:3|0:3,0:3:0:0:
114,269,64488,6,0,P|214:255|224:206,1,144
398,115,64662,2,0,P|298:129|288:178,1,144
305,329,64836,5,0,0:0:0:0:
252,279,64923,1,0,0:0:0:0:
228,210,65010,1,0,0:0:0:0:
228,137,65097,1,0,0:0:0:0:
260,72,65184,6,0,L|194:116,1,72
314,28,65271,2,0,L|232:37,1,72
384,31,65358,2,0,L|310:4,1,72
378,89,65445,6,0,L|268:181,1,144
133,294,65618,2,0,L|243:202,1,144
413,164,65792,2,0,L|271:189,1,144
98,219,65965,2,0,L|240:194,1,144
406,246,66140,2,0,L|271:197,1,144
105,137,66313,2,0,L|240:186,1,144
358,314,66488,2,0,L|266:204,1,144
165,61,66662,6,0,P|265:49|289:322,1,432
152,268,67097,2,0,P|211:125|297:165,1,288
256,192,67358,12,0,67879,0:0:0:0:
136,81,67966,5,0,0:0:0:0:
279,60,68140,2,0,B|327:129|327:129|326:157|336:196,1,144
239,329,68401,2,0,B|191:260|191:260|192:232|182:193,1,144
409,138,68662,1,0,0:0:0:0:
409,138,68749,1,0,0:0:0:0:
94,187,68923,1,0,0:0:0:0:
94,187,69010,1,0,0:0:0:0:
269,47,69358,5,0,0:0:0:0:
269,47,69445,1,0,0:0:0:0:
269,47,69531,2,0,B|310:114|310:114|297:120|297:120|306:198,1,144
196,337,69792,2,0,B|155:270|155:270|168:264|168:264|159:186,1,144
105,51,70053,5,0,0:0:0:0:
147,59,70140,1,0,0:0:0:0:
181,137,70227,1,0,0:0:0:0:
223,145,70314,2,0,P|279:134|298:218,1,144
170,265,70749,5,0,0:0:0:0:
272,58,70923,2,0,B|313:102|321:149|321:149|348:115,1,144
142,168,71184,2,0,B|101:124|93:77|93:77|66:111,1,144
338,268,71445,1,0,0:0:0:0:
338,268,71531,1,0,0:0:0:0:
189,52,71705,1,0,0:0:0:0:
189,52,71791,1,0,0:0:0:0:
321,110,72140,6,0,P|382:158|419:110,1,144
253,181,72314,2,0,P|192:229|155:181,1,144
321,110,72488,6,0,P|382:158|437:120,1,144
253,181,72662,2,0,P|192:229|137:191,1,144
321,110,72836,6,0,P|382:158|448:137,1,144
253,181,73010,2,0,P|192:229|126:208,1,144
321,110,73184,6,0,P|382:158|451:160,1,144
253,181,73358,2,0,P|192:229|123:231,1,144
235,78,73531,5,0,0:0:0:0:
73,78,73705,2,0,B|63:91|63:91|59:111|59:111|63:131|63:131|74:150|74:150|87:165|87:165|96:184|96:184|95:206|95:206|85:226,1,144
313,271,73966,2,0,B|323:258|323:258|327:238|327:238|323:218|323:218|312:199|312:199|299:184|299:184|290:165|290:165|291:143|291:143|301:123,1,144
399,31,74227,1,0,0:0:0:0:
399,31,74314,1,0,0:0:0:0:
152,138,74488,1,0,0:0:0:0:
152,138,74575,1,0,0:0:0:0:
220,335,74923,5,0,0:0:0:0:
201,295,75010,1,0,0:0:0:0:
262,227,75097,1,0,0:0:0:0:
243,187,75184,2,0,P|259:99|318:83,1,144
387,140,75358,5,0,0:0:0:0:
350,163,75445,1,0,0:0:0:0:
93,146,75618,2,0,B|110:79|110:79|150:67|164:21,1,144
262,108,75792,2,0,B|245:175|245:175|205:187|191:233,1,144
93,146,75966,2,0,B|110:79|110:79|144:57|164:21,1,144
150,304,76314,5,0,0:0:0:0:
262,345,76488,2,0,P|313:288|286:226,1,144
123,40,76749,2,0,P|72:97|99:159,1,144
362,304,77010,5,0,0:0:0:0:
250,345,77184,2,0,P|199:288|226:226,1,144
389,40,77445,2,0,P|440:97|413:159,1,144
254,38,77705,5,0,0:0:0:0:
211,43,77792,1,0,0:0:0:0:
173,63,77879,1,0,0:0:0:0:
154,101,77966,1,0,0:0:0:0:
158,144,78053,1,0,0:0:0:0:
179,181,78140,1,0,0:0:0:0:
215,203,78227,1,0,0:0:0:0:
258,206,78314,1,0,0:0:0:0:
301,207,78401,5,0,0:0:0:0:
343,216,78488,1,0,0:0:0:0:
377,241,78575,1,0,0:0:0:0:
395,280,78662,1,0,0:0:0:0:
398,323,78749,1,0,0:0:0:0:
377,360,78836,1,0,0:0:0:0:
336,374,78923,1,0,0:0:0:0:
292,376,79010,6,0,L|208:377,20,72
256,192,80488,12,0,81836,0:0:0:0:
103,98,81879,5,0,0:0:0:0:
116,108,81966,1,0,0:0:0:0:
132,119,82053,2,0,P|153:171|235:193,1,144
344,50,82227,5,0,0:0:0:0:
361,55,82314,2,0,B|415:111|415:111|390:189,1,144
327,281,82488,5,0,0:0:0:0:
289,275,82575,1,0,0:0:0:0:
259,264,82662,2,0,P|231:247|261:148,1,144
380,110,82836,5,0,0:0:0:0:
394,111,82923,1,0,0:0:0:0:
409,112,83010,1,0,0:0:0:0:
423,117,83097,1,0,0:0:0:0:
439,123,83184,6,0,P|441:205|395:260,1,144
167,184,83358,2,0,P|165:102|211:47,1,144
436,195,83531,2,0,P|396:267|329:291,1,144
169,111,83705,2,0,P|209:39|276:15,1,144
397,256,83879,6,0,P|327:298|256:286,1,144
208,50,84053,2,0,P|278:8|349:20,1,144
333,289,84226,2,0,P|251:291|196:245,1,144
272,17,84400,2,0,P|354:15|409:61,1,144
239,290,84575,5,0,0:0:0:0:
219,297,84662,1,0,0:0:0:0:
199,300,84749,2,0,P|130:278|141:195,1,144
215,97,84923,6,0,B|290:100|290:100|328:166,1,144
378,281,85097,2,0,P|351:340|252:336,1,144
130,256,85271,5,0,0:0:0:0:
119,235,85358,1,0,0:0:0:0:
113,213,85445,2,0,P|132:153|218:134,1,144
372,162,85618,5,0,0:0:0:0:
397,166,85705,2,0,P|436:127|378:57,1,144
225,54,85879,5,0,0:0:0:0:
203,56,85966,1,0,0:0:0:0:
179,60,86053,6,0,B|159:137|159:137|227:164,1,144
333,324,86227,2,0,B|353:247|353:247|285:220,1,144
112,140,86401,2,0,B|146:212|146:212|215:189,1,144
399,243,86575,2,0,B|365:171|365:171|296:194,1,144
112,244,86749,6,0,B|184:277|184:277|223:215,1,144
399,139,86923,2,0,B|327:106|327:106|288:168,1,144
180,324,87097,2,0,B|256:303|256:303|246:231,1,144
331,59,87271,2,0,B|255:80|255:80|265:152,1,144
302,293,87445,5,0,0:0:0:0:
308,303,87531,1,0,0:0:0:0:
316,315,87618,2,0,P|366:348|412:282,1,144
406,147,87792,6,0,P|321:109|275:151,1,144
201,199,87966,2,0,P|116:237|70:195,1,144
64,80,88140,5,0,0:0:0:0:
78,69,88227,1,0,0:0:0:0:
94,58,88314,2,0,P|147:35|241:57,1,144
384,127,88488,2,0,B|414:198|414:198|342:232,1,144
174,215,88662,5,0,0:0:0:0:
151,209,88749,1,0,0:0:0:0:
129,203,88836,2,0,P|100:163|151:87,1,144
288,135,89010,5,0,0:0:0:0:
312,139,89097,2,0,P|341:179|290:255,1,144
109,270,89271,2,0,B|10:157|10:157|147:26,1,288
283,60,89531,5,0,0:0:0:0:
305,73,89618,1,0,0:0:0:0:
323,89,89705,2,0,P|343:184|292:212,1,144
175,239,89879,5,0,0:0:0:0:
154,226,89966,1,0,0:0:0:0:
137,208,90053,1,0,0:0:0:0:
125,184,90140,1,0,0:0:0:0:
126,151,90227,6,0,B|96:144|96:144|131:137|131:137|154:150|154:150|194:155|194:155|219:171|219:171|266:177|266:177|276:169|276:169|352:179,1,288
383,275,90488,6,0,B|416:275|416:275|394:288|394:288|363:286|363:286|340:273|340:273|303:272|303:272|287:284|287:284|238:285|238:285|215:270|215:270|180:264|180:264|162:248|162:248|118:242|118:242|104:228|104:228|47:215,1,432
365,61,90923,6,0,B|385:24|385:24|405:58|405:58|405:93|405:93|390:107|390:107|387:145|387:145|368:168|368:168|368:200|368:200|390:225|390:225|392:260,1,288
303,351,91184,6,0,B|303:378|303:378|287:351|287:351|287:326|287:326|303:318|303:318|303:280|303:280|317:260|317:260|317:211|317:211|305:186|305:186|305:157|305:157|287:138|287:138|287:98|287:98|303:91|303:91|303:10,1,432
185,47,91618,6,0,L|97:210,1,144
106,189,91792,2,0,L|71:253,2,72
189,123,91966,6,0,L|162:306,1,144
163,283,92140,2,0,L|152:355,2,72
282,345,92314,6,0,P|316:317|300:224,1,144
230,39,92488,2,0,P|196:67|212:160,1,144
379,266,92662,6,0,L|356:252,1,27
153,114,93010,2,0,P|121:118|101:158,14,80.9999975280763
293,241,93705,6,0,P|374:239|397:156,1,144
363,58,93879,5,0,0:0:0:0:
348,51,93966,1,0,0:0:0:0:
332,44,94053,2,0,P|243:88|244:117,1,144
347,250,94227,5,0,0:0:0:0:
359,266,94314,1,0,0:0:0:0:
368,279,94401,2,0,B|330:348|330:348|248:342,1,144
49,156,94575,6,0,B|124:124|124:124|201:164,1,144
321,228,94749,2,0,B|246:260|246:260|169:220,1,144
117,79,94923,5,0,0:0:0:0:
143,78,95010,1,0,0:0:0:0:
166,79,95097,2,0,P|236:121|263:194,1,144
281,302,95271,5,0,0:0:0:0:
301,312,95358,1,0,0:0:0:0:
321,320,95445,2,0,P|398:311|310:189,1,288
206,190,95705,5,0,0:0:0:0:
180,188,95792,2,0,P|144:142|234:110,1,144
343,120,95966,5,0,0:0:0:0:
357,130,96053,1,0,0:0:0:0:
368,142,96140,2,0,P|350:255|308:266,1,144
207,298,96314,5,0,0:0:0:0:
186,298,96401,1,0,0:0:0:0:
165,294,96488,2,0,B|117:229|117:229|138:150,1,144
186,51,96662,2,0,B|234:116|234:116|213:195,1,144,0|0,0:3|0:3,0:3:0:0:
137,329,96836,5,0,0:3:0:0:
154,341,96923,1,0,0:3:0:0:
174,350,97010,1,0,0:3:0:0:
192,353,97097,1,0,0:3:0:0:
210,352,97184,6,0,P|259:301|262:224,1,144
302,32,97358,2,0,P|253:83|250:160,1,144,0|0,0:3|0:3,0:3:0:0:
296,353,97531,2,0,P|313:284|277:216,1,144
215,30,97705,2,0,P|198:99|234:167,1,144,0|0,0:3|0:3,0:3:0:0:
371,311,97879,6,0,P|351:243|286:202,1,144
140,72,98053,2,0,P|160:140|225:181,1,144,0|0,0:3|0:3,0:3:0:0:
416,238,98226,2,0,P|365:188|288:186,1,144
96,146,98400,2,0,P|147:194|224:198,1,144,0|0,0:3|0:3,0:3:0:0:
308,134,98575,5,0,0:0:0:0:
352,125,98662,2,0,B|345:86|345:86|337:113|337:113|346:151|346:151|360:160|360:160|368:212|368:212|361:237|361:237|387:354,1,288
270,305,98923,5,0,0:0:0:0:
239,292,99010,2,0,B|224:324|224:324|218:290|218:290|226:260|226:260|248:248|248:248|262:221|262:221|253:191|253:191|303:78,1,288
196,78,99271,5,0,0:0:0:0:
195,46,99358,2,0,B|239:47|239:47|220:29|220:29|172:29|172:29|163:46|163:46|125:46|125:46|117:63|117:63|7:62|7:62,1,288
59,157,99618,5,0,0:0:0:0:
102,153,99705,2,0,B|101:111|101:111|113:134|113:134|113:173|113:173|98:191|98:191|100:267|100:267|119:280|119:280|119:356,1,288
189,354,99966,6,0,L|244:202,1,144
323,30,100140,2,0,L|268:181,1,144
248,367,100314,2,0,L|248:205,1,144
263,16,100488,2,0,L|263:178,1,144
308,359,100662,6,0,L|253:207,1,144
203,24,100836,2,0,L|258:176,1,144
362,331,101010,2,0,L|258:207,1,144
149,52,101184,2,0,L|253:176,1,144
379,275,101358,6,0,P|375:208|321:157,1,135.000005149842
133,109,101618,2,0,P|137:176|191:227,1,135.000005149842,0|0,0:3|0:3,0:3:0:0:
404,202,101879,6,0,P|367:146|294:129,1,135.000005149842
107,181,102139,2,0,P|144:237|217:254,1,135.000005149842,0|0,0:3|0:3,0:3:0:0:
368,117,102401,6,0,B|308:77|308:77|246:98,1,135.000005149842
168,216,102749,2,0,B|208:294|208:294|288:297|288:297|325:263|325:263|392:264,1,270.000010299683
425,121,103271,2,0,B|383:61|383:61|302:51,1,135.000005149842
185,100,103792,6,0,B|84:89|84:89|116:116,1,135.000005149842
256,192,104140,1,0,0:0:0:0:
161,62,115271,6,0,P|152:121|170:155,1,90
247,336,115445,2,0,P|256:277|238:243,1,90
178,61,115618,5,0,0:0:0:0:
195,63,115705,1,0,0:0:0:0:
209,66,115792,2,0,P|293:135|375:101,1,180
457,40,116053,5,0,0:0:0:0:
481,42,116140,2,0,B|469:132|469:132|409:210,1,180
132,307,116401,6,0,P|217:252|229:253,1,90
340,233,116575,1,0,0:0:0:0:
368,223,116662,5,0,0:0:0:0:
385,211,116748,1,0,0:0:0:0:
399,197,116835,1,0,0:0:0:0:
411,179,116922,1,0,0:0:0:0:
419,160,117009,1,0,0:0:0:0:
424,140,117096,1,0,0:0:0:0:
424,120,117183,1,0,0:0:0:0:
421,99,117270,1,0,0:0:0:0:
413,80,117357,5,0,0:0:0:0:
403,62,117444,1,0,0:0:0:0:
389,47,117531,1,0,0:0:0:0:
372,35,117618,1,0,0:0:0:0:
353,26,117705,1,0,0:0:0:0:
333,21,117792,1,0,0:0:0:0:
313,20,117879,1,0,0:0:0:0:
292,22,117966,1,0,0:0:0:0:
270,29,118053,6,0,P|215:67|203:95,1,90
186,293,118227,2,0,P|241:255|253:227,1,90
289,88,118401,5,0,0:0:0:0:
292,71,118488,2,0,P|389:84|381:211,1,180
387,237,118749,5,0,0:0:0:0:
383,250,118836,1,0,0:0:0:0:
377,265,118923,1,0,0:0:0:0:
372,278,119010,1,0,0:0:0:0:
364,288,119097,2,0,P|282:291|264:279,1,90
88,198,119271,2,0,P|170:195|188:207,1,90
382,318,119445,6,0,L|284:220,1,90
129,65,119618,2,0,L|227:163,1,90
331,354,119792,2,0,L|272:228,1,90,0|0,0:0|0:0,0:0:0:0:
180,29,119965,2,0,L|239:155,1,90,0|0,0:0|0:0,0:0:0:0:
271,370,120140,6,0,L|259:231,1,90,0|0,0:3|0:3,0:3:0:0:
240,13,120313,2,0,L|252:152,1,90,0|0,0:3|0:3,0:3:0:0:
209,365,120487,2,0,L|245:230,1,90,0|0,0:3|0:3,0:3:0:0:
302,18,120660,2,0,L|266:153,1,90,0|0,0:3|0:3,0:3:0:0:
168,328,120836,6,0,P|176:275|299:248,1,180
463,287,121097,2,0,P|461:213|403:177,1,135
298,128,121358,1,0,0:0:0:0:
286,121,121445,1,0,0:0:0:0:
273,115,121531,6,0,P|223:99|177:103,1,90
239,269,121705,2,0,P|289:285|335:281,1,90
226,93,121879,2,0,P|159:107|110:140,1,90
285,290,122053,2,0,P|352:276|401:243,1,90
463,177,122227,6,0,P|451:92|360:52,1,180
198,52,122488,1,0,0:0:0:0:
184,55,122575,2,0,P|141:105|146:143,1,90
137,325,122749,2,0,P|180:275|175:237,1,90
182,121,122923,6,0,L|110:51,1,90
330,263,123097,2,0,L|402:333,1,90
156,167,123271,2,0,L|59:142,1,90
355,216,123445,2,0,L|452:241,1,90
120,332,123618,6,0,P|142:281|196:236,1,116.999994644165
392,52,123792,2,0,P|370:103|316:148,1,116.999994644165
68,245,123966,2,0,P|112:212|182:200,1,116.999994644165
443,138,124140,2,0,P|399:171|329:183,1,116.999994644165
66,144,124314,6,0,P|121:137|187:162,1,116.999994644165
445,239,124488,2,0,P|390:246|324:221,1,116.999994644165
116,56,124662,2,0,P|167:78|212:132,1,116.999994644165
396,327,124836,2,0,P|345:306|300:252,1,116.999994644165
257,325,125010,6,0,L|292:377,14,58.4999973220826
222,170,125705,6,0,B|225:149|225:149|209:137|209:137|188:145|188:145|185:164|185:164|201:175|201:175,6,90
71,157,126053,2,0,P|197:25|320:303,1,540
266,350,126401,6,0,P|213:312|258:205,1,180
324,50,126575,1,0,0:0:0:0:
342,49,126662,2,0,P|395:87|350:194,1,180
200,248,126836,5,0,0:0:0:0:
183,248,126923,2,0,P|121:178|167:122,1,180
352,62,127097,6,0,B|430:109|430:109|395:197,1,180
321,305,127271,1,0,0:0:0:0:
308,312,127358,1,0,0:0:0:0:
296,315,127445,6,0,P|238:315|163:224,1,180
65,48,127618,2,0,P|123:48|198:139,1,180
227,283,127792,6,0,P|350:284|390:222,1,180
453,84,127966,1,0,0:0:0:0:
461,69,128053,2,0,P|338:68|298:129,1,180
254,354,128227,5,0,0:0:0:0:
248,341,128314,1,0,0:0:0:0:
243,327,128401,1,0,0:0:0:0:
236,314,128488,6,0,P|177:263|205:163,1,180
276,70,128662,2,0,P|335:121|307:221,1,180
162,272,128836,2,0,P|149:195|235:137,1,180
349,111,129010,2,0,P|362:188|276:246,1,180
101,248,129184,6,0,P|73:202|134:103,1,180
314,38,129358,1,0,0:0:0:0:
329,38,129445,2,0,P|357:84|296:183,1,180
132,201,129618,2,0,P|147:311|234:335,1,180
375,296,129792,5,0,0:0:0:0:
391,293,129879,2,0,B|414:203|414:203|359:124,1,180
187,51,130053,2,0,B|164:140|164:140|219:220,1,180
444,199,130227,2,0,B|404:115|404:115|311:90,1,180
133,144,130401,2,0,B|173:228|173:228|266:253,1,180
404,253,130575,5,0,0:0:0:0:
434,249,130662,2,0,B|443:282|443:282|455:249|455:249|455:231|455:231|435:211|435:211|435:180|435:180|417:129|421:151,1,180
171,57,130923,5,0,0:0:0:0:
274,302,131097,1,0,0:0:0:0:
420,35,131358,1,0,0:0:0:0:
134,206,131618,6,0,B|125:253|125:253|176:248,6,90
289,100,131966,6,0,P|365:112|433:183,1,180
223,284,132140,2,0,P|146:271|78:200,1,180
340,142,132314,2,0,P|391:201|396:299,1,180
171,241,132488,2,0,P|120:182|115:84,1,180
352,208,132662,6,0,P|353:285|294:364,1,180,0|0,0:3|0:3,0:3:0:0:
159,175,132836,2,0,P|158:98|217:19,1,180,0|0,0:3|0:3,0:3:0:0:
319,266,133010,2,0,P|270:326|174:349,1,180,0|0,0:3|0:3,0:3:0:0:
192,117,133184,2,0,P|241:57|337:34,1,180,0|0,0:3|0:3,0:3:0:0:
256,289,133358,6,0,P|180:304|92:260,1,180,0|0,0:3|0:3,0:3:0:0:
255,94,133532,2,0,P|331:79|419:123,1,180,0|0,0:3|0:3,0:3:0:0:
193,267,133706,2,0,P|125:229|86:139,1,180,0|0,0:3|0:3,0:3:0:0:
318,116,133880,2,0,P|386:154|425:244,1,180,0|0,0:3|0:3,0:3:0:0:
168,202,134053,5,0,0:0:0:0:
162,166,134140,1,0,0:0:0:0:
168,130,134227,1,0,0:0:0:0:
187,99,134314,1,0,0:0:0:0:
213,74,134401,1,0,0:0:0:0:
245,58,134488,1,0,0:0:0:0:
280,53,134575,1,0,0:0:0:0:
314,63,134662,1,0,0:0:0:0:
343,84,134749,6,0,L|433:155,2,90
293,180,135097,6,0,L|353:277,2,90
203,240,135445,6,0,L|226:352,2,90
107,290,135793,6,0,L|90:403,2,90
141,148,136140,6,0,P|192:113|228:120,1,90
315,144,136488,5,0,0:0:0:0:
335,153,136575,1,0,0:0:0:0:
358,174,136662,1,0,0:0:0:0:
372,201,136749,1,0,0:0:0:0:
368,245,136836,1,0,0:0:0:0:
352,287,136923,1,0,0:0:0:0:
311,322,137010,5,0,0:0:0:0:
258,332,137097,1,0,0:0:0:0:
195,321,137184,1,0,0:0:0:0:
155,271,137271,1,0,0:0:0:0:
155,206,137358,1,0,0:0:0:0:
198,148,137445,1,0,0:0:0:0:
262,120,137531,6,0,P|323:144|342:206,1,116.999994644165
146,339,137705,2,0,L|58:230,1,116.999994644165
132,64,137879,5,0,0:0:0:0:
143,64,137966,1,0,0:0:0:0:
154,64,138053,2,0,P|195:106|211:171,1,116.999994644165
253,348,138227,2,0,P|212:306|196:241,1,116.999994644165
217,45,138401,2,0,P|231:101|212:166,1,116.999994644165
163,315,138575,6,0,L|92:185,1,116.999994644165
242,103,138749,2,0,L|313:233,1,116.999994644165
426,333,138923,6,0,L|406:286,1,36
334,55,139271,6,0,P|258:117|254:160,1,116.999994644165
178,329,139445,2,0,P|254:267|258:224,1,116.999994644165
227,36,139618,2,0,P|209:133|233:168,1,116.999994644165
284,347,139792,2,0,P|302:250|278:215,1,116.999994644165
134,91,139966,2,0,P|182:177|224:188,1,116.999994644165
377,292,140140,2,0,P|329:206|287:195,1,116.999994644165
59,151,140314,6,0,P|117:210|171:219,1,116.999994644165
319,161,140488,1,0,0:0:0:0:
341,145,140575,2,0,P|273:104|217:118,1,116.999994644165
80,199,140749,5,0,0:0:0:0:
83,213,140836,1,0,0:0:0:0:
88,224,140923,2,0,P|141:280|189:288,1,116.999994644165
440,262,141097,2,0,P|387:206|339:198,1,116.999994644165
138,141,141271,5,0,0:0:0:0:
122,131,141358,2,0,P|117:77|243:128,1,233.999989288331
255,293,141618,5,0,0:0:0:0:
257,304,141705,2,0,L|378:333,1,116.999994644165
440,172,141879,2,0,L|319:143,1,116.999994644165
255,304,142053,6,0,L|134:333,1,116.999994644165
72,172,142227,2,0,L|193:143,1,116.999994644165
257,80,142401,6,0,L|378:51,1,116.999994644165
440,212,142575,2,0,L|319:241,1,116.999994644165
255,80,142749,6,0,L|134:51,1,116.999994644165
72,212,142923,2,0,L|193:241,1,116.999994644165
301,334,143097,6,0,L|341:200,1,116.999994644165
211,50,143271,2,0,L|171:184,1,116.999994644165
256,192,143445,1,0,0:0:0:0:
206,348,143792,6,0,L|162:200,1,116.999994644165
305,35,143966,2,0,L|349:183,1,116.999994644165
256,192,144140,1,0,0:0:0:0:
311,366,144488,6,0,L|360:201,1,116.999994644165
200,17,144662,2,0,L|151:182,1,116.999994644165
256,192,144836,1,0,0:0:0:0:
195,383,145183,6,0,L|141:202,1,116.999994644165
316,0,145357,2,0,L|370:181,1,116.999994644165
256,192,145531,1,0,0:0:0:0:
132,53,145879,6,0,P|225:87|246:126,1,116.999994644165
399,256,146053,2,0,P|306:222|285:183,1,116.999994644165
205,31,146227,2,0,L|173:158,1,116.999994644165
228,288,146401,2,0,L|260:161,1,116.999994644165
316,53,146575,6,0,B|329:111|329:111|351:137|351:137|340:165|340:165|350:189|350:189|334:209|334:209|325:286,1,233.999989288331
234,312,146923,2,0,B|240:253|240:253|256:233|256:233|246:209|246:209|257:181|257:181|235:155|235:155|222:97,1,233.999989288331
256,192,147445,12,0,148662,0:0:0:0:
119,117,159792,5,0,0:0:0:0:
108,137,159879,1,0,0:0:0:0:
100,159,159966,1,0,0:0:0:0:
96,182,160053,1,0,0:0:0:0:
96,205,160140,5,0,0:0:0:0:
99,228,160227,1,0,0:0:0:0:
107,249,160314,1,0,0:0:0:0:
120,268,160401,1,0,0:0:0:0:
136,284,160488,5,0,0:0:0:0:
155,297,160575,1,0,0:0:0:0:
176,306,160662,1,0,0:0:0:0:
198,311,160749,1,0,0:0:0:0:
221,312,160836,5,0,0:0:0:0:
244,308,160923,1,0,0:0:0:0:
266,302,161010,1,0,0:0:0:0:
287,292,161097,1,0,0:0:0:0:
305,277,161184,5,0,0:0:0:0:
319,258,161271,1,0,0:0:0:0:
325,235,161358,1,0,0:0:0:0:
325,211,161445,1,0,0:0:0:0:
320,188,161531,5,0,0:0:0:0:
310,166,161618,1,0,0:0:0:0:
294,148,161705,1,0,0:0:0:0:
275,133,161792,1,0,0:0:0:0:
255,120,161879,5,0,0:0:0:0:
232,112,161966,1,0,0:0:0:0:
208,110,162053,1,0,0:0:0:0:
185,116,162140,1,0,0:0:0:0:
169,125,162227,6,0,L|132:157,1,36
116,328,162575,5,0,0:0:0:0:
133,324,162662,1,0,0:0:0:0:
149,317,162749,1,0,0:0:0:0:
163,306,162836,1,0,0:0:0:0:
174,292,162923,5,0,0:0:0:0:
183,276,163010,1,0,0:0:0:0:
190,259,163097,1,0,0:0:0:0:
196,242,163184,1,0,0:0:0:0:
199,224,163271,5,0,0:0:0:0:
199,206,163358,1,0,0:0:0:0:
197,188,163445,1,0,0:0:0:0:
193,170,163531,1,0,0:0:0:0:
188,152,163618,5,0,0:0:0:0:
188,133,163705,1,0,0:0:0:0:
196,117,163792,1,0,0:0:0:0:
208,103,163879,1,0,0:0:0:0:
223,93,163966,5,0,0:0:0:0:
240,87,164053,1,0,0:0:0:0:
258,87,164140,1,0,0:0:0:0:
274,94,164227,1,0,0:0:0:0:
286,106,164314,5,0,0:0:0:0:
295,121,164401,1,0,0:0:0:0:
300,138,164488,1,0,0:0:0:0:
302,155,164575,1,0,0:0:0:0:
302,172,164662,6,0,L|294:222,2,36
156,294,165358,5,0,0:0:0:0:
139,272,165445,1,0,0:0:0:0:
129,246,165531,1,0,0:0:0:0:
127,219,165618,1,0,0:0:0:0:
134,191,165705,5,0,0:0:0:0:
146,164,165792,1,0,0:0:0:0:
163,140,165879,1,0,0:0:0:0:
186,123,165966,1,0,0:0:0:0:
215,113,166053,5,0,0:0:0:0:
245,111,166140,1,0,0:0:0:0:
275,116,166227,1,0,0:0:0:0:
300,132,166314,1,0,0:0:0:0:
318,158,166401,5,0,0:0:0:0:
328,188,166488,1,0,0:0:0:0:
329,220,166575,1,0,0:0:0:0:
319,250,166662,1,0,0:0:0:0:
295,275,166749,5,0,0:0:0:0:
265,293,166836,1,0,0:0:0:0:
231,297,166923,1,0,0:0:0:0:
197,288,167010,1,0,0:0:0:0:
171,262,167097,5,0,0:0:0:0:
161,227,167184,1,0,0:0:0:0:
169,192,167271,1,0,0:0:0:0:
190,162,167358,1,0,0:0:0:0:
223,145,167445,5,0,0:0:0:0:
260,142,167531,1,0,0:0:0:0:
295,155,167618,1,0,0:0:0:0:
320,183,167705,1,0,0:0:0:0:
328,221,167792,5,0,0:0:0:0:
343,257,167879,1,0,0:0:0:0:
374,281,167966,1,0,0:0:0:0:
413,274,168053,1,0,0:0:0:0:
440,243,168140,5,0,0:0:0:0:
455,204,168227,1,0,0:0:0:0:
457,162,168314,1,0,0:0:0:0:
443,122,168401,1,0,0:0:0:0:
412,88,168488,5,0,0:0:0:0:
373,65,168575,1,0,0:0:0:0:
329,54,168662,1,0,0:0:0:0:
283,54,168749,1,0,0:0:0:0:
235,71,168836,5,0,0:0:0:0:
195,101,168923,1,0,0:0:0:0:
177,148,169010,1,0,0:0:0:0:
183,198,169097,1,0,0:0:0:0:
209,245,169184,5,0,0:0:0:0:
251,277,169271,1,0,0:0:0:0:
304,282,169358,1,0,0:0:0:0:
355,265,169445,1,0,0:0:0:0:
403,225,169531,5,0,0:0:0:0:
256,192,169705,12,0,170923,0:0:0:0:
186,46,170923,6,0,B|181:104|148:149|148:149|105:142|79:115|79:115|82:171|122:208|122:208|88:219|54:216|54:216|78:243|117:253|117:253|107:287|141:351|279:356|279:356|351:231|289:202|289:202|235:229|301:356|301:356|348:322|376:340|376:340|405:313,1,1116
447,182,176488,2,0,L|457:218,15,26.9999991760254
349,187,177879,2,0,L|339:151,15,26.9999991760254
258,231,179271,2,0,L|268:267,15,26.9999991760254
159,162,180662,2,0,L|149:126,15,26.9999991760254
56,205,182053,2,0,L|42:252,15,26.9999991760254
186,211,183444,2,0,L|199:163,15,26.9999991760254
307,270,184836,2,0,L|293:317,15,26.9999991760254
439,178,186227,2,0,L|452:130,15,26.9999991760254
392,65,187618,6,0,P|364:136|305:171,1,135.000005149842
177,205,187879,2,0,P|205:134|264:99,1,135.000005149842
427,119,188140,2,0,P|399:157|357:161,1,67.5000025749208
243,150,188314,5,0,0:0:0:0:
199,132,188401,1,0,0:0:0:0:
151,132,188488,1,0,0:0:0:0:
110,156,188575,1,0,0:0:0:0:
94,200,188662,1,0,0:0:0:0:
98,247,188749,1,0,0:0:0:0:
127,284,188836,1,0,0:0:0:0:
171,299,188923,1,0,0:0:0:0:
218,299,189010,6,0,L|280:270,1,67.5000025749208
356,128,189184,2,0,L|293:156,1,67.5000025749208
204,315,189358,6,0,L|278:281,1,67.5000025749208
369,111,189532,2,0,L|294:144,1,67.5000025749208
193,202,189705,5,0,0:0:0:0:
188,249,189792,1,0,0:0:0:0:
215,287,189879,1,0,0:0:0:0:
265,287,189966,1,0,0:0:0:0:
301,256,190053,1,0,0:0:0:0:
312,210,190140,1,0,0:0:0:0:
287,169,190227,1,0,0:0:0:0:
241,154,190314,1,0,0:0:0:0:
103,126,190401,6,0,P|145:88|229:80,1,135.000005149842
330,131,190662,2,0,P|288:169|204:177,1,135.000005149842
121,64,190923,2,0,P|163:46|229:63,1,67.5000025749208
325,76,191097,5,0,0:0:0:0:
356,110,191184,1,0,0:0:0:0:
366,156,191271,1,0,0:0:0:0:
346,199,191358,1,0,0:0:0:0:
310,230,191445,1,0,0:0:0:0:
298,275,191531,1,0,0:0:0:0:
312,319,191618,1,0,0:0:0:0:
349,347,191705,1,0,0:0:0:0:
444,337,191792,6,0,P|461:263|437:207,1,135.000005149842
331,81,192053,2,0,P|314:155|338:210,1,135.000005149842
488,245,192314,2,0,P|482:199|457:173,1,67.5000025749208
387,49,192488,6,0,P|326:69|301:86,1,80.9999975280763
186,222,192662,2,0,P|247:202|272:185,1,80.9999975280763
351,19,192836,2,0,P|300:59|283:84,1,80.9999975280763
221,251,193010,2,0,P|272:211|289:186,1,80.9999975280763
269,30,193184,5,0,0:0:0:0:
204,38,193271,1,0,0:0:0:0:
145,65,193358,1,0,0:0:0:0:
101,112,193445,1,0,0:0:0:0:
79,172,193531,5,0,0:0:0:0:
87,236,193618,1,0,0:0:0:0:
117,293,193705,1,0,0:0:0:0:
174,323,193792,1,0,0:0:0:0:
241,326,193879,6,0,P|284:302|301:240,1,107.999996704102
271,58,194053,2,0,P|228:82|211:144,1,107.999996704102
310,315,194227,2,0,P|335:273|318:211,1,107.999996704102,0|0,0:3|0:3,0:3:0:0:
201,68,194401,2,0,P|176:110|193:172,1,107.999996704102,0|0,0:3|0:3,0:3:0:0:
385,265,194575,5,0,0:0:0:0:
425,214,194662,1,0,0:0:0:0:
431,149,194749,1,0,0:0:0:0:
403,90,194836,1,0,0:0:0:0:
352,49,194923,5,0,0:0:0:0:
288,33,195010,1,0,0:0:0:0:
227,48,195097,1,0,0:0:0:0:
180,102,195184,1,0,0:0:0:0:
182,166,195271,6,0,L|252:262,1,107.999996704102
475,242,195445,2,0,L|405:146,1,107.999996704102
157,159,195618,2,0,L|239:271,1,107.999996704102
499,248,195792,2,0,L|417:136,1,107.999996704102
356,31,195966,6,0,L|296:140,1,107.999996704102
181,350,196140,2,0,L|241:241,1,107.999996704102,0|0,0:0|0:0,0:3:0:0:
424,96,196314,2,0,L|317:160,1,107.999996704102
112,284,196488,2,0,L|219:220,1,107.999996704102,0|0,0:0|0:0,0:3:0:0:
450,186,196662,6,0,L|325:189,1,107.999996704102
86,194,196836,2,0,L|211:191,1,107.999996704102,0|0,0:0|0:0,0:3:0:0:
428,278,197010,2,0,L|319:218,1,107.999996704102
109,103,197184,2,0,L|218:163,1,107.999996704102,0|0,0:0|0:0,0:3:0:0:
362,346,197358,6,0,L|298:239,1,107.999996704102
174,34,197532,2,0,L|238:141,1,107.999996704102,0|0,0:0|0:0,0:3:0:0:
272,372,197705,2,0,L|269:247,1,107.999996704102
264,8,197879,2,0,L|267:133,1,107.999996704102,0|0,0:0|0:0,0:3:0:0:
208,322,198053,6,0,L|156:306,14,53.9999983520508
37,140,198749,6,0,P|81:181|141:193,1,107.999996704102
203,23,198923,2,0,P|244:67|256:127,1,107.999996704102
475,140,199097,6,0,P|431:181|371:193,1,107.999996704102
309,23,199271,2,0,P|268:67|256:127,1,107.999996704102
172,357,199445,6,0,P|228:321|256:262,1,107.999996704102
402,36,199618,2,0,L|306:109,1,107.999996704102
340,357,199792,6,0,P|284:321|256:262,1,107.999996704102
110,36,199965,2,0,L|206:109,1,107.999996704102
435,191,200140,6,0,L|303:156,1,125.999996154785
58,56,200314,2,0,P|35:148|60:186,1,125.999996154785
435,193,200488,6,0,L|303:228,1,125.999996154785
58,328,200662,2,0,P|35:236|60:198,1,125.999996154785
138,37,200836,6,0,P|152:85|210:132,1,125.999996154785
374,347,201010,2,0,P|360:299|302:252,1,125.999996154785
374,37,201184,6,0,P|360:85|302:132,1,125.999996154785
138,347,201358,2,0,P|152:299|210:252,1,125.999996154785
431,192,201531,6,0,B|417:148|417:148|335:121,1,125.999996154785
101,65,201705,2,0,B|133:126|133:126|104:191,1,125.999996154785
431,192,201879,6,0,B|417:236|417:236|335:263,1,125.999996154785
101,319,202053,2,0,B|133:258|133:258|104:193,1,125.999996154785
51,34,202227,6,0,B|105:85|105:85|168:100,1,125.999996154785
461,34,202401,2,0,B|407:85|407:85|344:100,1,125.999996154785
51,350,202575,6,0,B|105:299|105:299|168:284,1,125.999996154785
461,350,202749,2,0,B|407:299|407:299|344:284,1,125.999996154785
181,258,202923,6,0,P|113:232|101:164,1,125.999996154785
252,21,203097,2,0,L|319:129,1,125.999996154785
331,258,203271,6,0,P|399:232|411:164,1,125.999996154785
260,21,203445,2,0,L|193:129,1,125.999996154785
63,254,203618,6,0,B|104:313|104:313|167:315,1,125.999996154785
443,153,203792,2,0,P|404:113|323:99,1,125.999996154785
449,254,203966,6,0,B|408:313|408:313|345:315,1,125.999996154785
69,153,204140,2,0,P|108:113|189:99,1,125.999996154785
385,91,204314,6,0,B|354:146|354:146|285:137,1,125.999996154785
127,293,204488,2,0,B|158:238|158:238|227:247,1,125.999996154785
317,40,204662,6,0,B|317:103|317:103|253:129,1,125.999996154785
194,343,204836,2,0,B|194:280|194:280|258:254,1,125.999996154785
233,29,205010,6,0,B|265:84|265:84|222:139,1,125.999996154785
278,354,205184,2,0,B|246:299|246:299|289:244,1,125.999996154785
155,63,205358,6,0,B|210:94|210:94|200:163,1,125.999996154785
357,321,205532,2,0,B|302:290|302:290|311:221,1,125.999996154785
86,232,205705,6,0,L|248:194,1,125.999996154785
425,151,205879,2,0,L|263:189,1,125.999996154785
89,142,206053,6,0,L|248:190,1,125.999996154785
422,241,206227,2,0,L|263:193,1,125.999996154785
136,65,206401,6,0,L|249:186,1,125.999996154785
375,318,206575,2,0,L|262:197,1,125.999996154785
215,22,206749,6,0,L|253:184,1,125.999996154785
296,361,206923,2,0,L|258:199,1,125.999996154785
290,37,207097,6,0,P|345:62|344:128,1,125.999996154785
222,347,207271,2,0,P|167:322|168:256,1,125.999996154785
222,37,207445,6,0,P|167:62|168:128,1,125.999996154785
290,347,207619,2,0,P|345:322|344:256,1,125.999996154785
293,19,207792,6,0,P|354:47|353:120,1,125.999996154785
218,364,207966,2,0,P|157:336|158:263,1,125.999996154785
218,19,208140,6,0,P|157:47|158:120,1,125.999996154785
293,364,208314,2,0,P|354:336|353:263,1,125.999996154785
392,55,208488,6,0,B|385:123|385:123|308:164,1,125.999996154785
393,328,208662,2,0,B|325:321|325:321|284:244,1,125.999996154785
120,329,208836,6,0,B|127:261|127:261|204:220,1,125.999996154785
119,56,209010,2,0,B|187:63|187:63|228:140,1,125.999996154785
430,109,209184,6,0,B|400:171|400:171|314:183,1,125.999996154785
338,366,209358,2,0,B|276:336|276:336|264:250,1,125.999996154785
81,274,209532,6,0,B|111:212|111:212|197:200,1,125.999996154785
173,17,209706,2,0,B|235:47|235:47|247:133,1,125.999996154785
236,277,209879,6,0,P|284:254|288:199,1,108
181,64,211271,6,0,L|209:131,1,72
331,247,211531,2,0,L|289:144,1,107.999996704102
135,49,211792,2,0,L|201:193,1,144
245,324,212053,1,0,0:0:0:0:
245,324,212140,1,0,0:0:0:0:
245,324,212227,2,0,L|306:231,1,72
345,105,212401,2,0,L|284:198,1,72
448,144,213010,6,0,L|346:50,1,125.999996154785
221,214,213184,2,0,L|323:308,1,125.999996154785
64,144,213358,6,0,L|166:50,1,125.999996154785
291,214,213532,2,0,L|189:308,1,125.999996154785
53,213,213705,6,0,P|72:271|135:302,1,125.999996154785
443,258,213879,2,0,L|312:209,1,125.999996154785
53,171,214053,6,0,P|72:113|135:82,1,125.999996154785
443,126,214227,2,0,L|312:175,1,125.999996154785
100,193,214401,6,0,B|109:122|109:122|123:141|171:151,1,125.999996154785
430,177,214575,2,0,P|353:182|290:205,1,125.999996154785
100,191,214749,6,0,B|109:262|109:262|123:243|171:233,1,125.999996154785
430,207,214923,2,0,P|353:202|290:179,1,125.999996154785
177,26,215097,6,0,P|171:68|215:140,1,125.999996154785
335,358,215271,2,0,P|341:316|297:244,1,125.999996154785
131,67,215445,6,0,L|222:158,1,125.999996154785
380,316,215618,2,0,L|289:225,1,125.999996154785
96,117,215792,6,0,L|212:171,1,125.999996154785
415,266,215965,2,0,L|299:212,1,125.999996154785
80,176,216140,6,0,L|208:187,1,125.999996154785
431,207,216313,2,0,L|303:196,1,125.999996154785
207,204,216487,6,0,L|85:237,1,125.999996154785
304,179,216660,2,0,L|426:146,1,125.999996154785
111,292,216836,6,0,L|216:219,1,125.999996154785
400,91,217009,2,0,L|295:164,1,125.999996154785
155,336,217183,6,0,L|228:231,1,125.999996154785
356,47,217356,2,0,L|283:152,1,125.999996154785
210,362,217531,6,0,L|243:238,1,125.999996154785
301,21,217704,2,0,L|268:145,1,125.999996154785
260,241,217878,6,0,L|271:367,1,125.999996154785
251,142,218051,2,0,L|240:16,1,125.999996154785
352,320,218227,6,0,P|352:256|416:256,1,125.999996154785
160,64,218401,2,0,P|160:128|96:128,1,125.999996154785
302,345,218575,6,0,P|324:284|384:306,1,125.999996154785
209,38,218749,2,0,P|187:99|127:77,1,125.999996154785
247,351,218923,6,0,P|288:302|337:343,1,125.999996154785
264,32,219097,2,0,P|223:81|174:40,1,125.999996154785
193,339,219271,6,0,P|248:307|280:362,1,125.999996154785
318,44,219445,2,0,P|263:76|231:21,1,125.999996154785
256,192,219618,12,0,220836,0:0:0:0:
220,91,221010,6,0,P|157:86|128:154,1,125.999996154785
285,275,221184,5,0,0:0:0:0:
308,284,221271,2,0,B|358:250|358:250|374:179,1,125.999996154785
357,39,221445,5,0,0:0:0:0:
334,30,221532,2,0,B|284:64|284:64|268:135,1,125.999996154785
206,286,221705,5,0,0:0:0:0:
180,308,221792,2,0,P|132:286|148:209,1,125.999996154785
198,62,221966,5,0,0:0:0:0:
224,40,222053,2,0,P|272:62|256:139,1,125.999996154785
110,247,222401,6,0,P|179:238|233:202,1,125.999996154785
338,46,222575,5,0,0:0:0:0:
331,68,222662,2,0,B|321:115|321:115|366:189,1,125.999996154785
477,338,222836,5,0,0:0:0:0:
481,322,222923,2,0,P|445:233|401:211,1,125.999996154785
230,58,223097,2,0,P|266:147|310:169,1,125.999996154785
512,271,223271,2,0,P|454:199|405:194,1,125.999996154785
192,108,223445,2,0,P|256:180|305:185,1,125.999996154785
457,76,223792,6,0,L|408:207,1,125.999996154785
298,333,223966,5,0,0:0:0:0:
292,310,224053,2,0,L|263:177,1,125.999996154785
162,33,224227,5,0,0:0:0:0:
156,56,224314,2,0,L|127:189,1,125.999996154785
196,324,224488,2,0,L|225:191,1,125.999996154785
334,65,224662,2,0,L|305:198,1,125.999996154785
373,338,224836,2,0,L|402:205,1,125.999996154785
174,49,225184,6,0,B|201:111|201:111|239:133|256:169,1,125.999996154785
338,335,225358,2,0,B|311:273|311:273|273:251|256:215,1,125.999996154785
113,109,225531,6,0,B|167:149|167:149|211:149|244:172,1,125.999996154785
398,274,225705,2,0,B|344:234|344:234|300:234|267:211,1,125.999996154785
91,191,225879,6,0,B|158:199|158:199|196:177|236:180,1,125.999996154785
420,192,226053,2,0,B|353:184|353:184|315:206|275:203,1,125.999996154785
112,274,226226,6,0,B|175:247|175:247|197:209|233:192,1,125.999996154785
399,109,226400,2,0,B|337:136|337:136|315:174|279:192,1,125.999996154785
237,342,226575,2,0,B|210:300|210:300|221:258|221:258|201:207,1,125.999996154785
111,99,226749,1,0,0:0:0:0:
125,69,226836,2,0,B|198:115|198:115|246:115,1,125.999996154785
393,136,227010,1,0,0:0:0:0:
418,141,227097,2,0,B|345:187|345:187|297:187,1,125.999996154785
127,207,227271,1,0,0:0:0:0:
102,212,227358,2,0,B|175:258|175:258|223:258,1,125.999996154785
437,252,227531,1,0,0:0:0:0:
462,257,227618,2,0,B|389:303|389:303|341:303,1,125.999996154785
155,252,227966,6,0,P|230:276|298:260,1,125.999996154785
415,97,228140,5,0,0:0:0:0:
439,87,228227,2,0,P|476:115|452:189,1,125.999996154785
240,202,228401,5,0,0:0:0:0:
232,180,228488,2,0,P|270:140|334:177,1,125.999996154785
323,324,228662,5,0,0:0:0:0:
305,333,228749,2,0,B|255:343|255:343|190:282,1,125.999996154785
148,55,228923,5,0,0:0:0:0:
164,46,229010,2,0,P|219:46|279:95,1,125.999996154785
394,217,229358,6,0,B|415:273|415:273|361:322,1,125.999996154785
193,331,229531,5,0,0:0:0:0:
177,327,229618,2,0,P|141:263|190:202,1,125.999996154785
287,62,229792,5,0,0:0:0:0:
305,52,229879,2,0,P|357:66|334:137,1,125.999996154785
248,246,230053,5,0,0:0:0:0:
226,249,230140,2,0,B|161:251|161:251|117:187,1,125.999996154785
120,47,230314,1,0,0:0:0:0:
156,55,230401,1,0,0:0:0:0:
192,63,230488,1,0,0:0:0:0:
228,71,230575,1,0,0:0:0:0:
264,79,230662,1,0,0:0:0:0:
300,87,230749,2,0,B|314:151|299:187|299:187|283:190|283:190|294:205|294:205|279:212|279:212|292:220|292:220|284:228|284:228|299:243|299:243|284:253|284:253|292:271|292:271,1,216
148,81,231445,6,0,B|112:68|112:68|78:73,14,62.9999980773926
86,320,232140,6,0,B|132:273|132:273|202:260,1,125.999996154785
412,263,232314,2,0,P|437:238|395:151,1,125.999996154785
86,64,232488,6,0,B|132:111|132:111|202:124,1,125.999996154785
412,121,232662,2,0,P|437:146|395:233,1,125.999996154785
166,330,232836,6,0,P|214:298|240:217,1,125.999996154785
346,54,233010,2,0,P|298:86|272:167,1,125.999996154785
247,356,233184,6,0,P|272:304|254:221,1,125.999996154785
264,27,233358,2,0,P|239:79|257:162,1,125.999996154785
363,338,233531,6,0,P|354:262|386:202,1,125.999996154785
448,46,233705,2,0,B|465:130|465:130|395:138,1,125.999996154785
149,46,233879,6,0,P|158:122|126:182,1,125.999996154785
64,338,234053,2,0,B|47:254|47:254|117:246,1,125.999996154785
446,317,234227,6,0,L|327:233,1,125.999996154785
66,67,234401,2,0,L|185:151,1,125.999996154785
483,205,234575,6,0,L|337:192,1,125.999996154785
28,178,234749,2,0,L|174:191,1,125.999996154785
470,106,234923,6,0,P|438:161|358:182,1,125.999996154785
130,179,235097,2,0,B|123:131|123:131|204:191,1,125.999996154785
470,278,235271,6,0,P|438:223|358:202,1,125.999996154785
130,205,235445,2,0,B|123:253|123:253|204:193,1,125.999996154785
337,26,235618,6,0,L|399:148,1,125.999996154785
175,358,235792,2,0,L|113:236,1,125.999996154785
388,63,235966,6,0,L|405:199,1,125.999996154785
123,320,236140,2,0,L|106:184,1,125.999996154785
308,47,236314,6,0,B|288:97|326:158|326:158|288:176|288:176|335:206|342:259,1,251.999992309571
235,237,236575,2,0,B|229:193|182:163|182:163|220:145|220:145|182:84|202:34,1,251.999992309571
120,148,236836,6,0,B|140:198|102:259|102:259|140:277|140:277|93:307|87:350,1,251.999992309571
193,338,237097,2,0,B|198:294|245:264|245:264|207:246|207:246|245:185|225:135,1,251.999992309571
186,44,237358,2,0,B|181:120|181:120|65:193|107:266|107:266|205:259|226:198,1,377.999988464356
422,175,237705,6,0,L|380:248,6,62.9999980773926
225,349,238053,6,0,P|205:308|228:222,1,125.999996154785
287,35,238227,2,0,P|307:76|284:162,1,125.999996154785,0|0,0:3|0:3,0:3:0:0:
150,312,238401,6,0,P|153:266|216:203,1,125.999996154785
361,71,238575,2,0,P|358:117|295:180,1,125.999996154785,0|0,0:3|0:3,0:3:0:0:
104,243,238749,6,0,P|130:205|216:182,1,125.999996154785
407,140,238923,2,0,P|381:178|295:201,1,125.999996154785,0|0,0:3|0:3,0:3:0:0:
112,71,239097,6,0,P|73:106|86:172,1,125.999996154785
399,312,239271,2,0,P|438:277|425:211,1,125.999996154785
71,158,239445,6,0,P|54:209|99:260,1,125.999996154785
440,225,239619,2,0,P|457:174|412:123,1,125.999996154785
79,255,239792,6,0,P|90:307|154:329,1,125.999996154785
432,128,239966,2,0,P|421:76|357:54,1,125.999996154785
135,335,240140,6,0,P|170:374|236:361,1,125.999996154785
376,48,240314,2,0,P|341:9|275:22,1,125.999996154785
162,152,240488,6,0,L|150:295,1,125.999996154785
350,232,240662,2,0,L|362:89,1,125.999996154785
130,37,240836,6,0,P|159:112|207:156,1,125.999996154785
382,347,241010,2,0,P|353:272|305:228,1,125.999996154785
162,232,241184,6,0,L|150:89,1,125.999996154785
350,152,241358,2,0,L|362:295,1,125.999996154785
130,347,241532,6,0,P|159:272|207:228,1,125.999996154785
382,37,241706,2,0,P|353:112|305:156,1,125.999996154785
256,192,241879,12,0,242923,0:0:0:0:
110,31,243271,6,0,P|135:113|175:146,1,125.999996154785
402,353,243445,2,0,P|377:271|337:238,1,125.999996154785
84,58,243618,6,0,P|123:135|168:160,1,125.999996154785
427,325,243792,2,0,P|388:248|343:223,1,125.999996154785
63,90,243966,6,0,P|115:159|164:176,1,125.999996154785
448,293,244140,2,0,P|396:224|347:207,1,125.999996154785
49,125,244313,6,0,P|111:184|162:192,1,125.999996154785
462,258,244487,2,0,P|400:199|349:191,1,125.999996154785
110,353,244662,6,0,P|135:271|175:238,1,125.999996154785
402,31,244836,2,0,P|377:113|337:146,1,125.999996154785
84,325,245009,6,0,P|123:248|168:223,1,125.999996154785
427,58,245183,2,0,P|388:135|343:160,1,125.999996154785
63,293,245357,6,0,P|115:224|164:207,1,125.999996154785
448,90,245531,2,0,P|396:159|347:176,1,125.999996154785
49,258,245704,6,0,P|111:199|162:191,1,125.999996154785
462,125,245878,2,0,P|400:184|349:192,1,125.999996154785
63,86,246053,6,0,B|99:134|99:134|174:158,1,125.999996154785
449,298,246227,2,0,B|413:250|413:250|338:226,1,125.999996154785
47,121,246401,6,0,B|91:162|91:162|169:172,1,125.999996154785
464,262,246575,2,0,B|420:221|420:221|342:211,1,125.999996154785
38,158,246749,6,0,B|88:191|88:191|167:188,1,125.999996154785
473,225,246923,2,0,B|423:192|423:192|344:195,1,125.999996154785
35,196,247097,6,0,B|91:220|91:220|167:203,1,125.999996154785
476,187,247271,2,0,B|420:163|420:163|344:180,1,125.999996154785
63,298,247445,6,0,B|99:250|99:250|174:226,1,125.999996154785
449,86,247619,2,0,B|413:134|413:134|338:158,1,125.999996154785
47,262,247793,6,0,B|91:221|91:221|169:211,1,125.999996154785
464,121,247967,2,0,B|420:162|420:162|342:172,1,125.999996154785
38,225,248141,6,0,B|88:192|88:192|167:195,1,125.999996154785
473,158,248315,2,0,B|423:191|423:191|344:188,1,125.999996154785
35,187,248489,6,0,B|91:163|91:163|167:180,1,125.999996154785
476,196,248663,2,0,B|420:220|420:220|344:203,1,125.999996154785
230,32,248836,6,0,L|255:193,1,125.999996154785
282,352,249010,2,0,L|257:191,1,125.999996154785
258,29,249184,6,0,L|254:192,1,125.999996154785
253,354,249358,2,0,L|257:191,1,125.999996154785
286,32,249531,6,0,L|254:192,1,125.999996154785
225,351,249705,2,0,L|257:191,1,125.999996154785
313,40,249879,6,0,L|254:192,1,125.999996154785
198,343,250053,2,0,L|257:191,1,125.999996154785
416,166,250227,6,0,L|255:191,1,125.999996154785
96,218,250401,2,0,L|257:193,1,125.999996154785
418,194,250575,6,0,L|255:190,1,125.999996154785
93,189,250749,2,0,L|256:193,1,125.999996154785
415,222,250922,6,0,L|255:190,1,125.999996154785
96,161,251096,2,0,L|256:193,1,125.999996154785
407,249,251270,6,0,L|255:190,1,125.999996154785
104,134,251444,2,0,L|256:193,1,125.999996154785
448,295,251618,6,0,P|386:291|310:238,1,125.999996154785
63,89,251792,2,0,P|126:92|181:123,1,125.999996154785
427,326,251966,6,0,P|367:312|301:247,1,125.999996154785
84,57,252140,2,0,P|145:71|194:111,1,125.999996154785
401,354,252314,6,0,P|344:329|291:254,1,125.999996154785
110,29,252488,2,0,P|168:54|209:101,1,125.999996154785
370,377,252662,6,0,P|319:343|279:260,1,125.999996154785
141,6,252836,2,0,P|193:41|225:94,1,125.999996154785
44,246,253010,6,0,L|144:365,1,125.999996154785
468,138,253184,2,0,L|368:19,1,125.999996154785
14,253,253358,6,0,L|128:389,1,125.999996154785
497,130,253532,2,0,L|383:-5,1,125.999996154785
82,137,253705,6,0,L|111:209,8,45
203,234,254575,1,0,0:0:0:0:
323,194,254749,1,0,0:0:0:0:
201,67,255010,6,0,P|162:70|117:133,1,90
157,253,255445,1,0,0:0:0:0:
270,281,255618,1,0,0:0:0:0:
348,108,255792,6,0,L|395:157,4,45
415,240,256401,5,0,0:0:0:0:
290,294,256575,1,0,0:0:0:0:
161,89,256836,5,0,0:0:0:0:
250,166,257010,1,0,0:0:0:0:
350,223,257184,5,0,0:0:0:0:
373,210,257271,1,0,0:0:0:0:
391,190,257358,1,0,0:0:0:0:
395,163,257445,1,0,0:0:0:0:
386,137,257531,1,0,0:0:0:0:
367,116,257618,1,0,0:0:0:0:
341,105,257705,1,0,0:0:0:0:
314,100,257792,1,0,0:0:0:0:
278,104,257879,5,0,0:0:0:0:
245,119,257966,1,0,0:0:0:0:
219,144,258053,1,0,0:0:0:0:
204,176,258140,1,0,0:0:0:0:
202,220,258227,1,0,0:0:0:0:
221,260,258314,1,0,0:0:0:0:
255,288,258401,1,0,0:0:0:0:
298,300,258488,1,0,0:0:0:0:
342,296,258575,6,0,L|400:268,6,45
350,148,259271,6,0,L|346:119,14,22.5
345,78,259966,5,0,0:0:0:0:
139,61,260140,2,0,B|149:102|149:102|117:117|117:117|168:162|168:162|177:107,1,180
312,236,260401,2,0,B|302:195|302:195|334:180|334:180|283:135|283:135|274:190,1,180
173,318,260662,1,0,0:0:0:0:
173,318,260749,1,0,0:0:0:0:
190,72,260923,1,0,0:0:0:0:
190,72,261010,1,0,0:0:0:0:
424,317,261358,6,0,P|424:267|307:192,1,180
88,67,261531,2,0,P|88:117|205:192,1,180
456,252,261705,2,0,P|439:205|303:174,1,180
55,131,261878,2,0,P|72:178|208:209,1,180
465,179,262053,2,0,P|432:141|295:159,1,180
46,204,262226,2,0,P|79:242|216:224,1,180
394,60,262401,1,0,0:0:0:0:
140,56,262749,5,0,0:0:0:0:
185,194,262923,2,0,B|221:281|221:281|228:248|228:248|141:248,1,180
323,137,263184,2,0,B|287:50|287:50|280:83|280:83|367:83,1,180
346,318,263445,1,0,0:0:0:0:
346,318,263531,1,0,0:0:0:0:
147,115,263705,1,0,0:0:0:0:
147,115,263791,1,0,0:0:0:0:
114,325,264140,6,0,B|202:301|202:301|248:206,1,180
398,59,264314,2,0,B|310:83|310:83|264:178,1,180
168,365,264488,2,0,B|242:312|242:312|253:207,1,180
343,18,264662,2,0,B|269:71|269:71|258:176,1,180
232,385,264836,6,0,B|284:310|284:310|258:207,1,180
279,0,265010,2,0,B|227:73|227:73|253:176,1,180
300,381,265184,2,0,B|323:293|323:293|264:205,1,180
211,2,265358,2,0,B|188:90|188:90|247:178,1,180
394,305,265531,5,0,0:0:0:0:
375,91,265705,2,0,B|342:155|259:119|259:119|239:184,1,180
118,339,265966,2,0,B|151:275|234:311|234:311|254:246,1,180
120,126,266227,1,0,0:0:0:0:
120,126,266314,1,0,0:0:0:0:
401,251,266488,1,0,0:0:0:0:
401,251,266575,1,0,0:0:0:0:
399,22,266923,6,0,P|410:80|331:161,1,180
113,362,267097,2,0,P|102:304|181:223,1,180
448,81,267271,2,0,P|439:139|337:188,1,180
63,302,267445,2,0,P|72:244|174:195,1,180
474,153,267618,2,0,P|445:205|333:216,1,180
37,230,267792,2,0,P|66:178|178:167,1,180
448,303,267966,1,0,0:0:0:0:
237,129,268314,5,0,0:0:0:0:
198,249,268488,2,0,B|276:321|276:321|309:281|279:224,1,180
387,88,268749,2,0,B|309:16|309:16|276:56|306:113,1,180
328,324,269010,5,0,0:0:0:0:
139,52,269184,2,0,B|154:129|217:142|217:142|217:174|217:174|258:206,1,180
467,304,269445,2,0,B|452:227|389:214|389:214|389:182|389:182|348:150,1,180
254,25,269705,2,0,B|239:71|239:71|278:111|278:111|232:132|232:132|268:160,1,180
258,359,269879,2,0,B|273:313|273:313|234:273|234:273|280:252|280:252|244:224,1,180
337,46,270053,2,0,B|301:78|301:78|315:132|315:132|265:128|265:128|282:170,1,180
174,337,270227,2,0,B|210:305|210:305|196:251|196:251|246:255|246:255|229:213,1,180
399,106,270401,2,0,B|352:116|352:116|337:170|337:170|295:141|295:141|289:186,1,180
112,277,270575,2,0,B|159:267|159:267|174:213|174:213|216:242|216:242|222:197,1,180
423,190,270749,2,0,B|377:175|377:175|337:214|337:214|316:168|316:168|288:204,1,180
89,194,270923,2,0,B|135:208|135:208|175:170|175:170|196:216|196:216|223:180,1,180
258,110,271097,5,0,0:0:0:0:
197,131,271183,1,0,0:0:0:0:
172,187,271270,1,0,0:0:0:0:
195,245,271357,1,0,0:0:0:0:
251,270,271444,1,0,0:0:0:0:
308,250,271531,1,0,0:0:0:0:
336,194,271618,1,0,0:0:0:0:
314,137,271705,1,0,0:0:0:0:
258,94,271792,5,0,0:0:0:0:
185,119,271878,1,0,0:0:0:0:
156,187,271965,1,0,0:0:0:0:
183,256,272052,1,0,0:0:0:0:
249,287,272139,1,0,0:0:0:0:
319,262,272226,1,0,0:0:0:0:
352,194,272313,1,0,0:0:0:0:
325,126,272400,1,0,0:0:0:0:
259,78,272488,5,0,0:0:0:0:
173,107,272574,1,0,0:0:0:0:
139,186,272661,1,0,0:0:0:0:
170,266,272748,1,0,0:0:0:0:
249,302,272835,1,0,0:0:0:0:
330,273,272922,1,0,0:0:0:0:
367,195,273009,1,0,0:0:0:0:
337,115,273096,1,0,0:0:0:0:
260,61,273184,5,0,0:0:0:0:
161,95,273270,1,0,0:0:0:0:
123,185,273357,1,0,0:0:0:0:
158,277,273444,1,0,0:0:0:0:
248,318,273531,1,0,0:0:0:0:
340,285,273618,1,0,0:0:0:0:
384,196,273705,1,0,0:0:0:0:
349,104,273792,1,0,0:0:0:0:
260,57,273879,5,0,0:0:0:0:
247,322,274053,1,0,0:0:0:0:
