osu file format v14

[General]
AudioFilename: audio.mp3
AudioLeadIn: 0
PreviewTime: 77696
Countdown: 0
SampleSet: Soft
StackLeniency: 0.2
Mode: 0
LetterboxInBreaks: 0
WidescreenStoryboard: 0

[Editor]
Bookmarks: 4220,11720,19220,34220,49220,64220,71720,72970,81095,111095,126095,141095,145785,172979,187979,202979,210479,219854,249854,264854,279854,294854,307979
DistanceSpacing: 0.1
BeatDivisor: 16
GridSize: 32
TimelineZoom: 3.499999

[Metadata]
Title:Bassline Yatteru? w
TitleUnicode:ベースラインやってる ? 笑
Artist:Camellia
ArtistUnicode:かめりあ
Creator:Mir
Version:Line Line Line
Source:
Tags:extended ver nanahira ななひら electro house breaking news cute girl confetto force c93 comiket utaite DEMPA MAXIMUM 4orce
BeatmapID:1512691
BeatmapSetID:715913

[Difficulty]
HPDrainRate:5
CircleSize:4
OverallDifficulty:8.5
ApproachRate:9
SliderMultiplier:2.4
SliderTickRate:1

[Events]
//Background and Video events
0,0,"bassline.jpg",0,0
//Break Periods
2,173179,179175
//Storyboard Layer 0 (Background)
//Storyboard Layer 1 (Fail)
//Storyboard Layer 2 (Pass)
//Storyboard Layer 3 (Foreground)
//Storyboard Sound Samples

[TimingPoints]
4220,468.75,4,2,1,60,1,0
4220,-100,4,2,1,60,0,0
20470,-100,4,2,1,5,0,0
20548,-100,4,2,1,60,0,0
34220,-133.333333333333,4,2,1,60,0,0
49220,-100,4,2,1,70,0,0
52266,-50,4,2,1,100,0,0
52501,-200,4,2,1,100,0,0
52970,-100,4,2,1,100,0,0
59766,-50,4,2,1,100,0,0
60001,-200,4,2,1,100,0,0
60470,-100,4,2,1,100,0,0
77813,-66.6666666666667,4,2,1,40,0,0
80626,-100,4,2,1,60,0,0
81095,-50,4,2,1,100,0,0
81563,-50,4,2,1,100,0,1
82970,-66.6666666666667,4,2,1,100,0,1
84845,-50,4,2,1,100,0,1
86720,-66.6666666666667,4,2,1,100,0,1
86895,-66.6666666666667,4,2,1,5,0,1
86954,-66.6666666666667,4,2,1,100,0,1
87130,-66.6666666666667,4,2,1,5,0,1
87189,-66.6666666666667,4,2,1,100,0,1
87364,-66.6666666666667,4,2,1,5,0,1
87423,-66.6666666666667,4,2,1,100,0,1
87598,-66.6666666666667,4,2,1,5,0,1
87657,-66.6666666666667,4,2,1,100,0,1
87833,-66.6666666666667,4,2,1,5,0,1
87892,-66.6666666666667,4,2,1,100,0,1
88067,-66.6666666666667,4,2,1,5,0,1
88126,-66.6666666666667,4,2,1,100,0,1
88302,-66.6666666666667,4,2,1,5,0,1
88361,-66.6666666666667,4,2,1,100,0,1
88536,-66.6666666666667,4,2,1,5,0,1
88595,-50,4,2,1,100,0,1
90470,-66.6666666666667,4,2,1,100,0,1
92345,-50,4,2,1,100,0,1
94220,-66.6666666666667,4,2,1,100,0,1
94395,-66.6666666666667,4,2,1,5,0,1
94454,-66.6666666666667,4,2,1,100,0,1
94629,-66.6666666666667,4,2,1,5,0,1
94688,-66.6666666666667,4,2,1,100,0,1
94864,-66.6666666666667,4,2,1,5,0,1
94923,-66.6666666666667,4,2,1,100,0,1
95098,-66.6666666666667,4,2,1,5,0,1
95157,-66.6666666666667,4,2,1,100,0,1
95332,-66.6666666666667,4,2,1,5,0,1
95391,-66.6666666666667,4,2,1,100,0,1
95567,-66.6666666666667,4,2,1,5,0,1
95626,-66.6666666666667,4,2,1,100,0,1
95801,-66.6666666666667,4,2,1,5,0,1
95860,-66.6666666666667,4,2,1,100,0,1
96036,-66.6666666666667,4,2,1,5,0,1
96095,-50,4,2,1,100,0,0
96563,-50,4,2,1,100,0,1
97970,-66.6666666666667,4,2,1,100,0,1
99845,-50,4,2,1,100,0,1
101720,-66.6666666666667,4,2,1,100,0,1
101895,-66.6666666666667,4,2,1,5,0,1
101954,-66.6666666666667,4,2,1,100,0,1
102129,-66.6666666666667,4,2,1,5,0,1
102188,-66.6666666666667,4,2,1,100,0,1
102364,-66.6666666666667,4,2,1,5,0,1
102423,-66.6666666666667,4,2,1,100,0,1
102598,-66.6666666666667,4,2,1,5,0,1
102657,-66.6666666666667,4,2,1,100,0,1
102832,-66.6666666666667,4,2,1,5,0,1
102891,-66.6666666666667,4,2,1,100,0,1
103067,-66.6666666666667,4,2,1,5,0,1
103126,-66.6666666666667,4,2,1,100,0,1
103301,-66.6666666666667,4,2,1,5,0,1
103360,-66.6666666666667,4,2,1,100,0,1
103536,-66.6666666666667,4,2,1,5,0,1
103595,-50,4,2,1,100,0,1
105470,-66.6666666666667,4,2,1,100,0,1
107345,-50,4,2,1,100,0,1
109220,-66.6666666666667,4,2,1,100,0,1
109395,-66.6666666666667,4,2,1,5,0,1
109454,-66.6666666666667,4,2,1,100,0,1
109630,-66.6666666666667,4,2,1,5,0,1
109689,-66.6666666666667,4,2,1,100,0,1
109864,-66.6666666666667,4,2,1,5,0,1
109923,-66.6666666666667,4,2,1,100,0,1
110098,-66.6666666666667,4,2,1,5,0,1
110157,-66.6666666666667,4,2,1,100,0,1
110626,-100,4,2,1,100,0,0
110684,-100,4,2,1,5,0,0
110743,-100,4,2,1,100,0,0
110802,-100,4,2,1,5,0,0
110861,-100,4,2,1,100,0,0
111095,-66.6666666666667,4,2,1,100,0,0
111563,-100,4,2,1,100,0,0
114845,-66.6666666666667,4,2,1,100,0,0
115313,-100,4,2,1,100,0,0
118595,-66.6666666666667,4,2,1,100,0,0
119063,-100,4,2,1,100,0,0
122345,-66.6666666666667,4,2,1,100,0,0
122813,-100,4,2,1,100,0,0
126095,-66.6666666666667,4,2,1,100,0,0
129141,-50,4,2,1,100,0,0
129376,-200,4,2,1,100,0,0
129845,-66.6666666666667,4,2,1,100,0,0
136641,-50,4,2,1,100,0,0
136876,-200,4,2,1,100,0,0
137345,-66.6666666666667,4,2,1,100,0,0
139220,-55.5555555555556,4,2,1,100,0,0
141095,-100,4,2,1,100,0,0
142266,631.578947368421,4,2,1,70,1,0
142581,779.220779220779,4,2,1,70,1,0
142970,351.906158357771,4,2,1,70,1,0
145785,-100,4,2,1,70,0,1
145961,-100,4,2,1,70,0,0
170770,533.333333333333,4,2,1,70,1,0
171303,710.059171597633,4,2,1,60,1,0
172013,863.309352517986,4,2,1,50,1,0
172444,1071.42857142857,4,2,1,50,1,0
172979,468.75,4,2,1,60,1,0
172979,-133.333333333333,4,2,1,60,0,0
186104,-111.111111111111,4,2,1,70,0,0
187979,-100,4,2,1,70,0,0
191025,-66.6666666666667,4,2,1,70,0,0
191260,-200,4,2,1,70,0,0
191729,-100,4,2,1,70,0,0
194424,-66.6666666666667,4,2,1,70,0,0
195479,-100,4,2,1,70,0,0
198525,-66.6666666666667,4,2,1,70,0,0
198760,-200,4,2,1,70,0,0
199229,-100,4,2,1,70,0,0
216572,-66.6666666666667,4,2,1,70,0,0
219150,-1000,4,2,1,70,0,0
219795,-1000,4,2,1,5,0,0
219854,-50,4,2,1,100,0,0
220322,-50,4,2,1,100,0,1
221729,-66.6666666666667,4,2,1,100,0,1
223604,-50,4,2,1,100,0,1
225479,-66.6666666666667,4,2,1,100,0,1
225654,-66.6666666666667,4,2,1,5,0,1
225713,-66.6666666666667,4,2,1,100,0,1
225888,-66.6666666666667,4,2,1,5,0,1
225947,-66.6666666666667,4,2,1,100,0,1
226123,-66.6666666666667,4,2,1,5,0,1
226182,-66.6666666666667,4,2,1,100,0,1
226357,-66.6666666666667,4,2,1,5,0,1
226416,-66.6666666666667,4,2,1,100,0,1
226591,-66.6666666666667,4,2,1,5,0,1
226650,-66.6666666666667,4,2,1,100,0,1
226826,-66.6666666666667,4,2,1,5,0,1
226885,-66.6666666666667,4,2,1,100,0,1
227060,-66.6666666666667,4,2,1,5,0,1
227119,-66.6666666666667,4,2,1,100,0,1
227295,-66.6666666666667,4,2,1,5,0,1
227354,-50,4,2,1,100,0,1
229229,-66.6666666666667,4,2,1,100,0,1
231104,-50,4,2,1,100,0,1
232979,-66.6666666666667,4,2,1,100,0,1
233154,-66.6666666666667,4,2,1,5,0,1
233213,-66.6666666666667,4,2,1,100,0,1
233388,-66.6666666666667,4,2,1,5,0,1
233447,-66.6666666666667,4,2,1,100,0,1
233623,-66.6666666666667,4,2,1,5,0,1
233682,-66.6666666666667,4,2,1,100,0,1
233857,-66.6666666666667,4,2,1,5,0,1
233916,-66.6666666666667,4,2,1,100,0,1
234091,-66.6666666666667,4,2,1,5,0,1
234150,-66.6666666666667,4,2,1,100,0,1
234326,-66.6666666666667,4,2,1,5,0,1
234385,-66.6666666666667,4,2,1,100,0,1
234560,-66.6666666666667,4,2,1,5,0,1
234619,-66.6666666666667,4,2,1,100,0,1
234795,-66.6666666666667,4,2,1,5,0,1
234854,-50,4,2,1,100,0,0
235322,-50,4,2,1,100,0,1
236729,-66.6666666666667,4,2,1,100,0,1
238604,-50,4,2,1,100,0,1
240479,-66.6666666666667,4,2,1,100,0,1
240654,-66.6666666666667,4,2,1,5,0,1
240713,-66.6666666666667,4,2,1,100,0,1
240888,-66.6666666666667,4,2,1,5,0,1
240947,-66.6666666666667,4,2,1,100,0,1
241123,-66.6666666666667,4,2,1,5,0,1
241182,-66.6666666666667,4,2,1,100,0,1
241357,-66.6666666666667,4,2,1,5,0,1
241416,-66.6666666666667,4,2,1,100,0,1
241591,-66.6666666666667,4,2,1,5,0,1
241650,-66.6666666666667,4,2,1,100,0,1
241826,-66.6666666666667,4,2,1,5,0,1
241885,-66.6666666666667,4,2,1,100,0,1
242060,-66.6666666666667,4,2,1,5,0,1
242119,-66.6666666666667,4,2,1,100,0,1
242295,-66.6666666666667,4,2,1,5,0,1
242354,-50,4,2,1,100,0,1
244229,-66.6666666666667,4,2,1,100,0,1
246104,-40,4,2,1,100,0,1
246572,-50,4,2,1,100,0,1
247979,-66.6666666666667,4,2,1,100,0,0
248154,-66.6666666666667,4,2,1,5,0,0
248213,-66.6666666666667,4,2,1,100,0,0
248389,-66.6666666666667,4,2,1,5,0,0
248448,-66.6666666666667,4,2,1,100,0,0
248623,-66.6666666666667,4,2,1,5,0,0
248682,-66.6666666666667,4,2,1,100,0,0
248857,-66.6666666666667,4,2,1,5,0,0
248916,-66.6666666666667,4,2,1,60,0,0
249385,-100,4,2,1,60,0,0
249854,-66.6666666666667,4,2,1,100,0,0
250322,-100,4,2,1,100,0,0
253604,-66.6666666666667,4,2,1,100,0,0
253838,-100,4,2,1,100,0,0
257354,-66.6666666666667,4,2,1,100,0,0
257822,-100,4,2,1,100,0,0
261104,-66.6666666666667,4,2,1,100,0,0
261572,-100,4,2,1,100,0,0
264854,-66.6666666666667,4,2,1,100,0,0
267900,-50,4,2,1,100,0,0
268135,-200,4,2,1,100,0,0
268604,-66.6666666666667,4,2,1,100,0,0
275400,-50,4,2,1,100,0,0
275635,-200,4,2,1,100,0,0
276104,-66.6666666666667,4,2,1,100,0,0
277979,-55.5555555555556,4,2,1,100,0,0
279854,-133.333333333333,4,2,1,100,0,1
280322,-66.6666666666667,4,2,1,100,0,0
283604,-133.333333333333,4,2,1,100,0,1
284072,-66.6666666666667,4,2,1,100,0,0
286963,-66.6666666666667,4,2,1,100,0,0
287041,-66.6666666666667,4,2,1,100,0,0
287197,-66.6666666666667,4,2,1,100,0,0
287275,-66.6666666666667,4,2,1,100,0,0
292979,-50,4,2,1,100,0,0
294854,-100,4,2,1,50,0,0
298604,-66.6666666666667,4,2,1,50,0,0
299658,-100,4,2,1,50,0,0
309502,-25,4,2,1,50,0,0
309531,-100,4,2,1,5,0,0
309561,-25,4,2,1,50,0,0
309883,-100,4,2,1,5,0,0
309913,-25,4,2,1,50,0,0
310010,-100,4,2,1,30,0,0
313252,-25,4,2,1,50,0,0
313281,-1000,4,2,1,5,0,0
313311,-1000,4,2,1,50,0,0
313369,-100,4,2,1,50,0,0
313525,-100,4,2,1,5,0,0
313564,-100,4,2,1,30,0,0
314131,-100,4,2,1,5,0,0

[Colours]
Combo1 : 188,250,225
Combo2 : 224,156,250
Combo3 : 247,145,193
Combo4 : 252,209,251
Combo5 : 248,192,193
Combo6 : 253,231,200
Combo7 : 251,250,200
Combo8 : 232,255,183

[HitObjects]
38,198,4220,6,0,L|295:190,1,240,0|8,3:2|0:2,0:2:0:0:
277,190,5626,1,8,0:2:0:0:
381,85,5860,1,0,0:2:0:0:
387,103,5938,1,0,0:2:0:0:
393,122,6016,1,0,0:2:0:0:
399,141,6095,6,0,L|390:229,1,60,0|0,3:2|0:2,0:2:0:0:
327,355,6446,1,0,0:2:0:0:
330,325,6563,2,0,L|336:265,1,60,8|0,0:2|0:2,0:2:0:0:
222,365,6798,2,0,L|215:305,1,60,0|0,0:2|0:2,0:2:0:0:
34,247,7032,2,0,P|121:255|137:247,1,80,0|0,0:2|0:2,0:2:0:0:
229,194,7384,2,0,L|221:121,1,60,0|8,0:0|0:0,0:0:0:0:
93,74,7657,1,0,0:2:0:0:
85,92,7735,2,0,P|88:157|94:198,1,80,0|0,0:2|0:2,0:2:0:0:
229,194,7970,6,0,B|306:170|338:190|339:196|339:201|407:235|464:197,1,240,0|8,3:2|0:2,0:2:0:0:
460,199,9376,1,8,0:2:0:0:
153,117,9845,6,0,L|433:119,1,240,0|8,3:2|0:2,0:2:0:0:
454,43,10548,1,0,0:2:0:0:
392,118,10782,2,0,P|345:252|436:295,1,240,0|8,0:2|0:2,0:2:0:0:
407,294,11720,6,0,P|446:240|405:201,1,120,0|2,3:2|0:2,0:2:0:0:
227,235,12188,2,0,L|385:246,1,120,8|2,0:2|0:2,0:2:0:0:
227,235,12891,1,2,3:2:0:0:
227,235,13126,2,8,L|385:246,1,120,8|2,0:2|0:2,0:2:0:0:
203,82,13595,5,0,3:2:0:0:
144,347,13829,2,0,L|153:271,1,60,2|0,0:2|0:2,0:2:0:0:
219,175,14063,2,0,L|226:234,1,60,8|0,0:2|0:2,0:2:0:0:
72,231,14298,2,0,L|79:171,1,60,2|0,0:2|0:2,0:2:0:0:
77,78,14532,6,0,P|154:72|187:78,1,80,0|0,0:2|0:2,0:2:0:0:
260,70,14766,1,2,3:2:0:0:
294,41,14884,2,0,P|333:35|365:37,1,60,0|0,0:2|0:2,0:2:0:0:
390,118,15157,1,0,0:2:0:0:
409,113,15235,2,0,P|443:75|448:31,1,80,2|0,0:2|0:2,0:2:0:0:
338,333,15470,6,0,L|346:163,1,120,0|2,3:2|0:2,0:2:0:0:
139,274,15938,2,0,P|208:272|234:267,1,80,8|0,0:2|0:2,0:2:0:0:
237,261,16173,1,2,0:2:0:0:
264,161,16329,1,0,0:2:0:0:
247,172,16407,6,0,P|178:170|152:165,1,80,0|0,0:2|0:2,0:2:0:0:
150,158,16641,1,2,0:2:0:0:
142,63,16798,1,0,0:2:0:0:
163,75,16876,2,0,P|232:73|258:68,1,80,8|0,0:2|0:2,0:2:0:0:
318,41,17110,6,8,L|313:91,1,30,8|8,0:1|0:1,0:1:0:0:
338,55,17227,2,8,L|333:105,1,30,8|8,0:1|0:1,0:1:0:0:
353,69,17345,6,8,L|359:124,7,30,8|8|8|8|8|8|8|8,3:1|0:1|0:1|0:1|0:1|0:1|0:1|0:1,0:1:0:0:
444,162,17813,2,8,L|438:217,7,30,8|8|8|8|8|8|8|8,0:1|0:1|0:1|0:1|0:1|0:1|0:1|0:1,0:1:0:0:
375,245,18282,2,8,L|381:300,7,30,8|8|8|8|8|8|8|8,0:1|0:1|0:1|0:1|0:1|0:1|0:1|0:1,0:1:0:0:
371,221,18751,5,8,0:2:0:0:
271,227,18907,1,0,3:2:0:0:
271,227,18985,1,0,3:2:0:0:
170,229,19141,1,0,3:2:0:0:
170,229,19220,6,0,L|164:88,1,120,4|2,3:2|0:2,0:2:0:0:
102,303,19688,1,0,0:0:0:0:
202,320,19923,2,0,L|298:316,1,80
300,324,20157,1,0,3:2:0:0:
330,236,20313,2,0,P|335:180|320:144,1,80
321,139,20548,2,0,L|263:125,1,40,0|8,0:0|3:2,0:0:0:0:
164,112,20743,2,0,L|169:241,1,120,0|0,0:2|0:2,0:2:0:0:
330,236,21095,6,0,L|250:223,1,60,0|0,3:2|0:2,0:2:0:0:
267,362,21329,2,0,L|347:349,1,60,2|0,0:2|0:2,0:2:0:0:
403,301,21563,1,8,3:2:0:0:
313,134,21798,1,2,0:2:0:0:
312,122,21876,1,0,0:2:0:0:
317,111,21954,1,0,0:2:0:0:
325,102,22032,6,0,P|352:96|407:109,2,60,0|0|2,3:2|0:2|0:2,0:2:0:0:
150,142,22384,2,0,P|123:148|68:135,1,60,0|8,0:2|3:2,0:2:0:0:
120,58,22618,1,0,0:2:0:0:
234,134,22735,2,0,L|220:218,1,60,2|0,0:2|0:2,0:2:0:0:
43,315,22970,6,0,L|212:307,1,120,0|2,3:2|0:2,0:2:0:0:
301,384,23438,1,8,3:2:0:0:
377,292,23673,2,0,L|399:220,1,60,2|0,0:2|0:2,0:2:0:0:
345,38,23907,5,0,3:2:0:0:
341,67,24024,1,0,0:2:0:0:
338,96,24141,1,2,0:2:0:0:
332,125,24259,2,0,P|364:131|413:132,1,60,0|8,0:2|3:2,0:2:0:0:
246,228,24532,2,0,P|214:234|171:236,1,40,0|2,0:2|0:2,0:2:0:0:
202,341,24766,1,0,0:0:0:0:
218,355,24845,6,0,L|204:207,1,120,0|2,3:2|0:2,0:2:0:0:
28,62,25313,2,0,L|39:181,1,120,8|2,3:2|0:2,0:2:0:0:
248,156,25782,2,0,P|180:150|123:208,1,120,0|2,3:2|0:2,0:2:0:0:
9,294,26251,2,0,P|67:302|117:272,1,120,8|2,3:2|0:2,0:2:0:0:
329,159,26641,1,0,0:2:0:0:
338,176,26720,6,0,L|327:288,1,80,8|8,3:1|0:1,0:1:0:0:
340,326,26954,2,0,L|348:247,1,80,8|8,0:1|0:1,0:1:0:0:
434,155,27188,2,0,L|423:267,1,80,8|8,3:2|0:1,0:1:0:0:
436,305,27422,2,0,L|443:225,1,80,8|8,0:1|0:1,0:1:0:0:
353,126,27657,6,0,P|287:124|261:133,1,80,8|8,3:1|0:1,0:1:0:0:
197,145,27891,2,0,P|236:152|276:147,1,80,8|8,0:1|0:1,0:1:0:0:
92,84,28126,5,8,3:2:0:0:
92,84,28360,1,8,0:1:0:0:
92,80,28419,1,8,0:1:0:0:
92,77,28477,1,8,0:1:0:0:
92,74,28536,1,8,0:1:0:0:
92,70,28595,6,0,P|153:63|197:41,1,80,8|8,3:1|0:1,0:1:0:0:
158,23,28829,2,0,P|196:34|236:36,1,80,8|8,0:1|0:1,0:1:0:0:
361,151,29063,6,0,P|300:144|256:122,1,80,8|8,3:2|0:1,0:1:0:0:
295,104,29297,2,0,P|256:115|216:117,1,80,8|8,0:1|0:1,0:1:0:0:
89,234,29532,6,0,P|150:227|194:205,1,80,8|8,3:1|0:1,0:1:0:0:
155,187,29766,2,0,P|193:198|233:200,1,80,8|8,0:1|0:1,0:1:0:0:
86,372,30001,5,8,3:2:0:0:
86,372,30235,1,8,0:1:0:0:
86,368,30294,1,8,0:1:0:0:
86,365,30352,1,8,0:1:0:0:
86,361,30411,1,8,0:1:0:0:
86,357,30470,6,0,L|85:292,2,40,8|8|8,3:1|0:1|0:1,0:1:0:0:
166,260,30704,2,0,L|167:195,2,40,8|8|8,0:1|0:1|0:1,0:1:0:0:
242,336,30938,2,0,L|241:401,2,40,8|8|8,3:2|0:1|0:1,0:1:0:0:
318,271,31172,2,0,L|318:232,2,40,8|8|8,0:1|0:1|0:1,0:1:0:0:
362,154,31407,6,0,P|388:159|417:166,2,40,8|8|8,3:1|0:1|0:1,0:1:0:0:
150,154,31641,2,0,P|124:159|95:166,2,40,8|8|8,0:1|0:1|0:1,0:1:0:0:
372,68,31876,2,0,P|398:73|427:80,2,40,8|8|8,3:2|0:1|0:1,0:1:0:0:
140,68,32110,2,0,P|114:73|85:80,2,40,8|8|8,0:2|0:1|0:1,0:1:0:0:
292,32,32345,6,0,L|283:111,1,60,0|0,3:0|0:0,0:0:0:0:
228,212,32579,2,0,L|221:152,1,60,8|0,0:1|0:1,0:1:0:0:
297,362,32813,5,8,0:1:0:0:
311,259,32970,2,0,L|324:149,1,80,8|0,0:1|0:1,0:1:0:0:
158,264,33204,1,8,0:1:0:0:
160,288,33282,6,0,L|171:387,1,80,8|0,0:1|0:1,0:1:0:0:
81,339,33516,1,8,0:1:0:0:
402,217,33673,2,0,L|391:308,1,80,8|0,0:1|0:0,0:1:0:0:
308,279,33907,1,8,0:1:0:0:
311,259,33985,2,0,L|323:155,1,80,8|0,0:1|0:1,0:1:0:0:
116,23,34220,5,4,3:0:0:0:
116,23,34688,1,0,0:0:0:0:
31,158,34805,1,0,0:0:0:0:
31,158,35040,6,0,P|39:238|32:283,1,90.0000034332277,0|0,0:0|0:0,0:0:0:0:
26,337,35391,2,0,L|96:322,1,45.0000017166138,0|0,0:0|0:0,0:0:0:0:
149,285,35626,2,0,L|193:294,1,45.0000017166138,0|0,0:0|0:0,0:0:0:0:
272,342,35860,2,0,L|316:332,1,45.0000017166138,0|0,0:0|0:0,0:0:0:0:
275,193,36095,6,0,P|267:225|266:277,1,45.0000017166138,0|0,0:0|0:0,0:0:0:0:
405,212,36329,2,0,P|401:189|395:168,1,45.0000017166138,0|0,0:0|0:0,0:0:0:0:
313,70,36563,1,0,0:0:0:0:
168,124,36680,1,0,0:0:0:0:
168,124,36915,6,0,P|156:69|162:-3,1,90.0000034332277,0|0,0:0|0:0,0:0:0:0:
76,36,37266,6,0,L|73:96,1,45.0000017166138
61,296,37501,2,0,P|163:287|217:294,1,135.000005149841
281,320,37970,5,0,3:0:0:0:
281,320,38438,1,0,0:0:0:0:
348,179,38555,1,0,0:0:0:0:
348,179,38790,6,0,P|358:236|347:288,1,90.0000034332277,0|0,0:0|0:0,0:0:0:0:
438,254,39141,2,0,P|439:227|434:194,1,45.0000017166138,0|0,0:0|0:0,0:0:0:0:
265,147,39376,2,0,P|262:169|264:191,1,45.0000017166138,0|0,0:0|0:0,0:0:0:0:
404,117,39610,2,0,P|406:94|404:72,1,45.0000017166138,0|0,0:0|0:0,0:0:0:0:
193,55,39845,6,0,L|293:53,1,90.0000034332277,0|0,0:0|0:0,0:0:0:0:
122,259,40313,1,0,0:0:0:0:
66,191,40430,2,0,P|60:133|66:115,1,45.0000017166138
290,303,40665,2,0,P|203:298|170:280,1,90.0000034332277
230,134,41016,5,0,0:0:0:0:
330,112,41134,1,0,0:0:0:0:
276,200,41251,5,0,0:0:0:0:
313,190,41368,1,0,0:0:0:0:
295,274,41485,5,0,0:0:0:0:
310,281,41602,1,0,0:0:0:0:
307,358,41720,5,8,3:2:0:0:
307,358,42188,1,8,0:0:0:0:
157,300,42305,1,0,0:0:0:0:
157,300,42540,6,0,P|97:293|73:294,1,45.0000017166138,0|8,0:0|0:0,0:0:0:0:
40,159,42891,2,0,P|62:154|84:152,1,45.0000017166138,0|0,0:0|0:0,0:0:0:0:
172,155,43126,2,0,P|194:157|216:161,1,45.0000017166138,8|0,0:0|0:0,0:0:0:0:
296,188,43360,2,0,P|317:196|337:205,1,45.0000017166138,0|0,0:0|0:0,0:0:0:0:
272,56,43595,6,0,L|277:131,1,45.0000017166138,8|0,0:0|0:0,0:0:0:0:
227,245,43829,2,0,L|225:290,1,45.0000017166138,0|0,0:0|0:0,0:0:0:0:
410,327,44063,1,8,0:0:0:0:
265,367,44180,1,0,0:0:0:0:
265,367,44415,6,0,P|237:376|180:385,1,45.0000017166138,0|8,0:0|0:0,0:0:0:0:
181,302,44766,6,0,P|202:296|224:289,1,45.0000017166138,0|0,0:0|0:0,0:0:0:0:
410,95,45001,2,0,P|393:169|406:248,1,135.000005149841,8|0,0:0|0:0,0:0:0:0:
347,341,45470,6,0,P|384:308|477:329,1,135.000005149841,8|0,3:2|0:0,0:0:0:0:
416,384,45938,1,8,0:0:0:0:
276,226,46055,1,0,0:0:0:0:
276,226,46290,6,0,L|210:222,1,45.0000017166138,0|8,0:0|0:0,0:0:0:0:
45,86,46641,2,0,P|54:108|59:157,1,45.0000017166138,0|0,0:0|0:0,0:0:0:0:
13,246,46876,2,0,P|17:224|26:203,1,45.0000017166138,8|0,0:0|0:0,0:0:0:0:
100,277,47110,2,0,P|109:299|114:348,1,45.0000017166138,0|0,0:0|0:0,0:0:0:0:
276,226,47345,6,0,L|231:223,1,45.0000017166138,8|0,0:0|0:0,0:0:0:0:
222,322,47579,2,0,L|266:319,1,45.0000017166138
362,269,47813,1,8,0:0:0:0:
263,89,47930,2,0,P|260:119|265:159,1,45.0000017166138
432,323,48165,2,0,P|415:300|328:267,1,90.0000034332277
266,318,48516,6,0,L|278:260,1,45.0000017166138
181,331,48751,2,0,L|169:273,1,45.0000017166138,8|0,0:0|0:0,0:0:0:0:
109,376,48985,2,0,L|82:323,1,45.0000017166138,0|0,0:0|0:0,0:0:0:0:
88,68,49220,5,12,3:2:0:0:
88,68,49688,1,8,0:2:0:0:
251,40,49805,1,0,0:2:0:0:
251,40,50040,6,0,L|264:122,1,60,0|8,0:2|0:2,0:2:0:0:
73,212,50391,2,0,P|126:196|146:197,1,60,0|0,0:2|0:2,0:2:0:0:
206,237,50626,2,0,P|235:241|263:253,1,60,8|0,0:2|0:2,0:2:0:0:
83,311,50860,2,0,P|110:299|140:294,1,60,0|0,0:2|0:2,0:2:0:0:
453,212,51095,6,0,P|400:196|380:197,1,60,8|0,0:2|0:2,0:2:0:0:
320,237,51330,2,0,P|290:241|262:253,1,60,0|0,0:2|0:2,0:2:0:0:
385,294,51563,1,8,0:2:0:0:
326,149,51680,1,0,0:2:0:0:
326,149,51915,2,0,L|333:64,1,60,0|8,0:2|0:2,0:2:0:0:
502,293,52266,6,0,P|438:305|362:283,1,120,2|0,1:2|0:2,0:2:0:0:
36,282,52501,2,0,P|86:267|131:281,1,90,10|0,1:2|0:2,0:2:0:0:
205,319,52970,6,0,L|210:118,1,180,8|0,0:2|0:2,0:2:0:0:
212,38,53438,1,8,0:2:0:0:
371,108,53555,1,0,0:2:0:0:
371,108,53790,2,0,P|378:68|376:32,1,60,0|8,0:2|0:2,0:2:0:0:
107,46,54141,6,0,P|107:75|113:105,1,60,0|0,0:2|0:2,0:2:0:0:
202,198,54376,2,0,P|208:168|208:138,1,60,8|0,0:2|0:2,0:2:0:0:
113,232,54610,2,0,P|113:261|119:291,1,60,0|0,0:2|0:2,0:2:0:0:
402,245,54845,6,0,L|277:235,1,120,8|0,0:2|0:2,0:2:0:0:
98,313,55313,1,8,0:2:0:0:
243,372,55430,2,0,L|240:300,1,60,0|0,0:2|0:2,0:2:0:0:
33,148,55665,2,0,P|83:164|168:139,1,120,0|0,0:2|0:2,0:2:0:0:
337,63,56016,5,0,0:2:0:0:
205,89,56134,1,0,0:2:0:0:
356,175,56251,5,8,1:2:0:0:
253,184,56368,1,0,0:2:0:0:
334,271,56485,5,0,0:2:0:0:
303,278,56602,1,0,0:2:0:0:
336,357,56720,5,8,3:2:0:0:
336,357,57188,1,8,0:2:0:0:
104,317,57305,1,0,0:2:0:0:
104,317,57540,2,0,P|101:275|102:250,1,60,0|8,0:2|0:2,0:2:0:0:
232,166,57891,6,0,P|177:166|161:162,1,60,0|0,0:2|0:2,0:2:0:0:
26,80,58126,2,0,P|81:80|97:76,1,60,8|0,0:2|0:2,0:2:0:0:
256,21,58360,2,0,P|201:21|185:17,1,60,0|0,0:2|0:2,0:2:0:0:
360,119,58595,6,0,L|380:33,1,60,8|0,0:2|0:2,0:2:0:0:
245,224,58829,2,0,L|225:138,1,60,0|0,0:2|0:2,0:2:0:0:
327,341,59063,1,8,0:2:0:0:
138,323,59180,1,0,0:2:0:0:
138,323,59415,2,0,P|178:317|210:319,1,60,0|8,0:2|0:2,0:2:0:0:
495,282,59766,6,0,P|425:258|379:203,1,120,2|0,1:2|0:2,0:2:0:0:
64,54,60001,2,0,P|117:46|159:54,1,90,2|0,1:2|0:2,0:2:0:0:
274,35,60470,6,0,L|255:230,1,180,8|0,0:2|0:2,0:2:0:0:
244,326,60938,1,8,0:2:0:0:
106,231,61055,1,0,0:2:0:0:
106,231,61290,2,0,L|172:224,1,60,0|8,0:2|0:2,0:2:0:0:
407,195,61641,6,0,L|347:201,1,60,0|0,0:2|0:2,0:2:0:0:
362,351,61876,2,0,L|421:344,1,60,8|0,0:2|0:2,0:2:0:0:
466,188,62110,2,0,L|406:194,1,60,0|0,0:2|0:2,0:2:0:0:
135,294,62345,6,0,P|129:257|130:216,1,60,8|0,0:2|0:2,0:2:0:0:
365,57,62579,2,0,P|363:86|358:116,1,60,0|0,0:2|0:2,0:2:0:0:
56,135,62813,1,8,0:2:0:0:
151,62,62930,2,0,P|211:52|228:53,1,60,0|0,0:2|0:2,0:2:0:0:
299,345,63165,2,0,P|274:291|273:203,1,120,0|0,0:2|0:2,0:2:0:0:
273,143,63516,6,0,P|311:155|335:177,1,60,0|0,0:2|0:2,0:2:0:0:
395,105,63751,2,0,P|413:140|414:172,1,60,8|0,0:2|0:2,0:2:0:0:
507,171,63985,2,0,P|495:209|473:233,1,60,0|0,0:2|0:2,0:2:0:0:
299,345,64220,5,4,3:2:0:0:
124,294,64376,1,8,0:1:0:0:
116,275,64454,2,0,P|107:219|110:175,1,80,8|8,0:1|0:1,0:2:0:0:
87,196,64688,2,0,P|87:156|95:116,1,80,8|8,3:1|0:1,0:2:0:0:
172,31,64923,6,0,P|181:87|178:131,1,80,8|8,0:1|0:1,0:2:0:0:
201,110,65157,2,0,P|200:149|192:189,1,80,8|8,3:1|0:1,0:2:0:0:
270,313,65391,6,0,P|279:257|276:213,1,80,8|8,0:1|0:1,0:2:0:0:
130,377,65626,5,8,3:1:0:0:
130,377,65860,1,8,0:1:0:0:
130,373,65919,1,8,0:1:0:0:
130,370,65977,1,8,0:1:0:0:
130,366,66036,1,8,0:1:0:0:
130,363,66095,6,0,P|113:293|98:260,1,80,8|8,3:1|0:1,0:2:0:0:
98,302,66329,2,0,P|115:232|130:199,1,80,8|8,0:1|0:1,0:2:0:0:
197,247,66563,6,0,P|214:177|229:144,1,80,8|8,3:1|0:1,0:2:0:0:
234,185,66797,2,0,P|217:115|202:82,1,80,8|8,0:1|0:1,0:2:0:0:
57,157,67032,6,0,P|74:87|89:54,1,80,8|8,3:1|0:1,0:2:0:0:
94,95,67266,2,0,P|77:25|62:-8,1,80,8|8,0:1|0:1,0:2:0:0:
234,185,67501,5,8,3:1:0:0:
234,185,67735,1,8,0:1:0:0:
236,182,67794,1,8,0:1:0:0:
238,179,67852,1,8,0:1:0:0:
240,176,67911,1,8,0:1:0:0:
241,173,67970,6,0,L|332:170,1,80,8|8,3:1|0:1,0:2:0:0:
315,151,68204,2,0,L|394:153,1,80,8|8,0:1|0:1,0:2:0:0:
485,80,68438,6,0,L|394:77,1,80,8|8,3:1|0:1,0:2:0:0:
411,58,68672,2,0,L|331:60,1,80,8|8,0:1|0:1,0:2:0:0:
237,69,68907,6,0,L|146:66,1,80,8|8,3:1|0:1,0:2:0:0:
163,47,69141,2,0,L|83:49,1,80,8|8,0:1|0:1,0:2:0:0:
90,223,69376,5,8,3:1:0:0:
90,223,69610,1,8,0:1:0:0:
88,220,69669,1,8,0:1:0:0:
86,217,69727,1,8,0:1:0:0:
84,214,69786,1,8,0:1:0:0:
83,211,69845,6,0,P|68:254|73:297,1,80,8|8,3:1|0:1,0:2:0:0:
54,275,70079,2,0,P|52:314|66:351,1,80,8|8,0:1|0:1,0:2:0:0:
170,380,70313,6,0,P|185:337|180:294,1,80,8|8,3:1|0:1,0:2:0:0:
199,316,70547,2,0,P|200:276|186:239,1,80,8|8,0:1|0:1,0:2:0:0:
152,158,70782,6,0,P|137:115|142:72,1,80,8|8,3:1|0:1,0:2:0:0:
123,94,71016,2,0,P|121:54|135:17,1,80,8|8,0:1|0:1,0:2:0:0:
36,91,71251,5,8,3:1:0:0:
394,47,71485,2,0,P|349:31|292:37,1,80,8|8,0:1|0:1,0:0:0:0:
234,52,71720,6,0,L|223:104,2,40,8|8|8,3:1|0:1|0:1,0:2:0:0:
291,131,71954,2,0,L|302:183,2,40,8|8|8,3:1|0:1|0:1,0:2:0:0:
213,177,72188,2,0,L|202:229,2,40,8|8|8,3:1|0:1|0:1,0:2:0:0:
311,255,72422,2,0,L|322:307,2,40,8|8|8,3:1|0:1|0:1,0:2:0:0:
197,324,72657,6,0,P|193:343|176:369,2,40,8|8|8,3:1|0:1|0:1,0:2:0:0:
113,309,72891,2,0,P|96:319|66:325,2,40,8|8|8,3:1|0:1|0:1,0:2:0:0:
77,230,73126,2,0,P|57:225|32:208,2,40,8|8|8,3:1|0:1|0:1,0:2:0:0:
89,143,73360,2,0,P|79:126|73:96,2,40,8|8|8,3:1|0:1|0:1,0:2:0:0:
163,217,73595,6,0,P|167:236|184:262,2,40,8|8|8,3:1|0:1|0:1,0:2:0:0:
247,202,73829,2,0,P|264:212|294:218,2,40,8|8|8,3:1|0:1|0:1,0:2:0:0:
283,123,74064,2,0,P|302:118|327:101,2,40,8|8|8,3:1|0:1|0:1,0:2:0:0:
271,36,74298,2,0,P|281:19|287:-10,2,40,8|8|8,3:1|0:1|0:1,0:2:0:0:
192,122,74532,6,0,L|136:120,2,40,8|8|8,3:1|0:1|0:1,0:2:0:0:
362,174,74766,2,0,L|418:172,2,40,8|8|8,3:1|0:1|0:1,0:2:0:0:
143,196,75001,2,0,L|87:194,2,40,8|8|8,3:1|0:1|0:1,0:2:0:0:
331,255,75235,2,0,L|387:253,2,40,8|8|8,3:1|0:1|0:1,0:2:0:0:
216,29,75470,5,8,3:1:0:0:
270,156,75626,1,8,0:2:0:0:
275,136,75704,1,8,0:2:0:0:
244,238,75860,1,8,0:2:0:0:
239,258,75938,5,8,0:2:0:0:
336,227,76095,1,8,0:2:0:0:
341,207,76173,1,8,0:2:0:0:
231,278,76329,1,8,0:2:0:0:
226,298,76407,5,8,0:2:0:0:
360,340,76563,1,8,0:2:0:0:
366,321,76641,1,8,0:2:0:0:
219,323,76798,6,0,L|206:368,1,40,8|8,0:2|0:2,0:2:0:0:
448,278,77032,2,0,L|459:239,1,40,8|8,0:2|0:2,0:2:0:0:
393,103,77266,1,8,0:2:0:0:
122,148,77813,6,0,L|245:140,1,90.0000034332277,0|0,0:2|0:2,0:2:0:0:
122,148,78048,2,0,L|253:140,1,90.0000034332277,0|0,0:2|0:2,0:2:0:0:
122,148,78282,2,0,L|253:140,1,90.0000034332277,0|0,0:2|0:2,0:2:0:0:
122,148,78516,2,0,L|253:140,1,90.0000034332277,0|0,0:2|0:2,0:2:0:0:
122,148,78751,2,0,L|234:141,1,90.0000034332277,8|0,0:2|0:2,0:2:0:0:
122,148,78985,2,0,L|234:141,1,90.0000034332277,0|0,0:2|0:2,0:2:0:0:
331,145,79220,6,0,P|240:97|251:204,1,180.000006866455,8|0,0:2|0:2,0:2:0:0:
328,245,79571,2,0,P|418:188|377:69,1,180.000006866455,0|0,0:2|0:2,0:2:0:0:
403,81,79923,1,0,0:2:0:0:
51,59,80079,1,0,0:2:0:0:
74,78,80157,2,0,P|174:82|256:42,1,180.000006866455,8|0,0:2|0:2,0:2:0:0:
384,245,80548,5,0,0:2:0:0:
360,263,80626,2,0,P|279:280|256:271,1,80,8|0,0:2|0:2,0:2:0:0:
208,242,80860,2,0,P|289:259|312:250,1,80,0|0,0:2|0:2,0:2:0:0:
387,127,81095,6,0,B|352:33|352:33|430:86|430:86|379:261,1,360,0|0,3:2|0:2,0:2:0:0:
234,371,81563,6,2,L|49:31,1,360,12|0,3:2|0:2,0:2:0:0:
61,54,82032,2,2,L|234:371,1,360,0|0,3:2|0:2,0:2:0:0:
233,370,82501,2,2,L|61:54,1,360,8|0,3:2|0:2,0:2:0:0:
9,227,82970,5,0,3:2:0:0:
284,240,83204,2,0,L|400:246,1,90.0000034332277,2|0,0:2|0:2,0:2:0:0:
28,223,83438,5,8,3:2:0:0:
206,145,83673,2,0,L|90:151,1,90.0000034332277,2|0,0:2|0:2,0:2:0:0:
229,5,83907,1,0,3:2:0:0:
318,53,84024,2,0,P|313:94|294:160,1,90.0000034332277,0|2,0:2|0:2,0:2:0:0:
301,328,84259,2,0,P|289:284|283:239,1,90.0000034332277,0|8,0:2|3:2,0:2:0:0:
493,116,84493,1,0,0:2:0:0:
463,240,84610,2,0,L|347:246,1,90.0000034332277,2|0,0:2|0:2,0:2:0:0:
48,173,84845,6,0,B|104:132|163:163|163:169|163:175|225:173|301:141|301:141|214:175|221:202,1,360,0|0,3:2|0:2,0:2:0:0:
57,337,85313,6,2,L|135:182,1,120,8|0,3:2|0:2,0:2:0:0:
221,16,85548,2,2,L|165:124,1,120,0|0,0:2|0:2,0:2:0:0:
57,337,85782,6,2,L|229:0,1,360,0|0,3:2|0:2,0:2:0:0:
221,16,86251,2,2,L|56:336,1,360,8|0,3:2|0:2,0:2:0:0:
393,384,86720,6,0,P|415:321|393:258,1,135.000005149841,0|0,3:2|0:2,0:2:0:0:
384,237,86954,2,0,P|321:259|258:237,1,135.000005149841,2|0,0:2|0:2,0:2:0:0:
192,302,87188,6,0,P|169:239|191:176,1,135.000005149841,8|0,3:2|0:2,0:2:0:0:
201,156,87422,2,0,P|263:178|326:156,1,135.000005149841,2|0,0:2|0:2,0:2:0:0:
391,222,87657,6,0,P|413:159|391:96,1,135.000005149841,0|0,3:2|0:2,0:2:0:0:
386,74,87891,2,0,P|323:96|260:74,1,135.000005149841,2|0,0:2|0:2,0:2:0:0:
191,139,88126,6,0,P|168:76|190:13,1,135.000005149841,8|0,3:2|0:2,0:2:0:0:
209,2,88360,2,0,P|271:24|334:2,1,135.000005149841,2|0,0:2|0:2,0:2:0:0:
394,77,88595,6,0,B|425:52|423:10|423:10|443:68|415:113|351:124|319:122|319:122|298:173|298:173|226:194,1,360,0|0,3:2|0:2,0:2:0:0:
113,286,89063,6,2,B|211:197|211:197|312:169|312:169|423:43,1,360,8|0,3:2|0:2,0:2:0:0:
393,76,89532,2,2,B|312:169|312:169|211:197|211:197|113:286,1,360,0|0,3:2|0:2,0:2:0:0:
113,286,90001,2,2,B|211:197|211:197|312:169|312:169|393:76,1,360,8|0,3:2|0:2,0:2:0:0:
459,119,90470,5,0,3:2:0:0:
138,160,90704,2,0,P|135:116|121:53,1,90.0000034332277,2|0,0:2|0:2,0:2:0:0:
445,128,90938,5,8,3:2:0:0:
290,267,91173,2,0,P|282:311|279:355,1,90.0000034332277,2|0,0:2|0:2,0:2:0:0:
204,221,91407,1,0,3:2:0:0:
345,189,91524,2,0,P|382:214|416:243,1,90.0000034332277,0|2,0:2|0:2,0:2:0:0:
282,112,91759,2,0,P|315:82|353:57,1,90.0000034332277,0|8,0:2|3:2,0:2:0:0:
204,221,91993,1,0,0:2:0:0:
182,121,92110,2,0,P|185:76|193:32,1,90.0000034332277,2|0,0:2|0:2,0:2:0:0:
85,304,92345,6,0,B|50:288|50:288|25:313|25:313|47:331|47:331|132:308|132:308|183:328|183:328|227:311|227:311|316:318,1,360,0|0,3:2|0:2,0:2:0:0:
453,288,92813,6,2,P|396:234|349:197,1,120,8|0,3:2|0:2,0:2:0:0:
152,96,93048,2,2,P|202:115|270:147,1,120,0|0,0:2|0:2,2:2:0:0:
453,288,93282,6,2,P|339:190|127:89,1,360,0|0,3:2|0:2,0:2:0:0:
152,96,93751,2,2,P|314:173|453:288,1,360,8|0,3:2|0:2,0:2:0:0:
158,332,94220,6,0,P|124:266|138:183,1,135.000005149841,0|0,3:2|0:2,0:2:0:0:
121,185,94454,2,0,P|191:207|240:276,1,135.000005149841,2|0,0:2|0:2,0:2:0:0:
334,207,94688,6,0,P|288:255|224:273,1,135.000005149841,8|0,3:2|0:2,0:2:0:0:
230,251,94923,2,0,P|227:184|260:126,1,135.000005149841,2|0,0:2|0:2,0:2:0:0:
333,45,95157,6,0,P|367:111|353:194,1,135.000005149841,0|0,3:2|0:2,0:2:0:0:
370,192,95391,2,0,P|299:169|250:100,1,135.000005149841,2|0,0:2|0:2,0:2:0:0:
157,170,95626,6,0,P|202:121|266:103,1,135.000005149841,8|0,3:2|0:2,0:2:0:0:
261,126,95860,2,0,P|263:192|230:250,1,135.000005149841,2|0,0:2|0:2,0:2:0:0:
145,278,96095,6,0,B|90:246|90:246|167:266|167:266|231:250|231:250|312:264|312:264|390:335,1,360,0|0,3:2|0:2,0:2:0:0:
308,383,96563,6,2,P|172:265|17:175,1,360,12|0,3:2|0:2,0:2:0:0:
17,175,97032,2,2,P|172:265|308:383,1,360,0|0,3:2|0:2,0:2:0:0:
308,383,97501,2,2,P|172:265|17:176,1,360,8|0,3:2|0:2,0:2:0:0:
100,338,97970,5,0,3:2:0:0:
262,194,98204,2,0,L|282:92,1,90.0000034332277,2|0,0:2|0:2,0:2:0:0:
108,322,98438,5,8,3:2:0:0:
130,159,98673,2,0,L|110:57,1,90.0000034332277,2|0,0:2|0:2,0:2:0:0:
262,194,98907,1,0,3:2:0:0:
359,155,99024,2,0,P|425:140|468:140,1,90.0000034332277,0|2,0:2|0:2,0:2:0:0:
274,22,99259,2,0,P|208:7|165:7,1,90.0000034332277,0|8,0:2|3:2,0:2:0:0:
130,159,99493,1,0,0:2:0:0:
24,86,99610,2,0,P|90:71|133:71,1,90.0000034332277,2|0,0:2|0:2,0:2:0:0:
158,272,99845,6,0,P|32:244|130:159,1,320,0|0,3:2|0:2,0:2:0:0:
260,337,100313,6,2,L|369:214,1,120,8|0,3:2|0:2,0:2:0:0:
500,68,100548,2,2,L|406:174,1,120,0|0,0:2|0:2,0:2:0:0:
260,337,100782,6,2,L|514:53,1,360,0|0,3:2|0:2,0:2:0:0:
500,68,101251,2,2,L|260:337,1,360,8|0,3:2|0:2,0:2:0:0:
117,260,101720,6,0,P|125:194|91:136,1,135.000005149841,0|0,3:2|0:2,0:2:0:0:
70,144,101954,2,0,P|62:77|96:20,1,135.000005149841,2|0,0:2|0:2,0:2:0:0:
159,97,102188,6,0,P|225:104|282:70,1,135.000005149841,8|0,3:2|0:2,0:2:0:0:
275,49,102422,2,0,P|341:41|398:75,1,135.000005149841,2|0,0:2|0:2,0:2:0:0:
320,133,102657,6,0,P|312:199|346:256,1,135.000005149841,0|0,3:2|0:2,0:2:0:0:
367,261,102891,2,0,P|374:327|340:384,1,135.000005149841,2|0,0:2|0:2,0:2:0:0:
281,304,103126,6,0,P|214:296|157:330,1,135.000005149841,8|0,3:2|0:2,0:2:0:0:
164,346,103360,2,0,P|97:353|40:319,1,135.000005149841,2|0,0:2|0:2,0:2:0:0:
117,267,103595,6,0,B|40:319|40:319|27:234|27:234|33:224|33:224|25:151|25:151|107:66,1,360,0|0,3:2|0:2,0:2:0:0:
261,17,104063,6,2,P|386:115|508:307,1,360,8|0,3:2|0:2,0:2:0:0:
497,280,104532,2,2,P|400:130|260:17,1,360,0|0,3:2|0:2,0:2:0:0:
261,17,105001,2,2,P|400:130|497:280,1,360,8|0,3:2|0:2,0:2:0:0:
415,334,105470,5,0,3:2:0:0:
177,146,105704,2,0,P|190:76|189:37,1,90.0000034332277,2|0,0:2|0:2,0:2:0:0:
401,348,105938,5,8,3:2:0:0:
257,185,106172,2,0,L|245:294,1,90.0000034332277,2|0,0:2|0:2,0:2:0:0:
384,362,106407,1,0,3:2:0:0:
512,278,106524,2,0,L|498:189,1,90.0000034332277,0|2,0:2|0:2,0:2:0:0:
342,270,106759,2,0,P|408:274|449:249,1,90.0000034332277,0|8,0:2|3:2,0:2:0:0:
481,61,106993,1,0,0:2:0:0:
360,96,107110,2,0,L|380:211,1,90.0000034332277,2|0,0:2|0:2,0:2:0:0:
93,130,107345,6,0,P|158:108|220:152,1,120,0|0,3:2|0:2,0:2:0:0:
268,267,107579,1,0,0:2:0:0:
273,272,107637,1,0,0:2:0:0:
278,277,107696,1,0,0:2:0:0:
283,282,107755,1,0,0:2:0:0:
288,287,107813,6,2,L|166:160,1,120,8|0,3:2|0:2,0:2:0:0:
38,27,108048,2,2,L|121:113,1,120,0|0,0:2|0:2,0:2:0:0:
288,287,108282,6,2,L|28:17,1,360,0|0,3:2|0:2,0:2:0:0:
38,27,108751,2,2,L|288:287,1,360,8|0,3:2|0:2,0:2:0:0:
377,276,109220,6,0,P|396:225|369:140,1,135.000005149841,0|0,3:2|0:2,0:2:0:0:
354,143,109454,2,0,P|333:79|354:16,1,135.000005149841,2|0,0:2|0:2,0:2:0:0:
377,22,109688,6,0,P|396:73|369:158,1,135.000005149841,0|0,0:2|0:2,0:2:0:0:
354,143,109922,2,0,P|333:206|354:269,1,135.000005149841,2|0,0:2|0:2,0:2:0:0:
446,303,110157,6,0,B|388:284|355:306|354:310|354:314|325:338|253:302,1,180.000006866455,0|0,0:2|0:2,0:2:0:0:
230,147,110626,6,0,L|175:163,1,30,0|0,0:2|0:2,0:2:0:0:
162,183,110743,2,0,L|217:199,1,30,0|0,0:2|0:2,0:2:0:0:
239,221,110860,2,0,L|181:239,1,60,0|0,0:2|0:2,0:2:0:0:
354,143,111095,6,0,B|402:192|402:247|368:317|368:317|375:270|348:240,1,270.000010299683,0|0,0:2|0:2,0:2:0:0:
319,36,111563,6,2,P|265:103|181:87,1,180,12|0,3:2|0:2,0:2:0:0:
492,193,112032,2,2,P|408:209|354:143,1,180,0|0,3:2|0:2,0:2:0:0:
164,306,112501,2,2,P|249:323|303:256,1,180,8|0,3:2|0:2,0:2:0:0:
228,181,112970,6,0,L|221:240,1,60,0|0,3:2|0:2,0:2:0:0:
81,344,113204,2,0,L|73:271,1,60,2|0,0:2|0:2,0:2:0:0:
121,177,113438,1,8,3:2:0:0:
121,177,113555,1,0,0:2:0:0:
221,240,113673,6,0,L|227:180,1,60,2|0,0:2|0:2,0:2:0:0:
201,20,113907,1,0,3:2:0:0:
269,90,114024,2,0,P|333:83|362:65,1,60,0|2,0:2|0:2,0:2:0:0:
449,19,114259,2,0,P|385:26|356:44,1,60,0|8,0:2|3:2,0:2:0:0:
499,96,114493,1,0,0:2:0:0:
415,150,114610,2,0,P|374:200|366:233,1,60,2|0,0:2|0:2,0:2:0:0:
234,359,114845,6,0,B|221:325|200:313|200:313|179:299|156:320|156:320|183:335|200:313|200:313|242:278|215:192,1,270.000010299683,0|0,3:2|0:2,0:2:0:0:
100,124,115313,6,2,P|132:132|207:143,1,60,8|0,3:2|0:2,0:2:0:0:
360,29,115548,2,2,P|328:37|253:48,1,60,0|0,0:2|0:2,0:2:0:0:
22,176,115782,6,2,P|15:88|91:35,1,180,0|0,3:2|0:2,0:2:0:0:
159,263,116251,2,2,P|166:176|99:123,1,180,8|0,3:2|0:2,0:2:0:0:
40,332,116720,6,0,L|131:332,1,60,0|0,3:2|0:2,0:2:0:0:
320,214,116954,2,0,L|260:214,1,60,2|0,0:2|0:2,0:2:0:0:
405,330,117188,1,8,3:2:0:0:
486,246,117305,2,0,P|490:214|489:171,2,60,0|2|0,0:2|0:2|0:2,0:2:0:0:
320,214,117657,6,0,P|316:184|351:73,1,120,0|2,3:2|0:2,0:2:0:0:
482,10,118009,1,0,0:2:0:0:
395,93,118126,2,0,L|311:98,1,60,8|0,3:2|0:2,0:2:0:0:
205,41,118360,2,0,L|145:37,1,60,2|0,0:2|0:2,0:2:0:0:
194,193,118595,6,0,B|223:168|257:164|257:164|176:127|167:227|54:188,1,270.000010299683,0|0,3:2|0:2,0:2:0:0:
71,372,119063,6,2,L|66:135,1,180,8|0,3:2|0:2,0:2:0:0:
338,199,119532,2,2,L|334:378,1,180,0|0,3:2|0:2,0:2:0:0:
67,192,120001,2,2,L|70:371,1,180,8|0,3:2|0:2,0:2:0:0:
237,342,120470,6,0,P|214:331|147:316,1,60,8|0,3:2|0:2,0:2:0:0:
122,258,120704,1,2,0:2:0:0:
150,227,120821,1,0,0:2:0:0:
97,174,120938,1,8,3:2:0:0:
123,147,121055,1,0,0:2:0:0:
87,82,121173,1,2,0:2:0:0:
120,53,121290,1,0,0:2:0:0:
197,112,121407,5,8,3:2:0:0:
268,60,121524,2,0,P|297:56|327:61,1,60,0|2,0:2|0:2,0:2:0:0:
471,110,121759,2,0,P|439:113|392:102,1,60,0|8,0:2|3:2,0:2:0:0:
347,301,121993,1,0,0:2:0:0:
337,215,122110,2,0,L|327:117,1,60,2|0,0:2|0:2,0:2:0:0:
97,265,122345,6,0,B|170:298|236:258|247:185|247:185|233:228|203:240,1,270.000010299683,8|0,3:2|0:2,0:2:0:0:
89,355,122813,6,2,P|190:355|200:352,1,60,8|0,3:2|0:2,0:2:0:0:
156,163,123048,2,2,P|126:163|96:169,1,60,10|0,0:2|0:2,0:2:0:0:
362,322,123282,6,2,P|373:243|362:157,1,120,8|10,3:2|0:2,0:2:0:0:
147,44,123751,2,2,P|145:103|155:162,1,120,8|10,3:2|0:2,0:2:0:0:
402,78,124220,6,0,L|320:68,1,80,0|8,3:2|0:1,0:2:0:0:
336,82,124454,2,0,L|254:72,1,80,8|8,0:1|0:1,0:2:0:0:
177,35,124688,6,0,L|95:25,1,80,8|8,0:1|0:1,0:2:0:0:
111,39,124922,2,0,L|29:29,1,80,8|8,0:1|0:1,0:2:0:0:
27,125,125157,5,8,0:1:0:0:
85,207,125313,1,8,0:1:0:0:
77,225,125391,1,8,0:1:0:0:
150,277,125548,1,8,0:1:0:0:
157,295,125626,1,8,0:1:0:0:
376,176,125860,5,8,0:1:0:0:
376,172,125919,1,8,0:1:0:0:
376,169,125977,1,8,0:1:0:0:
376,165,126036,1,8,0:1:0:0:
376,160,126095,6,0,P|260:207|193:96,1,270.000010299683,4|0,3:2|0:2,0:2:0:0:
288,120,126563,1,8,3:2:0:0:
108,133,126680,2,0,P|107:90|126:36,1,90.0000034332277,0|0,0:2|0:2,0:2:0:0:
146,229,126915,6,0,P|159:271|158:316,2,90.0000034332277,0|0|0,0:2|3:2|0:2,0:2:0:0:
18,140,127266,2,0,L|138:130,1,90.0000034332277,0|0,0:2|0:2,0:2:0:0:
333,218,127501,2,0,L|243:210,1,90.0000034332277,8|0,3:2|0:2,0:2:0:0:
69,324,127735,2,0,L|158:316,1,90.0000034332277,0|0,0:2|0:2,0:2:0:0:
418,184,127970,6,0,P|420:231|401:299,1,90.0000034332277,0|0,3:2|0:2,0:2:0:0:
445,91,128204,2,0,P|482:116|512:149,1,90.0000034332277,0|0,0:2|0:2,0:2:0:0:
303,47,128438,1,8,3:2:0:0:
386,7,128555,2,0,P|430:-1|474:0,1,90.0000034332277,0|0,0:2|0:2,0:2:0:0:
215,90,128790,2,0,P|170:92|126:83,1,90.0000034332277,0|0,0:2|3:2,0:2:0:0:
445,91,129141,6,0,P|460:146|426:215,1,120,2|0,1:2|0:2,0:2:0:0:
23,313,129376,2,0,P|69:302|134:322,1,90,10|0,1:2|0:2,0:2:0:0:
194,365,129845,6,0,L|223:81,1,270.000010299683,4|0,3:2|0:2,0:2:0:0:
165,24,130313,1,8,3:2:0:0:
33,157,130430,2,0,P|83:167|154:149,1,90.0000034332277,0|0,0:2|0:2,0:2:0:0:
297,44,130665,6,0,P|340:34|385:38,2,90.0000034332277,0|0|0,0:2|3:2|0:2,0:2:0:0:
350,210,131016,2,0,L|344:120,1,90.0000034332277,0|0,0:2|0:2,0:2:0:0:
116,252,131251,2,0,L|121:162,1,90.0000034332277,8|0,3:2|0:2,0:2:0:0:
298,373,131485,2,0,L|292:283,1,90.0000034332277,0|0,0:2|0:2,0:2:0:0:
20,338,131720,6,0,L|225:328,1,180.000006866455,0|0,3:2|0:2,0:2:0:0:
376,57,132188,1,8,3:2:0:0:
199,14,132305,2,0,P|195:118|198:129,1,90.0000034332277,0|0,0:2|0:2,0:2:0:0:
465,255,132540,6,0,P|388:308|300:285,1,180.000006866455,0|0,0:2|0:2,0:2:0:0:
352,134,132891,2,0,P|375:184|368:229,1,90.0000034332277,0|0,0:2|0:2,0:2:0:0:
148,174,133126,5,8,1:2:0:0:
255,155,133243,1,0,0:2:0:0:
180,255,133360,5,0,0:2:0:0:
236,245,133477,1,0,0:2:0:0:
217,335,133595,6,0,B|149:352|41:308|41:308|98:331|143:386,1,270.000010299683,4|0,3:2|0:2,0:2:0:0:
308,384,134063,1,8,3:2:0:0:
397,335,134180,2,0,P|404:302|356:210,1,90.0000034332277,0|0,0:2|0:2,0:2:0:0:
243,160,134415,6,0,P|230:202|237:247,2,90.0000034332277,0|0|0,0:2|3:2|0:2,0:2:0:0:
420,78,134766,2,0,L|259:84,1,90.0000034332277,0|0,0:2|0:2,0:2:0:0:
73,36,135001,2,0,L|234:42,1,90.0000034332277,8|0,3:2|0:2,0:2:0:0:
327,243,135235,2,0,L|166:249,1,90.0000034332277,0|0,0:2|0:2,0:2:0:0:
33,275,135470,6,0,P|110:363|109:374,1,90.0000034332277,0|0,3:2|0:2,0:2:0:0:
224,148,135704,2,0,P|147:236|148:247,1,90.0000034332277,0|0,0:2|0:2,0:2:0:0:
299,363,135938,1,8,3:2:0:0:
191,315,136055,2,0,L|89:327,1,90.0000034332277,0|0,0:2|0:2,0:2:0:0:
377,298,136290,2,0,L|466:287,1,90.0000034332277,0|0,0:2|3:2,0:2:0:0:
28,90,136641,6,0,P|81:73|162:88,1,120,2|0,1:2|0:2,0:2:0:0:
305,352,136876,2,0,P|286:283|295:249,1,90,10|0,1:2|0:2,0:2:0:0:
352,174,137345,6,0,B|294:135|224:161|225:166|225:172|173:231|64:168,1,270.000010299683,4|0,3:2|0:2,0:2:0:0:
282,246,137813,1,8,3:2:0:0:
370,84,137930,2,0,P|338:73|258:73,1,90.0000034332277,0|0,0:2|0:2,0:2:0:0:
376,270,138165,6,0,P|420:268|463:255,2,90.0000034332277,0|0|0,0:2|3:2|0:2,0:2:0:0:
181,365,138516,2,0,L|199:242,1,90.0000034332277,0|0,0:2|0:2,0:2:0:0:
389,359,138751,2,0,L|371:236,1,90.0000034332277,8|0,3:2|0:2,0:2:0:0:
94,182,138985,2,0,L|80:271,1,90.0000034332277,0|0,0:2|0:2,0:2:0:0:
410,74,139220,6,0,P|372:65|229:59,1,107.999996704102,0|0,3:2|0:2,0:2:0:0:
8,116,139454,2,0,P|46:107|189:101,1,107.999996704102,8|0,0:1|0:2,0:2:0:0:
438,239,139688,1,8,0:1:0:0:
279,358,139805,2,0,L|261:235,1,107.999996704102,8|0,0:1|0:2,0:2:0:0:
467,131,140079,5,8,0:1:0:0:
484,144,140157,2,0,B|431:178|384:159|383:155|384:151|344:129|260:161,1,215.999993408203,8|8,0:1|0:1,0:2:0:0:
88,88,140548,1,8,0:1:0:0:
102,103,140626,2,0,P|112:200|93:253,1,143.999995605469,8|8,0:1|0:1,0:2:0:0:
85,329,140860,2,0,P|68:259|81:189,1,143.999995605469,8|8,0:1|0:1,0:2:0:0:
183,253,141095,6,0,L|345:247,1,120,4|2,3:2|0:2,0:2:0:0:
496,310,141563,2,0,L|376:314,1,120,8|2,3:2|0:2,0:2:0:0:
277,355,142032,1,0,0:2:0:0:
450,195,142266,6,0,L|457:105,1,60,2|0,3:2|0:2,0:2:0:0:
352,16,142581,2,0,L|356:75,1,60,8|0,0:2|0:2,0:2:0:0:
350,160,142970,6,0,B|301:157|301:157|283:163|283:163|212:159,1,120,4|0,3:2|0:2,0:2:0:0:
101,153,143321,1,4,3:2:0:0:
224,221,143497,1,0,0:2:0:0:
228,191,143585,1,0,0:2:0:0:
232,161,143673,5,0,3:2:0:0:
213,356,143849,1,0,3:2:0:0:
213,356,144201,6,0,L|121:346,1,60,8|8,0:1|0:1,0:2:0:0:
35,291,144377,2,0,L|127:281,1,60,8|8,0:1|0:1,0:2:0:0:
432,250,144553,5,4,3:2:0:0:
123,160,144729,1,4,3:2:0:0:
123,160,145081,5,8,0:1:0:0:
380,157,145257,1,8,0:1:0:0:
354,142,145344,1,8,0:1:0:0:
326,138,145432,1,8,0:1:0:0:
298,146,145520,1,8,0:1:0:0:
276,164,145608,1,8,0:1:0:0:
261,188,145696,1,8,0:1:0:0:
255,215,145785,6,0,L|242:348,1,120,4|2,3:2|0:2,0:2:0:0:
395,246,146137,1,8,0:1:0:0:
160,268,146313,1,2,0:2:0:0:
90,284,146401,1,0,0:2:0:0:
21,303,146489,1,0,0:2:0:0:
243,334,146665,1,2,3:2:0:0:
395,246,146840,2,0,L|406:126,1,120,8|2,0:1|0:2,0:2:0:0:
419,15,147192,5,0,3:2:0:0:
493,172,147368,1,2,3:2:0:0:
318,83,147544,2,0,P|254:78|201:126,1,120,8|2,0:1|0:2,0:2:0:0:
180,288,147896,1,0,0:2:0:0:
189,259,147984,1,0,0:2:0:0:
198,230,148072,1,2,3:2:0:0:
109,56,148248,2,0,L|119:195,1,120,8|2,0:1|0:2,0:2:0:0:
510,217,148600,6,0,B|461:191|395:197|402:246|335:252|272:204,1,240,0|8,3:2|0:1,0:2:0:0:
457,296,149128,1,2,0:2:0:0:
330,85,149304,1,0,0:2:0:0:
336,114,149392,1,0,0:2:0:0:
343,143,149480,1,2,3:2:0:0:
266,329,149656,2,0,L|284:190,1,120,8|2,0:1|0:2,0:2:0:0:
276,184,149890,2,0,L|219:175,1,40
186,233,150008,6,0,P|106:247|41:222,1,120,0|2,3:2|3:2,0:2:0:0:
57,210,150272,1,0,0:2:0:0:
47,181,150360,1,8,0:1:0:0:
213,88,150535,1,2,0:2:0:0:
242,80,150622,1,0,0:2:0:0:
271,81,150710,1,0,0:2:0:0:
300,89,150798,1,0,0:2:0:0:
325,105,150886,1,2,3:2:0:0:
125,135,151063,2,0,P|119:76|174:-3,1,120,8|2,0:1|0:2,0:2:0:0:
506,61,151415,6,0,B|416:62|416:62|372:85|372:85|260:81,1,240,0|8,3:2|0:1,0:2:0:0:
434,286,151943,1,2,0:2:0:0:
448,215,152031,1,0,0:2:0:0:
462,144,152119,1,0,0:2:0:0:
316,177,152295,1,2,3:2:0:0:
429,307,152471,2,0,P|354:294|280:319,1,120,8|2,0:1|0:2,0:2:0:0:
36,232,152823,5,0,3:2:0:0:
181,340,152999,1,2,3:2:0:0:
161,137,153175,1,8,0:1:0:0:
141,235,153351,2,0,P|202:229|256:155,1,120,2|0,0:2|0:2,0:2:0:0:
53,73,153703,1,2,3:2:0:0:
36,232,153879,2,0,L|21:374,1,120,8|2,0:1|0:2,0:2:0:0:
243,190,154230,6,0,B|413:162|413:162|358:171|341:239,1,240,0|8,3:2|0:1,0:2:0:0:
149,242,154758,1,2,0:2:0:0:
153,271,154846,1,0,0:2:0:0:
155,300,154934,1,0,0:2:0:0:
227,116,155110,1,2,3:2:0:0:
365,257,155286,2,0,L|355:180,1,60,8|0,0:1|0:2,0:2:0:0:
376,5,155462,1,2,0:2:0:0:
376,5,155550,1,0,0:2:0:0:
376,5,155638,5,0,3:2:0:0:
338,34,155725,1,0,0:2:0:0:
292,49,155813,1,2,3:2:0:0:
245,47,155901,1,0,0:2:0:0:
200,30,155989,1,8,0:1:0:0:
155,12,156078,1,0,0:2:0:0:
107,11,156166,1,2,0:2:0:0:
62,26,156254,1,0,0:2:0:0:
23,57,156342,6,0,L|32:146,1,60,2|2,0:2|0:2,0:2:0:0:
174,129,156518,1,0,3:2:0:0:
174,129,156606,2,0,L|92:92,1,60,2|8,0:2|0:1,0:2:0:0:
10,298,156782,1,10,3:1:0:0:
29,228,156870,1,2,0:2:0:0:
92,194,156958,1,10,0:1:0:0:
159,218,157046,6,0,B|216:253|266:226|271:219|274:215|326:175|409:235,1,240,4|8,3:2|0:1,0:2:0:0:
221,147,157574,1,2,0:2:0:0:
215,75,157662,1,0,0:2:0:0:
209,3,157750,1,0,0:2:0:0:
159,218,157926,1,2,3:2:0:0:
300,101,158101,2,0,L|443:95,1,120,8|2,0:1|0:2,0:2:0:0:
512,186,158453,5,0,3:2:0:0:
432,37,158629,2,0,L|413:124,1,60,2|0,3:2|3:2,0:2:0:0:
388,222,158805,1,8,0:1:0:0:
186,95,158981,1,2,0:2:0:0:
215,87,159069,1,0,0:2:0:0:
244,85,159157,1,0,0:2:0:0:
273,90,159245,1,0,0:2:0:0:
300,101,159333,1,2,3:2:0:0:
118,163,159509,2,0,P|90:103|115:35,1,120,8|2,0:1|0:2,0:2:0:0:
232,306,159861,6,0,B|260:362|260:362|247:186,1,240,0|8,3:2|0:1,0:2:0:0:
107,256,160389,1,2,0:2:0:0:
136,252,160477,1,0,0:2:0:0:
165,248,160565,1,0,0:2:0:0:
247,186,160741,1,2,3:2:0:0:
35,216,160917,2,0,P|28:281|61:326,1,120,8|2,0:1|0:2,0:2:0:0:
72,334,161151,2,0,L|133:329,1,40
165,248,161269,6,0,L|168:113,1,120,0|2,3:2|3:2,0:2:0:0:
144,108,161533,1,0,0:2:0:0:
121,88,161621,1,8,0:1:0:0:
268,186,161796,2,0,P|337:182|407:138,1,120,2|0,0:2|0:2,0:2:0:0:
405,140,162060,1,0,0:2:0:0:
417,112,162148,1,2,3:2:0:0:
383,267,162324,1,8,0:1:0:0:
300,92,162500,1,2,0:2:0:0:
468,310,162676,6,0,P|380:292|223:327,1,240,0|8,3:2|0:1,0:2:0:0:
94,349,163204,1,2,0:2:0:0:
88,277,163292,1,0,0:2:0:0:
82,205,163380,1,0,0:2:0:0:
216,230,163556,1,2,3:2:0:0:
20,138,163732,2,0,P|99:117|147:143,1,120,8|2,0:1|0:2,0:2:0:0:
216,230,164084,5,0,3:2:0:0:
190,28,164260,1,2,3:2:0:0:
82,205,164436,1,8,0:1:0:0:
317,39,164612,2,0,L|299:207,1,120,2|0,0:2|0:2,0:2:0:0:
300,188,164876,1,0,0:2:0:0:
296,217,164964,1,2,3:2:0:0:
131,130,165140,1,8,0:1:0:0:
326,303,165316,1,2,0:2:0:0:
21,340,165491,6,0,B|73:303|133:323|133:329|133:334|180:370|258:333,1,240,0|8,3:2|0:1,0:2:0:0:
116,114,166019,2,0,P|110:186|139:238,1,120,2|0,0:2|0:2,0:2:0:0:
250,336,166371,1,2,3:2:0:0:
383,182,166547,2,0,L|219:166,1,120,8|2,0:1|0:2,0:2:0:0:
130,227,166899,5,0,3:2:0:0:
360,35,167075,2,0,P|362:67|347:106,1,60,10|0,0:1|0:2,0:2:0:0:
428,143,167251,1,10,0:1:0:0:
428,143,167340,2,0,P|408:166|382:181,1,60,8|2,0:1|0:0,0:2:0:0:
177,140,167514,1,8,0:1:0:0:
224,143,167602,1,0,0:2:0:0:
263,170,167690,1,8,0:1:0:0:
279,215,167779,6,0,L|263:294,1,60,4|0,3:3|0:2,0:2:0:0:
200,384,167955,1,10,0:1:0:0:
175,359,168043,2,0,L|163:300,1,60,4|2,3:3|0:2,0:2:0:0:
53,145,168219,1,10,0:1:0:0:
39,235,168307,6,0,L|299:213,1,240,4|10,3:2|0:1,0:2:0:0:
371,52,168835,1,2,0:2:0:0:
328,110,168923,1,0,0:2:0:0:
256,99,169011,1,0,0:2:0:0:
447,68,169187,1,2,3:2:0:0:
233,21,169362,2,0,B|190:13|190:13|84:34,1,120,8|2,0:1|0:2,0:2:0:0:
153,137,169626,1,0,0:2:0:0:
153,137,169714,6,0,B|156:201|156:201|146:238|146:238|153:329,1,180,0|0,3:2|0:2,0:2:0:0:
174,336,170066,1,8,0:1:0:0:
396,261,170242,1,2,0:2:0:0:
367,251,170330,1,0,0:2:0:0:
337,248,170418,1,0,0:2:0:0:
307,254,170506,1,0,0:2:0:0:
281,269,170594,1,2,3:2:0:0:
469,320,170770,6,0,P|484:255|437:182,1,120,8|2,0:1|0:2,0:2:0:0:
392,134,171170,1,0,0:2:0:0:
292,159,171303,6,0,P|216:170|157:121,1,120,0|2,3:2|0:2,0:2:0:0:
68,51,172013,5,8,0:1:0:0:
68,51,172444,6,0,P|148:52|171:71,1,90,2|0,0:2|0:2,0:2:0:0:
207,115,172979,5,2,0:2:0:0:
399,169,179775,5,0,0:2:0:0:
408,193,179893,1,0,0:2:0:0:
363,252,180010,5,0,0:2:0:0:
354,276,180128,1,0,0:2:0:0:
419,316,180244,5,0,0:2:0:0:
428,340,180362,1,0,0:2:0:0:
355,373,180479,5,0,3:2:0:0:
355,373,180947,1,0,0:2:0:0:
270,312,181064,1,0,0:2:0:0:
270,312,181299,6,0,P|200:310|166:323,1,90.0000034332277,0|0,0:2|0:2,0:2:0:0:
98,352,181650,2,0,L|89:285,1,45.0000017166138,0|0,0:2|0:2,0:2:0:0:
149,239,181885,2,0,L|158:172,1,45.0000017166138,0|0,0:2|0:2,0:2:0:0:
85,154,182119,2,0,L|76:87,1,45.0000017166138,0|0,0:2|0:2,0:2:0:0:
208,77,182354,6,0,P|186:70|164:67,1,45.0000017166138,0|0,0:2|0:2,0:2:0:0:
38,34,182588,2,0,P|59:27|81:24,1,45.0000017166138,0|0,0:2|0:2,0:2:0:0:
208,77,182822,1,0,0:2:0:0:
85,154,182939,1,0,0:2:0:0:
85,154,183174,2,0,P|32:153|-15:138,1,90.0000034332277,0|0,0:2|0:2,0:2:0:0:
28,237,183525,6,0,P|79:237|91:235,1,45.0000017166138,0|0,0:2|0:2,0:2:0:0:
359,274,183760,2,0,L|350:111,1,135.000005149841,0|0,0:2|0:2,0:2:0:0:
298,72,184229,6,0,P|371:56|430:119,1,135.000005149841,0|0,0:2|0:2,0:2:0:0:
351,139,184697,1,0,0:2:0:0:
445,261,184814,1,0,0:2:0:0:
445,261,185049,6,0,P|388:278|323:255,1,90.0000034332277,0|0,0:2|0:2,0:2:0:0:
217,377,185400,2,0,L|211:320,1,45.0000017166138,0|0,0:2|0:2,0:2:0:0:
131,384,185635,2,0,L|125:327,1,45.0000017166138,0|0,0:2|0:2,0:2:0:0:
45,384,185869,2,0,L|39:327,1,45.0000017166138,0|0,0:2|0:2,0:2:0:0:
9,106,186104,6,0,L|62:114,1,53.9999983520508,0|0,0:2|0:2,0:2:0:0:
236,105,186338,2,0,L|164:116,1,53.9999983520508,0|0,0:2|0:2,0:2:0:0:
122,180,186572,1,0,0:2:0:0:
123,0,186689,2,0,L|123:73,1,53.9999983520508
74,253,186924,2,0,P|125:268|175:250,1,107.999996704102
304,118,187275,6,0,P|308:149|295:191,1,53.9999983520508,0|0,0:2|0:2,0:2:0:0:
382,205,187510,2,0,P|362:230|324:250,1,53.9999983520508,0|0,0:2|0:2,0:2:0:0:
379,325,187744,2,0,P|347:329|305:316,1,53.9999983520508,0|0,0:2|0:2,0:2:0:0:
8,236,187979,6,0,P|126:220|186:262,1,180,4|0,3:2|0:2,0:2:0:0:
216,327,188447,1,0,3:2:0:0:
343,242,188564,1,0,0:2:0:0:
343,242,188799,6,0,L|336:165,1,60,0|0,0:2|3:2,0:2:0:0:
152,16,189150,2,0,L|146:75,1,60,0|0,0:2|0:2,0:2:0:0:
229,172,189385,2,0,L|223:112,1,60,0|0,3:2|0:2,0:2:0:0:
303,8,189619,2,0,L|297:67,1,60,0|0,0:2|0:2,0:2:0:0:
85,170,189854,6,0,P|126:164|162:127,1,60,0|0,3:2|0:2,0:2:0:0:
237,258,190088,2,0,P|196:252|160:215,1,60,0|0,0:2|0:2,0:2:0:0:
85,170,190322,1,0,3:2:0:0:
111,324,190439,1,0,0:2:0:0:
111,324,190674,2,0,L|100:248,1,60,0|0,0:2|3:2,0:2:0:0:
493,258,191025,6,0,L|370:254,1,90.0000034332277,2|0,1:2|0:2,0:2:0:0:
18,280,191260,2,0,P|73:259|127:278,1,90,2|0,1:2|0:2,0:2:0:0:
245,354,191729,6,0,L|260:160,1,180,4|0,3:2|0:2,0:2:0:0:
266,88,192197,1,0,3:2:0:0:
403,154,192314,1,0,0:2:0:0:
403,154,192549,6,0,P|383:134|341:120,1,60,0|0,0:2|3:2,0:2:0:0:
190,38,192900,2,0,P|210:18|252:4,1,60,0|0,0:2|0:2,0:2:0:0:
136,137,193135,2,0,P|116:117|74:103,1,60,0|0,3:2|0:2,0:2:0:0:
210,206,193369,2,0,P|230:186|272:172,1,60,0|0,0:2|0:2,0:2:0:0:
57,353,193604,6,0,P|51:267|93:221,1,120,0|0,3:2|0:2,0:2:0:0:
302,316,194072,1,0,3:2:0:0:
126,236,194189,2,0,L|67:242,1,60,0|0,0:2|0:2,0:2:0:0:
330,143,194424,2,0,L|467:154,1,90.0000034332277,0|0,0:2|3:2,0:2:0:0:
200,96,194775,5,0,0:2:0:0:
344,51,194893,1,0,0:2:0:0:
216,187,195010,5,0,1:2:0:0:
311,156,195127,1,0,0:2:0:0:
255,277,195244,5,0,0:2:0:0:
286,270,195361,1,0,0:2:0:0:
259,368,195479,6,0,P|312:321|412:360,1,180,2|0,1:2|0:2,0:2:0:0:
422,378,195947,1,0,3:2:0:0:
459,217,196064,1,0,0:2:0:0:
459,217,196299,2,0,L|376:207,1,60,0|0,0:2|3:2,0:2:0:0:
91,127,196650,6,0,L|174:117,1,60,0|0,0:2|0:2,0:2:0:0:
207,55,196885,2,0,L|266:62,1,60,0|0,3:2|0:2,0:2:0:0:
327,119,197119,2,0,L|386:111,1,60,0|0,0:2|0:2,0:2:0:0:
208,239,197354,6,0,P|195:181|204:146,1,60,0|0,3:2|0:2,0:2:0:0:
302,283,197588,2,0,P|315:225|306:190,1,60,0|0,0:2|0:2,0:2:0:0:
155,318,197822,1,0,3:2:0:0:
333,371,197939,1,0,0:2:0:0:
333,371,198174,2,0,P|383:339|401:308,1,60,0|0,0:2|3:2,0:2:0:0:
476,119,198525,6,0,L|357:109,1,90.0000034332277,2|0,1:2|0:2,0:2:0:0:
30,126,198760,2,0,P|71:137|137:115,1,90,2|0,1:2|0:2,0:2:0:0:
195,60,199229,6,0,P|217:126|151:225,1,180,4|0,3:2|0:2,0:2:0:0:
140,233,199697,1,0,3:2:0:0:
294,165,199814,1,0,0:2:0:0:
294,165,200049,6,0,P|309:190|319:218,1,60,0|0,0:2|3:2,0:2:0:0:
193,365,200400,2,0,P|203:337|218:311,1,60,0|0,0:2|0:2,0:2:0:0:
130,291,200635,2,0,P|133:261|140:232,1,60,0|0,3:2|0:2,0:2:0:0:
40,335,200869,2,0,P|35:305|35:275,1,60,0|0,0:2|0:2,0:2:0:0:
318,223,201104,6,0,L|377:228,1,60,0|0,3:2|0:2,0:2:0:0:
192,364,201338,2,0,L|133:370,1,60,0|0,0:2|0:2,0:2:0:0:
227,201,201572,1,0,3:2:0:0:
384,374,201689,2,0,P|401:299|393:273,1,60,0|0,0:2|0:2,0:2:0:0:
106,70,201924,2,0,P|174:100|256:69,1,120,0|0,0:2|0:2,0:2:0:0:
239,73,202275,5,0,0:2:0:0:
0,198,202510,1,0,3:2:0:0:
219,316,202744,1,0,0:2:0:0:
444,211,202979,6,0,P|362:197|309:224,1,120,4|8,3:2|0:1,0:2:0:0:
230,299,203369,1,8,0:1:0:0:
219,316,203447,2,0,L|212:209,1,80,8|8,3:1|0:1,0:2:0:0:
233,238,203682,2,0,L|240:131,1,80,8|8,0:1|0:1,0:2:0:0:
80,83,203916,6,0,P|160:102|191:92,1,80,8|8,3:1|0:1,0:2:0:0:
162,83,204150,2,0,P|201:80|237:63,1,80,8|8,0:1|0:1,0:2:0:0:
346,197,204385,5,8,3:1:0:0:
346,197,204619,1,8,0:1:0:0:
346,193,204678,1,8,0:1:0:0:
346,190,204736,1,8,0:1:0:0:
346,186,204795,1,8,0:1:0:0:
346,182,204854,6,0,B|356:220|356:220|351:291,1,80,8|8,3:1|0:1,0:2:0:0:
333,261,205088,2,0,B|323:299|323:299|328:370,1,80,8|8,0:1|0:1,0:2:0:0:
103,239,205322,6,0,P|159:219|210:233,1,80,8|8,3:1|0:1,0:2:0:0:
175,200,205557,2,0,P|214:200|250:218,1,80,8|8,0:1|0:1,0:2:0:0:
414,146,205791,6,0,P|358:126|307:140,1,80,8|8,3:1|0:1,0:2:0:0:
342,107,206026,2,0,P|302:107|266:125,1,80,8|8,0:1|0:1,0:2:0:0:
290,291,206260,5,8,3:1:0:0:
290,291,206494,1,8,0:1:0:0:
290,288,206553,1,8,0:1:0:0:
290,285,206611,1,8,0:1:0:0:
290,281,206670,1,8,0:1:0:0:
290,277,206729,6,0,P|343:269|395:290,1,80,8|8,3:1|0:1,0:2:0:0:
378,291,206963,2,0,L|392:190,1,80,8|8,0:1|0:1,0:2:0:0:
321,166,207197,6,0,P|268:158|216:179,1,80,8|8,3:1|0:1,0:2:0:0:
228,178,207431,2,0,L|214:77,1,80,8|8,0:1|0:1,0:2:0:0:
133,5,207666,6,0,L|122:84,1,80,8|8,3:1|0:1,0:2:0:0:
106,72,207900,2,0,L|117:152,1,80,8|8,0:1|0:1,0:2:0:0:
228,178,208135,5,8,3:1:0:0:
228,178,208369,1,8,0:1:0:0:
231,178,208428,1,8,0:1:0:0:
234,178,208486,1,8,0:1:0:0:
237,178,208545,1,8,0:1:0:0:
241,177,208604,6,0,L|220:309,1,120,8|8,3:1|0:1,0:2:0:0:
130,320,208994,1,8,0:1:0:0:
115,305,209072,2,0,P|53:293|26:300,1,80,8|8,3:1|0:1,0:2:0:0:
32,276,209307,2,0,P|44:214|37:187,1,80,8|8,0:1|0:1,0:2:0:0:
31,180,209541,1,8,3:1:0:0:
282,127,209697,1,8,0:1:0:0:
272,107,209775,2,0,P|226:85|168:91,1,80,8|8,0:1|0:1,0:2:0:0:
178,90,210010,6,0,L|191:191,1,80,8|8,3:1|0:1,0:2:0:0:
190,189,210244,1,8,0:1:0:0:
338,226,210400,1,8,0:1:0:0:
346,214,210479,6,0,L|395:221,2,40,8|8|8,3:1|0:1|0:1,0:2:0:0:
343,98,210713,2,0,L|372:137,2,40,8|8|8,3:1|0:1|0:1,0:2:0:0:
446,39,210947,2,0,L|439:88,2,40,8|8|8,3:1|0:1|0:1,0:2:0:0:
512,126,211182,2,0,L|472:155,2,40,8|8|8,3:1|0:1|0:1,0:2:0:0:
232,214,211416,6,0,L|183:221,2,40,8|8|8,3:1|0:1|0:1,0:2:0:0:
235,98,211650,2,0,L|205:137,2,40,8|8|8,3:1|0:1|0:1,0:2:0:0:
132,39,211884,2,0,L|139:88,2,40,8|8|8,3:1|0:1|0:1,0:2:0:0:
66,126,212119,2,0,L|105:155,2,40,8|8|8,3:1|0:1|0:1,0:2:0:0:
216,294,212354,6,0,L|208:234,2,40,8|8|8,3:1|0:1|0:1,0:2:0:0:
296,294,212588,2,0,L|304:234,2,40,8|8|8,3:1|0:1|0:1,0:2:0:0:
150,350,212822,2,0,L|101:313,2,40,8|8|8,3:1|0:1|0:1,0:2:0:0:
362,350,213057,2,0,L|410:313,2,40,8|8|8,3:1|0:1|0:1,0:2:0:0:
126,243,213291,6,0,L|65:250,2,40,8|8|8,3:1|0:1|0:1,0:2:0:0:
386,243,213525,2,0,L|447:250,2,40,8|8|8,3:1|0:1|0:1,0:2:0:0:
127,145,213760,2,0,L|66:152,2,40,8|8|8,3:1|0:1|0:1,0:2:0:0:
385,145,213994,2,0,L|446:152,2,40,8|8|8,3:1|0:1|0:1,0:2:0:0:
254,29,214229,5,8,3:2:0:0:
235,210,214385,1,8,0:2:0:0:
240,190,214463,1,8,0:2:0:0:
297,110,214619,1,8,0:2:0:0:
302,130,214697,5,8,0:2:0:0:
175,293,214854,1,8,0:2:0:0:
180,273,214932,1,8,0:2:0:0:
314,231,215088,1,8,0:2:0:0:
319,251,215166,5,8,0:2:0:0:
349,369,215322,1,8,0:2:0:0:
344,349,215400,1,8,0:2:0:0:
448,288,215557,6,0,L|376:285,1,40,8|8,0:2|0:2,0:2:0:0:
145,261,215791,2,0,L|217:258,1,40,8|8,0:2|0:2,0:2:0:0:
319,251,216025,1,8,0:2:0:0:
154,101,216572,6,0,L|275:96,1,90.0000034332277,0|0,0:2|0:2,0:2:0:0:
154,101,216807,2,0,L|275:96,1,90.0000034332277,0|0,0:2|0:2,0:2:0:0:
154,101,217041,2,0,L|275:96,1,90.0000034332277,8|0,0:2|0:2,0:2:0:0:
154,101,217276,2,0,L|275:96,1,90.0000034332277,0|0,0:2|0:2,0:2:0:0:
154,101,217510,2,0,L|275:96,1,90.0000034332277,8|0,0:2|0:2,0:2:0:0:
154,101,217745,2,0,L|275:96,1,90.0000034332277,0|0,0:2|0:2,0:2:0:0:
315,20,217979,6,0,P|340:133|295:190,1,180.000006866455,8|0,0:2|0:2,0:2:0:0:
114,227,218330,2,0,P|222:219|215:311,1,180.000006866455,0|0,0:2|0:2,0:2:0:0:
197,291,218682,1,0,0:2:0:0:
36,126,218838,1,0,0:2:0:0:
53,150,218916,2,0,P|136:163|204:138,1,120.000004577637,8|0,0:2|0:2,0:2:0:0:
227,291,219150,6,2,B|214:291|214:291|211:288|211:288|208:291|208:291|197:291,1,33,0|0,0:2|0:2,0:2:0:0:
197,291,219854,6,0,B|214:308|223:340|223:340|215:173|331:144|398:239|329:303,1,360,0|0,3:2|0:2,0:2:0:0:
55,315,220322,6,2,L|280:25,1,360,12|0,3:2|0:2,0:2:0:0:
276,31,220791,2,2,L|54:315,1,360,0|0,3:2|0:2,0:2:0:0:
54,315,221260,2,2,L|276:31,1,360,8|0,3:2|0:2,0:2:0:0:
404,84,221729,5,0,3:2:0:0:
186,144,221963,2,0,L|74:137,1,90.0000034332277,2|0,0:2|0:2,0:2:0:0:
387,102,222197,5,8,3:2:0:0:
275,280,222432,2,0,L|387:273,1,90.0000034332277,2|0,0:2|0:2,0:2:0:0:
492,74,222666,1,0,3:2:0:0:
424,202,222783,2,0,P|407:103|417:68,1,90.0000034332277,0|2,0:2|0:2,0:2:0:0:
332,0,223018,2,0,P|329:44|313:86,1,90.0000034332277,0|8,0:2|3:2,0:2:0:0:
119,201,223252,1,0,0:2:0:0:
174,85,223369,2,0,P|211:109|239:144,1,90.0000034332277,2|0,0:2|0:2,0:2:0:0:
107,291,223604,6,0,B|72:325|29:307|16:281|16:281|31:251|87:224|141:276|141:280|141:283|191:309|266:273,1,360,0|0,3:2|0:2,0:2:0:0:
99,128,224072,6,2,L|193:205,1,120,8|0,3:2|0:2,0:2:0:0:
377,358,224307,2,2,L|285:282,1,120,0|0,0:2|0:2,0:2:0:0:
100,129,224541,6,2,L|377:358,1,360,0|0,3:2|0:2,0:2:0:0:
377,358,225010,2,2,L|100:129,1,360,8|0,3:2|0:2,0:2:0:0:
33,60,225479,6,0,P|60:45|182:73,1,135.000005149841,0|0,3:2|0:2,0:2:0:0:
174,65,225713,2,0,P|201:80|323:52,1,135.000005149841,2|0,0:2|0:2,0:2:0:0:
376,0,225947,6,0,P|391:27|363:149,1,135.000005149841,8|0,3:2|0:2,0:2:0:0:
371,141,226181,2,0,P|356:168|384:290,1,135.000005149841,2|0,0:2|0:2,0:2:0:0:
425,331,226416,6,0,P|398:346|276:318,1,135.000005149841,0|0,3:2|0:2,0:2:0:0:
277,327,226650,2,0,P|250:312|128:340,1,135.000005149841,2|0,0:2|0:2,0:2:0:0:
72,384,226885,6,0,P|57:357|85:235,1,135.000005149841,8|0,3:2|0:2,0:2:0:0:
77,243,227119,2,0,P|92:216|64:94,1,135.000005149841,2|0,0:2|0:2,0:2:0:0:
131,22,227354,6,0,B|195:10|195:10|264:34|264:34|398:13|398:13|341:22|281:64,1,360,0|0,3:2|0:2,0:2:0:0:
356,139,227822,6,2,P|226:264|73:358,1,360,8|0,3:2|0:2,0:2:0:0:
73,358,228291,2,2,P|226:264|356:140,1,360,0|0,3:2|0:2,0:2:0:0:
356,140,228760,2,2,P|226:264|73:358,1,360,8|0,3:2|0:2,0:2:0:0:
41,228,229229,5,0,3:2:0:0:
282,16,229463,2,0,L|275:108,1,90.0000034332277,2|0,0:2|0:2,0:2:0:0:
18,232,229697,5,8,3:2:0:0:
243,321,229931,2,0,L|236:229,1,90.0000034332277,2|0,0:2|0:2,0:2:0:0:
364,130,230166,1,0,3:2:0:0:
326,224,230283,2,0,L|216:233,1,90.0000034332277,0|2,0:2|0:2,0:2:0:0:
86,160,230518,2,0,L|196:169,1,90.0000034332277,0|8,0:2|3:2,0:2:0:0:
157,360,230752,1,0,0:2:0:0:
32,319,230869,2,0,P|16:245|28:207,1,90.0000034332277,2|0,0:2|0:2,0:2:0:0:
304,55,231104,6,0,B|334:62|358:44|358:44|297:116|145:32|145:32|182:54|196:91,1,360,0|0,3:2|0:2,0:2:0:0:
495,42,231572,6,2,L|401:117,1,120,8|0,3:2|0:2,2:2:0:0:
217,270,231807,2,2,L|310:194,1,120,0|0,0:2|0:2,2:2:0:0:
495,42,232041,6,2,L|217:271,1,360,0|0,3:2|0:2,2:2:0:0:
217,271,232510,2,2,L|495:42,1,360,8|0,3:2|0:2,2:2:0:0:
364,37,232979,6,0,P|275:55|236:11,1,135.000005149841,0|0,3:2|0:2,0:2:0:0:
227,18,233213,2,0,L|249:155,1,135.000005149841,2|0,0:2|0:2,0:2:0:0:
193,202,233447,6,0,P|282:220|321:176,1,135.000005149841,8|0,3:2|0:2,0:2:0:0:
330,183,233681,2,0,L|308:320,1,135.000005149841,2|0,0:2|0:2,0:2:0:0:
231,328,233916,6,0,P|142:310|103:354,1,135.000005149841,0|0,3:2|0:2,0:2:0:0:
94,347,234150,2,0,L|116:210,1,135.000005149841,2|0,0:2|0:2,0:2:0:0:
58,159,234385,6,0,P|147:141|186:185,1,135.000005149841,8|0,3:2|0:2,0:2:0:0:
195,178,234619,2,0,L|173:41,1,135.000005149841,2|0,0:2|0:2,0:2:0:0:
32,24,234854,6,0,B|107:6|186:40|186:40|172:45|172:45|252:85|407:17,1,360,0|0,3:2|0:2,0:2:0:0:
444,117,235322,6,2,B|343:227|343:227|261:262|261:262|180:353,1,360,14|0,3:2|0:2,0:2:0:0:
180,353,235791,2,2,B|261:262|261:262|343:227|343:227|444:117,1,360,0|0,3:2|0:2,0:2:0:0:
443,117,236260,2,2,B|343:227|343:227|261:262|261:262|180:353,1,360,8|0,3:2|0:2,0:2:0:0:
219,180,236729,5,0,3:2:0:0:
409,358,236963,2,0,L|428:236,1,90.0000034332277,2|0,0:2|0:2,0:2:0:0:
215,165,237197,5,8,3:2:0:0:
100,342,237432,2,0,L|81:220,1,90.0000034332277,2|0,0:2|0:2,0:2:0:0:
40,120,237666,1,0,3:2:0:0:
0,258,237783,2,0,P|68:262|109:234,1,90.0000034332277,0|2,0:2|0:2,0:2:0:0:
305,186,238018,2,0,P|262:172|218:181,1,90.0000034332277,0|8,0:2|3:2,0:2:0:0:
251,357,238252,1,0,0:2:0:0:
377,270,238369,2,0,L|396:148,1,90.0000034332277,2|0,0:2|0:2,0:2:0:0:
105,58,238604,6,0,B|80:43|59:41|59:41|149:13|204:39|204:39|196:41|196:41|244:85|371:45,1,360,0|0,3:2|0:2,0:2:0:0:
512,115,239072,6,2,L|393:239,1,120,8|0,3:2|0:2,0:2:0:0:
262,374,239307,2,2,L|370:263,1,120,0|0,0:2|0:2,0:2:0:0:
512,115,239541,6,2,B|260:377,1,360,0|0,3:2|0:2,0:2:0:0:
262,374,240010,2,2,B|512:115,1,360,8|0,3:2|0:2,0:2:0:0:
455,44,240479,6,0,P|370:35|322:68,1,135.000005149841,0|0,3:2|0:2,0:2:0:0:
345,76,240713,2,0,P|285:47|220:60,1,135.000005149841,2|0,0:2|0:2,0:2:0:0:
274,127,240947,6,0,P|189:118|141:151,1,135.000005149841,8|0,3:2|0:2,0:2:0:0:
164,159,241181,2,0,P|104:130|40:143,1,135.000005149841,2|0,0:2|0:2,0:2:0:0:
94,216,241416,6,0,P|179:207|227:240,1,135.000005149841,0|0,3:2|0:2,0:2:0:0:
204,248,241650,2,0,P|263:220|328:233,1,135.000005149841,2|0,0:2|0:2,0:2:0:0:
274,298,241885,6,0,P|359:289|407:322,1,135.000005149841,8|0,3:2|0:2,0:2:0:0:
384,330,242119,2,0,P|443:302|508:315,1,135.000005149841,2|0,0:2|0:2,0:2:0:0:
457,384,242354,6,0,B|411:320|416:268|422:268|429:268|441:193|427:158|347:151|347:151|395:172|406:212,1,360,0|0,3:2|0:2,0:2:0:0:
272,372,242822,6,2,P|373:223|511:109,1,360,8|0,3:2|0:2,0:2:0:0:
510,109,243291,2,2,P|372:224|271:373,1,360,0|0,3:2|0:2,0:2:0:0:
271,372,243760,2,2,P|372:224|509:108,1,360,8|0,3:2|0:2,0:2:0:0:
494,231,244229,5,0,3:2:0:0:
237,272,244463,2,0,P|268:223|311:184,1,90.0000034332277,2|0,0:2|0:2,0:2:0:0:
494,250,244697,5,8,3:2:0:0:
156,69,244932,2,0,P|186:102|209:140,1,90.0000034332277,2|0,0:2|0:2,0:2:0:0:
140,330,245166,1,0,3:2:0:0:
47,230,245283,2,0,P|96:199|155:202,1,90.0000034332277,0|2,0:2|0:2,0:2:0:0:
316,306,245518,2,0,P|272:298|236:271,1,90.0000034332277,0|8,0:2|3:2,0:2:0:0:
256,25,245752,1,0,0:2:0:0:
367,122,245869,2,0,L|353:237,1,90.0000034332277,2|0,0:2|0:2,0:2:0:0:
122,320,246104,6,0,P|172:260|263:312,1,150,0|0,3:2|0:2,0:2:0:0:
421,275,246338,1,0,0:2:0:0:
426,280,246396,1,0,0:2:0:0:
431,285,246455,1,0,0:2:0:0:
436,290,246514,1,0,0:2:0:0:
441,295,246572,6,2,L|317:172,1,120,8|0,3:2|0:2,0:2:0:0:
185,41,246807,2,2,L|307:164,1,120,0|0,0:2|0:2,0:2:0:0:
441,295,247041,6,2,L|170:27,1,360,0|0,3:2|0:2,0:2:0:0:
185,42,247510,2,2,L|440:295,1,360,8|0,3:2|0:2,0:2:0:0:
489,232,247979,6,0,P|489:157|429:112,1,135.000005149841,0|0,3:2|0:2,0:2:0:0:
428,128,248213,2,0,P|428:53|488:8,1,135.000005149841,2|0,0:2|0:2,0:2:0:0:
489,31,248447,6,0,P|435:84|361:73,1,135.000005149841,0|0,0:2|0:2,0:2:0:0:
372,61,248681,2,0,P|318:114|329:188,1,135.000005149841,2|0,0:2|0:2,0:2:0:0:
364,265,248916,6,0,P|306:250|269:265,1,90.0000034332277,2|2,0:0|0:0,0:2:0:0:
275,262,249092,1,2,0:0:0:0:
271,265,249150,1,2,0:2:0:0:
271,265,249385,5,2,0:2:0:0:
271,265,249619,1,2,0:2:0:0:
201,226,249736,1,0,0:2:0:0:
113,242,249854,6,0,B|82:260|76:301|76:301|37:228|48:142|130:111,1,270.000010299683,0|0,3:2|0:2,0:2:0:0:
218,98,250322,6,2,B|291:108|342:49|342:49|311:47|295:69,1,180,12|0,3:2|0:2,0:2:0:0:
113,242,250791,2,2,B|40:252|-11:193|-11:193|20:191|36:213,1,180,0|0,3:2|0:2,0:2:0:0:
266,343,251260,2,2,B|339:353|390:294|390:294|359:292|343:314,1,180,8|0,3:2|0:2,0:2:0:0:
187,298,251729,6,0,L|177:368,1,60,0|0,3:2|0:2,0:2:0:0:
113,242,251963,1,2,0:2:0:0:
113,242,252080,1,0,0:2:0:0:
211,159,252197,2,0,L|201:229,1,60,8|0,3:2|0:2,0:2:0:0:
28,102,252432,2,0,L|38:172,1,60,2|0,0:2|0:2,0:2:0:0:
307,64,252666,5,0,3:2:0:0:
211,159,252783,2,0,P|240:158|270:153,1,60,0|2,0:2|0:2,0:2:0:0:
428,145,253018,2,0,P|398:143|368:138,1,60,0|8,0:2|3:2,0:2:0:0:
359,357,253252,1,0,0:2:0:0:
339,276,253369,2,0,L|326:198,1,60,2|0,0:2|0:2,0:2:0:0:
124,55,253604,6,0,B|183:8|272:12|296:57|296:57|258:35|218:53,1,270.000010299683,0|0,3:2|0:2,0:2:0:0:
56,161,254072,6,2,L|62:234,1,60,8|0,3:2|0:2,0:2:0:0:
227,384,254307,2,2,L|231:324,1,60,0|0,0:2|0:2,0:2:0:0:
25,311,254541,6,2,P|112:302|157:227,1,180,0|0,3:2|0:2,0:2:0:0:
271,198,255010,2,2,P|185:188|139:114,1,180,8|0,3:2|0:2,0:2:0:0:
386,160,255479,6,0,P|394:121|384:77,1,60,0|0,3:2|0:2,0:2:0:0:
376,290,255713,2,0,P|374:319|382:348,1,60,2|0,0:2|0:2,0:2:0:0:
474,146,255947,2,0,P|482:107|472:63,1,60,8|0,3:2|0:2,0:2:0:0:
464,276,256181,2,0,P|462:305|470:334,1,60,2|0,0:2|0:2,0:2:0:0:
227,171,256416,5,0,3:2:0:0:
146,118,256533,2,0,P|92:116|67:121,1,60,0|2,0:2|0:2,0:2:0:0:
251,47,256768,1,0,0:2:0:0:
332,100,256885,2,0,P|386:102|411:97,1,60,8|0,3:2|0:2,0:2:0:0:
139,58,257119,2,0,L|147:136,1,60,2|0,0:2|0:2,0:2:0:0:
110,301,257354,6,0,B|78:283|46:286|46:286|152:274|152:274|182:287|182:287|263:281,1,270.000010299683,0|0,3:2|0:2,0:2:0:0:
365,181,257822,6,2,P|343:227|418:323,1,180,8|0,3:2|0:2,0:2:0:0:
178,370,258291,2,2,P|242:312|223:229,1,180,0|0,3:2|0:2,0:2:0:0:
290,110,258760,2,2,P|206:128|149:64,1,180,8|0,3:2|0:2,0:2:0:0:
235,43,259229,5,8,3:2:0:0:
90,158,259463,1,2,0:2:0:0:
90,158,259580,1,0,0:2:0:0:
18,217,259697,2,0,L|33:291,1,60,8|0,3:2|0:2,0:2:0:0:
106,384,259932,2,0,L|117:325,1,60,2|0,0:2|0:2,0:2:0:0:
426,130,260166,5,8,3:2:0:0:
371,210,260283,2,0,P|319:220|299:216,1,60,0|2,0:2|0:2,0:2:0:0:
172,140,260518,2,0,P|200:149|230:149,1,60,0|8,0:2|3:2,0:2:0:0:
426,130,260752,1,0,0:2:0:0:
465,217,260869,2,0,L|454:294,1,60,2|0,0:2|0:2,0:2:0:0:
255,304,261104,6,0,B|225:332|229:386|229:386|207:290|187:250|140:203,1,270.000010299683,8|0,3:2|0:2,0:2:0:0:
39,147,261572,6,2,P|101:150|117:146,1,60,8|0,3:2|0:2,0:2:0:0:
369,51,261807,2,2,P|339:49|310:55,1,60,10|0,0:2|0:2,0:2:0:0:
409,239,262041,6,2,P|372:194|300:166,1,120,8|10,3:2|0:2,0:2:0:0:
124,334,262510,2,2,P|162:288|216:263,1,120,8|10,3:2|0:2,0:2:0:0:
124,368,262979,5,0,3:2:0:0:
151,252,264150,5,8,0:1:0:0:
383,238,264307,1,8,0:1:0:0:
370,255,264385,1,8,0:1:0:0:
132,158,264619,5,8,0:1:0:0:
132,154,264678,1,8,0:1:0:0:
132,151,264736,1,8,0:1:0:0:
132,147,264795,1,8,0:1:0:0:
132,143,264854,6,0,L|425:133,1,270.000010299683,4|0,3:2|0:2,0:2:0:0:
447,215,265322,1,8,3:2:0:0:
377,40,265439,2,0,P|442:49|468:74,1,90.0000034332277,0|0,0:2|0:2,0:2:0:0:
447,215,265674,6,0,L|441:305,2,90.0000034332277,0|0|0,0:2|3:2|0:2,0:2:0:0:
324,265,266025,2,0,L|215:255,1,90.0000034332277,0|0,0:2|0:2,0:2:0:0:
28,319,266260,2,0,L|137:309,1,90.0000034332277,8|0,3:2|0:2,0:2:0:0:
141,94,266494,2,0,P|131:151|142:201,1,90.0000034332277,0|0,0:2|0:2,0:2:0:0:
413,273,266729,6,0,L|304:263,1,90.0000034332277,0|0,3:2|0:2,0:2:0:0:
203,364,266964,2,0,L|312:354,1,90.0000034332277,0|0,0:2|0:2,0:2:0:0:
234,124,267197,1,8,3:2:0:0:
135,182,267314,2,0,L|45:190,1,90.0000034332277,0|0,0:2|0:2,0:2:0:0:
329,67,267549,2,0,L|418:58,1,90.0000034332277,0|0,0:2|3:2,0:2:0:0:
487,289,267900,6,0,P|397:281|351:259,1,120,2|0,1:2|0:2,0:2:0:0:
126,21,268135,2,0,P|135:71|126:113,1,90,10|0,1:2|0:2,0:2:0:0:
45,190,268604,6,0,P|148:162|206:303,1,270.000010299683,0|0,3:2|0:2,0:2:0:0:
119,248,269072,1,8,3:2:0:0:
289,183,269189,2,0,P|357:186|394:193,1,90.0000034332277,0|0,0:2|0:2,0:2:0:0:
131,335,269424,6,0,P|63:338|26:345,1,90.0000034332277,0|0,0:2|3:2,0:2:0:0:
357,294,269658,1,0,0:2:0:0:
280,346,269775,2,0,P|229:300|198:278,1,90.0000034332277,0|0,0:2|0:2,0:2:0:0:
453,142,270010,2,0,P|462:213|447:246,1,90.0000034332277,8|0,3:2|0:2,0:2:0:0:
306,109,270244,2,0,P|297:65|309:22,1,90.0000034332277,0|0,0:2|0:2,0:2:0:0:
35,144,270479,6,0,P|120:157|215:111,1,180.000006866455,0|0,3:2|0:2,0:2:0:0:
280,346,270947,1,8,3:2:0:0:
94,253,271064,2,0,P|156:247|192:253,1,90.0000034332277,0|0,0:2|0:2,0:2:0:0:
512,253,271299,2,0,P|427:266|332:220,1,180.000006866455,0|0,0:2|0:2,0:2:0:0:
200,78,271650,5,0,0:2:0:0:
374,72,271768,1,0,0:2:0:0:
245,172,271885,5,8,1:2:0:0:
326,163,272002,1,0,0:2:0:0:
262,259,272119,5,0,0:2:0:0:
298,264,272236,1,0,0:2:0:0:
251,349,272354,6,0,B|207:311|157:333|157:338|156:343|78:369|15:348|6:246|91:261|96:341,1,270.000010299683,0|0,3:2|0:2,0:2:0:0:
147,240,272822,1,8,3:2:0:0:
94,115,272939,2,0,P|72:158|79:223,1,90.0000034332277,0|0,0:2|0:2,0:2:0:0:
306,275,273174,6,0,P|350:283|429:276,1,90.0000034332277,0|0,0:2|3:2,0:2:0:0:
225,180,273408,1,0,0:2:0:0:
322,185,273525,2,0,P|359:158|409:98,1,90.0000034332277,0|0,0:2|0:2,0:2:0:0:
273,13,273760,2,0,P|277:58|303:132,1,90.0000034332277,8|0,3:2|0:2,0:2:0:0:
459,61,273994,2,0,P|417:42|340:28,1,90.0000034332277,0|0,0:2|0:2,0:2:0:0:
129,25,274229,6,0,P|253:71|321:184,1,270.000010299683,0|0,3:2|0:2,0:2:0:0:
137,226,274697,1,8,3:2:0:0:
154,126,274814,2,0,P|195:145|225:179,1,90.0000034332277,0|0,0:2|0:2,0:2:0:0:
124,315,275049,2,0,L|139:204,1,90.0000034332277,0|0,0:2|3:2,0:2:0:0:
484,270,275400,6,0,P|425:258|328:281,1,120,2|0,1:2|0:2,0:2:0:0:
37,321,275635,2,0,P|113:320|144:297,1,90,10|0,1:2|0:2,0:2:0:0:
219,344,276104,6,0,L|248:39,1,270.000010299683,0|0,3:2|0:2,0:2:0:0:
170,23,276572,1,8,3:2:0:0:
330,126,276689,2,0,P|374:127|417:114,1,90.0000034332277,0|0,0:2|0:2,0:2:0:0:
170,23,276924,6,0,P|125:21|82:34,1,90.0000034332277,0|0,0:2|3:2,0:2:0:0:
244,75,277158,1,0,0:2:0:0:
320,15,277275,2,0,P|365:13|408:26,1,90.0000034332277,0|0,0:2|0:2,0:2:0:0:
382,195,277510,2,0,P|362:156|329:125,1,90.0000034332277,8|0,3:2|0:2,0:2:0:0:
242,173,277744,2,0,P|255:215|252:260,1,90.0000034332277,0|0,0:2|0:2,0:2:0:0:
13,335,277979,6,0,B|47:320|47:320|222:312,1,107.999996704102,0|0,3:2|0:2,0:2:0:0:
491,334,278213,2,0,B|457:319|457:319|282:311,1,107.999996704102,0|0,0:2|0:2,0:2:0:0:
96,218,278447,1,8,3:2:0:0:
225,360,278564,2,0,B|253:315|253:315|255:165,1,107.999996704102,0|0,0:2|0:2,0:2:0:0:
48,104,278799,6,0,B|95:85|144:114|144:114|191:140|256:118,1,215.999993408203,0|0,0:2|0:2,0:2:0:0:
477,30,279150,2,0,P|369:10|306:24,1,107.999996704102,0|0,0:2|0:2,0:2:0:0:
58,255,279385,2,0,P|166:235|229:249,1,107.999996704102,8|0,3:2|0:2,0:2:0:0:
496,311,279619,2,0,P|388:291|325:305,1,107.999996704102,0|0,0:2|0:2,0:2:0:0:
224,23,279854,6,2,P|306:19|373:51,1,135.000005149841,4|0,3:2|0:2,0:2:0:0:
419,99,280322,5,8,3:2:0:0:
311,345,280439,1,0,0:2:0:0:
217,367,280557,1,0,0:2:0:0:
142,311,280674,6,0,P|133:252|143:197,2,90.0000034332277,0|0|0,0:2|3:2|0:2,0:2:0:0:
473,344,281025,2,0,P|482:285|472:230,1,90.0000034332277,0|0,0:2|0:2,0:2:0:0:
198,152,281260,2,0,P|234:139|304:162,1,90.0000034332277,8|0,3:2|0:2,0:2:0:0:
137,223,281494,2,0,P|101:210|31:233,1,90.0000034332277,0|0,0:2|0:2,0:2:0:0:
88,34,281729,6,0,L|100:144,1,90.0000034332277,0|0,3:2|0:2,0:2:0:0:
80,384,281963,2,0,L|89:294,1,90.0000034332277,0|0,0:2|0:2,0:2:0:0:
244,218,282197,1,8,3:2:0:0:
398,374,282314,2,0,L|388:284,1,90.0000034332277,0|0,0:2|0:2,0:2:0:0:
269,44,282549,2,0,P|246:89|252:155,1,90.0000034332277,0|0,0:2|3:2,0:2:0:0:
244,127,282900,1,2,1:2:0:0:
511,138,283135,6,0,P|400:117|195:139,1,270.000010299683,10|0,1:2|0:2,0:2:0:0:
22,243,283604,6,2,P|-1:181|27:84,1,135.000005149841,4|0,3:2|0:2,0:2:0:0:
53,33,284072,5,8,3:2:0:0:
162,239,284189,1,0,0:2:0:0:
235,288,284307,1,0,0:2:0:0:
315,257,284424,6,0,P|389:247|422:255,2,90.0000034332277,0|0|0,0:2|3:2|0:2,0:2:0:0:
183,347,284775,2,0,P|109:337|76:345,1,90.0000034332277,0|0,0:2|0:2,0:2:0:0:
420,339,285010,2,0,L|400:230,1,90.0000034332277,8|0,3:2|0:2,0:2:0:0:
110,251,285244,2,0,L|93:339,1,90.0000034332277,0|0,0:2|0:2,0:2:0:0:
392,121,285479,6,0,P|351:151|266:148,1,90.0000034332277,0|0,3:2|0:2,0:2:0:0:
225,30,285713,2,0,P|260:57|303:67,1,90.0000034332277,0|0,0:2|0:2,0:2:0:0:
396,28,285947,1,8,3:2:0:0:
151,93,286064,6,0,P|133:53|128:-21,1,90.0000034332277,0|0,0:2|0:2,0:2:0:0:
313,158,286299,2,0,P|306:202|287:243,2,90.0000034332277,0|0|0,0:2|3:2|0:2,0:2:0:0:
225,30,286650,1,0,0:2:0:0:
39,294,286885,5,8,3:2:0:0:
33,207,287002,1,0,0:2:0:0:
99,150,287119,1,0,0:2:0:0:
184,168,287236,1,0,0:2:0:0:
231,265,287354,6,0,B|321:299|364:258|364:253|364:248|431:219|503:260,1,270.000010299683,4|0,3:2|0:2,0:2:0:0:
290,189,287822,1,8,3:2:0:0:
142,254,287939,2,0,P|150:300|190:345,1,90.0000034332277,0|0,0:2|0:2,0:2:0:0:
286,84,288174,6,0,P|279:39|260:-1,1,90.0000034332277,0|0,0:2|3:2,0:2:0:0:
290,189,288408,1,0,0:2:0:0:
378,109,288525,2,0,P|404:73|420:30,1,90.0000034332277,0|0,0:2|0:2,0:2:0:0:
196,127,288760,2,0,P|169:91|153:48,1,90.0000034332277,8|0,3:2|0:2,0:2:0:0:
198,236,288994,2,0,P|153:229|113:210,1,90.0000034332277,0|0,0:2|0:2,0:2:0:0:
378,109,289229,6,0,L|393:223,1,90.0000034332277,0|0,3:2|0:2,0:2:0:0:
196,127,289463,2,0,L|207:37,1,90.0000034332277,0|0,0:2|0:2,0:2:0:0:
384,306,289697,1,8,3:2:0:0:
307,228,289814,2,0,P|340:207|422:204,1,90.0000034332277,0|0,0:2|0:2,0:2:0:0:
466,335,290049,2,0,P|421:328|383:305,1,90.0000034332277,0|0,0:2|3:2,0:2:0:0:
383,305,290400,1,2,1:2:0:0:
40,248,290635,6,0,P|188:221|331:232,1,270.000010299683,10|0,1:2|0:2,0:2:0:0:
427,143,291104,6,0,B|331:112|223:131|223:131|271:128|350:154,1,270.000010299683,4|0,3:2|0:2,0:2:0:0:
404,225,291572,1,0,3:2:0:0:
503,101,291689,2,0,P|519:64|510:-12,1,90.0000034332277,0|8,0:2|0:2,0:2:0:0:
269,50,291924,6,0,P|268:94|285:136,1,90.0000034332277,0|8,0:2|3:2,0:2:0:0:
346,17,292158,1,0,0:2:0:0:
181,22,292275,2,0,P|149:53|131:94,1,90.0000034332277,8|0,0:2|0:2,0:2:0:0:
221,249,292510,2,0,P|203:207|171:176,1,90.0000034332277,8|0,3:2|0:2,0:2:0:0:
24,242,292744,2,0,P|41:200|73:169,1,90.0000034332277,8|0,0:2|0:2,0:2:0:0:
436,85,292979,6,0,L|415:295,1,120,0|0,3:2|0:0,0:2:0:0:
323,348,293213,2,0,L|311:228,1,120,8|0,0:1|0:2,0:2:0:0:
205,45,293447,1,8,0:1:0:0:
139,246,293564,2,0,P|80:257|23:241,1,120,8|0,0:1|0:2,0:2:0:0:
202,24,293799,1,8,0:1:0:0:
388,186,293916,6,0,P|474:127|399:55,1,240,8|8,0:1|0:1,0:2:0:0:
292,208,294307,1,8,0:1:0:0:
311,228,294385,2,0,P|340:278|295:374,1,160,8|8,0:1|0:1,0:2:0:0:
115,325,294619,2,0,P|190:343|246:291,1,160,8|8,0:1|0:1,0:2:0:0:
311,228,294854,6,0,B|370:204|370:204|426:211,1,120,4|0,3:2|0:2,0:2:0:0:
167,266,295322,2,0,B|108:290|108:290|52:283,1,120,8|0,0:2|0:2,0:2:0:0:
84,22,295791,1,0,0:2:0:0:
92,202,296025,1,0,3:2:0:0:
97,172,296143,1,0,0:2:0:0:
102,142,296260,1,8,0:2:0:0:
61,106,296377,2,0,P|137:122|201:95,1,120,0|0,3:2|0:2,0:2:0:0:
246,53,296729,6,0,L|416:54,1,120,0|0,3:2|0:2,0:2:0:0:
444,88,297119,2,0,P|461:173|452:220,2,120,0|0|0,0:2|0:2|0:2,0:2:0:0:
366,135,297666,1,0,0:2:0:0:
370,154,297744,1,0,0:2:0:0:
370,173,297822,1,0,0:2:0:0:
368,192,297900,1,0,3:2:0:0:
285,171,298135,6,0,P|265:173|245:177,2,40,8|0|0,0:2|0:2|3:2,0:2:0:0:
292,313,298369,2,0,L|277:204,1,60,0|0,0:2|0:2,0:2:0:0:
179,78,298604,6,0,L|0:91,4,180.000006866455,0|0|8|0|0,3:2|0:2|0:2|0:2|0:2,0:2:0:0:
335,54,299658,1,0,0:2:0:0:
254,26,299775,2,0,L|259:102,1,60,0|0,3:2|0:2,0:2:0:0:
150,178,300010,2,0,P|219:164|285:191,1,120,8|0,0:2|0:2,0:2:0:0:
325,242,300361,1,0,0:2:0:0:
389,188,300479,6,0,L|376:352,1,120,0|0,3:2|0:2,0:2:0:0:
159,297,300947,2,0,L|149:177,1,120,8|0,0:2|0:2,0:2:0:0:
135,0,301299,1,0,3:2:0:0:
82,78,301416,2,0,P|150:88|209:62,1,120,0|0,0:2|3:2,0:2:0:0:
372,51,301885,1,8,0:2:0:0:
292,83,302002,2,0,L|282:202,1,120,0|0,3:2|0:2,0:2:0:0:
128,315,302354,6,0,P|196:293|231:293,1,80,12|8,3:1|0:1,0:2:0:0:
186,282,302588,2,0,P|257:278|291:287,1,80,8|8,0:1|0:1,0:2:0:0:
358,225,302822,6,0,P|290:203|255:203,1,80,8|8,0:1|0:1,0:2:0:0:
300,192,303056,2,0,P|228:188|194:197,1,80,8|8,0:1|0:1,0:2:0:0:
59,143,303291,6,0,P|127:121|162:121,1,80,8|8,0:1|0:1,0:2:0:0:
117,110,303525,2,0,P|188:106|222:115,1,80,8|8,0:1|0:1,0:2:0:0:
436,68,303994,5,8,0:1:0:0:
433,67,304053,1,8,0:1:0:0:
430,66,304111,1,8,0:1:0:0:
426,65,304170,1,8,0:1:0:0:
423,64,304229,6,0,P|404:132|413:174,1,80,8|8,0:1|0:1,0:2:0:0:
390,125,304463,2,0,P|389:195|408:233,1,80,8|8,0:1|0:1,0:2:0:0:
376,281,304697,6,0,P|308:300|266:291,1,80,8|8,0:1|0:1,0:2:0:0:
315,314,304931,2,0,P|244:314|206:295,1,80,8|8,0:1|0:1,0:2:0:0:
265,198,305166,6,0,P|197:217|155:208,1,80,8|8,0:1|0:1,0:2:0:0:
204,231,305400,2,0,P|133:231|95:212,1,80,8|8,0:1|0:1,0:2:0:0:
356,315,305869,5,8,0:1:0:0:
356,312,305928,1,8,0:1:0:0:
356,309,305986,1,8,0:1:0:0:
356,306,306045,1,8,0:1:0:0:
356,303,306104,6,0,L|367:234,2,40,8|8|8,0:1|0:1|0:1,0:2:0:0:
293,215,306338,2,0,L|282:146,2,40,8|8|8,0:1|0:1|0:1,0:2:0:0:
367,150,306572,2,0,L|378:81,2,40,8|8|8,0:1|0:1|0:1,0:2:0:0:
298,79,306806,2,0,L|287:10,2,40,8|8|8,0:1|0:1|0:1,0:2:0:0:
199,84,307041,6,0,L|210:153,2,40,8|8|8,0:1|0:1|0:1,0:2:0:0:
130,155,307275,2,0,L|119:224,2,40,8|8|8,0:1|0:1|0:1,0:2:0:0:
204,220,307509,2,0,L|215:289,2,40,8|8|8,0:1|0:1|0:1,0:2:0:0:
135,291,307743,2,0,L|124:360,2,40,8|8|8,0:1|0:1|0:1,0:2:0:0:
257,50,309502,6,0,L|262:128,1,60,8|0,1:2|0:2,0:2:0:0:
342,172,309854,2,0,L|337:250,1,60,8|0,1:1|0:2,0:2:0:0:
334,285,310010,6,0,B|304:270|274:284|274:284|257:276|257:276|242:297|203:258|192:282|192:282|174:294|144:284,1,200,2|0,0:1|0:2,0:2:0:0:
343,67,313252,6,0,L|309:157,1,60,0|0,1:2|0:2,0:2:0:0:
287,198,313447,6,0,P|227:190|219:192,1,40,0|0,0:2|0:2,0:2:0:0:
89,285,313721,2,0,B|119:286|134:273|134:273|140:282|140:282|163:270|163:270|183:293|205:279|205:279|223:268|223:268|249:302|296:283,1,210,0|0,0:2|0:2,0:2:0:0:
