osu file format v14

[General]
AudioFilename: audio.mp3
AudioLeadIn: 0
PreviewTime: 77696
Countdown: 0
SampleSet: Soft
StackLeniency: 0.2
Mode: 1
LetterboxInBreaks: 0
WidescreenStoryboard: 0

[Editor]
DistanceSpacing: 0.1
BeatDivisor: 4
GridSize: 32
TimelineZoom: 3

[Metadata]
Title:Bassline Yatteru? w
TitleUnicode:ベースラインやってる ? 笑
Artist:Camellia
ArtistUnicode:かめりあ
Creator:Consified
Version:Inner Oni
Source:
Tags:extended ver nanahira ななひら electro house breaking news cute girl confetto force c93 comiket utaite DEMPA MAXIMUM 4orce
BeatmapID:1576573
BeatmapSetID:748356

[Difficulty]
HPDrainRate:4
CircleSize:4
OverallDifficulty:6.8
ApproachRate:0
SliderMultiplier:1.4
SliderTickRate:1

[Events]
//Background and Video events
0,0,"bassline.jpg",0,0
//Break Periods
2,171503,177975
//Storyboard Layer 0 (Background)
//Storyboard Layer 1 (Fail)
//Storyboard Layer 2 (Pass)
//Storyboard Layer 3 (Foreground)
//Storyboard Sound Samples

[TimingPoints]
4220,468.75,4,2,1,60,1,0
11720,-83.3333333333333,4,2,1,60,0,0
17110,-74.0740740740741,4,2,1,60,0,0
19220,-66.6666666666667,4,2,1,60,0,0
34220,-100,4,2,1,60,0,0
41720,-90.9090909090909,4,2,1,60,0,0
49220,-74.0740740740741,4,2,1,60,0,0
63751,-71.4285714285714,4,2,1,60,0,0
63985,-68.9655172413793,4,2,1,60,0,0
64220,-66.6666666666667,4,2,1,60,0,0
81095,-66.6666666666667,4,2,1,70,0,1
110626,-66.6666666666667,4,2,1,60,0,0
126095,-66.6666666666667,4,2,1,70,0,1
141095,-66.6666666666667,4,2,1,70,0,0
142266,315.789473684211,4,2,1,70,1,0
142581,389.61038961039,4,2,1,70,1,0
142970,351.906158357771,4,2,1,70,1,0
170770,266.666666666667,4,2,1,70,1,0
171303,355.029585798817,4,2,1,60,1,0
172013,431.654676258993,4,2,1,50,1,0
172444,535.714285714286,4,2,1,50,1,0
172979,468.75,4,2,1,60,1,0
187979,-83.3333333333333,4,2,1,60,0,0
202979,-68.9655172413793,4,2,1,60,0,0
219854,-66.6666666666667,4,2,1,60,0,1
249854,-66.6666666666667,4,2,1,60,0,0
264854,-66.6666666666667,4,2,1,60,0,1
294854,-76.9230769230769,4,2,1,60,0,0
308916,-100,4,2,1,60,0,0
309854,-133.333333333333,4,2,1,60,0,0

[Colours]
Combo1 : 188,250,225
Combo2 : 224,156,250
Combo3 : 247,145,193
Combo4 : 252,209,251
Combo5 : 248,192,193
Combo6 : 253,231,200
Combo7 : 251,250,200
Combo8 : 232,255,183

[HitObjects]
256,192,4220,5,0,0:0:0:0:
256,192,4688,1,2,0:0:0:0:
256,192,5626,1,8,0:0:0:0:
288,224,6095,1,0,0:0:0:0:
256,192,6563,1,8,0:0:0:0:
256,192,7501,1,8,0:0:0:0:
256,192,7970,1,0,0:0:0:0:
256,192,8438,1,8,0:0:0:0:
256,192,9376,1,8,0:0:0:0:
256,192,9845,1,0,0:0:0:0:
256,192,10313,1,8,0:0:0:0:
256,192,11251,1,8,0:0:0:0:
256,192,11720,1,0,0:0:0:0:
256,192,12188,1,8,0:0:0:0:
256,192,12657,1,0,0:0:0:0:
256,192,12891,1,0,0:0:0:0:
256,192,13126,1,8,0:0:0:0:
320,192,13477,1,2,0:0:0:0:
256,192,13595,1,0,0:0:0:0:
256,192,13829,1,2,0:0:0:0:
256,192,14063,1,8,0:0:0:0:
256,192,14298,1,2,0:0:0:0:
256,192,14532,1,0,0:0:0:0:
288,128,14688,1,0,0:0:0:0:
384,192,14884,1,2,0:0:0:0:
256,192,15001,1,8,0:0:0:0:
256,192,15235,1,8,0:0:0:0:
256,192,15470,1,0,0:0:0:0:
256,192,15938,1,8,0:0:0:0:
320,256,16290,1,0,0:0:0:0:
256,192,16407,1,0,0:0:0:0:
256,192,16641,1,0,0:0:0:0:
256,192,16876,1,8,0:0:0:0:
256,192,17110,1,8,0:0:0:0:
352,192,17188,1,2,0:0:0:0:
352,192,17266,1,2,0:0:0:0:
256,192,17345,1,0,0:0:0:0:
352,192,17423,1,0,0:0:0:0:
352,192,17501,1,0,0:0:0:0:
256,192,17579,1,8,0:0:0:0:
352,192,17657,1,2,0:0:0:0:
352,192,17735,1,2,0:0:0:0:
256,192,17814,1,0,0:0:0:0:
352,192,17892,1,0,0:0:0:0:
352,192,17970,1,0,0:0:0:0:
256,192,18048,1,8,0:0:0:0:
352,192,18126,1,2,0:0:0:0:
352,192,18204,1,2,0:0:0:0:
256,192,18283,1,0,0:0:0:0:
352,192,18361,1,0,0:0:0:0:
352,192,18439,1,2,0:0:0:0:
384,160,18516,1,0,0:0:0:0:
384,192,18595,1,0,0:0:0:0:
384,192,18673,1,0,0:0:0:0:
256,224,18751,1,0,0:0:0:0:
160,224,18985,1,0,0:0:0:0:
256,192,19220,1,4,0:0:0:0:
384,192,19454,1,2,0:0:0:0:
320,192,19610,1,2,0:0:0:0:
320,192,19688,1,0,0:0:0:0:
192,192,19923,1,2,0:0:0:0:
192,192,20079,1,2,0:0:0:0:
192,192,20157,1,0,0:0:0:0:
192,192,20313,1,0,0:0:0:0:
192,192,20391,1,2,0:0:0:0:
192,192,20548,1,2,0:0:0:0:
256,192,20782,1,0,0:0:0:0:
224,192,20860,1,2,0:0:0:0:
320,224,21016,1,0,0:0:0:0:
320,224,21095,1,0,0:0:0:0:
288,192,21329,1,2,0:0:0:0:
288,192,21368,1,2,0:0:0:0:
288,160,21563,1,2,0:0:0:0:
288,160,21602,1,2,0:0:0:0:
288,160,21798,1,2,0:0:0:0:
288,160,21876,1,0,0:0:0:0:
288,160,21954,1,0,0:0:0:0:
288,160,22032,1,0,0:0:0:0:
288,160,22188,1,0,0:0:0:0:
352,192,22266,1,2,0:0:0:0:
448,160,22423,1,2,0:0:0:0:
192,192,22501,1,0,0:0:0:0:
352,160,22657,1,2,0:0:0:0:
352,160,22735,1,2,0:0:0:0:
352,160,22813,1,2,0:0:0:0:
352,160,22891,1,2,0:0:0:0:
352,160,22970,1,0,0:0:0:0:
288,160,23204,1,2,0:0:0:0:
256,192,23360,1,0,0:0:0:0:
256,192,23438,1,2,0:0:0:0:
288,224,23673,1,0,0:0:0:0:
288,224,23751,1,0,0:0:0:0:
288,224,23829,1,0,0:0:0:0:
288,224,23907,1,2,0:0:0:0:
288,224,23985,1,2,0:0:0:0:
288,224,24063,1,2,0:0:0:0:
352,128,24141,1,0,0:0:0:0:
352,128,24200,1,0,0:0:0:0:
352,128,24259,1,2,0:0:0:0:
384,192,24493,1,2,0:0:0:0:
448,192,24766,1,0,0:0:0:0:
448,192,24845,1,0,0:0:0:0:
448,192,25001,1,0,0:0:0:0:
448,192,25079,1,2,0:0:0:0:
448,192,25313,1,0,0:0:0:0:
448,192,25470,1,0,0:0:0:0:
448,192,25548,1,2,0:0:0:0:
448,192,25782,1,2,0:0:0:0:
320,192,25938,1,2,0:0:0:0:
320,192,26016,1,2,0:0:0:0:
320,192,26173,1,0,0:0:0:0:
320,192,26251,1,0,0:0:0:0:
320,192,26407,1,2,0:0:0:0:
320,192,26485,1,2,0:0:0:0:
320,192,26641,1,0,0:0:0:0:
320,192,26720,1,6,0:0:0:0:
224,192,26876,1,0,0:0:0:0:
224,192,26954,1,2,0:0:0:0:
224,192,27032,1,2,0:0:0:0:
224,192,27110,1,2,0:0:0:0:
224,192,27188,1,0,0:0:0:0:
224,192,27345,1,2,0:0:0:0:
224,192,27423,1,0,0:0:0:0:
224,192,27501,1,0,0:0:0:0:
224,192,27579,1,0,0:0:0:0:
224,192,27657,1,0,0:0:0:0:
256,192,27813,1,0,0:0:0:0:
256,192,27891,1,2,0:0:0:0:
320,224,28048,1,2,0:0:0:0:
320,224,28126,1,0,0:0:0:0:
416,128,28282,1,0,0:0:0:0:
384,192,28360,1,2,0:0:0:0:
384,192,28419,1,2,0:0:0:0:
384,192,28477,1,2,0:0:0:0:
384,192,28536,1,2,0:0:0:0:
384,192,28595,1,0,0:0:0:0:
320,160,28751,1,2,0:0:0:0:
320,160,28829,1,0,0:0:0:0:
320,160,28985,1,0,0:0:0:0:
320,160,29063,1,2,0:0:0:0:
320,192,29220,1,2,0:0:0:0:
320,192,29298,1,2,0:0:0:0:
320,192,29454,1,0,0:0:0:0:
320,192,29532,1,0,0:0:0:0:
224,192,29688,1,2,0:0:0:0:
224,192,29766,1,0,0:0:0:0:
224,192,29845,1,0,0:0:0:0:
224,192,29923,1,0,0:0:0:0:
224,192,30001,1,2,0:0:0:0:
224,192,30157,1,2,0:0:0:0:
224,224,30235,1,2,0:0:0:0:
256,224,30470,1,0,0:0:0:0:
256,224,30548,1,0,0:0:0:0:
288,224,30626,1,0,0:0:0:0:
256,224,30704,1,2,0:0:0:0:
256,224,30782,1,2,0:0:0:0:
288,224,30860,1,2,0:0:0:0:
256,224,30938,1,0,0:0:0:0:
256,224,31016,1,0,0:0:0:0:
288,224,31094,1,0,0:0:0:0:
256,224,31173,1,2,0:0:0:0:
256,224,31251,1,2,0:0:0:0:
288,224,31329,1,2,0:0:0:0:
320,224,31407,1,0,0:0:0:0:
288,224,31485,1,0,0:0:0:0:
288,224,31563,1,2,0:0:0:0:
288,224,31641,1,0,0:0:0:0:
288,224,31720,1,0,0:0:0:0:
288,224,31798,1,0,0:0:0:0:
288,224,31876,1,2,0:0:0:0:
288,224,31954,1,2,0:0:0:0:
288,224,32032,1,0,0:0:0:0:
288,224,32110,1,2,0:0:0:0:
288,224,32188,1,2,0:0:0:0:
288,224,32266,1,2,0:0:0:0:
256,160,32345,1,2,0:0:0:0:
256,192,32501,1,0,0:0:0:0:
288,160,32579,1,2,0:0:0:0:
288,160,32735,1,0,0:0:0:0:
288,160,32813,1,2,0:0:0:0:
256,192,32970,1,2,0:0:0:0:
288,192,33204,1,2,0:0:0:0:
288,192,33282,1,2,0:0:0:0:
160,224,33438,1,0,0:0:0:0:
160,224,33516,1,2,0:0:0:0:
256,192,33673,1,0,0:0:0:0:
256,224,33751,1,2,0:0:0:0:
352,160,33907,1,2,0:0:0:0:
352,160,33985,1,0,0:0:0:0:
256,192,34220,1,4,0:0:0:0:
256,224,34688,1,0,0:0:0:0:
256,192,34805,1,0,0:0:0:0:
192,192,35040,1,0,0:0:0:0:
128,192,35391,1,0,0:0:0:0:
224,224,35626,1,2,0:0:0:0:
224,224,35860,1,2,0:0:0:0:
224,224,36095,1,0,0:0:0:0:
224,224,36329,1,0,0:0:0:0:
192,192,36563,1,2,0:0:0:0:
192,192,36680,1,0,0:0:0:0:
192,224,36915,1,0,0:0:0:0:
256,192,37970,1,0,0:0:0:0:
192,192,38438,1,0,0:0:0:0:
192,192,38555,1,0,0:0:0:0:
256,192,38790,1,0,0:0:0:0:
288,160,39024,1,0,0:0:0:0:
224,192,39141,1,0,0:0:0:0:
224,160,39376,1,0,0:0:0:0:
224,160,39610,1,2,0:0:0:0:
224,192,39845,1,4,0:0:0:0:
224,192,40079,1,0,0:0:0:0:
256,192,40313,1,2,0:0:0:0:
256,192,40430,1,2,0:0:0:0:
256,224,40665,1,6,0:0:0:0:
288,192,41016,1,2,0:0:0:0:
288,192,41134,1,2,0:0:0:0:
288,192,41251,1,0,0:0:0:0:
288,192,41368,1,0,0:0:0:0:
288,192,41485,1,2,0:0:0:0:
288,192,41602,1,2,0:0:0:0:
288,192,41720,1,0,0:0:0:0:
288,224,42188,1,0,0:0:0:0:
384,224,42305,1,0,0:0:0:0:
256,192,42540,1,0,0:0:0:0:
224,160,42891,1,0,0:0:0:0:
224,192,43126,1,2,0:0:0:0:
224,192,43360,1,2,0:0:0:0:
224,192,43595,1,0,0:0:0:0:
224,192,43829,1,0,0:0:0:0:
320,192,44063,1,2,0:0:0:0:
320,192,44180,1,0,0:0:0:0:
320,192,44415,1,0,0:0:0:0:
256,192,45470,1,0,0:0:0:0:
256,192,45938,1,0,0:0:0:0:
256,192,46055,1,0,0:0:0:0:
192,160,46290,1,0,0:0:0:0:
256,160,46641,1,0,0:0:0:0:
256,160,46876,1,2,0:0:0:0:
256,160,47110,1,0,0:0:0:0:
384,192,47345,1,2,0:0:0:0:
384,192,47579,1,0,0:0:0:0:
128,224,47813,1,2,0:0:0:0:
128,224,47930,1,2,0:0:0:0:
128,224,48165,1,2,0:0:0:0:
192,192,49220,1,4,0:0:0:0:
352,192,49454,1,2,0:0:0:0:
352,192,49571,1,2,0:0:0:0:
352,192,49688,1,0,0:0:0:0:
192,192,49923,1,2,0:0:0:0:
192,192,50040,1,2,0:0:0:0:
192,192,50274,1,0,0:0:0:0:
192,192,50391,1,2,0:0:0:0:
256,192,50626,1,0,0:0:0:0:
256,192,50743,1,0,0:0:0:0:
256,192,50860,1,2,0:0:0:0:
256,192,51095,1,0,0:0:0:0:
256,224,51329,1,0,0:0:0:0:
256,224,51563,1,2,0:0:0:0:
256,224,51680,1,0,0:0:0:0:
256,224,51915,1,0,0:0:0:0:
320,192,52149,1,0,0:0:0:0:
320,192,52266,1,6,0:0:0:0:
320,192,52501,1,6,0:0:0:0:
384,224,52970,1,0,0:0:0:0:
192,160,53204,1,2,0:0:0:0:
192,160,53321,1,2,0:0:0:0:
192,160,53438,1,0,0:0:0:0:
192,160,53673,1,2,0:0:0:0:
192,160,53790,1,2,0:0:0:0:
192,160,54024,1,0,0:0:0:0:
192,192,54141,1,2,0:0:0:0:
352,160,54376,1,0,0:0:0:0:
352,160,54493,1,0,0:0:0:0:
352,160,54610,1,2,0:0:0:0:
288,192,54845,1,2,0:0:0:0:
288,192,55079,1,0,0:0:0:0:
288,192,55313,1,2,0:0:0:0:
288,192,55430,1,2,0:0:0:0:
288,192,55665,1,6,0:0:0:0:
384,192,56016,1,2,0:0:0:0:
384,192,56134,1,2,0:0:0:0:
384,192,56251,1,0,0:0:0:0:
384,192,56368,1,0,0:0:0:0:
384,192,56485,1,2,0:0:0:0:
384,192,56602,1,2,0:0:0:0:
384,192,56720,1,0,0:0:0:0:
288,128,56954,1,2,0:0:0:0:
288,128,57071,1,2,0:0:0:0:
288,128,57188,1,0,0:0:0:0:
288,192,57423,1,2,0:0:0:0:
288,192,57540,1,2,0:0:0:0:
320,224,57774,1,0,0:0:0:0:
320,224,57891,1,2,0:0:0:0:
192,192,58126,1,0,0:0:0:0:
192,192,58243,1,0,0:0:0:0:
192,192,58360,1,2,0:0:0:0:
288,192,58595,1,2,0:0:0:0:
288,192,58829,1,2,0:0:0:0:
288,192,59063,1,2,0:0:0:0:
288,192,59180,1,0,0:0:0:0:
288,192,59415,1,0,0:0:0:0:
224,192,59649,1,0,0:0:0:0:
224,192,59766,1,6,0:0:0:0:
224,192,60001,1,6,0:0:0:0:
224,192,60470,1,0,0:0:0:0:
320,192,60704,1,2,0:0:0:0:
320,192,60821,1,2,0:0:0:0:
320,192,60938,1,0,0:0:0:0:
352,128,61173,1,2,0:0:0:0:
352,128,61290,1,0,0:0:0:0:
352,128,61524,1,0,0:0:0:0:
352,128,61641,1,2,0:0:0:0:
288,160,61876,1,0,0:0:0:0:
288,160,61993,1,0,0:0:0:0:
288,192,62110,1,2,0:0:0:0:
352,192,62345,1,2,0:0:0:0:
352,192,62579,1,0,0:0:0:0:
128,224,62813,1,2,0:0:0:0:
128,224,62930,1,2,0:0:0:0:
128,224,63165,1,2,0:0:0:0:
416,160,63516,1,2,0:0:0:0:
288,160,63751,1,2,0:0:0:0:
288,160,63985,1,2,0:0:0:0:
288,160,64220,1,4,0:0:0:0:
320,160,64454,1,2,0:0:0:0:
320,224,64610,1,0,0:0:0:0:
320,224,64688,1,2,0:0:0:0:
320,192,64923,1,2,0:0:0:0:
320,192,65079,1,2,0:0:0:0:
320,192,65157,1,0,0:0:0:0:
352,160,65391,1,2,0:0:0:0:
352,160,65548,1,0,0:0:0:0:
320,160,65626,1,2,0:0:0:0:
288,192,65860,1,2,0:0:0:0:
288,192,65919,1,2,0:0:0:0:
288,192,65977,1,2,0:0:0:0:
288,192,66036,1,2,0:0:0:0:
288,192,66095,1,0,0:0:0:0:
224,128,66329,1,2,0:0:0:0:
224,128,66485,1,0,0:0:0:0:
224,128,66563,1,2,0:0:0:0:
288,192,66798,1,2,0:0:0:0:
288,192,66876,1,2,0:0:0:0:
288,192,66954,1,2,0:0:0:0:
256,256,67032,1,2,0:0:0:0:
352,192,67149,1,0,0:0:0:0:
192,160,67423,1,0,0:0:0:0:
192,160,67501,1,0,0:0:0:0:
256,192,67735,1,2,0:0:0:0:
256,192,67794,1,2,0:0:0:0:
256,192,67852,1,2,0:0:0:0:
256,192,67911,1,2,0:0:0:0:
256,192,67970,1,0,0:0:0:0:
384,192,68204,1,2,0:0:0:0:
384,192,68360,1,0,0:0:0:0:
384,224,68438,1,2,0:0:0:0:
384,224,68673,1,2,0:0:0:0:
384,224,68829,1,2,0:0:0:0:
384,224,68907,1,0,0:0:0:0:
384,224,69063,1,0,0:0:0:0:
384,224,69141,1,2,0:0:0:0:
384,224,69298,1,2,0:0:0:0:
384,224,69376,1,0,0:0:0:0:
288,192,69610,1,2,0:0:0:0:
288,192,69669,1,2,0:0:0:0:
288,192,69727,1,2,0:0:0:0:
288,192,69786,1,2,0:0:0:0:
288,192,69845,1,0,0:0:0:0:
288,224,70079,1,2,0:0:0:0:
288,224,70235,1,2,0:0:0:0:
288,224,70313,1,0,0:0:0:0:
288,224,70548,1,2,0:0:0:0:
288,224,70704,1,2,0:0:0:0:
288,224,70782,1,0,0:0:0:0:
224,192,70938,1,0,0:0:0:0:
288,224,71016,1,2,0:0:0:0:
288,224,71172,1,2,0:0:0:0:
288,224,71250,1,0,0:0:0:0:
352,160,71485,1,2,0:0:0:0:
256,192,71720,1,4,0:0:0:0:
256,224,71876,1,2,0:0:0:0:
256,224,71954,1,0,0:0:0:0:
352,192,72110,1,0,0:0:0:0:
352,192,72188,1,2,0:0:0:0:
352,192,72345,1,0,0:0:0:0:
320,224,72423,1,0,0:0:0:0:
320,224,72579,1,2,0:0:0:0:
320,224,72657,1,0,0:0:0:0:
320,224,72813,1,2,0:0:0:0:
320,224,72891,1,0,0:0:0:0:
320,224,73048,1,0,0:0:0:0:
320,224,73126,1,2,0:0:0:0:
224,192,73282,1,2,0:0:0:0:
224,192,73360,1,0,0:0:0:0:
384,160,73516,1,2,0:0:0:0:
384,160,73595,1,0,0:0:0:0:
384,160,73751,1,0,0:0:0:0:
384,160,73829,1,0,0:0:0:0:
384,160,73985,1,2,0:0:0:0:
384,192,74063,1,0,0:0:0:0:
384,192,74220,1,0,0:0:0:0:
384,192,74298,1,0,0:0:0:0:
384,192,74454,1,0,0:0:0:0:
384,192,74532,1,2,0:0:0:0:
256,224,74688,1,0,0:0:0:0:
256,224,74766,1,2,0:0:0:0:
256,224,74923,1,2,0:0:0:0:
256,224,75001,1,0,0:0:0:0:
256,224,75157,1,0,0:0:0:0:
256,224,75235,1,2,0:0:0:0:
256,128,75391,1,2,0:0:0:0:
256,192,75470,12,2,77345,0:0:0:0:
288,192,77813,5,2,0:0:0:0:
384,192,78048,1,2,0:0:0:0:
352,192,78282,1,2,0:0:0:0:
352,192,78516,1,2,0:0:0:0:
352,192,78751,1,2,0:0:0:0:
352,192,78985,1,2,0:0:0:0:
288,224,79220,1,2,0:0:0:0:
288,224,79454,1,2,0:0:0:0:
384,192,79610,1,2,0:0:0:0:
384,192,79688,1,0,0:0:0:0:
288,192,79923,1,2,0:0:0:0:
288,192,80157,1,2,0:0:0:0:
288,192,80313,1,0,0:0:0:0:
320,192,80548,1,0,0:0:0:0:
320,192,80626,1,2,0:0:0:0:
320,192,80782,1,2,0:0:0:0:
320,192,80860,1,0,0:0:0:0:
256,192,81095,1,4,0:0:0:0:
320,192,81329,1,2,0:0:0:0:
288,192,81563,1,0,0:0:0:0:
288,160,81720,1,2,0:0:0:0:
288,160,81798,1,2,0:0:0:0:
288,192,82032,1,0,0:0:0:0:
288,160,82189,1,2,0:0:0:0:
288,160,82267,1,2,0:0:0:0:
288,192,82501,1,0,0:0:0:0:
288,160,82658,1,2,0:0:0:0:
288,160,82736,1,2,0:0:0:0:
320,224,82970,1,0,0:0:0:0:
288,224,83126,1,0,0:0:0:0:
288,224,83204,1,2,0:0:0:0:
288,224,83360,1,0,0:0:0:0:
288,224,83438,1,0,0:0:0:0:
288,224,83595,1,0,0:0:0:0:
288,224,83673,1,2,0:0:0:0:
288,224,83829,1,0,0:0:0:0:
288,224,83907,1,0,0:0:0:0:
288,224,84063,1,0,0:0:0:0:
288,224,84141,1,2,0:0:0:0:
288,224,84297,1,0,0:0:0:0:
288,224,84375,1,0,0:0:0:0:
288,224,84532,1,0,0:0:0:0:
288,224,84610,1,2,0:0:0:0:
288,224,84766,1,0,0:0:0:0:
288,224,84844,1,0,0:0:0:0:
224,224,85079,1,0,0:0:0:0:
320,160,85313,1,2,0:0:0:0:
320,160,85470,1,0,0:0:0:0:
320,160,85548,1,2,0:0:0:0:
320,160,85704,1,0,0:0:0:0:
320,160,85782,1,2,0:0:0:0:
256,192,86016,1,0,0:0:0:0:
160,192,86251,1,2,0:0:0:0:
352,192,86720,1,0,0:0:0:0:
352,192,86876,1,0,0:0:0:0:
320,192,86954,1,2,0:0:0:0:
320,192,87032,1,0,0:0:0:0:
320,192,87110,1,0,0:0:0:0:
320,192,87188,1,0,0:0:0:0:
416,192,87345,1,0,0:0:0:0:
416,192,87423,1,2,0:0:0:0:
416,192,87501,1,2,0:0:0:0:
416,192,87579,1,2,0:0:0:0:
416,192,87657,1,0,0:0:0:0:
224,224,87813,1,0,0:0:0:0:
224,224,87891,1,2,0:0:0:0:
224,224,87970,1,2,0:0:0:0:
224,224,88048,1,2,0:0:0:0:
224,224,88126,1,0,0:0:0:0:
224,224,88204,1,0,0:0:0:0:
224,224,88282,1,0,0:0:0:0:
224,224,88360,1,2,0:0:0:0:
320,256,88595,1,4,0:0:0:0:
256,224,89063,1,0,0:0:0:0:
384,224,89220,1,0,0:0:0:0:
384,224,89298,1,2,0:0:0:0:
256,224,89532,1,0,0:0:0:0:
384,224,89689,1,0,0:0:0:0:
384,224,89767,1,2,0:0:0:0:
256,224,90001,1,0,0:0:0:0:
384,224,90158,1,0,0:0:0:0:
384,224,90236,1,2,0:0:0:0:
320,192,90470,1,0,0:0:0:0:
320,192,90626,1,2,0:0:0:0:
320,192,90704,1,2,0:0:0:0:
352,192,90860,1,0,0:0:0:0:
352,192,90938,1,0,0:0:0:0:
352,192,91095,1,0,0:0:0:0:
352,192,91173,1,2,0:0:0:0:
352,192,91329,1,2,0:0:0:0:
352,192,91407,1,0,0:0:0:0:
320,192,91563,1,2,0:0:0:0:
320,192,91641,1,2,0:0:0:0:
352,192,91797,1,0,0:0:0:0:
352,192,91875,1,0,0:0:0:0:
352,192,92032,1,0,0:0:0:0:
352,192,92110,1,2,0:0:0:0:
352,192,92266,1,0,0:0:0:0:
352,192,92344,1,0,0:0:0:0:
320,160,92579,1,0,0:0:0:0:
256,256,92813,1,2,0:0:0:0:
288,224,92970,1,0,0:0:0:0:
288,256,93048,1,2,0:0:0:0:
288,256,93204,1,0,0:0:0:0:
288,256,93282,1,2,0:0:0:0:
224,192,93751,1,2,0:0:0:0:
320,256,94219,1,0,0:0:0:0:
320,160,94375,1,2,0:0:0:0:
320,160,94454,1,2,0:0:0:0:
320,160,94532,1,2,0:0:0:0:
320,160,94610,1,2,0:0:0:0:
320,160,94688,1,0,0:0:0:0:
288,224,94844,1,0,0:0:0:0:
256,160,94922,1,2,0:0:0:0:
256,192,95000,1,0,0:0:0:0:
256,192,95079,1,2,0:0:0:0:
256,192,95157,1,0,0:0:0:0:
288,192,95313,1,0,0:0:0:0:
288,192,95391,1,2,0:0:0:0:
288,192,95470,1,0,0:0:0:0:
288,192,95548,1,0,0:0:0:0:
288,192,95626,1,2,0:0:0:0:
288,192,95704,1,0,0:0:0:0:
288,192,95782,1,0,0:0:0:0:
288,192,95860,1,2,0:0:0:0:
288,192,96095,1,4,0:0:0:0:
352,192,96563,1,2,0:0:0:0:
320,192,96720,1,0,0:0:0:0:
320,192,96798,1,2,0:0:0:0:
352,192,97032,1,2,0:0:0:0:
320,192,97189,1,0,0:0:0:0:
320,192,97267,1,2,0:0:0:0:
352,192,97501,1,2,0:0:0:0:
320,192,97658,1,0,0:0:0:0:
320,192,97736,1,2,0:0:0:0:
416,224,97970,1,0,0:0:0:0:
224,192,98126,1,0,0:0:0:0:
224,192,98204,1,2,0:0:0:0:
224,192,98360,1,0,0:0:0:0:
224,192,98438,1,0,0:0:0:0:
224,192,98595,1,2,0:0:0:0:
256,192,98673,1,2,0:0:0:0:
224,192,98829,1,0,0:0:0:0:
224,192,98907,1,0,0:0:0:0:
224,192,99063,1,0,0:0:0:0:
224,192,99141,1,2,0:0:0:0:
224,192,99297,1,0,0:0:0:0:
224,192,99375,1,0,0:0:0:0:
224,192,99532,1,2,0:0:0:0:
256,192,99610,1,2,0:0:0:0:
224,192,99766,1,0,0:0:0:0:
224,192,99844,1,0,0:0:0:0:
256,224,100079,1,0,0:0:0:0:
256,192,100313,1,2,0:0:0:0:
256,160,100470,1,0,0:0:0:0:
256,160,100548,1,2,0:0:0:0:
256,160,100704,1,0,0:0:0:0:
256,160,100782,1,2,0:0:0:0:
224,192,101251,1,2,0:0:0:0:
288,192,101720,1,0,0:0:0:0:
288,160,101876,1,0,0:0:0:0:
288,160,101954,1,2,0:0:0:0:
416,192,102032,1,2,0:0:0:0:
416,224,102110,1,0,0:0:0:0:
416,224,102188,1,0,0:0:0:0:
416,224,102345,1,2,0:0:0:0:
416,224,102423,1,2,0:0:0:0:
416,224,102501,1,0,0:0:0:0:
416,224,102579,1,0,0:0:0:0:
416,224,102657,1,0,0:0:0:0:
416,224,102813,1,2,0:0:0:0:
416,224,102891,1,2,0:0:0:0:
416,224,102970,1,0,0:0:0:0:
416,224,103048,1,0,0:0:0:0:
416,224,103126,1,2,0:0:0:0:
384,224,103204,1,0,0:0:0:0:
384,224,103282,1,0,0:0:0:0:
384,224,103360,1,2,0:0:0:0:
448,224,103595,1,4,0:0:0:0:
288,192,104063,1,0,0:0:0:0:
288,192,104220,1,2,0:0:0:0:
288,192,104298,1,0,0:0:0:0:
288,192,104532,1,0,0:0:0:0:
288,192,104689,1,2,0:0:0:0:
288,192,104767,1,0,0:0:0:0:
288,192,105001,1,0,0:0:0:0:
288,192,105158,1,2,0:0:0:0:
288,192,105236,1,0,0:0:0:0:
352,160,105470,1,0,0:0:0:0:
192,192,105626,1,0,0:0:0:0:
192,128,105704,1,2,0:0:0:0:
192,128,105860,1,2,0:0:0:0:
192,128,105938,1,0,0:0:0:0:
192,128,106095,1,0,0:0:0:0:
192,128,106173,1,2,0:0:0:0:
192,128,106329,1,2,0:0:0:0:
192,128,106407,1,0,0:0:0:0:
320,192,106563,1,2,0:0:0:0:
320,192,106641,1,2,0:0:0:0:
288,192,106798,1,0,0:0:0:0:
256,192,106876,1,0,0:0:0:0:
256,128,107032,1,2,0:0:0:0:
256,128,107110,1,2,0:0:0:0:
224,160,107266,1,0,0:0:0:0:
224,160,107345,1,0,0:0:0:0:
320,192,107579,1,0,0:0:0:0:
320,192,107813,1,2,0:0:0:0:
320,192,107970,1,0,0:0:0:0:
320,192,108048,1,2,0:0:0:0:
320,192,108204,1,0,0:0:0:0:
320,192,108282,1,2,0:0:0:0:
224,192,108751,1,2,0:0:0:0:
224,192,109220,1,0,0:0:0:0:
224,192,109376,1,0,0:0:0:0:
224,192,109454,1,2,0:0:0:0:
224,192,109610,1,2,0:0:0:0:
224,192,109688,1,0,0:0:0:0:
256,128,109923,1,2,0:0:0:0:
256,128,110079,1,2,0:0:0:0:
256,128,110157,1,2,0:0:0:0:
256,128,110313,1,0,0:0:0:0:
256,128,110391,1,0,0:0:0:0:
288,192,110626,1,2,0:0:0:0:
288,192,110743,1,2,0:0:0:0:
288,192,110860,1,2,0:0:0:0:
224,160,111095,1,0,0:0:0:0:
224,192,111251,1,0,0:0:0:0:
224,224,111329,1,2,0:0:0:0:
352,224,111564,1,2,0:0:0:0:
352,224,111798,1,0,0:0:0:0:
320,160,111915,1,2,0:0:0:0:
256,160,112149,1,0,0:0:0:0:
288,160,112266,1,2,0:0:0:0:
224,160,112501,1,2,0:0:0:0:
224,160,112618,1,0,0:0:0:0:
224,160,112735,1,2,0:0:0:0:
256,160,112970,1,0,0:0:0:0:
320,224,113204,1,0,0:0:0:0:
320,224,113438,1,0,0:0:0:0:
320,192,113555,1,2,0:0:0:0:
320,192,113673,1,0,0:0:0:0:
320,192,113790,1,2,0:0:0:0:
320,192,114063,1,0,0:0:0:0:
320,160,114298,1,0,0:0:0:0:
320,160,114376,1,2,0:0:0:0:
320,160,114532,1,2,0:0:0:0:
320,160,114610,1,0,0:0:0:0:
224,160,114845,1,0,0:0:0:0:
352,160,115196,1,2,0:0:0:0:
288,160,115313,1,0,0:0:0:0:
288,160,115548,1,0,0:0:0:0:
288,160,115665,1,2,0:0:0:0:
288,160,115782,1,0,0:0:0:0:
352,192,116016,1,2,0:0:0:0:
352,192,116251,1,0,0:0:0:0:
288,160,116368,1,0,0:0:0:0:
256,224,116485,1,2,0:0:0:0:
288,160,116602,1,2,0:0:0:0:
384,192,116720,1,0,0:0:0:0:
320,192,116954,1,2,0:0:0:0:
320,192,117071,1,0,0:0:0:0:
320,192,117305,1,0,0:0:0:0:
320,192,117423,1,2,0:0:0:0:
320,192,117657,1,2,0:0:0:0:
320,192,117774,1,0,0:0:0:0:
288,192,118009,1,0,0:0:0:0:
288,192,118126,1,0,0:0:0:0:
256,160,118360,1,2,0:0:0:0:
256,160,118438,1,2,0:0:0:0:
256,160,118516,1,2,0:0:0:0:
256,192,118595,1,0,0:0:0:0:
288,160,119063,1,0,0:0:0:0:
352,224,119298,1,2,0:0:0:0:
352,224,119415,1,2,0:0:0:0:
352,224,119532,1,0,0:0:0:0:
384,224,119649,1,0,0:0:0:0:
384,224,119766,1,2,0:0:0:0:
352,256,119884,1,0,0:0:0:0:
288,128,120235,1,0,0:0:0:0:
288,128,120352,1,0,0:0:0:0:
288,128,120470,1,2,0:0:0:0:
288,128,120587,1,0,0:0:0:0:
288,128,120704,1,2,0:0:0:0:
288,128,120821,1,0,0:0:0:0:
288,128,120938,1,2,0:0:0:0:
288,128,121055,1,2,0:0:0:0:
288,128,121173,1,2,0:0:0:0:
288,160,121290,1,0,0:0:0:0:
288,128,121407,1,2,0:0:0:0:
256,192,121641,1,0,0:0:0:0:
256,192,121759,1,0,0:0:0:0:
256,192,121876,1,2,0:0:0:0:
320,160,122110,1,2,0:0:0:0:
320,160,122345,1,0,0:0:0:0:
192,192,122579,1,2,0:0:0:0:
192,192,122696,1,0,0:0:0:0:
192,192,122813,1,0,0:0:0:0:
352,192,123048,1,2,0:0:0:0:
352,192,123165,1,2,0:0:0:0:
352,192,123282,1,0,0:0:0:0:
352,160,123438,1,0,0:0:0:0:
320,192,123673,1,0,0:0:0:0:
352,160,123751,1,2,0:0:0:0:
256,192,123985,1,2,0:0:0:0:
224,192,124220,1,0,0:0:0:0:
224,192,124376,1,0,0:0:0:0:
224,192,124454,1,2,0:0:0:0:
224,192,124610,1,2,0:0:0:0:
224,192,124688,1,0,0:0:0:0:
224,192,124923,1,2,0:0:0:0:
224,192,125157,1,2,0:0:0:0:
352,192,125860,1,2,0:0:0:0:
352,192,125919,1,2,0:0:0:0:
352,192,125977,1,2,0:0:0:0:
352,192,126036,1,2,0:0:0:0:
352,192,126095,1,0,0:0:0:0:
256,224,126329,1,2,0:0:0:0:
256,224,126446,1,2,0:0:0:0:
256,224,126563,1,0,0:0:0:0:
256,224,126680,1,2,0:0:0:0:
256,224,126915,1,2,0:0:0:0:
256,224,127032,1,0,0:0:0:0:
256,192,127266,1,2,0:0:0:0:
256,192,127384,1,2,0:0:0:0:
256,192,127501,1,0,0:0:0:0:
256,192,127618,1,0,0:0:0:0:
256,192,127735,1,2,0:0:0:0:
256,192,127852,1,2,0:0:0:0:
256,192,127970,1,0,0:0:0:0:
288,192,128204,1,0,0:0:0:0:
288,192,128438,1,2,0:0:0:0:
288,192,128555,1,0,0:0:0:0:
288,192,128790,1,0,0:0:0:0:
288,192,129024,1,0,0:0:0:0:
288,192,129141,1,0,0:0:0:0:
288,192,129259,1,0,0:0:0:0:
288,192,129376,1,2,0:0:0:0:
288,192,129493,1,2,0:0:0:0:
288,192,129610,1,2,0:0:0:0:
288,192,129727,1,0,0:0:0:0:
288,192,129845,1,0,0:0:0:0:
256,192,130079,1,0,0:0:0:0:
256,192,130196,1,0,0:0:0:0:
256,192,130313,1,2,0:0:0:0:
256,192,130430,1,0,0:0:0:0:
288,160,130665,1,0,0:0:0:0:
288,160,130782,1,2,0:0:0:0:
320,192,131016,1,2,0:0:0:0:
320,192,131134,1,2,0:0:0:0:
320,224,131251,1,0,0:0:0:0:
320,224,131368,1,0,0:0:0:0:
320,224,131485,1,2,0:0:0:0:
320,224,131602,1,2,0:0:0:0:
320,224,131720,1,0,0:0:0:0:
320,224,131954,1,0,0:0:0:0:
320,224,132188,1,0,0:0:0:0:
320,224,132305,1,2,0:0:0:0:
320,224,132540,1,0,0:0:0:0:
416,192,132774,1,0,0:0:0:0:
416,192,132891,1,2,0:0:0:0:
416,192,133009,1,0,0:0:0:0:
416,192,133126,1,2,0:0:0:0:
416,192,133243,1,2,0:0:0:0:
416,192,133360,1,2,0:0:0:0:
416,192,133477,1,2,0:0:0:0:
416,192,133595,1,0,0:0:0:0:
224,224,133829,1,2,0:0:0:0:
224,224,133946,1,2,0:0:0:0:
224,224,134063,1,0,0:0:0:0:
224,224,134180,1,2,0:0:0:0:
224,256,134415,1,2,0:0:0:0:
224,256,134532,1,0,0:0:0:0:
288,160,134766,1,2,0:0:0:0:
288,160,134884,1,2,0:0:0:0:
288,160,135001,1,0,0:0:0:0:
288,160,135118,1,2,0:0:0:0:
288,160,135235,1,2,0:0:0:0:
288,160,135352,1,2,0:0:0:0:
288,192,135470,1,0,0:0:0:0:
192,192,135704,1,0,0:0:0:0:
192,192,135938,1,2,0:0:0:0:
192,224,136055,1,0,0:0:0:0:
192,224,136290,1,0,0:0:0:0:
192,224,136524,1,0,0:0:0:0:
192,224,136641,1,2,0:0:0:0:
192,224,136759,1,0,0:0:0:0:
192,224,136876,1,2,0:0:0:0:
192,224,136993,1,0,0:0:0:0:
192,224,137110,1,0,0:0:0:0:
192,224,137227,1,2,0:0:0:0:
192,224,137345,1,0,0:0:0:0:
288,128,137579,1,0,0:0:0:0:
256,160,137696,1,0,0:0:0:0:
256,160,137813,1,2,0:0:0:0:
256,160,137930,1,0,0:0:0:0:
256,160,138165,1,0,0:0:0:0:
256,192,138282,1,0,0:0:0:0:
256,192,138516,1,2,0:0:0:0:
256,192,138634,1,2,0:0:0:0:
256,192,138751,1,0,0:0:0:0:
256,192,138868,1,0,0:0:0:0:
256,192,138985,1,2,0:0:0:0:
256,192,139102,1,2,0:0:0:0:
256,192,139220,1,0,0:0:0:0:
288,192,139454,1,0,0:0:0:0:
288,192,139688,1,2,0:0:0:0:
288,192,139805,1,2,0:0:0:0:
352,128,140040,1,2,0:0:0:0:
256,192,140391,1,2,0:0:0:0:
256,192,140626,1,2,0:0:0:0:
256,192,140860,1,2,0:0:0:0:
224,192,141095,1,4,0:0:0:0:
384,192,141563,1,2,0:0:0:0:
224,192,142266,1,0,0:0:0:0:
288,192,142581,1,2,0:0:0:0:
352,128,142970,1,0,0:0:0:0:
224,256,143321,1,0,0:0:0:0:
352,192,143673,1,6,0:0:0:0:
352,192,143849,1,6,0:0:0:0:
288,192,144201,1,2,0:0:0:0:
288,192,144289,1,2,0:0:0:0:
288,192,144377,1,0,0:0:0:0:
288,192,144553,1,6,0:0:0:0:
288,192,144729,1,6,0:0:0:0:
256,224,145081,1,0,0:0:0:0:
256,224,145257,1,0,0:0:0:0:
256,224,145345,1,0,0:0:0:0:
256,224,145433,1,2,0:0:0:0:
256,224,145521,1,2,0:0:0:0:
256,224,145609,1,2,0:0:0:0:
256,224,145697,1,2,0:0:0:0:
256,224,145785,1,0,0:0:0:0:
256,160,146049,1,0,0:0:0:0:
256,160,146137,1,2,0:0:0:0:
256,192,146313,1,0,0:0:0:0:
256,192,146401,1,0,0:0:0:0:
256,192,146489,1,0,0:0:0:0:
320,224,146665,1,0,0:0:0:0:
320,224,146840,1,2,0:0:0:0:
320,224,147016,1,0,0:0:0:0:
320,224,147104,1,0,0:0:0:0:
320,224,147192,1,2,0:0:0:0:
384,192,147368,1,0,0:0:0:0:
384,192,147456,1,2,0:0:0:0:
384,192,147632,1,0,0:0:0:0:
384,192,147720,1,2,0:0:0:0:
224,192,147896,1,0,0:0:0:0:
224,192,148072,1,0,0:0:0:0:
224,192,148160,1,0,0:0:0:0:
224,192,148248,1,2,0:0:0:0:
224,192,148424,1,0,0:0:0:0:
224,192,148600,1,0,0:0:0:0:
352,192,148864,1,0,0:0:0:0:
352,192,148952,1,2,0:0:0:0:
192,160,149128,1,0,0:0:0:0:
192,160,149216,1,0,0:0:0:0:
192,160,149304,1,0,0:0:0:0:
256,192,149480,1,0,0:0:0:0:
256,192,149568,1,0,0:0:0:0:
256,192,149656,1,2,0:0:0:0:
288,160,149832,1,2,0:0:0:0:
288,160,149890,1,2,0:0:0:0:
288,160,149949,1,2,0:0:0:0:
288,160,150008,1,0,0:0:0:0:
288,160,150184,1,0,0:0:0:0:
288,160,150272,1,2,0:0:0:0:
288,192,150448,1,0,0:0:0:0:
288,192,150535,1,2,0:0:0:0:
288,192,150623,1,0,0:0:0:0:
256,160,150711,1,2,0:0:0:0:
256,160,150799,1,0,0:0:0:0:
256,160,150887,1,0,0:0:0:0:
288,160,151063,1,2,0:0:0:0:
288,160,151239,1,2,0:0:0:0:
288,160,151327,1,2,0:0:0:0:
288,160,151415,1,0,0:0:0:0:
192,192,151679,1,0,0:0:0:0:
320,192,151767,1,2,0:0:0:0:
352,192,151943,1,0,0:0:0:0:
352,192,152031,1,0,0:0:0:0:
352,192,152119,1,0,0:0:0:0:
288,224,152295,1,0,0:0:0:0:
320,224,152471,1,2,0:0:0:0:
320,192,152647,1,0,0:0:0:0:
320,192,152735,1,0,0:0:0:0:
320,192,152823,1,2,0:0:0:0:
288,160,152999,1,0,0:0:0:0:
288,160,153087,1,2,0:0:0:0:
288,160,153263,1,0,0:0:0:0:
320,192,153351,1,2,0:0:0:0:
256,192,153527,1,0,0:0:0:0:
256,192,153703,1,0,0:0:0:0:
256,192,153791,1,0,0:0:0:0:
256,192,153879,1,2,0:0:0:0:
256,192,153967,1,2,0:0:0:0:
256,192,154055,1,0,0:0:0:0:
256,192,154143,1,0,0:0:0:0:
256,192,154230,1,0,0:0:0:0:
288,160,154494,1,0,0:0:0:0:
288,160,154582,1,2,0:0:0:0:
256,160,154758,1,0,0:0:0:0:
256,160,154846,1,0,0:0:0:0:
256,160,154934,1,0,0:0:0:0:
256,160,155110,1,0,0:0:0:0:
256,160,155198,1,0,0:0:0:0:
256,160,155286,1,2,0:0:0:0:
192,192,155462,1,2,0:0:0:0:
192,192,155550,1,2,0:0:0:0:
192,192,155638,1,2,0:0:0:0:
192,192,155726,1,0,0:0:0:0:
192,192,155814,1,0,0:0:0:0:
192,192,155902,1,0,0:0:0:0:
256,160,155990,1,2,0:0:0:0:
256,160,156078,1,0,0:0:0:0:
256,160,156166,1,0,0:0:0:0:
256,160,156254,1,0,0:0:0:0:
320,160,156342,1,2,0:0:0:0:
320,160,156430,1,0,0:0:0:0:
320,160,156518,1,2,0:0:0:0:
320,160,156606,1,2,0:0:0:0:
256,192,156694,1,0,0:0:0:0:
256,192,156782,1,2,0:0:0:0:
256,192,156870,1,2,0:0:0:0:
256,192,156958,1,2,0:0:0:0:
256,192,157046,1,0,0:0:0:0:
288,192,157310,1,0,0:0:0:0:
288,192,157398,1,2,0:0:0:0:
384,192,157574,1,0,0:0:0:0:
384,192,157662,1,0,0:0:0:0:
384,192,157750,1,0,0:0:0:0:
384,192,157926,1,0,0:0:0:0:
384,192,158101,1,2,0:0:0:0:
320,192,158277,1,0,0:0:0:0:
320,192,158365,1,0,0:0:0:0:
320,192,158453,1,2,0:0:0:0:
320,192,158629,1,0,0:0:0:0:
320,192,158717,1,2,0:0:0:0:
288,224,158893,1,0,0:0:0:0:
288,224,158981,1,2,0:0:0:0:
288,224,159069,1,2,0:0:0:0:
288,224,159157,1,0,0:0:0:0:
288,224,159333,1,0,0:0:0:0:
288,224,159421,1,0,0:0:0:0:
288,224,159509,1,2,0:0:0:0:
288,224,159685,1,2,0:0:0:0:
288,224,159861,1,0,0:0:0:0:
256,160,160125,1,0,0:0:0:0:
256,160,160213,1,2,0:0:0:0:
256,160,160389,1,0,0:0:0:0:
288,224,160653,1,0,0:0:0:0:
288,256,160741,1,2,0:0:0:0:
448,256,160917,1,0,0:0:0:0:
352,160,161093,1,2,0:0:0:0:
352,160,161151,1,2,0:0:0:0:
352,160,161210,1,2,0:0:0:0:
352,160,161269,1,0,0:0:0:0:
224,160,161445,1,2,0:0:0:0:
224,160,161533,1,0,0:0:0:0:
224,160,161621,1,0,0:0:0:0:
224,160,161796,1,0,0:0:0:0:
224,160,161972,1,2,0:0:0:0:
224,160,162060,1,0,0:0:0:0:
224,160,162148,1,0,0:0:0:0:
224,160,162324,1,2,0:0:0:0:
224,160,162500,1,2,0:0:0:0:
224,160,162588,1,2,0:0:0:0:
224,160,162676,1,0,0:0:0:0:
256,128,162940,1,0,0:0:0:0:
288,192,163028,1,2,0:0:0:0:
288,192,163204,1,0,0:0:0:0:
288,192,163292,1,0,0:0:0:0:
288,192,163380,1,0,0:0:0:0:
288,192,163556,1,0,0:0:0:0:
288,192,163732,1,2,0:0:0:0:
320,224,163908,1,0,0:0:0:0:
320,224,163996,1,0,0:0:0:0:
320,224,164084,1,2,0:0:0:0:
288,192,164260,1,0,0:0:0:0:
320,192,164348,1,2,0:0:0:0:
320,192,164524,1,0,0:0:0:0:
320,192,164612,1,2,0:0:0:0:
256,192,164788,1,0,0:0:0:0:
256,192,164964,1,0,0:0:0:0:
256,192,165052,1,0,0:0:0:0:
256,192,165140,1,2,0:0:0:0:
256,192,165316,1,2,0:0:0:0:
256,192,165491,1,0,0:0:0:0:
352,192,165755,1,0,0:0:0:0:
352,192,165843,1,2,0:0:0:0:
352,192,166019,1,0,0:0:0:0:
352,192,166283,1,0,0:0:0:0:
352,192,166371,1,2,0:0:0:0:
352,224,166547,1,0,0:0:0:0:
256,192,166723,1,0,0:0:0:0:
320,160,166899,1,2,0:0:0:0:
320,160,166987,1,2,0:0:0:0:
320,160,167075,1,2,0:0:0:0:
320,160,167163,1,0,0:0:0:0:
320,160,167251,1,0,0:0:0:0:
320,160,167339,1,0,0:0:0:0:
320,160,167427,1,2,0:0:0:0:
352,192,167515,1,0,0:0:0:0:
320,160,167603,1,2,0:0:0:0:
224,224,167691,1,0,0:0:0:0:
224,224,167779,1,0,0:0:0:0:
224,224,167867,1,0,0:0:0:0:
320,192,167955,1,2,0:0:0:0:
320,192,168043,1,2,0:0:0:0:
320,192,168131,1,0,0:0:0:0:
320,192,168219,1,0,0:0:0:0:
320,192,168307,1,0,0:0:0:0:
352,192,168571,1,0,0:0:0:0:
352,224,168659,1,2,0:0:0:0:
352,192,168835,1,0,0:0:0:0:
352,192,168923,1,0,0:0:0:0:
352,192,169011,1,0,0:0:0:0:
352,192,169187,1,0,0:0:0:0:
352,224,169362,1,2,0:0:0:0:
256,192,169538,1,0,0:0:0:0:
256,192,169626,1,0,0:0:0:0:
256,192,169714,1,2,0:0:0:0:
288,160,169890,1,0,0:0:0:0:
288,160,169978,1,2,0:0:0:0:
256,224,170154,1,0,0:0:0:0:
256,192,170242,1,2,0:0:0:0:
256,224,170418,1,0,0:0:0:0:
256,224,170594,1,0,0:0:0:0:
256,224,170682,1,0,0:0:0:0:
256,224,170770,1,2,0:0:0:0:
288,192,171036,1,0,0:0:0:0:
288,192,171303,1,0,0:0:0:0:
256,192,179775,5,2,0:0:0:0:
256,192,179893,1,2,0:0:0:0:
256,192,180010,1,0,0:0:0:0:
256,192,180127,1,0,0:0:0:0:
256,192,180244,1,2,0:0:0:0:
256,192,180361,1,2,0:0:0:0:
288,192,180479,1,0,0:0:0:0:
288,224,180947,1,0,0:0:0:0:
288,224,181064,1,0,0:0:0:0:
288,224,181299,1,0,0:0:0:0:
480,224,181650,1,0,0:0:0:0:
352,224,181885,1,2,0:0:0:0:
352,224,182119,1,2,0:0:0:0:
352,224,182354,1,0,0:0:0:0:
352,224,182588,1,0,0:0:0:0:
352,224,182822,1,2,0:0:0:0:
352,224,182939,1,0,0:0:0:0:
352,224,183174,1,0,0:0:0:0:
160,224,184229,1,0,0:0:0:0:
256,160,184697,1,0,0:0:0:0:
256,160,184814,1,0,0:0:0:0:
256,160,185049,1,0,0:0:0:0:
224,192,185400,1,0,0:0:0:0:
224,192,185635,1,0,0:0:0:0:
224,192,185869,1,2,0:0:0:0:
224,192,186104,1,2,0:0:0:0:
224,192,186338,1,0,0:0:0:0:
224,192,186572,1,2,0:0:0:0:
224,192,186689,1,2,0:0:0:0:
224,192,186924,1,2,0:0:0:0:
352,192,187979,1,0,0:0:0:0:
352,192,188213,1,2,0:0:0:0:
352,192,188330,1,2,0:0:0:0:
352,192,188447,1,0,0:0:0:0:
352,192,188682,1,2,0:0:0:0:
352,192,188799,1,0,0:0:0:0:
352,192,189033,1,0,0:0:0:0:
352,192,189150,1,2,0:0:0:0:
256,192,189385,1,0,0:0:0:0:
256,192,189502,1,0,0:0:0:0:
256,192,189619,1,2,0:0:0:0:
256,192,189854,1,0,0:0:0:0:
256,192,190088,1,0,0:0:0:0:
256,192,190322,1,2,0:0:0:0:
256,192,190439,1,0,0:0:0:0:
256,192,190674,1,0,0:0:0:0:
256,192,190908,1,0,0:0:0:0:
256,192,191025,1,2,0:0:0:0:
256,192,191143,1,0,0:0:0:0:
256,192,191260,1,2,0:0:0:0:
256,192,191377,1,0,0:0:0:0:
256,192,191494,1,2,0:0:0:0:
256,192,191611,1,2,0:0:0:0:
256,192,191729,1,0,0:0:0:0:
320,192,191963,1,2,0:0:0:0:
320,192,192080,1,2,0:0:0:0:
320,192,192197,1,0,0:0:0:0:
320,192,192432,1,2,0:0:0:0:
320,192,192549,1,0,0:0:0:0:
320,192,192783,1,0,0:0:0:0:
320,192,192900,1,2,0:0:0:0:
288,192,193135,1,0,0:0:0:0:
288,192,193252,1,0,0:0:0:0:
288,192,193369,1,2,0:0:0:0:
256,192,193604,1,0,0:0:0:0:
416,160,193838,1,0,0:0:0:0:
416,160,194072,1,2,0:0:0:0:
416,160,194189,1,2,0:0:0:0:
416,160,194424,1,2,0:0:0:0:
416,160,194658,1,0,0:0:0:0:
416,160,194775,1,2,0:0:0:0:
416,160,194893,1,2,0:0:0:0:
416,128,195010,1,0,0:0:0:0:
416,128,195127,1,0,0:0:0:0:
416,128,195244,1,2,0:0:0:0:
416,128,195361,1,2,0:0:0:0:
416,128,195479,1,0,0:0:0:0:
224,192,195713,1,2,0:0:0:0:
224,192,195830,1,2,0:0:0:0:
224,192,195947,1,0,0:0:0:0:
288,160,196182,1,2,0:0:0:0:
288,192,196299,1,0,0:0:0:0:
288,192,196533,1,0,0:0:0:0:
288,192,196650,1,2,0:0:0:0:
288,192,196885,1,0,0:0:0:0:
288,192,197002,1,0,0:0:0:0:
288,192,197119,1,2,0:0:0:0:
288,192,197354,1,0,0:0:0:0:
288,192,197588,1,0,0:0:0:0:
224,192,197822,1,2,0:0:0:0:
384,192,197939,1,0,0:0:0:0:
384,192,198174,1,0,0:0:0:0:
384,192,198408,1,0,0:0:0:0:
384,192,198525,1,0,0:0:0:0:
384,192,198643,1,2,0:0:0:0:
384,192,198760,1,2,0:0:0:0:
384,192,198877,1,0,0:0:0:0:
384,192,198994,1,2,0:0:0:0:
384,192,199111,1,2,0:0:0:0:
384,192,199229,1,0,0:0:0:0:
224,192,199463,1,2,0:0:0:0:
224,192,199580,1,2,0:0:0:0:
224,192,199697,1,0,0:0:0:0:
288,160,199932,1,2,0:0:0:0:
288,192,200049,1,0,0:0:0:0:
288,192,200283,1,0,0:0:0:0:
288,192,200400,1,2,0:0:0:0:
288,192,200635,1,0,0:0:0:0:
288,192,200752,1,0,0:0:0:0:
288,192,200869,1,2,0:0:0:0:
288,192,201104,1,2,0:0:0:0:
288,192,201338,1,0,0:0:0:0:
224,192,201572,1,2,0:0:0:0:
384,192,201689,1,2,0:0:0:0:
384,192,201924,1,2,0:0:0:0:
320,160,202275,1,2,0:0:0:0:
320,160,202510,1,2,0:0:0:0:
320,160,202744,1,2,0:0:0:0:
320,160,202979,1,4,0:0:0:0:
352,160,203213,1,2,0:0:0:0:
224,192,203369,1,0,0:0:0:0:
224,192,203447,1,0,0:0:0:0:
352,192,203682,1,2,0:0:0:0:
352,192,203838,1,0,0:0:0:0:
352,192,203916,1,2,0:0:0:0:
288,192,204150,1,2,0:0:0:0:
256,160,204307,1,2,0:0:0:0:
256,160,204385,1,2,0:0:0:0:
320,160,204619,1,2,0:0:0:0:
320,160,204678,1,2,0:0:0:0:
320,160,204736,1,2,0:0:0:0:
320,160,204795,1,2,0:0:0:0:
320,160,204854,1,0,0:0:0:0:
352,160,205088,1,2,0:0:0:0:
224,192,205244,1,0,0:0:0:0:
224,192,205322,1,2,0:0:0:0:
352,192,205557,1,2,0:0:0:0:
352,192,205713,1,2,0:0:0:0:
352,192,205791,1,0,0:0:0:0:
288,192,206025,1,2,0:0:0:0:
256,160,206182,1,0,0:0:0:0:
256,160,206260,1,0,0:0:0:0:
320,160,206494,1,2,0:0:0:0:
320,160,206553,1,2,0:0:0:0:
320,160,206611,1,2,0:0:0:0:
320,160,206670,1,2,0:0:0:0:
320,160,206729,1,0,0:0:0:0:
352,160,206963,1,2,0:0:0:0:
224,192,207119,1,0,0:0:0:0:
224,192,207197,1,2,0:0:0:0:
352,192,207432,1,2,0:0:0:0:
352,192,207588,1,0,0:0:0:0:
352,192,207666,1,0,0:0:0:0:
288,192,207900,1,2,0:0:0:0:
256,160,208057,1,2,0:0:0:0:
256,160,208135,1,2,0:0:0:0:
320,160,208369,1,2,0:0:0:0:
320,160,208428,1,2,0:0:0:0:
320,160,208486,1,2,0:0:0:0:
320,160,208545,1,2,0:0:0:0:
320,160,208604,1,0,0:0:0:0:
352,160,208838,1,2,0:0:0:0:
224,192,208994,1,0,0:0:0:0:
224,192,209072,1,0,0:0:0:0:
352,192,209307,1,2,0:0:0:0:
352,192,209463,1,0,0:0:0:0:
352,192,209541,1,2,0:0:0:0:
288,192,209775,1,2,0:0:0:0:
256,160,209932,1,2,0:0:0:0:
256,160,210010,1,0,0:0:0:0:
384,192,210244,1,2,0:0:0:0:
256,192,210479,1,4,0:0:0:0:
256,224,210635,1,2,0:0:0:0:
256,224,210713,1,0,0:0:0:0:
352,192,210869,1,0,0:0:0:0:
352,192,210947,1,2,0:0:0:0:
352,192,211104,1,0,0:0:0:0:
320,224,211182,1,0,0:0:0:0:
320,224,211338,1,2,0:0:0:0:
320,224,211416,1,0,0:0:0:0:
320,224,211572,1,2,0:0:0:0:
320,224,211650,1,0,0:0:0:0:
320,224,211807,1,0,0:0:0:0:
320,224,211885,1,2,0:0:0:0:
224,192,212041,1,2,0:0:0:0:
224,192,212119,1,0,0:0:0:0:
384,160,212275,1,2,0:0:0:0:
384,160,212354,1,0,0:0:0:0:
384,160,212510,1,0,0:0:0:0:
384,160,212588,1,0,0:0:0:0:
384,160,212744,1,2,0:0:0:0:
384,192,212822,1,0,0:0:0:0:
384,192,212979,1,0,0:0:0:0:
384,192,213057,1,0,0:0:0:0:
384,192,213213,1,0,0:0:0:0:
384,192,213291,1,2,0:0:0:0:
256,224,213447,1,0,0:0:0:0:
256,224,213525,1,2,0:0:0:0:
256,224,213682,1,2,0:0:0:0:
256,224,213760,1,0,0:0:0:0:
256,224,213916,1,0,0:0:0:0:
256,224,213994,1,2,0:0:0:0:
256,128,214150,1,2,0:0:0:0:
256,192,214229,12,0,216104,0:0:0:0:
288,192,216572,5,2,0:0:0:0:
384,192,216807,1,2,0:0:0:0:
352,192,217041,1,2,0:0:0:0:
352,192,217275,1,2,0:0:0:0:
352,192,217510,1,2,0:0:0:0:
352,192,217744,1,2,0:0:0:0:
288,224,217979,1,2,0:0:0:0:
288,224,218213,1,2,0:0:0:0:
384,192,218369,1,2,0:0:0:0:
384,192,218447,1,0,0:0:0:0:
288,192,218682,1,2,0:0:0:0:
288,192,218916,1,2,0:0:0:0:
288,192,219072,1,0,0:0:0:0:
320,192,219307,1,0,0:0:0:0:
320,192,219385,1,2,0:0:0:0:
320,192,219541,1,2,0:0:0:0:
320,192,219619,1,0,0:0:0:0:
256,192,219854,1,4,0:0:0:0:
320,192,220088,1,2,0:0:0:0:
288,192,220322,1,0,0:0:0:0:
288,160,220479,1,2,0:0:0:0:
288,160,220557,1,2,0:0:0:0:
288,192,220791,1,0,0:0:0:0:
288,160,220948,1,2,0:0:0:0:
288,160,221026,1,2,0:0:0:0:
288,192,221260,1,0,0:0:0:0:
288,160,221417,1,2,0:0:0:0:
288,160,221495,1,2,0:0:0:0:
320,224,221729,1,0,0:0:0:0:
288,224,221885,1,0,0:0:0:0:
288,224,221963,1,2,0:0:0:0:
288,224,222119,1,0,0:0:0:0:
288,224,222197,1,0,0:0:0:0:
288,224,222354,1,0,0:0:0:0:
288,224,222432,1,2,0:0:0:0:
288,224,222588,1,0,0:0:0:0:
288,224,222666,1,0,0:0:0:0:
288,224,222822,1,0,0:0:0:0:
288,224,222900,1,2,0:0:0:0:
288,224,223056,1,0,0:0:0:0:
288,224,223134,1,0,0:0:0:0:
288,224,223291,1,0,0:0:0:0:
288,224,223369,1,2,0:0:0:0:
288,224,223525,1,0,0:0:0:0:
288,224,223603,1,0,0:0:0:0:
224,224,223838,1,0,0:0:0:0:
320,160,224072,1,2,0:0:0:0:
320,160,224229,1,0,0:0:0:0:
320,160,224307,1,2,0:0:0:0:
320,160,224463,1,0,0:0:0:0:
320,160,224541,1,2,0:0:0:0:
256,192,224775,1,0,0:0:0:0:
160,192,225010,1,2,0:0:0:0:
352,192,225479,1,0,0:0:0:0:
352,192,225635,1,0,0:0:0:0:
320,192,225713,1,2,0:0:0:0:
320,192,225791,1,0,0:0:0:0:
320,192,225869,1,0,0:0:0:0:
320,192,225947,1,0,0:0:0:0:
416,192,226104,1,0,0:0:0:0:
416,192,226182,1,2,0:0:0:0:
416,192,226260,1,2,0:0:0:0:
416,192,226338,1,2,0:0:0:0:
416,192,226416,1,0,0:0:0:0:
224,224,226572,1,0,0:0:0:0:
224,224,226650,1,2,0:0:0:0:
224,224,226729,1,2,0:0:0:0:
224,224,226807,1,2,0:0:0:0:
224,224,226885,1,0,0:0:0:0:
224,224,226963,1,0,0:0:0:0:
224,224,227041,1,0,0:0:0:0:
224,224,227119,1,2,0:0:0:0:
320,256,227354,1,4,0:0:0:0:
256,224,227822,1,0,0:0:0:0:
384,224,227979,1,0,0:0:0:0:
384,224,228057,1,2,0:0:0:0:
256,224,228291,1,0,0:0:0:0:
384,224,228448,1,0,0:0:0:0:
384,224,228526,1,2,0:0:0:0:
256,224,228760,1,0,0:0:0:0:
384,224,228917,1,0,0:0:0:0:
384,224,228995,1,2,0:0:0:0:
320,192,229229,1,0,0:0:0:0:
320,192,229385,1,2,0:0:0:0:
320,192,229463,1,2,0:0:0:0:
352,192,229619,1,0,0:0:0:0:
352,192,229697,1,0,0:0:0:0:
352,192,229854,1,0,0:0:0:0:
352,192,229932,1,2,0:0:0:0:
352,192,230088,1,2,0:0:0:0:
352,192,230166,1,0,0:0:0:0:
320,192,230322,1,2,0:0:0:0:
320,192,230400,1,2,0:0:0:0:
352,192,230556,1,0,0:0:0:0:
352,192,230634,1,0,0:0:0:0:
352,192,230791,1,0,0:0:0:0:
352,192,230869,1,2,0:0:0:0:
352,192,231025,1,0,0:0:0:0:
352,192,231103,1,0,0:0:0:0:
320,160,231338,1,0,0:0:0:0:
256,256,231572,1,2,0:0:0:0:
288,224,231729,1,0,0:0:0:0:
288,256,231807,1,2,0:0:0:0:
288,256,231963,1,0,0:0:0:0:
288,256,232041,1,2,0:0:0:0:
224,192,232510,1,2,0:0:0:0:
320,256,232978,1,0,0:0:0:0:
320,160,233134,1,2,0:0:0:0:
320,160,233213,1,2,0:0:0:0:
320,160,233291,1,2,0:0:0:0:
320,160,233369,1,2,0:0:0:0:
320,160,233447,1,0,0:0:0:0:
288,224,233603,1,0,0:0:0:0:
256,160,233681,1,2,0:0:0:0:
256,192,233759,1,0,0:0:0:0:
256,192,233838,1,2,0:0:0:0:
256,192,233916,1,0,0:0:0:0:
288,192,234072,1,0,0:0:0:0:
288,192,234150,1,2,0:0:0:0:
288,192,234229,1,0,0:0:0:0:
288,192,234307,1,0,0:0:0:0:
288,192,234385,1,2,0:0:0:0:
288,192,234463,1,0,0:0:0:0:
288,192,234541,1,0,0:0:0:0:
288,192,234619,1,2,0:0:0:0:
288,192,234854,1,4,0:0:0:0:
352,192,235322,1,2,0:0:0:0:
320,192,235479,1,0,0:0:0:0:
320,192,235557,1,2,0:0:0:0:
352,192,235791,1,2,0:0:0:0:
320,192,235948,1,0,0:0:0:0:
320,192,236026,1,2,0:0:0:0:
352,192,236260,1,2,0:0:0:0:
320,192,236417,1,0,0:0:0:0:
320,192,236495,1,2,0:0:0:0:
416,224,236729,1,0,0:0:0:0:
224,192,236885,1,0,0:0:0:0:
224,192,236963,1,2,0:0:0:0:
224,192,237119,1,0,0:0:0:0:
224,192,237197,1,0,0:0:0:0:
224,192,237354,1,2,0:0:0:0:
256,192,237432,1,2,0:0:0:0:
224,192,237588,1,0,0:0:0:0:
224,192,237666,1,0,0:0:0:0:
224,192,237822,1,0,0:0:0:0:
224,192,237900,1,2,0:0:0:0:
224,192,238056,1,0,0:0:0:0:
224,192,238134,1,0,0:0:0:0:
224,192,238291,1,2,0:0:0:0:
256,192,238369,1,2,0:0:0:0:
224,192,238525,1,0,0:0:0:0:
224,192,238603,1,0,0:0:0:0:
256,224,238838,1,0,0:0:0:0:
256,192,239072,1,2,0:0:0:0:
256,160,239229,1,0,0:0:0:0:
256,160,239307,1,2,0:0:0:0:
256,160,239463,1,0,0:0:0:0:
256,160,239541,1,2,0:0:0:0:
224,192,240010,1,2,0:0:0:0:
288,192,240479,1,0,0:0:0:0:
288,160,240635,1,0,0:0:0:0:
288,160,240713,1,2,0:0:0:0:
416,192,240791,1,2,0:0:0:0:
416,224,240869,1,0,0:0:0:0:
416,224,240947,1,0,0:0:0:0:
416,224,241104,1,2,0:0:0:0:
416,224,241182,1,2,0:0:0:0:
416,224,241260,1,0,0:0:0:0:
416,224,241338,1,0,0:0:0:0:
416,224,241416,1,0,0:0:0:0:
416,224,241572,1,2,0:0:0:0:
416,224,241650,1,2,0:0:0:0:
416,224,241729,1,0,0:0:0:0:
416,224,241807,1,0,0:0:0:0:
416,224,241885,1,2,0:0:0:0:
384,224,241963,1,0,0:0:0:0:
384,224,242041,1,0,0:0:0:0:
384,224,242119,1,2,0:0:0:0:
448,224,242354,1,4,0:0:0:0:
288,192,242822,1,0,0:0:0:0:
288,192,242979,1,2,0:0:0:0:
288,192,243057,1,0,0:0:0:0:
288,192,243291,1,0,0:0:0:0:
288,192,243448,1,2,0:0:0:0:
288,192,243526,1,0,0:0:0:0:
288,192,243760,1,0,0:0:0:0:
288,192,243917,1,2,0:0:0:0:
288,192,243995,1,0,0:0:0:0:
352,160,244229,1,0,0:0:0:0:
192,192,244385,1,0,0:0:0:0:
192,128,244463,1,2,0:0:0:0:
192,128,244619,1,2,0:0:0:0:
192,128,244697,1,0,0:0:0:0:
192,128,244854,1,0,0:0:0:0:
192,128,244932,1,2,0:0:0:0:
192,128,245088,1,2,0:0:0:0:
192,128,245166,1,0,0:0:0:0:
320,192,245322,1,2,0:0:0:0:
320,192,245400,1,2,0:0:0:0:
288,192,245557,1,0,0:0:0:0:
256,192,245635,1,0,0:0:0:0:
256,128,245791,1,2,0:0:0:0:
256,128,245869,1,2,0:0:0:0:
224,160,246025,1,0,0:0:0:0:
224,160,246104,1,0,0:0:0:0:
320,192,246338,1,0,0:0:0:0:
320,192,246572,1,2,0:0:0:0:
320,192,246729,1,0,0:0:0:0:
320,192,246807,1,2,0:0:0:0:
320,192,246963,1,0,0:0:0:0:
320,192,247041,1,2,0:0:0:0:
224,192,247510,1,2,0:0:0:0:
352,224,247979,1,0,0:0:0:0:
352,224,248135,1,0,0:0:0:0:
352,224,248213,1,2,0:0:0:0:
352,224,248369,1,2,0:0:0:0:
352,224,248447,1,0,0:0:0:0:
256,160,248682,1,2,0:0:0:0:
320,224,248916,1,2,0:0:0:0:
416,192,249033,1,2,0:0:0:0:
416,192,249092,1,2,0:0:0:0:
416,192,249150,1,2,0:0:0:0:
416,192,249385,1,2,0:0:0:0:
416,192,249619,1,2,0:0:0:0:
416,192,249736,1,2,0:0:0:0:
416,192,249854,1,0,0:0:0:0:
288,192,250322,1,4,0:0:0:0:
320,192,250557,1,2,0:0:0:0:
320,192,250674,1,2,0:0:0:0:
320,192,250791,1,0,0:0:0:0:
320,192,251025,1,0,0:0:0:0:
320,192,251143,1,0,0:0:0:0:
320,192,251260,1,2,0:0:0:0:
256,192,251494,1,2,0:0:0:0:
256,192,251611,1,0,0:0:0:0:
256,192,251729,1,2,0:0:0:0:
256,192,251846,1,0,0:0:0:0:
256,192,251963,1,2,0:0:0:0:
256,192,252080,1,2,0:0:0:0:
256,192,252197,1,0,0:0:0:0:
256,192,252432,1,0,0:0:0:0:
256,192,252666,1,2,0:0:0:0:
288,160,252783,1,0,0:0:0:0:
288,160,253018,1,0,0:0:0:0:
288,160,253252,1,0,0:0:0:0:
288,160,253369,1,0,0:0:0:0:
256,224,253604,1,2,0:0:0:0:
256,224,253721,1,2,0:0:0:0:
256,224,253838,1,0,0:0:0:0:
256,224,254072,1,0,0:0:0:0:
384,192,254307,1,0,0:0:0:0:
384,192,254541,1,2,0:0:0:0:
384,192,254658,1,0,0:0:0:0:
384,192,254775,1,0,0:0:0:0:
448,224,255010,1,0,0:0:0:0:
448,224,255244,1,0,0:0:0:0:
448,224,255361,1,0,0:0:0:0:
448,224,255479,1,2,0:0:0:0:
384,256,255596,1,0,0:0:0:0:
384,256,255713,1,2,0:0:0:0:
384,256,255830,1,2,0:0:0:0:
384,256,255947,1,0,0:0:0:0:
352,224,256182,1,0,0:0:0:0:
224,192,256299,1,0,0:0:0:0:
352,224,256416,1,2,0:0:0:0:
256,192,256650,1,0,0:0:0:0:
256,192,256885,1,0,0:0:0:0:
384,192,257119,1,0,0:0:0:0:
384,192,257236,1,0,0:0:0:0:
384,192,257354,1,2,0:0:0:0:
224,224,257588,1,0,0:0:0:0:
288,160,257822,1,2,0:0:0:0:
192,192,258057,1,0,0:0:0:0:
192,192,258174,1,2,0:0:0:0:
192,192,258291,1,2,0:0:0:0:
224,192,258525,1,0,0:0:0:0:
256,192,258643,1,0,0:0:0:0:
224,192,258760,1,0,0:0:0:0:
416,192,258994,1,0,0:0:0:0:
416,192,259229,1,2,0:0:0:0:
224,224,259463,1,0,0:0:0:0:
224,224,259580,1,0,0:0:0:0:
256,224,259697,1,2,0:0:0:0:
256,224,259814,1,0,0:0:0:0:
256,224,259932,1,2,0:0:0:0:
320,192,260166,1,2,0:0:0:0:
320,192,260283,1,0,0:0:0:0:
320,192,260518,1,0,0:0:0:0:
320,192,260752,1,0,0:0:0:0:
320,192,260869,1,0,0:0:0:0:
256,192,260986,1,0,0:0:0:0:
256,192,261104,1,2,0:0:0:0:
320,192,261338,1,2,0:0:0:0:
320,192,261455,1,2,0:0:0:0:
320,192,261572,1,0,0:0:0:0:
448,192,261807,1,0,0:0:0:0:
448,192,261924,1,0,0:0:0:0:
448,192,262041,1,2,0:0:0:0:
288,224,262275,1,2,0:0:0:0:
288,224,262393,1,2,0:0:0:0:
288,224,262510,1,0,0:0:0:0:
320,192,262744,1,0,0:0:0:0:
320,192,262861,1,0,0:0:0:0:
320,192,262979,1,2,0:0:0:0:
256,192,263213,1,2,0:0:0:0:
256,192,263447,1,2,0:0:0:0:
320,192,263682,1,2,0:0:0:0:
320,192,263799,1,2,0:0:0:0:
320,192,263916,1,2,0:0:0:0:
192,160,264385,1,2,0:0:0:0:
192,160,264619,1,2,0:0:0:0:
320,192,264854,1,4,0:0:0:0:
256,224,265088,1,2,0:0:0:0:
256,224,265205,1,2,0:0:0:0:
256,224,265322,1,0,0:0:0:0:
256,224,265439,1,2,0:0:0:0:
256,224,265674,1,2,0:0:0:0:
256,224,265791,1,0,0:0:0:0:
256,192,266025,1,2,0:0:0:0:
256,192,266143,1,2,0:0:0:0:
256,192,266260,1,0,0:0:0:0:
256,192,266377,1,0,0:0:0:0:
256,192,266494,1,2,0:0:0:0:
256,192,266611,1,2,0:0:0:0:
256,192,266729,1,0,0:0:0:0:
288,192,266963,1,0,0:0:0:0:
288,192,267197,1,2,0:0:0:0:
288,192,267314,1,0,0:0:0:0:
288,192,267549,1,0,0:0:0:0:
288,192,267783,1,0,0:0:0:0:
288,192,267900,1,0,0:0:0:0:
288,192,268018,1,0,0:0:0:0:
288,192,268135,1,2,0:0:0:0:
288,192,268252,1,2,0:0:0:0:
288,192,268369,1,2,0:0:0:0:
288,192,268486,1,0,0:0:0:0:
288,192,268604,1,0,0:0:0:0:
256,192,268838,1,0,0:0:0:0:
256,192,268955,1,0,0:0:0:0:
256,192,269072,1,2,0:0:0:0:
256,192,269189,1,0,0:0:0:0:
288,160,269424,1,0,0:0:0:0:
288,160,269541,1,2,0:0:0:0:
320,192,269775,1,2,0:0:0:0:
320,192,269893,1,2,0:0:0:0:
320,224,270010,1,0,0:0:0:0:
320,224,270127,1,0,0:0:0:0:
320,224,270244,1,2,0:0:0:0:
320,224,270361,1,2,0:0:0:0:
320,224,270479,1,0,0:0:0:0:
320,224,270713,1,0,0:0:0:0:
320,224,270947,1,0,0:0:0:0:
320,224,271064,1,2,0:0:0:0:
320,224,271299,1,0,0:0:0:0:
416,192,271533,1,0,0:0:0:0:
416,192,271650,1,2,0:0:0:0:
416,192,271768,1,0,0:0:0:0:
416,192,271885,1,2,0:0:0:0:
416,192,272002,1,2,0:0:0:0:
416,192,272119,1,2,0:0:0:0:
416,192,272236,1,2,0:0:0:0:
416,192,272354,1,0,0:0:0:0:
224,224,272588,1,2,0:0:0:0:
224,224,272705,1,2,0:0:0:0:
224,224,272822,1,0,0:0:0:0:
224,224,272939,1,2,0:0:0:0:
224,256,273174,1,2,0:0:0:0:
224,256,273291,1,0,0:0:0:0:
288,160,273525,1,2,0:0:0:0:
288,160,273643,1,2,0:0:0:0:
288,160,273760,1,0,0:0:0:0:
288,160,273877,1,2,0:0:0:0:
288,160,273994,1,2,0:0:0:0:
288,160,274111,1,2,0:0:0:0:
288,192,274229,1,0,0:0:0:0:
192,192,274463,1,0,0:0:0:0:
192,192,274697,1,2,0:0:0:0:
192,224,274814,1,0,0:0:0:0:
192,224,275049,1,0,0:0:0:0:
192,224,275283,1,0,0:0:0:0:
192,224,275400,1,2,0:0:0:0:
192,224,275518,1,0,0:0:0:0:
192,224,275635,1,2,0:0:0:0:
192,224,275752,1,0,0:0:0:0:
192,224,275869,1,0,0:0:0:0:
192,224,275986,1,2,0:0:0:0:
192,224,276104,1,0,0:0:0:0:
288,128,276338,1,0,0:0:0:0:
256,160,276455,1,0,0:0:0:0:
256,160,276572,1,2,0:0:0:0:
256,160,276689,1,0,0:0:0:0:
256,160,276924,1,0,0:0:0:0:
256,192,277041,1,0,0:0:0:0:
256,192,277275,1,2,0:0:0:0:
256,192,277393,1,2,0:0:0:0:
256,192,277510,1,0,0:0:0:0:
256,192,277627,1,0,0:0:0:0:
256,192,277744,1,2,0:0:0:0:
256,192,277861,1,2,0:0:0:0:
256,192,277979,1,0,0:0:0:0:
288,192,278213,1,0,0:0:0:0:
288,192,278447,1,2,0:0:0:0:
288,192,278564,1,2,0:0:0:0:
352,128,278799,1,2,0:0:0:0:
256,192,279150,1,2,0:0:0:0:
256,192,279385,1,2,0:0:0:0:
256,192,279619,1,2,0:0:0:0:
224,192,279854,1,4,0:0:0:0:
320,192,280322,1,4,0:0:0:0:
256,160,280557,1,2,0:0:0:0:
256,160,280674,1,2,0:0:0:0:
256,160,280791,1,0,0:0:0:0:
288,160,281025,1,2,0:0:0:0:
288,160,281143,1,0,0:0:0:0:
320,160,281377,1,0,0:0:0:0:
320,160,281494,1,2,0:0:0:0:
256,224,281729,1,2,0:0:0:0:
256,224,281963,1,2,0:0:0:0:
256,224,282197,1,0,0:0:0:0:
256,224,282314,1,0,0:0:0:0:
256,224,282549,1,2,0:0:0:0:
320,192,282783,1,0,0:0:0:0:
320,192,282900,1,0,0:0:0:0:
320,192,283135,1,6,0:0:0:0:
192,224,283604,1,0,0:0:0:0:
288,256,284072,1,0,0:0:0:0:
288,192,284307,1,2,0:0:0:0:
288,192,284424,1,2,0:0:0:0:
288,192,284541,1,0,0:0:0:0:
352,160,284775,1,2,0:0:0:0:
352,160,284893,1,0,0:0:0:0:
384,160,285127,1,0,0:0:0:0:
384,160,285244,1,2,0:0:0:0:
352,192,285479,1,0,0:0:0:0:
352,192,285713,1,0,0:0:0:0:
352,192,285947,1,2,0:0:0:0:
352,192,286064,1,2,0:0:0:0:
352,192,286299,1,2,0:0:0:0:
256,160,286650,1,2,0:0:0:0:
256,160,286768,1,2,0:0:0:0:
256,160,286885,1,0,0:0:0:0:
256,160,287002,1,0,0:0:0:0:
256,160,287119,1,2,0:0:0:0:
256,192,287236,1,2,0:0:0:0:
256,192,287354,1,0,0:0:0:0:
256,192,287822,1,0,0:0:0:0:
352,224,288057,1,2,0:0:0:0:
352,224,288174,1,2,0:0:0:0:
352,224,288291,1,0,0:0:0:0:
352,224,288525,1,2,0:0:0:0:
352,224,288643,1,0,0:0:0:0:
352,224,288877,1,0,0:0:0:0:
352,224,288994,1,2,0:0:0:0:
320,192,289229,1,2,0:0:0:0:
320,192,289463,1,2,0:0:0:0:
320,192,289697,1,0,0:0:0:0:
320,192,289814,1,0,0:0:0:0:
320,192,290049,1,2,0:0:0:0:
320,192,290283,1,0,0:0:0:0:
320,192,290400,1,0,0:0:0:0:
320,192,290635,1,6,0:0:0:0:
352,192,291104,1,4,0:0:0:0:
320,224,291572,1,0,0:0:0:0:
320,224,291807,1,2,0:0:0:0:
320,224,291924,1,2,0:0:0:0:
320,224,292041,1,0,0:0:0:0:
320,192,292275,1,2,0:0:0:0:
320,192,292393,1,2,0:0:0:0:
320,192,292510,1,0,0:0:0:0:
320,192,292627,1,0,0:0:0:0:
320,192,292744,1,2,0:0:0:0:
320,192,292979,1,2,0:0:0:0:
320,192,293213,1,0,0:0:0:0:
320,192,293447,1,2,0:0:0:0:
320,192,293564,1,2,0:0:0:0:
320,192,293799,1,2,0:0:0:0:
320,192,294150,1,2,0:0:0:0:
320,192,294385,1,2,0:0:0:0:
320,192,294619,1,2,0:0:0:0:
320,192,294854,1,4,0:0:0:0:
288,192,295322,1,2,0:0:0:0:
352,192,296025,1,0,0:0:0:0:
192,224,296260,1,2,0:0:0:0:
192,224,296377,1,0,0:0:0:0:
320,192,296729,1,0,0:0:0:0:
352,192,296963,1,2,0:0:0:0:
352,192,297080,1,2,0:0:0:0:
288,160,297314,1,2,0:0:0:0:
352,160,297588,1,2,0:0:0:0:
352,160,297666,1,0,0:0:0:0:
352,160,297744,1,0,0:0:0:0:
352,160,297822,1,0,0:0:0:0:
352,160,297900,1,2,0:0:0:0:
320,256,298135,1,0,0:0:0:0:
320,256,298291,1,0,0:0:0:0:
320,256,298369,1,2,0:0:0:0:
288,224,298604,1,0,0:0:0:0:
224,192,299072,1,2,0:0:0:0:
288,192,299775,1,0,0:0:0:0:
288,192,300010,1,2,0:0:0:0:
320,192,300479,1,0,0:0:0:0:
320,224,300635,1,0,0:0:0:0:
320,224,300713,1,2,0:0:0:0:
320,224,300947,1,0,0:0:0:0:
288,96,301104,1,2,0:0:0:0:
288,96,301182,1,2,0:0:0:0:
256,256,301416,1,0,0:0:0:0:
256,256,301572,1,0,0:0:0:0:
256,256,301650,1,0,0:0:0:0:
288,224,301885,1,2,0:0:0:0:
288,224,302041,1,0,0:0:0:0:
256,224,302354,1,0,0:0:0:0:
256,224,302510,1,2,0:0:0:0:
256,224,302588,1,2,0:0:0:0:
256,224,302744,1,2,0:0:0:0:
256,224,302822,1,2,0:0:0:0:
256,224,302979,1,2,0:0:0:0:
256,224,303057,1,2,0:0:0:0:
256,224,303213,1,2,0:0:0:0:
256,224,303291,1,2,0:0:0:0:
352,224,303447,1,2,0:0:0:0:
352,224,303525,1,2,0:0:0:0:
352,224,303682,1,2,0:0:0:0:
224,192,303994,1,2,0:0:0:0:
224,192,304072,1,2,0:0:0:0:
224,192,304150,1,2,0:0:0:0:
224,192,304229,1,0,0:0:0:0:
320,160,304385,1,2,0:0:0:0:
320,160,304463,1,2,0:0:0:0:
320,160,304619,1,2,0:0:0:0:
320,160,304697,1,2,0:0:0:0:
320,160,304854,1,2,0:0:0:0:
320,160,304932,1,2,0:0:0:0:
320,160,305088,1,2,0:0:0:0:
320,160,305166,1,2,0:0:0:0:
320,160,305322,1,2,0:0:0:0:
288,192,305400,1,2,0:0:0:0:
320,160,305557,1,2,0:0:0:0:
288,224,305869,1,2,0:0:0:0:
288,224,305947,1,2,0:0:0:0:
288,224,306025,1,2,0:0:0:0:
288,224,306104,1,0,0:0:0:0:
288,224,306260,1,0,0:0:0:0:
288,224,306338,1,2,0:0:0:0:
288,224,306494,1,2,0:0:0:0:
288,224,306572,1,0,0:0:0:0:
288,224,306729,1,0,0:0:0:0:
288,192,306807,1,2,0:0:0:0:
320,192,306963,1,2,0:0:0:0:
320,192,307041,1,2,0:0:0:0:
320,192,307197,1,2,0:0:0:0:
320,192,307275,1,2,0:0:0:0:
320,192,307432,1,2,0:0:0:0:
320,192,307510,1,2,0:0:0:0:
224,192,307666,1,2,0:0:0:0:
224,192,307744,1,2,0:0:0:0:
224,192,307900,1,2,0:0:0:0:
320,256,307979,1,0,0:0:0:0:
256,224,308916,1,0,0:0:0:0:
288,128,309854,1,0,0:0:0:0:
