osu file format v14

[General]
AudioFilename: [Melodic Speedcore] Camellia - Bangin Burst.mp3
AudioLeadIn: 0
PreviewTime: 48945
Countdown: 0
SampleSet: None
StackLeniency: 0.7
Mode: 3
LetterboxInBreaks: 0
SpecialStyle: 0
WidescreenStoryboard: 0

[Editor]
DistanceSpacing: 0.8
BeatDivisor: 4
GridSize: 32
TimelineZoom: 1

[Metadata]
Title:Bangin Burst
TitleUnicode:Bangin Burst
Artist:Camellia
ArtistUnicode:Camellia
Creator:juankristal
Version:Stage 4: Cancer
Source:
Tags:Guilhermeziat
BeatmapID:1494550
BeatmapSetID:706900

[Difficulty]
HPDrainRate:8
CircleSize:4
OverallDifficulty:8
ApproachRate:5
SliderMultiplier:1.4
SliderTickRate:1

[Events]
//Background and Video events
0,0,"bg.png",0,0
//Break Periods
//Storyboard Layer 0 (Background)
//Storyboard Layer 1 (Fail)
//Storyboard Layer 2 (Pass)
//Storyboard Layer 3 (Foreground)
//Storyboard Sound Samples

[TimingPoints]
869,256.410256,4,1,0,100,1,0

[HitObjects]
64,192,676,128,0,869:0:0:0:0:
192,192,869,1,0,0:0:0:0:
320,192,869,1,0,0:0:0:0:
448,192,869,1,0,0:0:0:0:
448,192,997,1,0,0:0:0:0:
64,192,1061,1,0,0:0:0:0:
448,192,1125,1,0,0:0:0:0:
192,192,1253,1,0,0:0:0:0:
192,192,1510,1,0,0:0:0:0:
320,192,1638,1,0,0:0:0:0:
448,192,1894,1,0,0:0:0:0:
64,192,2022,1,0,0:0:0:0:
64,192,2151,1,0,0:0:0:0:
448,192,2279,1,0,0:0:0:0:
64,192,2407,1,0,0:0:0:0:
64,192,2535,1,0,0:0:0:0:
320,192,2663,1,0,0:0:0:0:
192,192,2792,128,0,2920:0:0:0:0:
64,192,2920,1,0,0:0:0:0:
320,192,2920,1,0,0:0:0:0:
448,192,2920,1,0,0:0:0:0:
320,192,3048,1,0,0:0:0:0:
448,192,3048,1,0,0:0:0:0:
320,192,3176,1,0,0:0:0:0:
448,192,3176,1,0,0:0:0:0:
192,192,3304,1,0,0:0:0:0:
192,192,3561,1,0,0:0:0:0:
64,192,3689,1,0,0:0:0:0:
320,192,3945,1,0,0:0:0:0:
448,192,4074,1,0,0:0:0:0:
64,192,4202,1,0,0:0:0:0:
320,192,4330,1,0,0:0:0:0:
192,192,4458,1,0,0:0:0:0:
64,192,4586,1,0,0:0:0:0:
320,192,4586,1,0,0:0:0:0:
64,192,4715,1,0,0:0:0:0:
448,192,4843,1,0,0:0:0:0:
192,192,4971,1,0,0:0:0:0:
448,192,4971,1,0,0:0:0:0:
192,192,5099,1,0,0:0:0:0:
320,192,5163,1,0,0:0:0:0:
192,192,5227,1,0,0:0:0:0:
448,192,5292,1,0,0:0:0:0:
320,192,5356,1,0,0:0:0:0:
64,192,5484,1,0,0:0:0:0:
64,192,5612,1,0,0:0:0:0:
448,192,5740,1,0,0:0:0:0:
320,192,5868,128,0,5997:0:0:0:0:
64,192,5997,1,0,0:0:0:0:
192,192,5997,1,0,0:0:0:0:
448,192,5997,1,0,0:0:0:0:
320,192,6125,1,0,0:0:0:0:
320,192,6253,1,0,0:0:0:0:
192,192,6381,1,0,0:0:0:0:
320,192,6510,1,0,0:0:0:0:
320,192,6638,1,0,0:0:0:0:
64,192,6702,1,0,0:0:0:0:
192,192,6766,1,0,0:0:0:0:
448,192,6766,1,0,0:0:0:0:
192,192,6894,1,0,0:0:0:0:
448,192,6894,1,0,0:0:0:0:
64,192,7022,1,0,0:0:0:0:
192,192,7022,1,0,0:0:0:0:
320,192,7022,1,0,0:0:0:0:
448,192,7151,1,0,0:0:0:0:
192,192,7215,1,0,0:0:0:0:
448,192,7279,1,0,0:0:0:0:
64,192,7407,128,0,7535:0:0:0:0:
192,192,7535,1,0,0:0:0:0:
320,192,7535,1,0,0:0:0:0:
448,192,7535,1,0,0:0:0:0:
320,192,7663,1,0,0:0:0:0:
192,192,7792,1,0,0:0:0:0:
448,192,7920,1,0,0:0:0:0:
64,192,8048,1,0,0:0:0:0:
64,192,8304,1,0,0:0:0:0:
320,192,8497,1,0,0:0:0:0:
64,192,8817,1,0,0:0:0:0:
448,192,8817,1,0,0:0:0:0:
64,192,9074,1,0,0:0:0:0:
320,192,9074,1,0,0:0:0:0:
448,192,9074,1,0,0:0:0:0:
320,192,9202,1,0,0:0:0:0:
192,192,9330,1,0,0:0:0:0:
192,192,9458,1,0,0:0:0:0:
448,192,9586,1,0,0:0:0:0:
448,192,9715,1,0,0:0:0:0:
64,192,9843,1,0,0:0:0:0:
64,192,9971,1,0,0:0:0:0:
320,192,10035,1,0,0:0:0:0:
192,192,10099,1,0,0:0:0:0:
192,192,10227,1,0,0:0:0:0:
320,192,10356,1,0,0:0:0:0:
320,192,10484,1,0,0:0:0:0:
448,192,10548,1,0,0:0:0:0:
192,192,10612,1,0,0:0:0:0:
192,192,10740,1,0,0:0:0:0:
448,192,10868,1,0,0:0:0:0:
64,192,10933,1,0,0:0:0:0:
320,192,10997,1,0,0:0:0:0:
64,192,11061,1,0,0:0:0:0:
448,192,11125,1,0,0:0:0:0:
448,192,11253,1,0,0:0:0:0:
192,192,11381,1,0,0:0:0:0:
192,192,11510,1,0,0:0:0:0:
320,192,11638,1,0,0:0:0:0:
320,192,11766,1,0,0:0:0:0:
64,192,11894,1,0,0:0:0:0:
64,192,12022,1,0,0:0:0:0:
448,192,12086,1,0,0:0:0:0:
192,192,12151,128,0,12279:0:0:0:0:
320,192,12279,1,0,0:0:0:0:
64,192,12343,1,0,0:0:0:0:
320,192,12407,1,0,0:0:0:0:
192,192,12535,128,0,12663:0:0:0:0:
64,192,12663,1,0,0:0:0:0:
448,192,12727,1,0,0:0:0:0:
64,192,12792,1,0,0:0:0:0:
448,192,12920,1,0,0:0:0:0:
448,192,13048,1,0,0:0:0:0:
192,192,13176,1,0,0:0:0:0:
192,192,13304,1,0,0:0:0:0:
64,192,13433,1,0,0:0:0:0:
64,192,13561,1,0,0:0:0:0:
320,192,13689,1,0,0:0:0:0:
320,192,13817,1,0,0:0:0:0:
448,192,13945,1,0,0:0:0:0:
448,192,14074,1,0,0:0:0:0:
320,192,14138,1,0,0:0:0:0:
192,192,14202,1,0,0:0:0:0:
192,192,14330,1,0,0:0:0:0:
320,192,14458,1,0,0:0:0:0:
320,192,14586,1,0,0:0:0:0:
192,192,14651,1,0,0:0:0:0:
64,192,14715,1,0,0:0:0:0:
448,192,14715,1,0,0:0:0:0:
64,192,14843,1,0,0:0:0:0:
448,192,14843,1,0,0:0:0:0:
192,192,14971,1,0,0:0:0:0:
320,192,15035,1,0,0:0:0:0:
448,192,15099,1,0,0:0:0:0:
64,192,15163,1,0,0:0:0:0:
192,192,15227,1,0,0:0:0:0:
320,192,15227,1,0,0:0:0:0:
448,192,15227,1,0,0:0:0:0:
192,192,15484,1,0,0:0:0:0:
192,192,15612,1,0,0:0:0:0:
64,192,15740,1,0,0:0:0:0:
192,192,15740,1,0,0:0:0:0:
320,192,15740,1,0,0:0:0:0:
448,192,15868,128,0,15997:0:0:0:0:
64,192,15997,1,0,0:0:0:0:
320,192,16061,1,0,0:0:0:0:
64,192,16125,1,0,0:0:0:0:
320,192,16189,1,0,0:0:0:0:
64,192,16253,1,0,0:0:0:0:
192,192,16253,1,0,0:0:0:0:
448,192,16253,1,0,0:0:0:0:
320,192,16381,128,0,16510:0:0:0:0:
448,192,16510,1,0,0:0:0:0:
192,192,16574,1,0,0:0:0:0:
448,192,16638,1,0,0:0:0:0:
192,192,16702,1,0,0:0:0:0:
320,192,16766,1,0,0:0:0:0:
64,192,16830,1,0,0:0:0:0:
192,192,16894,1,0,0:0:0:0:
320,192,16958,1,0,0:0:0:0:
448,192,17022,1,0,0:0:0:0:
448,192,17151,1,0,0:0:0:0:
64,192,17279,1,0,0:0:0:0:
320,192,17279,1,0,0:0:0:0:
448,192,17279,1,0,0:0:0:0:
320,192,17407,1,0,0:0:0:0:
64,192,17535,1,0,0:0:0:0:
64,192,17663,1,0,0:0:0:0:
192,192,17663,1,0,0:0:0:0:
320,192,17792,1,0,0:0:0:0:
192,192,17920,1,0,0:0:0:0:
320,192,17920,1,0,0:0:0:0:
448,192,18048,1,0,0:0:0:0:
64,192,18176,1,0,0:0:0:0:
448,192,18176,1,0,0:0:0:0:
192,192,18240,1,0,0:0:0:0:
320,192,18304,1,0,0:0:0:0:
192,192,18433,1,0,0:0:0:0:
320,192,18433,1,0,0:0:0:0:
64,192,18561,1,0,0:0:0:0:
64,192,18689,1,0,0:0:0:0:
192,192,18689,1,0,0:0:0:0:
448,192,18753,1,0,0:0:0:0:
320,192,18817,1,0,0:0:0:0:
64,192,18945,1,0,0:0:0:0:
320,192,18945,1,0,0:0:0:0:
64,192,19074,1,0,0:0:0:0:
448,192,19074,1,0,0:0:0:0:
192,192,19138,1,0,0:0:0:0:
320,192,19202,1,0,0:0:0:0:
448,192,19266,1,0,0:0:0:0:
64,192,19330,1,0,0:0:0:0:
192,192,19330,1,0,0:0:0:0:
320,192,19501,1,0,0:0:0:0:
448,192,19501,1,0,0:0:0:0:
64,192,19672,1,0,0:0:0:0:
192,192,19672,1,0,0:0:0:0:
320,192,19843,1,0,0:0:0:0:
448,192,19843,1,0,0:0:0:0:
64,192,20014,1,0,0:0:0:0:
192,192,20014,1,0,0:0:0:0:
320,192,20185,1,0,0:0:0:0:
448,192,20185,1,0,0:0:0:0:
64,192,20356,1,0,0:0:0:0:
192,192,20356,1,0,0:0:0:0:
448,192,20356,1,0,0:0:0:0:
64,192,20548,1,0,0:0:0:0:
320,192,20548,1,0,0:0:0:0:
448,192,20548,1,0,0:0:0:0:
64,192,20740,1,0,0:0:0:0:
192,192,20740,1,0,0:0:0:0:
320,192,20740,1,0,0:0:0:0:
192,192,20933,1,0,0:0:0:0:
320,192,20933,1,0,0:0:0:0:
448,192,20933,1,0,0:0:0:0:
64,192,21125,1,0,0:0:0:0:
320,192,21125,1,0,0:0:0:0:
448,192,21125,1,0,0:0:0:0:
192,192,21253,1,0,0:0:0:0:
320,192,21253,1,0,0:0:0:0:
64,192,21381,1,0,0:0:0:0:
192,192,21381,1,0,0:0:0:0:
448,192,21381,1,0,0:0:0:0:
320,192,21510,1,0,0:0:0:0:
448,192,21510,1,0,0:0:0:0:
192,192,21638,1,0,0:0:0:0:
320,192,21702,1,0,0:0:0:0:
64,192,21766,1,0,0:0:0:0:
320,192,21830,1,0,0:0:0:0:
192,192,21894,1,0,0:0:0:0:
192,192,22022,1,0,0:0:0:0:
320,192,22022,1,0,0:0:0:0:
64,192,22151,1,0,0:0:0:0:
64,192,22279,1,0,0:0:0:0:
320,192,22279,1,0,0:0:0:0:
192,192,22343,1,0,0:0:0:0:
448,192,22407,1,0,0:0:0:0:
320,192,22535,1,0,0:0:0:0:
448,192,22535,1,0,0:0:0:0:
64,192,22663,1,0,0:0:0:0:
64,192,22792,1,0,0:0:0:0:
192,192,22792,1,0,0:0:0:0:
320,192,22856,1,0,0:0:0:0:
448,192,22920,1,0,0:0:0:0:
192,192,23048,1,0,0:0:0:0:
448,192,23048,1,0,0:0:0:0:
192,192,23176,1,0,0:0:0:0:
320,192,23176,1,0,0:0:0:0:
448,192,23240,1,0,0:0:0:0:
64,192,23304,1,0,0:0:0:0:
320,192,23368,1,0,0:0:0:0:
64,192,23433,1,0,0:0:0:0:
192,192,23433,1,0,0:0:0:0:
64,192,23689,1,0,0:0:0:0:
192,192,23689,1,0,0:0:0:0:
64,192,23945,1,0,0:0:0:0:
192,192,23945,1,0,0:0:0:0:
192,192,24074,1,0,0:0:0:0:
320,192,24074,1,0,0:0:0:0:
320,192,24202,1,0,0:0:0:0:
448,192,24202,1,0,0:0:0:0:
64,192,24330,1,0,0:0:0:0:
448,192,24330,1,0,0:0:0:0:
64,192,24458,1,0,0:0:0:0:
192,192,24458,1,0,0:0:0:0:
448,192,24522,1,0,0:0:0:0:
192,192,24586,1,0,0:0:0:0:
320,192,24586,1,0,0:0:0:0:
64,192,24651,1,0,0:0:0:0:
320,192,24715,1,0,0:0:0:0:
448,192,24715,1,0,0:0:0:0:
320,192,24843,1,0,0:0:0:0:
448,192,24843,1,0,0:0:0:0:
192,192,24971,128,0,25099:0:0:0:0:
320,192,25099,128,0,25163:0:0:0:0:
448,192,25227,1,0,0:0:0:0:
64,192,25292,1,0,0:0:0:0:
448,192,25356,1,0,0:0:0:0:
64,192,25420,1,0,0:0:0:0:
192,192,25484,1,0,0:0:0:0:
320,192,25484,1,0,0:0:0:0:
192,192,25612,1,0,0:0:0:0:
448,192,25612,1,0,0:0:0:0:
320,192,25740,1,0,0:0:0:0:
64,192,25868,1,0,0:0:0:0:
320,192,25868,1,0,0:0:0:0:
192,192,25997,1,0,0:0:0:0:
192,192,26125,1,0,0:0:0:0:
448,192,26125,1,0,0:0:0:0:
320,192,26253,1,0,0:0:0:0:
320,192,26381,1,0,0:0:0:0:
448,192,26381,1,0,0:0:0:0:
64,192,26445,1,0,0:0:0:0:
192,192,26510,1,0,0:0:0:0:
64,192,26638,1,0,0:0:0:0:
192,192,26638,1,0,0:0:0:0:
448,192,26702,1,0,0:0:0:0:
320,192,26766,1,0,0:0:0:0:
192,192,26894,1,0,0:0:0:0:
320,192,26894,1,0,0:0:0:0:
64,192,27022,1,0,0:0:0:0:
448,192,27022,1,0,0:0:0:0:
192,192,27279,1,0,0:0:0:0:
320,192,27279,1,0,0:0:0:0:
64,192,27535,1,0,0:0:0:0:
320,192,27535,1,0,0:0:0:0:
448,192,27535,1,0,0:0:0:0:
64,192,27663,1,0,0:0:0:0:
192,192,27663,1,0,0:0:0:0:
320,192,27792,1,0,0:0:0:0:
192,192,27920,1,0,0:0:0:0:
320,192,27920,1,0,0:0:0:0:
448,192,28048,1,0,0:0:0:0:
320,192,28176,1,0,0:0:0:0:
448,192,28176,1,0,0:0:0:0:
64,192,28304,1,0,0:0:0:0:
64,192,28433,1,0,0:0:0:0:
448,192,28433,1,0,0:0:0:0:
192,192,28497,1,0,0:0:0:0:
320,192,28561,1,0,0:0:0:0:
64,192,28689,1,0,0:0:0:0:
448,192,28689,1,0,0:0:0:0:
192,192,28753,1,0,0:0:0:0:
320,192,28817,1,0,0:0:0:0:
448,192,28903,1,0,0:0:0:0:
192,192,28988,1,0,0:0:0:0:
64,192,29074,1,0,0:0:0:0:
64,192,29330,1,0,0:0:0:0:
64,192,29586,1,0,0:0:0:0:
320,192,29586,1,0,0:0:0:0:
448,192,29586,1,0,0:0:0:0:
192,192,29715,1,0,0:0:0:0:
320,192,29715,1,0,0:0:0:0:
192,192,29843,1,0,0:0:0:0:
448,192,29843,1,0,0:0:0:0:
64,192,29971,1,0,0:0:0:0:
448,192,29971,1,0,0:0:0:0:
64,192,30099,1,0,0:0:0:0:
192,192,30099,1,0,0:0:0:0:
320,192,30185,1,0,0:0:0:0:
448,192,30185,1,0,0:0:0:0:
64,192,30270,1,0,0:0:0:0:
192,192,30270,1,0,0:0:0:0:
320,192,30356,1,0,0:0:0:0:
448,192,30356,1,0,0:0:0:0:
64,192,30441,1,0,0:0:0:0:
192,192,30441,1,0,0:0:0:0:
448,192,30527,1,0,0:0:0:0:
192,192,30612,1,0,0:0:0:0:
320,192,30612,1,0,0:0:0:0:
192,192,30783,1,0,0:0:0:0:
320,192,30783,1,0,0:0:0:0:
192,192,30954,1,0,0:0:0:0:
320,192,30954,1,0,0:0:0:0:
192,192,31125,1,0,0:0:0:0:
448,192,31125,1,0,0:0:0:0:
64,192,31381,1,0,0:0:0:0:
320,192,31638,1,0,0:0:0:0:
448,192,31638,1,0,0:0:0:0:
64,192,31702,1,0,0:0:0:0:
320,192,31766,1,0,0:0:0:0:
192,192,31830,1,0,0:0:0:0:
64,192,31894,1,0,0:0:0:0:
192,192,32022,1,0,0:0:0:0:
448,192,32022,1,0,0:0:0:0:
192,192,32151,1,0,0:0:0:0:
448,192,32151,1,0,0:0:0:0:
64,192,32279,1,0,0:0:0:0:
320,192,32343,1,0,0:0:0:0:
192,192,32407,1,0,0:0:0:0:
448,192,32407,1,0,0:0:0:0:
448,192,32535,1,0,0:0:0:0:
192,192,32599,1,0,0:0:0:0:
64,192,32663,1,0,0:0:0:0:
320,192,32663,1,0,0:0:0:0:
448,192,32663,1,0,0:0:0:0:
192,192,32776,1,0,0:0:0:0:
320,192,32898,1,0,0:0:0:0:
320,192,33133,1,0,0:0:0:0:
448,192,33304,128,0,33433:0:0:0:0:
64,192,33433,1,0,0:0:0:0:
192,192,33497,1,0,0:0:0:0:
320,192,33561,1,0,0:0:0:0:
448,192,33625,1,0,0:0:0:0:
64,192,33689,1,0,0:0:0:0:
192,192,33689,1,0,0:0:0:0:
320,192,33817,1,0,0:0:0:0:
448,192,33945,1,0,0:0:0:0:
192,192,34074,1,0,0:0:0:0:
320,192,34202,1,0,0:0:0:0:
448,192,34330,1,0,0:0:0:0:
64,192,34458,1,0,0:0:0:0:
320,192,34586,1,0,0:0:0:0:
192,192,34715,1,0,0:0:0:0:
320,192,34843,1,0,0:0:0:0:
448,192,34971,1,0,0:0:0:0:
192,192,35099,1,0,0:0:0:0:
320,192,35163,1,0,0:0:0:0:
448,192,35227,1,0,0:0:0:0:
64,192,35356,1,0,0:0:0:0:
320,192,35484,1,0,0:0:0:0:
64,192,35612,1,0,0:0:0:0:
448,192,35740,1,0,0:0:0:0:
320,192,35868,1,0,0:0:0:0:
192,192,35997,1,0,0:0:0:0:
448,192,36125,1,0,0:0:0:0:
320,192,36253,1,0,0:0:0:0:
192,192,36381,1,0,0:0:0:0:
448,192,36510,1,0,0:0:0:0:
64,192,36638,1,0,0:0:0:0:
448,192,36766,1,0,0:0:0:0:
320,192,36894,1,0,0:0:0:0:
192,192,37022,1,0,0:0:0:0:
320,192,37086,1,0,0:0:0:0:
448,192,37151,1,0,0:0:0:0:
64,192,37215,1,0,0:0:0:0:
192,192,37279,1,0,0:0:0:0:
448,192,37279,1,0,0:0:0:0:
320,192,37407,1,0,0:0:0:0:
192,192,37535,1,0,0:0:0:0:
320,192,37535,1,0,0:0:0:0:
64,192,37663,1,0,0:0:0:0:
64,192,37792,1,0,0:0:0:0:
448,192,37792,1,0,0:0:0:0:
192,192,37920,1,0,0:0:0:0:
320,192,38048,1,0,0:0:0:0:
64,192,38176,1,0,0:0:0:0:
192,192,38304,1,0,0:0:0:0:
320,192,38433,1,0,0:0:0:0:
64,192,38561,1,0,0:0:0:0:
448,192,38689,1,0,0:0:0:0:
64,192,38817,1,0,0:0:0:0:
192,192,38945,1,0,0:0:0:0:
320,192,39074,1,0,0:0:0:0:
64,192,39202,1,0,0:0:0:0:
192,192,39266,1,0,0:0:0:0:
320,192,39330,1,0,0:0:0:0:
448,192,39458,1,0,0:0:0:0:
192,192,39586,1,0,0:0:0:0:
320,192,39715,1,0,0:0:0:0:
192,192,39843,1,0,0:0:0:0:
320,192,39843,1,0,0:0:0:0:
448,192,39843,1,0,0:0:0:0:
192,192,40099,128,0,40356:0:0:0:0:
64,192,40227,1,0,0:0:0:0:
320,192,40227,1,0,0:0:0:0:
448,192,40227,1,0,0:0:0:0:
64,192,40612,1,0,0:0:0:0:
192,192,40612,1,0,0:0:0:0:
320,192,40612,128,0,40868:0:0:0:0:
192,192,40997,1,0,0:0:0:0:
320,192,40997,1,0,0:0:0:0:
448,192,40997,1,0,0:0:0:0:
64,192,41125,1,0,0:0:0:0:
192,192,41253,1,0,0:0:0:0:
320,192,41317,1,0,0:0:0:0:
64,192,41381,1,0,0:0:0:0:
192,192,41381,1,0,0:0:0:0:
448,192,41381,128,0,41894:0:0:0:0:
64,192,41510,1,0,0:0:0:0:
320,192,41638,128,0,41894:0:0:0:0:
64,192,41894,1,0,0:0:0:0:
192,192,41894,1,0,0:0:0:0:
64,192,42022,1,0,0:0:0:0:
320,192,42151,1,0,0:0:0:0:
448,192,42279,1,0,0:0:0:0:
320,192,42407,1,0,0:0:0:0:
448,192,42407,1,0,0:0:0:0:
192,192,42535,1,0,0:0:0:0:
320,192,42663,1,0,0:0:0:0:
64,192,42792,1,0,0:0:0:0:
64,192,42920,1,0,0:0:0:0:
448,192,42920,1,0,0:0:0:0:
320,192,43048,1,0,0:0:0:0:
192,192,43176,1,0,0:0:0:0:
320,192,43176,1,0,0:0:0:0:
64,192,43304,1,0,0:0:0:0:
448,192,43368,1,0,0:0:0:0:
192,192,43433,1,0,0:0:0:0:
320,192,43561,1,0,0:0:0:0:
448,192,43689,1,0,0:0:0:0:
320,192,43817,1,0,0:0:0:0:
192,192,43945,1,0,0:0:0:0:
320,192,43945,1,0,0:0:0:0:
192,192,44074,1,0,0:0:0:0:
64,192,44202,1,0,0:0:0:0:
320,192,44330,1,0,0:0:0:0:
64,192,44458,1,0,0:0:0:0:
320,192,44458,1,0,0:0:0:0:
64,192,44586,1,0,0:0:0:0:
448,192,44715,1,0,0:0:0:0:
320,192,44843,1,0,0:0:0:0:
448,192,44843,1,0,0:0:0:0:
320,192,44971,1,0,0:0:0:0:
64,192,45099,1,0,0:0:0:0:
192,192,45099,1,0,0:0:0:0:
192,192,45227,1,0,0:0:0:0:
448,192,45292,1,0,0:0:0:0:
64,192,45356,1,0,0:0:0:0:
320,192,45420,1,0,0:0:0:0:
448,192,45484,1,0,0:0:0:0:
192,192,45612,1,0,0:0:0:0:
320,192,45740,1,0,0:0:0:0:
192,192,45868,1,0,0:0:0:0:
64,192,45997,1,0,0:0:0:0:
192,192,45997,1,0,0:0:0:0:
448,192,45997,1,0,0:0:0:0:
448,192,46125,1,0,0:0:0:0:
64,192,46253,1,0,0:0:0:0:
192,192,46381,1,0,0:0:0:0:
192,192,46510,1,0,0:0:0:0:
320,192,46510,1,0,0:0:0:0:
448,192,46510,1,0,0:0:0:0:
320,192,46638,1,0,0:0:0:0:
64,192,46766,1,0,0:0:0:0:
192,192,46894,1,0,0:0:0:0:
64,192,47022,1,0,0:0:0:0:
192,192,47022,1,0,0:0:0:0:
320,192,47022,1,0,0:0:0:0:
64,192,47151,1,0,0:0:0:0:
192,192,47279,1,0,0:0:0:0:
320,192,47279,1,0,0:0:0:0:
448,192,47279,1,0,0:0:0:0:
448,192,47407,1,0,0:0:0:0:
192,192,47471,1,0,0:0:0:0:
320,192,47535,1,0,0:0:0:0:
64,192,47663,1,0,0:0:0:0:
192,192,47792,1,0,0:0:0:0:
64,192,47920,1,0,0:0:0:0:
192,192,48048,1,0,0:0:0:0:
320,192,48048,1,0,0:0:0:0:
448,192,48048,1,0,0:0:0:0:
448,192,48176,1,0,0:0:0:0:
320,192,48304,1,0,0:0:0:0:
192,192,48433,1,0,0:0:0:0:
64,192,48561,1,0,0:0:0:0:
192,192,48561,1,0,0:0:0:0:
448,192,48561,1,0,0:0:0:0:
64,192,48689,1,0,0:0:0:0:
192,192,48817,128,0,49074:0:0:0:0:
320,192,48945,1,0,0:0:0:0:
64,192,49074,1,0,0:0:0:0:
320,192,49074,1,0,0:0:0:0:
448,192,49074,1,0,0:0:0:0:
320,192,49266,1,0,0:0:0:0:
192,192,49458,1,0,0:0:0:0:
64,192,49715,1,0,0:0:0:0:
448,192,49715,1,0,0:0:0:0:
64,192,49843,1,0,0:0:0:0:
448,192,49843,1,0,0:0:0:0:
64,192,50099,1,0,0:0:0:0:
192,192,50099,1,0,0:0:0:0:
448,192,50099,1,0,0:0:0:0:
320,192,50227,1,0,0:0:0:0:
448,192,50292,1,0,0:0:0:0:
64,192,50356,1,0,0:0:0:0:
192,192,50356,1,0,0:0:0:0:
320,192,50484,1,0,0:0:0:0:
64,192,50612,1,0,0:0:0:0:
192,192,50612,1,0,0:0:0:0:
448,192,50676,1,0,0:0:0:0:
320,192,50740,1,0,0:0:0:0:
64,192,50868,1,0,0:0:0:0:
192,192,50868,1,0,0:0:0:0:
320,192,50997,1,0,0:0:0:0:
64,192,51125,1,0,0:0:0:0:
448,192,51125,1,0,0:0:0:0:
192,192,51253,1,0,0:0:0:0:
192,192,51381,1,0,0:0:0:0:
320,192,51381,1,0,0:0:0:0:
448,192,51510,1,0,0:0:0:0:
64,192,51638,1,0,0:0:0:0:
448,192,51638,1,0,0:0:0:0:
192,192,51766,1,0,0:0:0:0:
192,192,51894,1,0,0:0:0:0:
320,192,51894,1,0,0:0:0:0:
448,192,52022,1,0,0:0:0:0:
320,192,52151,1,0,0:0:0:0:
448,192,52151,1,0,0:0:0:0:
64,192,52279,1,0,0:0:0:0:
192,192,52343,1,0,0:0:0:0:
320,192,52407,1,0,0:0:0:0:
448,192,52407,1,0,0:0:0:0:
64,192,52535,1,0,0:0:0:0:
320,192,52663,1,0,0:0:0:0:
448,192,52663,1,0,0:0:0:0:
192,192,52727,1,0,0:0:0:0:
64,192,52792,1,0,0:0:0:0:
320,192,52920,1,0,0:0:0:0:
448,192,52920,1,0,0:0:0:0:
192,192,53048,1,0,0:0:0:0:
320,192,53176,1,0,0:0:0:0:
448,192,53176,1,0,0:0:0:0:
64,192,53240,1,0,0:0:0:0:
192,192,53304,1,0,0:0:0:0:
64,192,53433,1,0,0:0:0:0:
320,192,53433,1,0,0:0:0:0:
192,192,53561,1,0,0:0:0:0:
320,192,53689,1,0,0:0:0:0:
448,192,53689,1,0,0:0:0:0:
448,192,53817,1,0,0:0:0:0:
64,192,53945,1,0,0:0:0:0:
192,192,53945,1,0,0:0:0:0:
64,192,54074,1,0,0:0:0:0:
192,192,54202,1,0,0:0:0:0:
448,192,54202,1,0,0:0:0:0:
64,192,54330,1,0,0:0:0:0:
320,192,54394,1,0,0:0:0:0:
192,192,54458,1,0,0:0:0:0:
448,192,54458,1,0,0:0:0:0:
64,192,54586,1,0,0:0:0:0:
192,192,54715,1,0,0:0:0:0:
448,192,54715,1,0,0:0:0:0:
320,192,54779,1,0,0:0:0:0:
64,192,54843,1,0,0:0:0:0:
192,192,54971,1,0,0:0:0:0:
448,192,54971,1,0,0:0:0:0:
320,192,55099,1,0,0:0:0:0:
64,192,55227,1,0,0:0:0:0:
192,192,55227,1,0,0:0:0:0:
448,192,55356,1,0,0:0:0:0:
320,192,55484,1,0,0:0:0:0:
448,192,55484,1,0,0:0:0:0:
192,192,55612,1,0,0:0:0:0:
192,192,55740,1,0,0:0:0:0:
320,192,55740,1,0,0:0:0:0:
64,192,55868,1,0,0:0:0:0:
64,192,55997,1,0,0:0:0:0:
448,192,55997,1,0,0:0:0:0:
320,192,56125,1,0,0:0:0:0:
64,192,56253,1,0,0:0:0:0:
320,192,56253,1,0,0:0:0:0:
192,192,56381,1,0,0:0:0:0:
448,192,56445,1,0,0:0:0:0:
64,192,56510,1,0,0:0:0:0:
320,192,56510,1,0,0:0:0:0:
192,192,56638,1,0,0:0:0:0:
64,192,56766,1,0,0:0:0:0:
320,192,56766,1,0,0:0:0:0:
448,192,56830,1,0,0:0:0:0:
192,192,56894,1,0,0:0:0:0:
64,192,57022,1,0,0:0:0:0:
320,192,57022,1,0,0:0:0:0:
192,192,57151,1,0,0:0:0:0:
64,192,57279,1,0,0:0:0:0:
320,192,57279,1,0,0:0:0:0:
192,192,57343,1,0,0:0:0:0:
448,192,57407,1,0,0:0:0:0:
64,192,57471,1,0,0:0:0:0:
192,192,57535,1,0,0:0:0:0:
320,192,57535,1,0,0:0:0:0:
448,192,57599,1,0,0:0:0:0:
64,192,57663,1,0,0:0:0:0:
320,192,57727,1,0,0:0:0:0:
192,192,57792,1,0,0:0:0:0:
192,192,57920,1,0,0:0:0:0:
320,192,57984,1,0,0:0:0:0:
448,192,58048,1,0,0:0:0:0:
64,192,58304,1,0,0:0:0:0:
192,192,58304,1,0,0:0:0:0:
448,192,58304,1,0,0:0:0:0:
192,192,58433,1,0,0:0:0:0:
320,192,58497,1,0,0:0:0:0:
64,192,58561,1,0,0:0:0:0:
448,192,58561,1,0,0:0:0:0:
448,192,58689,1,0,0:0:0:0:
64,192,58817,1,0,0:0:0:0:
192,192,58817,1,0,0:0:0:0:
320,192,58881,1,0,0:0:0:0:
64,192,58945,1,0,0:0:0:0:
320,192,59074,1,0,0:0:0:0:
448,192,59074,1,0,0:0:0:0:
320,192,59202,1,0,0:0:0:0:
192,192,59330,1,0,0:0:0:0:
448,192,59330,1,0,0:0:0:0:
448,192,59458,1,0,0:0:0:0:
64,192,59586,1,0,0:0:0:0:
320,192,59586,1,0,0:0:0:0:
64,192,59715,1,0,0:0:0:0:
320,192,59843,1,0,0:0:0:0:
448,192,59843,128,0,59971:0:0:0:0:
192,192,60099,1,0,0:0:0:0:
320,192,60099,128,0,60227:0:0:0:0:
64,192,60356,1,0,0:0:0:0:
192,192,60356,1,0,0:0:0:0:
64,192,60484,1,0,0:0:0:0:
320,192,60548,1,0,0:0:0:0:
192,192,60612,1,0,0:0:0:0:
448,192,60612,1,0,0:0:0:0:
192,192,60740,1,0,0:0:0:0:
320,192,60868,1,0,0:0:0:0:
448,192,60868,1,0,0:0:0:0:
64,192,60933,1,0,0:0:0:0:
320,192,60997,1,0,0:0:0:0:
64,192,61125,1,0,0:0:0:0:
448,192,61125,1,0,0:0:0:0:
448,192,61253,1,0,0:0:0:0:
64,192,61381,1,0,0:0:0:0:
192,192,61381,1,0,0:0:0:0:
448,192,61445,1,0,0:0:0:0:
64,192,61510,1,0,0:0:0:0:
192,192,61638,1,0,0:0:0:0:
320,192,61638,1,0,0:0:0:0:
192,192,61766,1,0,0:0:0:0:
64,192,61894,1,0,0:0:0:0:
320,192,61894,1,0,0:0:0:0:
320,192,62022,1,0,0:0:0:0:
448,192,62022,1,0,0:0:0:0:
192,192,62151,1,0,0:0:0:0:
448,192,62151,1,0,0:0:0:0:
192,192,62279,1,0,0:0:0:0:
64,192,62407,1,0,0:0:0:0:
320,192,62407,1,0,0:0:0:0:
448,192,62407,1,0,0:0:0:0:
320,192,62535,1,0,0:0:0:0:
192,192,62599,1,0,0:0:0:0:
64,192,62663,1,0,0:0:0:0:
448,192,62663,1,0,0:0:0:0:
448,192,62792,1,0,0:0:0:0:
64,192,62920,1,0,0:0:0:0:
192,192,62920,1,0,0:0:0:0:
320,192,62984,1,0,0:0:0:0:
192,192,63048,1,0,0:0:0:0:
64,192,63176,1,0,0:0:0:0:
448,192,63176,1,0,0:0:0:0:
64,192,63304,1,0,0:0:0:0:
192,192,63433,1,0,0:0:0:0:
320,192,63433,1,0,0:0:0:0:
320,192,63561,1,0,0:0:0:0:
192,192,63689,1,0,0:0:0:0:
448,192,63689,1,0,0:0:0:0:
192,192,63817,1,0,0:0:0:0:
320,192,63945,1,0,0:0:0:0:
448,192,63945,1,0,0:0:0:0:
320,192,64074,1,0,0:0:0:0:
448,192,64074,1,0,0:0:0:0:
192,192,64138,1,0,0:0:0:0:
64,192,64202,1,0,0:0:0:0:
320,192,64202,1,0,0:0:0:0:
64,192,64330,1,0,0:0:0:0:
192,192,64330,1,0,0:0:0:0:
320,192,64458,1,0,0:0:0:0:
192,192,64586,1,0,0:0:0:0:
448,192,64586,1,0,0:0:0:0:
320,192,64651,1,0,0:0:0:0:
64,192,64715,1,0,0:0:0:0:
192,192,64843,1,0,0:0:0:0:
448,192,64843,1,0,0:0:0:0:
64,192,64971,1,0,0:0:0:0:
320,192,65035,1,0,0:0:0:0:
192,192,65099,1,0,0:0:0:0:
448,192,65099,1,0,0:0:0:0:
64,192,65227,1,0,0:0:0:0:
192,192,65356,1,0,0:0:0:0:
448,192,65356,1,0,0:0:0:0:
192,192,65484,1,0,0:0:0:0:
320,192,65484,1,0,0:0:0:0:
64,192,65548,1,0,0:0:0:0:
320,192,65612,1,0,0:0:0:0:
448,192,65612,1,0,0:0:0:0:
64,192,65676,1,0,0:0:0:0:
192,192,65740,1,0,0:0:0:0:
320,192,65740,1,0,0:0:0:0:
64,192,65868,1,0,0:0:0:0:
448,192,65868,1,0,0:0:0:0:
192,192,65997,1,0,0:0:0:0:
320,192,65997,1,0,0:0:0:0:
448,192,66061,1,0,0:0:0:0:
64,192,66125,1,0,0:0:0:0:
192,192,66125,1,0,0:0:0:0:
320,192,66189,1,0,0:0:0:0:
64,192,66253,1,0,0:0:0:0:
448,192,66253,1,0,0:0:0:0:
192,192,66381,1,0,0:0:0:0:
192,192,66510,1,0,0:0:0:0:
320,192,66510,1,0,0:0:0:0:
448,192,66510,1,0,0:0:0:0:
64,192,66638,1,0,0:0:0:0:
320,192,66702,1,0,0:0:0:0:
64,192,66766,1,0,0:0:0:0:
448,192,66766,1,0,0:0:0:0:
448,192,66894,1,0,0:0:0:0:
192,192,67022,1,0,0:0:0:0:
320,192,67086,1,0,0:0:0:0:
192,192,67151,1,0,0:0:0:0:
320,192,67279,1,0,0:0:0:0:
448,192,67279,1,0,0:0:0:0:
64,192,67407,1,0,0:0:0:0:
320,192,67535,1,0,0:0:0:0:
192,192,67663,1,0,0:0:0:0:
192,192,67792,1,0,0:0:0:0:
448,192,67792,1,0,0:0:0:0:
192,192,67920,1,0,0:0:0:0:
320,192,68048,1,0,0:0:0:0:
64,192,68176,1,0,0:0:0:0:
64,192,68304,1,0,0:0:0:0:
320,192,68304,1,0,0:0:0:0:
192,192,68433,1,0,0:0:0:0:
320,192,68561,1,0,0:0:0:0:
448,192,68689,1,0,0:0:0:0:
192,192,68753,1,0,0:0:0:0:
320,192,68817,1,0,0:0:0:0:
448,192,68817,1,0,0:0:0:0:
64,192,68945,1,0,0:0:0:0:
448,192,69074,1,0,0:0:0:0:
192,192,69138,1,0,0:0:0:0:
448,192,69202,1,0,0:0:0:0:
64,192,69330,1,0,0:0:0:0:
192,192,69330,1,0,0:0:0:0:
320,192,69458,1,0,0:0:0:0:
192,192,69586,1,0,0:0:0:0:
448,192,69586,1,0,0:0:0:0:
192,192,69715,1,0,0:0:0:0:
64,192,69843,1,0,0:0:0:0:
320,192,69843,1,0,0:0:0:0:
320,192,69971,1,0,0:0:0:0:
192,192,70099,1,0,0:0:0:0:
448,192,70099,1,0,0:0:0:0:
192,192,70227,1,0,0:0:0:0:
320,192,70356,1,0,0:0:0:0:
448,192,70356,1,0,0:0:0:0:
448,192,70484,1,0,0:0:0:0:
64,192,70612,1,0,0:0:0:0:
192,192,70612,1,0,0:0:0:0:
320,192,70740,1,0,0:0:0:0:
192,192,70804,1,0,0:0:0:0:
320,192,70868,1,0,0:0:0:0:
448,192,70868,1,0,0:0:0:0:
64,192,70997,1,0,0:0:0:0:
448,192,71125,1,0,0:0:0:0:
192,192,71189,1,0,0:0:0:0:
448,192,71253,1,0,0:0:0:0:
192,192,71381,1,0,0:0:0:0:
320,192,71381,1,0,0:0:0:0:
64,192,71510,1,0,0:0:0:0:
320,192,71638,1,0,0:0:0:0:
448,192,71766,1,0,0:0:0:0:
192,192,71894,1,0,0:0:0:0:
448,192,71894,1,0,0:0:0:0:
448,192,72022,1,0,0:0:0:0:
64,192,72151,1,0,0:0:0:0:
320,192,72279,1,0,0:0:0:0:
192,192,72407,1,0,0:0:0:0:
320,192,72407,1,0,0:0:0:0:
448,192,72535,1,0,0:0:0:0:
320,192,72663,1,0,0:0:0:0:
64,192,72792,1,0,0:0:0:0:
448,192,72856,1,0,0:0:0:0:
64,192,72920,1,0,0:0:0:0:
192,192,72920,1,0,0:0:0:0:
320,192,73048,1,0,0:0:0:0:
64,192,73176,1,0,0:0:0:0:
192,192,73240,1,0,0:0:0:0:
64,192,73304,1,0,0:0:0:0:
320,192,73433,1,0,0:0:0:0:
448,192,73433,1,0,0:0:0:0:
64,192,73561,1,0,0:0:0:0:
192,192,73561,1,0,0:0:0:0:
320,192,73625,1,0,0:0:0:0:
64,192,73689,1,0,0:0:0:0:
448,192,73689,1,0,0:0:0:0:
192,192,73817,1,0,0:0:0:0:
320,192,73881,1,0,0:0:0:0:
448,192,73881,1,0,0:0:0:0:
64,192,74010,1,0,0:0:0:0:
192,192,74074,1,0,0:0:0:0:
448,192,74074,1,0,0:0:0:0:
320,192,74202,1,0,0:0:0:0:
192,192,74330,1,0,0:0:0:0:
448,192,74330,1,0,0:0:0:0:
64,192,74458,1,0,0:0:0:0:
192,192,74458,1,0,0:0:0:0:
320,192,74586,1,0,0:0:0:0:
448,192,74586,1,0,0:0:0:0:
192,192,74651,1,0,0:0:0:0:
64,192,74715,1,0,0:0:0:0:
320,192,74715,1,0,0:0:0:0:
448,192,74715,1,0,0:0:0:0:
192,192,74843,1,0,0:0:0:0:
320,192,74907,1,0,0:0:0:0:
64,192,74971,1,0,0:0:0:0:
192,192,74971,1,0,0:0:0:0:
448,192,75099,1,0,0:0:0:0:
192,192,75227,1,0,0:0:0:0:
320,192,75292,1,0,0:0:0:0:
192,192,75356,1,0,0:0:0:0:
64,192,75484,1,0,0:0:0:0:
448,192,75484,1,0,0:0:0:0:
320,192,75612,1,0,0:0:0:0:
192,192,75740,1,0,0:0:0:0:
448,192,75868,1,0,0:0:0:0:
64,192,75997,1,0,0:0:0:0:
320,192,75997,1,0,0:0:0:0:
448,192,76125,1,0,0:0:0:0:
192,192,76253,1,0,0:0:0:0:
320,192,76381,1,0,0:0:0:0:
64,192,76510,1,0,0:0:0:0:
320,192,76510,1,0,0:0:0:0:
448,192,76638,1,0,0:0:0:0:
64,192,76766,1,0,0:0:0:0:
320,192,76894,1,0,0:0:0:0:
192,192,76958,1,0,0:0:0:0:
320,192,77022,1,0,0:0:0:0:
448,192,77022,1,0,0:0:0:0:
64,192,77151,1,0,0:0:0:0:
320,192,77279,1,0,0:0:0:0:
192,192,77343,1,0,0:0:0:0:
320,192,77407,1,0,0:0:0:0:
64,192,77535,1,0,0:0:0:0:
448,192,77535,1,0,0:0:0:0:
192,192,77663,1,0,0:0:0:0:
320,192,77792,1,0,0:0:0:0:
448,192,77792,1,0,0:0:0:0:
448,192,77920,1,0,0:0:0:0:
64,192,78048,1,0,0:0:0:0:
192,192,78048,1,0,0:0:0:0:
64,192,78176,1,0,0:0:0:0:
320,192,78304,1,0,0:0:0:0:
448,192,78304,1,0,0:0:0:0:
448,192,78433,1,0,0:0:0:0:
192,192,78561,1,0,0:0:0:0:
320,192,78561,1,0,0:0:0:0:
192,192,78689,1,0,0:0:0:0:
64,192,78817,1,0,0:0:0:0:
320,192,78817,1,0,0:0:0:0:
192,192,78945,1,0,0:0:0:0:
320,192,79010,1,0,0:0:0:0:
192,192,79074,1,0,0:0:0:0:
448,192,79074,1,0,0:0:0:0:
64,192,79202,1,0,0:0:0:0:
320,192,79330,1,0,0:0:0:0:
192,192,79394,1,0,0:0:0:0:
320,192,79458,1,0,0:0:0:0:
64,192,79586,1,0,0:0:0:0:
448,192,79586,1,0,0:0:0:0:
192,192,79715,1,0,0:0:0:0:
320,192,79843,1,0,0:0:0:0:
64,192,79971,1,0,0:0:0:0:
192,192,80099,1,0,0:0:0:0:
448,192,80099,1,0,0:0:0:0:
64,192,80227,1,0,0:0:0:0:
320,192,80356,1,0,0:0:0:0:
192,192,80484,1,0,0:0:0:0:
192,192,80612,1,0,0:0:0:0:
448,192,80612,1,0,0:0:0:0:
64,192,80740,1,0,0:0:0:0:
320,192,80868,1,0,0:0:0:0:
192,192,80933,1,0,0:0:0:0:
448,192,80997,1,0,0:0:0:0:
64,192,81061,1,0,0:0:0:0:
320,192,81125,1,0,0:0:0:0:
448,192,81125,1,0,0:0:0:0:
192,192,81189,1,0,0:0:0:0:
64,192,81253,1,0,0:0:0:0:
320,192,81317,1,0,0:0:0:0:
448,192,81381,1,0,0:0:0:0:
192,192,81445,1,0,0:0:0:0:
448,192,81510,1,0,0:0:0:0:
320,192,81574,1,0,0:0:0:0:
64,192,81638,1,0,0:0:0:0:
192,192,81638,1,0,0:0:0:0:
448,192,81702,1,0,0:0:0:0:
64,192,81766,1,0,0:0:0:0:
192,192,81830,1,0,0:0:0:0:
320,192,81894,1,0,0:0:0:0:
448,192,81894,1,0,0:0:0:0:
64,192,81958,1,0,0:0:0:0:
320,192,82022,1,0,0:0:0:0:
192,192,82086,1,0,0:0:0:0:
320,192,82151,1,0,0:0:0:0:
64,192,82279,1,0,0:0:0:0:
448,192,82343,1,0,0:0:0:0:
192,192,82407,1,0,0:0:0:0:
64,192,82471,1,0,0:0:0:0:
320,192,82535,1,0,0:0:0:0:
192,192,82663,128,0,82920:0:0:0:0:
64,192,82920,1,0,0:0:0:0:
320,192,82920,1,0,0:0:0:0:
448,192,82920,1,0,0:0:0:0:
192,192,83048,1,0,0:0:0:0:
448,192,83112,1,0,0:0:0:0:
192,192,83176,1,0,0:0:0:0:
320,192,83304,1,0,0:0:0:0:
192,192,83433,1,0,0:0:0:0:
448,192,83497,1,0,0:0:0:0:
192,192,83561,1,0,0:0:0:0:
320,192,83689,1,0,0:0:0:0:
64,192,83817,1,0,0:0:0:0:
64,192,83945,1,0,0:0:0:0:
448,192,83945,1,0,0:0:0:0:
64,192,84074,1,0,0:0:0:0:
448,192,84074,1,0,0:0:0:0:
192,192,84138,1,0,0:0:0:0:
320,192,84202,1,0,0:0:0:0:
448,192,84202,1,0,0:0:0:0:
64,192,84330,1,0,0:0:0:0:
192,192,84330,1,0,0:0:0:0:
64,192,84458,1,0,0:0:0:0:
448,192,84458,1,0,0:0:0:0:
64,192,84586,1,0,0:0:0:0:
192,192,84586,1,0,0:0:0:0:
192,192,84715,1,0,0:0:0:0:
448,192,84715,1,0,0:0:0:0:
64,192,84843,1,0,0:0:0:0:
192,192,84843,1,0,0:0:0:0:
320,192,84907,1,0,0:0:0:0:
64,192,84971,1,0,0:0:0:0:
192,192,84971,1,0,0:0:0:0:
448,192,84971,1,0,0:0:0:0:
320,192,85099,1,0,0:0:0:0:
64,192,85163,1,0,0:0:0:0:
320,192,85227,1,0,0:0:0:0:
192,192,85356,1,0,0:0:0:0:
320,192,85484,1,0,0:0:0:0:
64,192,85548,1,0,0:0:0:0:
320,192,85612,1,0,0:0:0:0:
192,192,85740,1,0,0:0:0:0:
320,192,85804,1,0,0:0:0:0:
192,192,85868,1,0,0:0:0:0:
320,192,85933,1,0,0:0:0:0:
64,192,85997,1,0,0:0:0:0:
448,192,85997,1,0,0:0:0:0:
192,192,86125,1,0,0:0:0:0:
320,192,86125,1,0,0:0:0:0:
192,192,86253,1,0,0:0:0:0:
320,192,86253,1,0,0:0:0:0:
64,192,86381,1,0,0:0:0:0:
192,192,86381,1,0,0:0:0:0:
320,192,86445,1,0,0:0:0:0:
64,192,86510,1,0,0:0:0:0:
448,192,86510,1,0,0:0:0:0:
64,192,86638,1,0,0:0:0:0:
448,192,86638,1,0,0:0:0:0:
320,192,86766,1,0,0:0:0:0:
448,192,86766,1,0,0:0:0:0:
64,192,86830,1,0,0:0:0:0:
192,192,86894,1,0,0:0:0:0:
320,192,86958,1,0,0:0:0:0:
64,192,87022,1,0,0:0:0:0:
192,192,87022,1,0,0:0:0:0:
448,192,87022,1,0,0:0:0:0:
448,192,87151,1,0,0:0:0:0:
64,192,87215,1,0,0:0:0:0:
192,192,87279,1,0,0:0:0:0:
448,192,87407,1,0,0:0:0:0:
64,192,87535,1,0,0:0:0:0:
320,192,87535,1,0,0:0:0:0:
192,192,87663,1,0,0:0:0:0:
320,192,87663,1,0,0:0:0:0:
64,192,87792,1,0,0:0:0:0:
320,192,87792,1,0,0:0:0:0:
192,192,87920,1,0,0:0:0:0:
320,192,87920,1,0,0:0:0:0:
64,192,88048,1,0,0:0:0:0:
320,192,88048,1,0,0:0:0:0:
448,192,88048,1,0,0:0:0:0:
64,192,88176,1,0,0:0:0:0:
448,192,88240,1,0,0:0:0:0:
320,192,88304,1,0,0:0:0:0:
192,192,88433,1,0,0:0:0:0:
448,192,88561,128,0,88689:0:0:0:0:
192,192,88689,1,0,0:0:0:0:
64,192,88753,1,0,0:0:0:0:
320,192,88817,1,0,0:0:0:0:
192,192,88881,1,0,0:0:0:0:
448,192,88945,128,0,89074:0:0:0:0:
64,192,89074,1,0,0:0:0:0:
192,192,89074,1,0,0:0:0:0:
320,192,89074,1,0,0:0:0:0:
320,192,89202,1,0,0:0:0:0:
192,192,89266,1,0,0:0:0:0:
64,192,89330,1,0,0:0:0:0:
448,192,89330,1,0,0:0:0:0:
320,192,89458,1,0,0:0:0:0:
448,192,89458,1,0,0:0:0:0:
64,192,89586,1,0,0:0:0:0:
448,192,89586,1,0,0:0:0:0:
64,192,89715,1,0,0:0:0:0:
192,192,89715,1,0,0:0:0:0:
320,192,89843,1,0,0:0:0:0:
448,192,89843,1,0,0:0:0:0:
64,192,89907,1,0,0:0:0:0:
192,192,89971,1,0,0:0:0:0:
320,192,89971,1,0,0:0:0:0:
448,192,90035,1,0,0:0:0:0:
64,192,90099,1,0,0:0:0:0:
192,192,90099,1,0,0:0:0:0:
320,192,90227,1,0,0:0:0:0:
320,192,90356,1,0,0:0:0:0:
320,192,90484,1,0,0:0:0:0:
320,192,90612,1,0,0:0:0:0:
192,192,90676,1,0,0:0:0:0:
320,192,90740,1,0,0:0:0:0:
64,192,90804,1,0,0:0:0:0:
192,192,90868,1,0,0:0:0:0:
448,192,90868,1,0,0:0:0:0:
448,192,90997,1,0,0:0:0:0:
64,192,91125,1,0,0:0:0:0:
192,192,91125,1,0,0:0:0:0:
320,192,91253,1,0,0:0:0:0:
192,192,91317,1,0,0:0:0:0:
320,192,91381,1,0,0:0:0:0:
448,192,91381,1,0,0:0:0:0:
64,192,91510,1,0,0:0:0:0:
192,192,91510,1,0,0:0:0:0:
320,192,91638,1,0,0:0:0:0:
192,192,91702,1,0,0:0:0:0:
320,192,91766,1,0,0:0:0:0:
448,192,91766,1,0,0:0:0:0:
64,192,91894,1,0,0:0:0:0:
192,192,91894,1,0,0:0:0:0:
64,192,92022,1,0,0:0:0:0:
320,192,92086,1,0,0:0:0:0:
192,192,92151,1,0,0:0:0:0:
448,192,92151,1,0,0:0:0:0:
192,192,92279,1,0,0:0:0:0:
64,192,92407,1,0,0:0:0:0:
320,192,92407,1,0,0:0:0:0:
320,192,92535,1,0,0:0:0:0:
192,192,92599,1,0,0:0:0:0:
64,192,92663,1,0,0:0:0:0:
448,192,92663,1,0,0:0:0:0:
448,192,92792,1,0,0:0:0:0:
64,192,92920,1,0,0:0:0:0:
192,192,92920,1,0,0:0:0:0:
320,192,92984,1,0,0:0:0:0:
448,192,93048,1,0,0:0:0:0:
192,192,93112,1,0,0:0:0:0:
320,192,93176,1,0,0:0:0:0:
448,192,93176,1,0,0:0:0:0:
64,192,93304,1,0,0:0:0:0:
320,192,93368,1,0,0:0:0:0:
64,192,93433,1,0,0:0:0:0:
192,192,93433,1,0,0:0:0:0:
320,192,93561,1,0,0:0:0:0:
448,192,93561,1,0,0:0:0:0:
64,192,93689,1,0,0:0:0:0:
320,192,93753,1,0,0:0:0:0:
64,192,93817,1,0,0:0:0:0:
192,192,93817,1,0,0:0:0:0:
320,192,93945,1,0,0:0:0:0:
448,192,93945,1,0,0:0:0:0:
192,192,94074,1,0,0:0:0:0:
320,192,94138,1,0,0:0:0:0:
64,192,94202,1,0,0:0:0:0:
320,192,94266,1,0,0:0:0:0:
192,192,94330,1,0,0:0:0:0:
64,192,94458,1,0,0:0:0:0:
192,192,94458,1,0,0:0:0:0:
320,192,94586,1,0,0:0:0:0:
448,192,94586,1,0,0:0:0:0:
192,192,94651,1,0,0:0:0:0:
64,192,94715,1,0,0:0:0:0:
448,192,94715,128,0,94843:0:0:0:0:
192,192,94843,128,0,94971:0:0:0:0:
320,192,94971,128,0,95099:0:0:0:0:
448,192,94971,1,0,0:0:0:0:
64,192,95099,128,0,95227:0:0:0:0:
192,192,95227,1,0,0:0:0:0:
448,192,95227,1,0,0:0:0:0:
320,192,95356,1,0,0:0:0:0:
192,192,95420,1,0,0:0:0:0:
64,192,95484,1,0,0:0:0:0:
320,192,95484,1,0,0:0:0:0:
192,192,95612,1,0,0:0:0:0:
448,192,95612,1,0,0:0:0:0:
320,192,95740,1,0,0:0:0:0:
192,192,95804,1,0,0:0:0:0:
64,192,95868,1,0,0:0:0:0:
320,192,95868,1,0,0:0:0:0:
192,192,95997,1,0,0:0:0:0:
448,192,95997,1,0,0:0:0:0:
192,192,96125,1,0,0:0:0:0:
64,192,96189,1,0,0:0:0:0:
320,192,96253,1,0,0:0:0:0:
448,192,96253,1,0,0:0:0:0:
320,192,96381,1,0,0:0:0:0:
192,192,96510,1,0,0:0:0:0:
320,192,96510,1,0,0:0:0:0:
192,192,96638,1,0,0:0:0:0:
448,192,96702,1,0,0:0:0:0:
64,192,96766,1,0,0:0:0:0:
192,192,96766,1,0,0:0:0:0:
64,192,96894,1,0,0:0:0:0:
64,192,97022,1,0,0:0:0:0:
448,192,97022,1,0,0:0:0:0:
320,192,97086,1,0,0:0:0:0:
448,192,97151,1,0,0:0:0:0:
192,192,97215,1,0,0:0:0:0:
64,192,97279,1,0,0:0:0:0:
448,192,97279,1,0,0:0:0:0:
64,192,97407,1,0,0:0:0:0:
320,192,97471,1,0,0:0:0:0:
192,192,97535,1,0,0:0:0:0:
448,192,97535,1,0,0:0:0:0:
64,192,97663,1,0,0:0:0:0:
448,192,97663,1,0,0:0:0:0:
64,192,97792,1,0,0:0:0:0:
320,192,97856,1,0,0:0:0:0:
192,192,97920,1,0,0:0:0:0:
448,192,97920,1,0,0:0:0:0:
64,192,98048,1,0,0:0:0:0:
448,192,98048,1,0,0:0:0:0:
192,192,98176,1,0,0:0:0:0:
448,192,98240,1,0,0:0:0:0:
320,192,98304,1,0,0:0:0:0:
448,192,98368,1,0,0:0:0:0:
192,192,98433,1,0,0:0:0:0:
64,192,98561,1,0,0:0:0:0:
320,192,98561,1,0,0:0:0:0:
192,192,98689,1,0,0:0:0:0:
320,192,98753,1,0,0:0:0:0:
64,192,98817,128,0,99202:0:0:0:0:
192,192,98817,1,0,0:0:0:0:
448,192,98945,128,0,99202:0:0:0:0:
320,192,99074,128,0,99202:0:0:0:0:
192,192,99202,128,0,99330:0:0:0:0:
64,192,99330,1,0,0:0:0:0:
320,192,99330,1,0,0:0:0:0:
448,192,99330,1,0,0:0:0:0:
64,192,99458,1,0,0:0:0:0:
192,192,99458,1,0,0:0:0:0:
320,192,99522,1,0,0:0:0:0:
192,192,99586,1,0,0:0:0:0:
448,192,99586,1,0,0:0:0:0:
64,192,99715,1,0,0:0:0:0:
320,192,99715,1,0,0:0:0:0:
64,192,99843,1,0,0:0:0:0:
192,192,99843,1,0,0:0:0:0:
320,192,99907,1,0,0:0:0:0:
192,192,99971,1,0,0:0:0:0:
448,192,99971,1,0,0:0:0:0:
320,192,100099,1,0,0:0:0:0:
448,192,100099,1,0,0:0:0:0:
64,192,100227,1,0,0:0:0:0:
192,192,100227,1,0,0:0:0:0:
448,192,100292,1,0,0:0:0:0:
192,192,100356,1,0,0:0:0:0:
320,192,100356,1,0,0:0:0:0:
64,192,100484,1,0,0:0:0:0:
320,192,100484,1,0,0:0:0:0:
192,192,100612,1,0,0:0:0:0:
448,192,100612,1,0,0:0:0:0:
320,192,100740,1,0,0:0:0:0:
448,192,100740,1,0,0:0:0:0:
192,192,100804,1,0,0:0:0:0:
64,192,100868,128,0,101253:0:0:0:0:
320,192,100868,128,0,101253:0:0:0:0:
320,192,101381,1,0,0:0:0:0:
448,192,101381,1,0,0:0:0:0:
64,192,101510,1,0,0:0:0:0:
192,192,101510,1,0,0:0:0:0:
320,192,101574,1,0,0:0:0:0:
64,192,101638,1,0,0:0:0:0:
448,192,101638,1,0,0:0:0:0:
320,192,101766,1,0,0:0:0:0:
448,192,101766,1,0,0:0:0:0:
64,192,101894,1,0,0:0:0:0:
192,192,101894,1,0,0:0:0:0:
320,192,101958,1,0,0:0:0:0:
64,192,102022,1,0,0:0:0:0:
448,192,102022,1,0,0:0:0:0:
320,192,102151,1,0,0:0:0:0:
448,192,102151,1,0,0:0:0:0:
64,192,102279,1,0,0:0:0:0:
320,192,102343,1,0,0:0:0:0:
64,192,102407,1,0,0:0:0:0:
192,192,102407,1,0,0:0:0:0:
448,192,102471,1,0,0:0:0:0:
320,192,102535,1,0,0:0:0:0:
192,192,102599,1,0,0:0:0:0:
64,192,102663,1,0,0:0:0:0:
320,192,102663,1,0,0:0:0:0:
448,192,102792,1,0,0:0:0:0:
192,192,102856,1,0,0:0:0:0:
320,192,102920,1,0,0:0:0:0:
448,192,102920,1,0,0:0:0:0:
64,192,103048,1,0,0:0:0:0:
448,192,103112,1,0,0:0:0:0:
64,192,103176,1,0,0:0:0:0:
192,192,103176,1,0,0:0:0:0:
320,192,103304,1,0,0:0:0:0:
192,192,103368,1,0,0:0:0:0:
64,192,103433,1,0,0:0:0:0:
320,192,103433,1,0,0:0:0:0:
192,192,103561,1,0,0:0:0:0:
448,192,103561,1,0,0:0:0:0:
64,192,103625,1,0,0:0:0:0:
320,192,103689,1,0,0:0:0:0:
448,192,103689,1,0,0:0:0:0:
64,192,103817,1,0,0:0:0:0:
320,192,103817,1,0,0:0:0:0:
192,192,103945,1,0,0:0:0:0:
448,192,103945,1,0,0:0:0:0:
64,192,104010,1,0,0:0:0:0:
320,192,104074,1,0,0:0:0:0:
448,192,104074,1,0,0:0:0:0:
64,192,104202,1,0,0:0:0:0:
192,192,104202,1,0,0:0:0:0:
320,192,104330,1,0,0:0:0:0:
448,192,104330,1,0,0:0:0:0:
192,192,104394,1,0,0:0:0:0:
64,192,104458,1,0,0:0:0:0:
320,192,104458,1,0,0:0:0:0:
448,192,104522,1,0,0:0:0:0:
64,192,104586,1,0,0:0:0:0:
320,192,104651,1,0,0:0:0:0:
192,192,104715,1,0,0:0:0:0:
448,192,104715,1,0,0:0:0:0:
64,192,104779,1,0,0:0:0:0:
448,192,104843,1,0,0:0:0:0:
320,192,104907,1,0,0:0:0:0:
64,192,104971,128,0,105484:0:0:0:0:
192,192,104971,128,0,105484:0:0:0:0:
320,192,105484,1,0,0:0:0:0:
448,192,105484,1,0,0:0:0:0:
64,192,105612,1,0,0:0:0:0:
192,192,105612,1,0,0:0:0:0:
320,192,105676,1,0,0:0:0:0:
448,192,105676,1,0,0:0:0:0:
64,192,105740,1,0,0:0:0:0:
192,192,105740,1,0,0:0:0:0:
64,192,105868,1,0,0:0:0:0:
448,192,105868,1,0,0:0:0:0:
320,192,105997,1,0,0:0:0:0:
448,192,105997,1,0,0:0:0:0:
64,192,106061,1,0,0:0:0:0:
192,192,106061,1,0,0:0:0:0:
320,192,106125,1,0,0:0:0:0:
448,192,106125,1,0,0:0:0:0:
64,192,106253,1,0,0:0:0:0:
448,192,106253,1,0,0:0:0:0:
64,192,106381,1,0,0:0:0:0:
448,192,106381,1,0,0:0:0:0:
64,192,106510,1,0,0:0:0:0:
192,192,106510,1,0,0:0:0:0:
320,192,106574,1,0,0:0:0:0:
448,192,106574,1,0,0:0:0:0:
64,192,106638,1,0,0:0:0:0:
192,192,106638,1,0,0:0:0:0:
320,192,106766,1,0,0:0:0:0:
448,192,106766,1,0,0:0:0:0:
64,192,106830,1,0,0:0:0:0:
192,192,106830,1,0,0:0:0:0:
320,192,106894,1,0,0:0:0:0:
448,192,106894,1,0,0:0:0:0:
64,192,106958,1,0,0:0:0:0:
192,192,106958,1,0,0:0:0:0:
320,192,107022,1,0,0:0:0:0:
448,192,107022,1,0,0:0:0:0:
64,192,107086,1,0,0:0:0:0:
192,192,107086,1,0,0:0:0:0:
320,192,107151,1,0,0:0:0:0:
448,192,107151,1,0,0:0:0:0:
64,192,107215,1,0,0:0:0:0:
192,192,107215,1,0,0:0:0:0:
448,192,107279,128,0,107535:0:0:0:0:
64,192,107535,1,0,0:0:0:0:
192,192,107535,1,0,0:0:0:0:
320,192,107535,1,0,0:0:0:0:
448,192,107663,1,0,0:0:0:0:
192,192,107727,1,0,0:0:0:0:
448,192,107792,1,0,0:0:0:0:
320,192,107856,1,0,0:0:0:0:
64,192,107920,1,0,0:0:0:0:
320,192,108048,1,0,0:0:0:0:
320,192,108176,1,0,0:0:0:0:
192,192,108304,1,0,0:0:0:0:
64,192,108433,1,0,0:0:0:0:
448,192,108561,1,0,0:0:0:0:
192,192,108689,1,0,0:0:0:0:
192,192,108817,1,0,0:0:0:0:
448,192,108945,1,0,0:0:0:0:
192,192,109074,1,0,0:0:0:0:
192,192,109202,1,0,0:0:0:0:
64,192,109330,1,0,0:0:0:0:
320,192,109458,128,0,109586:0:0:0:0:
64,192,109586,1,0,0:0:0:0:
192,192,109586,1,0,0:0:0:0:
448,192,109586,1,0,0:0:0:0:
192,192,109715,1,0,0:0:0:0:
448,192,109715,1,0,0:0:0:0:
192,192,109843,1,0,0:0:0:0:
448,192,109843,1,0,0:0:0:0:
320,192,109971,1,0,0:0:0:0:
320,192,110099,1,0,0:0:0:0:
64,192,110227,1,0,0:0:0:0:
192,192,110356,1,0,0:0:0:0:
192,192,110484,1,0,0:0:0:0:
320,192,110612,1,0,0:0:0:0:
448,192,110740,1,0,0:0:0:0:
64,192,110868,1,0,0:0:0:0:
320,192,110997,1,0,0:0:0:0:
192,192,111125,1,0,0:0:0:0:
64,192,111253,1,0,0:0:0:0:
448,192,111253,1,0,0:0:0:0:
448,192,111381,1,0,0:0:0:0:
192,192,111510,1,0,0:0:0:0:
192,192,111638,1,0,0:0:0:0:
320,192,111638,1,0,0:0:0:0:
64,192,111766,1,0,0:0:0:0:
320,192,111830,1,0,0:0:0:0:
64,192,111894,1,0,0:0:0:0:
192,192,111958,1,0,0:0:0:0:
448,192,112022,1,0,0:0:0:0:
320,192,112151,1,0,0:0:0:0:
320,192,112279,1,0,0:0:0:0:
64,192,112407,1,0,0:0:0:0:
192,192,112535,128,0,112663:0:0:0:0:
64,192,112663,1,0,0:0:0:0:
320,192,112663,1,0,0:0:0:0:
448,192,112663,1,0,0:0:0:0:
192,192,112792,1,0,0:0:0:0:
64,192,112920,1,0,0:0:0:0:
192,192,112920,1,0,0:0:0:0:
448,192,112920,1,0,0:0:0:0:
320,192,113048,1,0,0:0:0:0:
192,192,113176,1,0,0:0:0:0:
64,192,113304,1,0,0:0:0:0:
192,192,113304,1,0,0:0:0:0:
320,192,113368,1,0,0:0:0:0:
64,192,113433,1,0,0:0:0:0:
448,192,113433,1,0,0:0:0:0:
192,192,113561,1,0,0:0:0:0:
448,192,113561,1,0,0:0:0:0:
64,192,113689,1,0,0:0:0:0:
192,192,113689,1,0,0:0:0:0:
320,192,113689,1,0,0:0:0:0:
448,192,113945,1,0,0:0:0:0:
192,192,114010,1,0,0:0:0:0:
320,192,114074,128,0,114202:0:0:0:0:
64,192,114202,1,0,0:0:0:0:
192,192,114202,1,0,0:0:0:0:
448,192,114202,1,0,0:0:0:0:
64,192,114330,1,0,0:0:0:0:
320,192,114458,1,0,0:0:0:0:
64,192,114715,1,0,0:0:0:0:
192,192,114715,1,0,0:0:0:0:
320,192,114779,1,0,0:0:0:0:
192,192,114843,1,0,0:0:0:0:
320,192,114907,1,0,0:0:0:0:
64,192,114971,1,0,0:0:0:0:
320,192,115099,1,0,0:0:0:0:
192,192,115163,1,0,0:0:0:0:
320,192,115227,1,0,0:0:0:0:
192,192,115292,1,0,0:0:0:0:
448,192,115356,1,0,0:0:0:0:
448,192,115484,1,0,0:0:0:0:
192,192,115612,1,0,0:0:0:0:
64,192,115740,1,0,0:0:0:0:
320,192,115740,1,0,0:0:0:0:
448,192,115804,1,0,0:0:0:0:
64,192,115868,1,0,0:0:0:0:
192,192,115868,1,0,0:0:0:0:
320,192,115933,1,0,0:0:0:0:
192,192,115997,1,0,0:0:0:0:
448,192,115997,1,0,0:0:0:0:
64,192,116061,1,0,0:0:0:0:
320,192,116125,1,0,0:0:0:0:
448,192,116125,1,0,0:0:0:0:
192,192,116189,1,0,0:0:0:0:
64,192,116253,1,0,0:0:0:0:
320,192,116253,1,0,0:0:0:0:
448,192,116317,1,0,0:0:0:0:
64,192,116381,1,0,0:0:0:0:
192,192,116381,1,0,0:0:0:0:
448,192,116445,1,0,0:0:0:0:
192,192,116510,1,0,0:0:0:0:
320,192,116510,1,0,0:0:0:0:
64,192,116574,1,0,0:0:0:0:
320,192,116638,1,0,0:0:0:0:
448,192,116638,1,0,0:0:0:0:
192,192,116702,1,0,0:0:0:0:
64,192,116766,1,0,0:0:0:0:
448,192,116766,1,0,0:0:0:0:
320,192,116830,1,0,0:0:0:0:
64,192,116894,1,0,0:0:0:0:
192,192,116894,1,0,0:0:0:0:
320,192,116958,1,0,0:0:0:0:
192,192,117022,1,0,0:0:0:0:
448,192,117022,1,0,0:0:0:0:
64,192,117086,1,0,0:0:0:0:
320,192,117151,1,0,0:0:0:0:
448,192,117151,1,0,0:0:0:0:
192,192,117215,1,0,0:0:0:0:
64,192,117279,128,0,117663:0:0:0:0:
320,192,117279,128,0,117727:0:0:0:0:
448,192,117279,128,0,117792:0:0:0:0:
