osu file format v14

[General]
AudioFilename: audio.mp3
AudioLeadIn: 0
PreviewTime: 98238
Countdown: 0
SampleSet: Soft
StackLeniency: 0.7
Mode: 0
LetterboxInBreaks: 0
WidescreenStoryboard: 0

[Editor]
Bookmarks: 4581
DistanceSpacing: 0.6
BeatDivisor: 8
GridSize: 32
TimelineZoom: 2.7

[Metadata]
Title:Bakamitai (Camellia Eurobeat Remix)
TitleUnicode:ばかみたい (Camellia Eurobeat Remix)
Artist:Camellia
ArtistUnicode:かめりあ
Creator:sunui
Version:DAME NANO YO
Source:龍が如く 5
Tags:yakuza baka mitai Ryosuke Horii Mitsuharu Fukuyama Kazuma Kiryu Takaya Kuroda ryu ga gotoku damedane muukeh cavoeboy
BeatmapID:2547084
BeatmapSetID:1224663

[Difficulty]
HPDrainRate:5
CircleSize:4
OverallDifficulty:9
ApproachRate:9.8
SliderMultiplier:1.4
SliderTickRate:1

[Events]
//Background and Video events
0,0,"DAMEDANE.jpg",0,0
Video,1170,"DAMEDANE (Camellia Eurobeat Remix).avi"
//Break Periods
//Storyboard Layer 0 (Background)
//Storyboard Layer 1 (Fail)
//Storyboard Layer 2 (Pass)
//Storyboard Layer 3 (Foreground)
//Storyboard Layer 4 (Overlay)
//Storyboard Sound Samples

[TimingPoints]
1488,375,4,2,1,60,1,0
2988,-58.8235294117647,4,2,1,60,0,0
6550,-58.8235294117647,4,2,1,30,0,0
6738,-58.8235294117647,4,2,1,60,0,0
7300,-117.647058823529,4,2,1,60,0,0
7675,-58.8235294117647,4,2,1,60,0,0
12550,-58.8235294117647,4,2,1,30,0,0
12738,-58.8235294117647,4,2,1,60,0,0
15363,-58.8235294117647,4,2,1,30,0,0
15738,-58.8235294117647,4,2,1,30,0,0
16113,-58.8235294117647,4,2,1,60,0,0
16206,-58.8235294117647,4,2,1,30,0,0
16300,-58.8235294117647,4,2,1,60,0,0
16394,-58.8235294117647,4,2,1,30,0,0
16488,-58.8235294117647,4,2,1,60,0,0
16863,-58.8235294117647,4,2,1,30,0,0
17238,-58.8235294117647,4,2,1,60,0,0
17331,-58.8235294117647,4,2,1,30,0,0
17613,-58.8235294117647,4,2,1,60,0,0
17706,-58.8235294117647,4,2,1,30,0,0
17988,-45.4545454545455,4,2,1,60,0,0
25863,-45.4545454545455,4,2,1,30,0,0
26988,-40,4,2,1,60,0,1
38988,-33.3333333333333,4,2,1,60,0,1
39269,-40,4,2,1,60,0,1
41988,-25,4,2,1,60,0,1
42925,-40,4,2,1,60,0,1
44800,-100,4,2,1,60,0,1
44988,-40,4,2,1,60,0,1
45363,-40,4,2,1,50,0,1
47988,-40,4,2,1,60,0,1
48738,-40,4,2,1,65,0,1
49113,-40,4,2,1,70,0,1
49488,-100,4,2,1,45,0,0
50988,-50,4,2,1,60,0,0
51363,-50,4,2,1,60,0,0
51456,-50,4,2,1,50,0,0
51738,-50,4,2,1,60,0,0
51831,-50,4,2,1,50,0,0
52113,-50,4,2,1,60,0,0
52206,-50,4,2,1,50,0,0
52488,-50,4,2,1,60,0,0
52581,-50,4,2,1,50,0,0
52863,-50,4,2,1,60,0,0
53988,-50,4,2,1,60,0,0
54081,-50,4,2,1,50,0,0
54175,-50,4,2,1,60,0,0
54363,-50,4,2,1,60,0,0
54456,-50,4,2,1,50,0,0
54738,-50,4,2,1,60,0,0
54831,-50,4,2,1,50,0,0
55113,-50,4,2,1,60,0,0
55206,-50,4,2,1,50,0,0
55488,-50,4,2,1,60,0,0
55581,-50,4,2,1,50,0,0
55863,-50,4,2,1,60,0,0
55956,-50,4,2,1,50,0,0
56238,-50,4,2,1,60,0,0
56331,-50,4,2,1,50,0,0
56519,-50,4,2,1,60,0,0
56988,-50,4,2,1,60,0,0
57081,-50,4,2,1,50,0,0
57363,-50,4,2,1,60,0,0
57456,-50,4,2,1,50,0,0
57738,-50,4,2,1,60,0,0
57831,-50,4,2,1,50,0,0
58113,-50,4,2,1,60,0,0
58206,-50,4,2,1,50,0,0
58488,-50,4,2,1,60,0,0
58581,-50,4,2,1,50,0,0
58863,-50,4,2,1,60,0,0
58956,-50,4,2,1,50,0,0
59238,-50,4,2,1,60,0,0
59331,-50,4,2,1,50,0,0
59613,-50,4,2,1,60,0,0
59706,-50,4,2,1,50,0,0
59988,-50,4,2,1,60,0,0
60081,-50,4,2,1,50,0,0
60363,-50,4,2,1,60,0,0
60550,-50,4,2,1,50,0,0
60738,-50,4,2,1,60,0,0
60831,-50,4,2,1,50,0,0
61113,-50,4,2,1,60,0,0
61206,-50,4,2,1,50,0,0
61488,-50,4,2,1,60,0,0
61581,-50,4,2,1,50,0,0
61863,-50,4,2,1,60,0,0
61956,-50,4,2,1,50,0,0
62238,-50,4,2,1,60,0,0
62331,-50,4,2,1,50,0,0
62519,-50,4,2,1,60,0,0
62988,-50,4,2,1,60,0,0
63081,-50,4,2,1,50,0,0
63363,-50,4,2,1,60,0,0
63456,-50,4,2,1,50,0,0
63738,-50,4,2,1,60,0,0
63831,-50,4,2,1,50,0,0
64113,-50,4,2,1,60,0,0
64206,-50,4,2,1,50,0,0
64488,-50,4,2,1,60,0,0
64581,-50,4,2,1,50,0,0
64863,-50,4,2,1,60,0,0
69456,-50,4,2,1,50,0,0
69738,-50,4,2,1,60,0,0
69831,-50,4,2,1,50,0,0
70113,-50,4,2,1,60,0,0
70206,-50,4,2,1,50,0,0
70488,-50,4,2,1,60,0,0
70581,-50,4,2,1,50,0,0
70863,-50,4,2,1,60,0,0
70956,-50,4,2,1,50,0,0
71238,-50,4,2,1,60,0,0
71331,-50,4,2,1,50,0,0
71613,-50,4,2,1,60,0,0
71706,-50,4,2,1,50,0,0
71988,-50,4,2,1,60,0,0
72081,-50,4,2,1,50,0,0
72175,-50,4,2,1,60,0,0
72269,-50,4,2,1,50,0,0
72363,-50,4,2,1,60,0,0
72738,-50,4,2,1,60,0,0
73675,-33.3333333333333,4,2,1,60,0,0
74988,-33.3333333333333,4,2,1,70,0,0
76300,-50,4,2,1,60,0,0
78363,-50,4,2,1,60,0,0
78456,-50,4,2,1,50,0,0
78738,-50,4,2,1,60,0,0
78831,-50,4,2,1,50,0,0
79113,-50,4,2,1,60,0,0
79206,-50,4,2,1,50,0,0
79300,-50,4,2,1,60,0,0
79394,-50,4,2,1,50,0,0
79488,-50,4,2,1,60,0,0
79581,-50,4,2,1,50,0,0
79863,-50,4,2,1,60,0,0
79956,-50,4,2,1,50,0,0
80988,-50,4,2,1,70,0,0
82300,-50,4,2,1,60,0,0
84363,-50,4,2,1,60,0,0
84456,-50,4,2,1,50,0,0
84738,-50,4,2,1,60,0,0
84831,-50,4,2,1,50,0,0
85113,-50,4,2,1,60,0,0
85206,-50,4,2,1,50,0,0
85488,-50,4,2,1,60,0,0
85581,-50,4,2,1,50,0,0
85863,-50,4,2,1,60,0,0
85956,-50,4,2,1,50,0,0
86238,-50,4,2,1,60,0,0
87363,-50,4,2,1,60,0,0
87456,-50,4,2,1,50,0,0
87550,-50,4,2,1,60,0,0
87644,-50,4,2,1,50,0,0
87738,-50,4,2,1,60,0,0
87831,-50,4,2,1,50,0,0
88113,-50,4,2,1,60,0,0
88206,-50,4,2,1,50,0,0
88488,-50,4,2,1,60,0,0
88581,-50,4,2,1,50,0,0
88863,-50,4,2,1,60,0,0
88956,-50,4,2,1,50,0,0
89238,-50,4,2,1,60,0,0
89331,-50,4,2,1,50,0,0
89613,-50,4,2,1,60,0,0
89706,-50,4,2,1,50,0,0
89988,-50,4,2,1,60,0,0
90081,-50,4,2,1,50,0,0
90363,-50,4,2,1,60,0,0
90456,-50,4,2,1,50,0,0
90738,-50,4,2,1,60,0,0
90831,-50,4,2,1,50,0,0
91113,-50,4,2,1,60,0,0
98238,-33.3333333333333,4,2,1,60,0,0
98988,-40,4,2,1,60,0,1
113988,-25,4,2,1,60,0,1
114925,-40,4,2,1,60,0,1
116988,-40,4,2,1,45,0,1
119988,-40,4,2,1,50,0,1
120363,-40,4,2,1,55,0,1
120738,-40,4,2,1,60,0,1
121113,-40,4,2,1,65,0,1
121488,-40,4,2,1,70,0,0
121675,-40,4,2,1,60,0,0
122988,-33.3333333333333,4,2,1,60,0,1
134988,-26.6666666666667,4,2,1,60,0,1
135363,-33.3333333333333,4,2,1,60,0,1
137988,-25,4,2,1,60,0,1
138925,-33.3333333333333,4,2,1,60,0,1
140800,-66.6666666666667,4,2,1,60,0,1
140988,-28.5714285714286,4,2,1,60,0,1
141363,-28.5714285714286,4,2,1,45,0,1
143988,-28.5714285714286,4,2,1,55,0,1
144363,-28.5714285714286,4,2,1,60,0,1
144738,-28.5714285714286,4,2,1,65,0,1
145113,-28.5714285714286,4,2,1,70,0,1
145488,-100,4,2,1,75,0,1
145581,-100,4,2,1,50,0,1
146988,-40,4,2,1,60,0,0
148488,-40,4,2,1,50,0,0
149988,-40,4,2,1,45,0,0
151488,-40,4,2,1,35,0,0
152988,-40,4,2,1,30,0,0
154488,-40,4,2,1,15,0,0
155988,-40,4,2,1,5,0,0

[Colours]
Combo1 : 255,191,255
Combo2 : 255,128,128
Combo3 : 255,191,128
Combo4 : 255,255,170
Combo5 : 149,255,149
Combo6 : 149,149,255
SliderBorder : 255,255,255

[HitObjects]
273,249,1488,5,8,0:0:0:0:
325,270,1581,1,8,0:0:0:0:
378,249,1675,2,8,L|399:271,1,17.5
403,198,1769,2,8,L|422:197,1,17.5
364,130,1863,5,8,0:0:0:0:
329,128,1956,1,0,1:0:0:0:
262,172,2050,1,0,1:0:0:0:
229,160,2144,1,0,1:0:0:0:
162,106,2238,5,10,0:0:0:0:
139,83,2331,1,0,1:0:0:0:
162,61,2425,1,2,1:2:0:0:
184,83,2519,1,0,1:0:0:0:
92,165,2613,5,10,0:0:0:0:
70,187,2707,1,0,1:0:0:0:
93,210,2801,1,2,1:2:0:0:
115,188,2894,1,0,1:0:0:0:
38,92,2988,6,0,B|90:141|90:141|52:304,1,238.00000453949,4|0,1:2|0:0,0:0:0:0:
33,376,3738,1,0,0:0:0:0:
346,210,4113,2,0,P|287:187|220:184,2,119.000002269745,2|2|2,0:0|0:0|0:0,0:0:0:0:
461,286,5238,5,2,0:0:0:0:
163,298,5613,1,2,0:0:0:0:
285,371,5988,2,0,P|331:334|302:277,2,119.000002269745,2|2|2,0:0|0:0|0:0,0:0:0:0:
135,186,6550,2,0,L|178:190,1,29.7500005674362,0|0,1:0|1:0,1:0:0:0:
176,190,6644,2,0,L|212:178,1,29.7500005674362,0|0,1:3|1:3,1:0:0:0:
204,180,6738,2,0,P|274:153|314:179,1,119.000002269745,2|0,0:0|0:0,0:0:0:0:
353,78,7019,2,0,P|341:152|298:173,1,119.000002269745,2|0,0:0|0:0,0:0:0:0:
366,257,7300,2,0,P|307:209|311:161,1,119.000002269745,2|0,0:0|0:0,0:0:0:0:
488,250,8238,5,2,0:0:0:0:
386,151,8425,1,2,0:0:0:0:
302,264,8613,1,2,0:0:0:0:
201,152,8800,2,0,B|194:146|186:129|186:129|180:171|216:208|216:208|286:167|295:81|215:4,1,357.000006809235,2|0,0:0|0:0,0:0:0:0:
72,162,10113,5,2,0:0:0:0:
345,109,10300,1,2,0:0:0:0:
69,259,10488,2,0,B|113:271|154:264|154:264|157:272|157:272|219:220|219:220|231:237|231:237|233:235|233:235|233:239|233:239|235:237|235:237|245:251|245:251|303:231|303:231|304:236|304:236|346:244|388:242,1,357.000006809235,2|0,0:0|0:0,0:0:0:0:
450,170,11238,2,0,B|376:152|376:152|368:146|368:146|375:153|375:153|390:226|390:226|374:303,1,238.00000453949,2|2,0:0|0:0,0:0:0:0:
353,369,11988,5,2,0:0:0:0:
256,88,12176,1,2,0:0:0:0:
159,369,12363,1,2,0:0:0:0:
405,185,12550,2,0,L|376:205,1,29.7500005674362,0|0,1:0|1:0,1:0:0:0:
375,238,12644,2,0,L|339:216,1,29.7500005674362,0|0,1:0|1:0,1:0:0:0:
312,227,12738,2,0,P|380:197|444:257,1,119.000002269745,2|0,0:0|0:0,0:0:0:0:
323,304,13019,2,0,P|288:255|219:257,1,119.000002269745,2|0,0:0|0:0,0:0:0:0:
146,286,13300,2,0,B|188:259|188:259|192:194|192:194|196:192|196:192|192:190|192:190|196:124,1,178.500003404617,2|0,0:0|0:0,0:0:0:0:
228,2,13675,5,0,1:0:0:0:
223,76,13768,1,0,1:0:0:0:
218,150,13862,1,8,3:2:0:0:
440,229,14050,5,0,1:0:0:0:
373,178,14143,1,0,1:0:0:0:
298,213,14238,5,10,0:0:0:0:
364,263,14332,1,0,1:0:0:0:
440,229,14426,1,2,1:2:0:0:
450,147,14520,1,0,1:0:0:0:
382,96,14614,1,10,0:0:0:0:
307,128,14707,1,0,1:0:0:0:
241,76,14800,1,2,1:2:0:0:
164,109,14894,1,0,1:0:0:0:
99,57,14988,6,0,P|128:129|83:186,1,119.000002269745,4|0,1:2|0:0,0:0:0:0:
61,232,15363,1,0,1:0:0:0:
61,232,15456,1,0,1:0:0:0:
61,232,15550,1,0,1:0:0:0:
124,319,15738,5,0,1:0:0:0:
154,307,15831,1,0,1:0:0:0:
185,296,15925,1,0,1:0:0:0:
216,285,16019,1,0,1:0:0:0:
261,283,16113,5,2,0:0:0:0:
220,266,16206,1,0,1:0:0:0:
178,251,16300,1,2,0:0:0:0:
135,236,16394,1,0,1:0:0:0:
85,291,16488,6,0,P|171:258|196:247,1,119.000002269745,2|0,0:0|0:0,0:0:0:0:
396,213,16863,1,0,1:0:0:0:
347,195,16956,1,0,1:0:0:0:
297,179,17050,1,0,1:0:0:0:
149,51,17238,1,2,0:0:0:0:
160,101,17331,1,0,1:0:0:0:
172,152,17425,1,0,1:0:0:0:
407,295,17613,5,2,0:0:0:0:
446,251,17706,1,0,1:0:0:0:
455,193,17800,1,0,1:0:0:0:
430,140,17894,1,0,1:0:0:0:
352,80,17988,6,0,B|294:129|294:129|374:107,1,154.000004699707,6|0,1:2|1:2,1:2:0:0:
362,211,18269,2,0,B|332:191|332:191|176:232,1,154.000004699707,4|4,1:2|1:2,1:2:0:0:
146,172,18550,2,0,P|187:138|212:133,1,77.0000023498536,4|0,0:0|0:0,0:0:0:0:
234,305,18738,2,0,P|180:304|158:292,1,77.0000023498536,4|0,0:0|0:0,0:0:0:0:
65,53,18925,6,8,L|109:61,1,38.5000011749268,8|8,1:2|0:0,0:0:0:0:
121,64,19019,2,8,L|161:72,1,38.5000011749268,8|8,1:2|0:0,0:0:0:0:
177,75,19113,2,0,B|265:94|265:94|271:88|271:88|284:142|284:142|325:117|325:117|328:118|328:118|326:114|326:114|329:115|329:115|373:89|373:89|374:101|374:101|422:131|422:131|496:123,1,385.000011749268,6|0,1:2|0:0,0:0:0:0:
431,226,19675,5,0,1:0:0:0:
371,186,19769,1,0,1:0:0:0:
357,115,19863,1,8,0:0:0:0:
291,249,20050,5,0,1:0:0:0:
221,263,20144,1,0,1:0:0:0:
182,323,20238,1,8,0:0:0:0:
212,156,20425,5,0,1:0:0:0:
151,96,20519,2,0,P|108:76|76:86,1,77.0000023498536,8|2,0:0|0:0,0:0:0:0:
36,321,20706,1,0,1:0:0:0:
50,293,20800,1,10,1:2:0:0:
66,265,20894,1,0,1:0:0:0:
83,238,20988,2,0,L|123:164,1,77.0000023498536,6|0,1:2|0:0,0:0:0:0:
296,341,21175,5,2,1:2:0:0:
431,165,21363,1,2,1:2:0:0:
406,172,21456,1,0,1:0:0:0:
382,180,21550,1,0,1:0:0:0:
357,188,21644,1,0,1:0:0:0:
274,200,21738,5,0,1:0:0:0:
279,154,21831,1,0,1:0:0:0:
325,159,21925,1,0,1:0:0:0:
319,205,22019,1,0,1:0:0:0:
351,280,22113,5,2,1:2:0:0:
274,271,22206,1,0,1:0:0:0:
197,262,22300,1,0,1:0:0:0:
121,254,22394,1,0,1:0:0:0:
42,276,22488,6,0,P|88:247|109:193,1,77.0000023498536,6|0,1:2|1:0,1:0:0:0:
107,37,22675,2,0,P|102:110|126:148,1,77.0000023498536,6|0,1:2|1:2,1:2:0:0:
163,358,22863,5,2,1:2:0:0:
234,335,22956,1,0,1:0:0:0:
274,271,23050,1,0,1:0:0:0:
262,196,23144,1,0,1:0:0:0:
203,137,23238,5,0,1:0:0:0:
205,59,23331,1,0,1:0:0:0:
259,4,23425,1,0,1:0:0:0:
335,1,23519,1,0,1:0:0:0:
392,57,23613,5,2,1:2:0:0:
341,140,23706,1,0,1:0:0:0:
262,196,23800,1,0,1:0:0:0:
164,208,23894,1,0,1:0:0:0:
70,175,23988,5,6,1:2:0:0:
76,165,24081,1,0,1:0:0:0:
84,158,24175,1,2,1:2:0:0:
93,152,24269,1,0,1:0:0:0:
104,149,24363,1,2,1:2:0:0:
115,149,24456,1,0,1:0:0:0:
125,150,24550,1,0,1:0:0:0:
136,155,24644,1,0,1:0:0:0:
133,264,24738,5,4,1:2:0:0:
136,258,24831,1,0,1:0:0:0:
140,253,24925,1,0,1:0:0:0:
143,247,25019,1,0,1:0:0:0:
147,242,25113,1,0,1:0:0:0:
150,237,25206,1,0,1:0:0:0:
154,232,25300,1,0,1:0:0:0:
158,226,25394,1,0,1:0:0:0:
228,291,25488,5,0,1:0:0:0:
333,293,25675,1,0,0:0:0:0:
92,358,25863,5,0,1:0:0:0:
62,331,25956,1,0,1:0:0:0:
39,306,26050,2,0,L|45:262,1,38.5000011749268,0|0,1:0|1:0,1:0:0:0:
41,257,26144,2,0,L|46:208,1,38.5000011749268,0|0,1:0|1:0,1:0:0:0:
43,193,26238,5,2,1:2:0:0:
300,212,26425,2,0,L|269:179,1,38.5000011749268,2|0,1:2|1:0,1:0:0:0:
242,164,26519,2,0,L|199:147,1,38.5000011749268,0|0,1:0|1:0,1:0:0:0:
156,159,26613,5,2,1:2:0:0:
202,320,26800,2,0,P|267:330|271:328,1,38.5000011749268,2|0,1:2|1:0,1:0:0:0:
290,337,26894,2,0,P|329:333|343:326,1,38.5000011749268,0|0,1:0|1:0,1:0:0:0:
372,320,26988,6,0,L|406:117,1,175,6|0,1:2|1:2,1:2:0:0:
98,79,27363,5,8,0:0:0:0:
106,160,27456,1,8,0:0:0:0:
164,217,27550,1,8,0:0:0:0:
244,226,27644,1,8,0:0:0:0:
320,200,27738,5,8,0:0:0:0:
241,163,27831,1,8,0:0:0:0:
155,153,27925,1,8,0:0:0:0:
71,180,28019,1,8,0:0:0:0:
11,243,28113,6,0,P|80:242|113:252,1,87.5,8|0,0:0|0:0,0:0:0:0:
248,315,28300,2,0,P|183:323|135:308,1,87.5,8|0,0:0|0:0,0:0:0:0:
131,69,28488,6,0,P|200:139|199:217,1,175,0|0,1:0|0:0,0:0:0:0:
27,100,28863,1,8,1:2:0:0:
34,92,28956,1,0,1:0:0:0:
42,86,29050,1,0,1:0:0:0:
48,80,29144,1,0,1:0:0:0:
271,94,29238,6,0,B|233:137|233:137|83:163,1,175,2|0,1:2|0:0,0:0:0:0:
45,264,29613,1,8,1:2:0:0:
128,248,29706,1,0,1:0:0:0:
211,233,29800,1,0,1:0:0:0:
294,218,29894,1,0,1:0:0:0:
350,154,29988,6,0,B|374:119|374:119|390:183,1,87.5,2|0,1:2|0:0,0:0:0:0:
305,369,30175,1,0,1:0:0:0:
226,318,30269,2,0,P|190:309|109:328,1,87.5,2|8,0:0|0:0,0:0:0:0:
219,59,30456,1,0,1:0:0:0:
234,144,30550,2,0,L|250:257,1,87.5,2|0,0:0|0:0,0:0:0:0:
305,369,30738,5,0,1:0:0:0:
354,340,30831,1,0,1:0:0:0:
407,314,30925,2,0,B|376:298|376:298|363:300|363:300|309:275,1,87.5,2|0,1:2|1:0,1:0:0:0:
182,204,31113,5,8,1:2:0:0:
119,180,31206,1,0,1:0:0:0:
69,228,31300,2,0,B|99:227|99:227|167:189,1,87.5,2|0,1:2|1:0,1:0:0:0:
392,98,31488,5,0,1:0:0:0:
388,123,31581,1,0,1:0:0:0:
314,166,31675,2,0,B|294:150|294:150|215:140,1,87.5,2|0,1:2|0:0,0:0:0:0:
69,28,31863,5,8,1:2:0:0:
141,34,31956,1,0,1:0:0:0:
201,76,32050,1,0,1:0:0:0:
233,143,32144,1,0,1:0:0:0:
227,216,32238,6,0,P|206:119|281:62,1,175,2|0,1:2|1:0,0:0:0:0:
443,89,32519,1,0,1:0:0:0:
381,152,32613,2,0,L|294:153,1,87.5,8|0,0:0|0:0,0:0:0:0:
227,216,32800,2,0,L|117:216,1,87.5,8|0,0:0|0:0,0:0:0:0:
73,301,32988,6,0,B|84:267|101:234|101:234|93:237|93:237|82:201|67:160|67:160|76:160|76:160|95:120|95:120|105:74,1,262.5,0|0,1:0|0:0,0:0:0:0:
201,35,33363,5,8,1:2:0:0:
257,47,33456,1,0,1:0:0:0:
314,60,33550,1,0,1:0:0:0:
371,73,33644,1,0,1:0:0:0:
449,65,33738,5,2,1:2:0:0:
456,108,33831,1,2,1:2:0:0:
420,176,33925,1,2,1:2:0:0:
415,212,34019,1,2,1:2:0:0:
460,292,34113,5,10,1:2:0:0:
436,209,34206,1,0,1:0:0:0:
411,125,34300,2,0,L|347:276,1,87.5,2|0,0:0|0:0,0:0:0:0:
311,329,34488,5,2,1:2:0:0:
287,246,34581,1,0,1:0:0:0:
262,162,34675,2,0,L|198:313,1,87.5,2|0,0:0|0:0,0:0:0:0:
139,362,34863,5,10,0:0:0:0:
225,345,34956,1,2,0:0:0:0:
311,329,35050,1,0,0:0:0:0:
396,312,35144,1,2,0:0:0:0:
457,249,35238,5,0,1:0:0:0:
376,217,35331,1,2,0:0:0:0:
446,166,35425,2,0,B|470:127|470:127|479:73|486:52,1,87.5,2|0,0:0|0:0,0:0:0:0:
223,182,35613,5,10,0:0:0:0:
304,150,35706,1,2,0:0:0:0:
234,99,35800,2,0,B|206:65|206:65|201:6|194:-15,1,87.5,2|0,0:0|0:0,0:0:0:0:
45,190,35988,6,0,P|98:173|128:133,1,87.5,2|0,1:2|1:0,1:0:0:0:
124,246,36175,5,0,1:0:0:0:
157,235,36269,1,2,1:2:0:0:
207,296,36363,5,8,1:2:0:0:
241,269,36456,1,0,1:0:0:0:
327,279,36550,6,0,L|215:265,1,87.5,2|0,0:0|0:0,0:0:0:0:
392,153,36738,5,2,1:2:0:0:
392,153,36831,1,0,1:0:0:0:
318,192,36925,5,0,1:0:0:0:
318,192,37019,1,2,1:2:0:0:
318,192,37113,1,8,1:2:0:0:
248,137,37206,5,0,1:0:0:0:
248,137,37300,1,2,1:2:0:0:
248,137,37394,1,0,1:0:0:0:
170,165,37488,5,10,1:2:0:0:
108,222,37581,1,10,0:0:0:0:
125,304,37675,1,10,0:0:0:0:
203,334,37769,5,10,0:0:0:0:
270,284,37863,1,10,0:0:0:0:
344,242,37956,1,10,0:0:0:0:
425,268,38050,5,10,0:0:0:0:
461,345,38144,1,10,0:0:0:0:
359,338,38238,2,0,P|383:272|501:249,1,175,14|0,1:2|0:1,0:1:0:0:
209,122,38519,1,0,1:0:0:0:
269,40,38613,2,0,P|311:122|302:157,1,87.5,10|0,0:0|0:0,0:0:0:0:
148,205,38800,2,0,P|118:173|105:131,1,87.5,2|0,0:0|0:0,0:0:0:0:
512,171,38988,6,0,B|438:154|438:154|446:165|446:165|371:210|371:210|376:220|376:220|315:192|315:192|209:218,1,315.000012016297,4|0,1:2|0:0,0:0:0:0:
124,331,39363,5,8,1:2:0:0:
180,316,39456,1,2,0:0:0:0:
237,302,39550,1,2,0:0:0:0:
293,287,39644,1,2,0:0:0:0:
363,250,39738,5,2,1:2:0:0:
398,181,39831,1,2,0:0:0:0:
385,105,39925,1,2,0:0:0:0:
327,53,40019,1,2,0:0:0:0:
288,161,40113,6,0,B|318:149|318:149|337:83,1,87.5,14|0,0:0|0:0,0:0:0:0:
200,75,40300,2,0,B|173:80|173:80|147:143,1,87.5,6|0,0:0|0:0,0:0:0:0:
366,348,40488,6,0,B|342:312|342:312|338:311|338:311|343:308|343:308|338:307|338:307|318:277|318:277|322:268|322:268|250:300|250:300|248:295|248:295|151:302,1,262.5,2|0,1:2|0:0,0:0:0:0:
37,324,40863,5,8,1:2:0:0:
46,278,40956,1,0,1:0:0:0:
125,230,41050,6,2,L|88:196,1,43.75,2|2,1:2|1:2,1:2:0:0:
123,180,41144,2,2,L|84:147,1,43.75,2|2,1:2|1:2,1:2:0:0:
51,74,41238,6,0,B|107:128|107:128|111:120|111:120|150:109|150:109|152:112|152:112|151:109|151:109|192:98|192:98|187:96|187:96|274:73,1,262.5,2|0,1:2|0:0,0:0:0:0:
456,260,41613,2,0,B|427:276|427:276|357:270,1,87.5,10|0,0:0|0:0,0:0:0:0:
224,173,41800,2,0,B|253:157|253:157|323:163,1,87.5,2|0,0:0|0:0,0:0:0:0:
284,305,41988,6,0,B|243:187|334:108|334:108|304:133|308:174,1,280,6|0,1:2|0:0,0:0:0:0:
387,170,42269,2,0,B|345:190|345:190|345:186|345:186|287:186|287:186|283:194|283:194|254:153|254:153|254:161|254:161|202:163|202:163|199:168|199:168|149:171,1,280,6|0,1:2|0:0,0:0:0:0:
39,136,42550,2,0,P|28:168|50:133,1,140,6|0,1:2|0:0,0:0:0:0:
0,337,42738,5,0,1:0:0:0:
72,325,42831,1,0,1:0:0:0:
145,311,42925,2,2,L|137:269,1,43.75,2|2,1:2|1:2,1:2:0:0:
220,297,43019,2,2,L|232:358,1,43.75,2|2,1:2|1:2,1:2:0:0:
296,283,43113,6,0,L|403:263,1,87.5,6|0,1:2|0:0,0:0:0:0:
458,250,43300,5,0,1:0:0:0:
467,244,43394,1,0,1:0:0:0:
482,238,43488,1,0,1:0:0:0:
494,231,43581,1,0,1:0:0:0:
512,145,43675,5,4,1:2:0:0:
434,157,43768,1,4,1:2:0:0:
355,171,43863,5,4,1:2:0:0:
353,158,43956,1,2,0:0:0:0:
352,146,44050,1,6,1:2:0:0:
279,184,44144,5,6,1:2:0:0:
280,227,44237,1,6,1:2:0:0:
281,271,44331,1,2,0:0:0:0:
194,285,44425,5,2,0:0:0:0:
192,259,44519,1,6,1:2:0:0:
191,233,44613,1,2,0:0:0:0:
190,207,44706,1,2,0:0:0:0:
189,179,44800,2,0,L|185:126,1,35,6|0,1:2|0:0,0:0:0:0:
85,29,44988,6,0,B|30:99|30:99|41:97|41:97|61:164|61:164|56:172|56:172|88:277,1,262.5,6|0,1:2|0:0,0:0:0:0:
309,119,45363,5,8,1:2:0:0:
243,70,45456,1,8,1:2:0:0:
161,73,45550,2,8,L|176:211,1,87.5,8|8,1:2|1:2,1:2:0:0:
198,307,45738,5,8,1:2:0:0:
207,345,45831,1,8,1:2:0:0:
227,286,45925,5,8,1:2:0:0:
178,242,46018,1,8,1:2:0:0:
114,236,46112,1,8,1:2:0:0:
59,269,46206,1,8,1:2:0:0:
33,328,46300,2,8,L|127:313,1,87.5,12|8,1:2|1:2,1:2:0:0:
309,289,46488,6,8,L|399:276,1,87.5,14|8,1:2|1:2,1:2:0:0:
479,299,46675,1,10,1:2:0:0:
465,218,46768,1,10,1:2:0:0:
387,170,46863,6,8,L|397:57,1,87.5,10|10,1:2|1:2,1:2:0:0:
472,36,47050,1,10,1:2:0:0:
474,120,47144,1,8,1:2:0:0:
387,170,47238,6,8,L|239:188,1,87.5,10|8,1:2|1:2,1:2:0:0:
208,272,47425,2,8,L|96:288,1,87.5,8|8,1:2|1:2,1:2:0:0:
80,119,47613,1,0,1:0:0:0:
163,110,47706,1,0,1:0:0:0:
132,188,47800,2,0,L|34:202,1,87.5,12|0,1:2|1:0,1:0:0:0:
15,50,47988,5,14,1:2:0:0:
58,45,48081,1,8,1:2:0:0:
102,40,48175,1,8,1:2:0:0:
145,36,48269,1,10,1:2:0:0:
229,27,48363,5,8,1:2:0:0:
314,34,48456,1,8,1:2:0:0:
369,99,48550,1,10,1:2:0:0:
363,184,48644,1,8,1:2:0:0:
288,251,48738,5,8,1:2:0:0:
262,153,48831,1,8,1:2:0:0:
309,64,48925,1,8,1:2:0:0:
404,31,49019,1,8,1:2:0:0:
501,91,49113,5,8,1:2:0:0:
409,191,49206,1,8,1:2:0:0:
288,251,49300,1,8,1:2:0:0:
150,255,49394,1,8,1:2:0:0:
23,205,49488,5,8,0:0:0:0:
31,197,49581,1,8,0:0:0:0:
39,191,49675,2,8,L|58:214,1,17.5
49,185,49769,2,8,L|68:208,1,17.5
56,166,49863,5,8,0:0:0:0:
66,169,49956,1,0,1:0:0:0:
76,172,50050,1,0,1:0:0:0:
87,174,50144,1,8,0:0:0:0:
115,174,50238,5,8,0:0:0:0:
122,181,50331,1,0,1:0:0:0:
129,189,50425,1,0,1:0:0:0:
137,196,50519,1,8,0:0:0:0:
160,203,50613,5,10,0:0:0:0:
162,212,50706,1,0,1:0:0:0:
164,222,50800,1,2,1:2:0:0:
168,233,50894,1,8,0:0:0:0:
136,283,50988,6,0,P|192:256|259:292,1,140,6|2,0:0|0:0,0:0:0:0:
347,350,51363,2,0,P|384:361|424:349,2,70,10|0|0,0:0|1:0|1:0,0:0:0:0:
396,105,51738,5,0,1:0:0:0:
378,142,51831,1,0,1:0:0:0:
360,179,51925,1,0,1:0:0:0:
501,278,52113,1,8,0:0:0:0:
486,235,52206,1,0,1:0:0:0:
472,191,52300,1,0,1:0:0:0:
244,107,52488,2,0,L|151:101,2,70,0|0|0,1:0|1:0|1:0,0:0:0:0:
311,247,52863,6,0,P|232:205|255:283,1,210,10|0,0:0|0:0,0:0:0:0:
339,318,53238,2,0,B|327:255|327:255|356:193|356:193|355:188|355:188|361:191|361:191|360:186|360:186|390:118,1,210,2|0,1:2|0:0,0:0:0:0:
472,138,53613,2,0,B|416:124|416:124|412:112|412:112|263:74,1,210,10|0,0:0|0:0,0:0:0:0:
162,51,53988,5,2,1:2:0:0:
173,101,54081,1,0,1:0:0:0:
186,151,54175,1,2,0:0:0:0:
127,302,54363,1,10,0:0:0:0:
158,273,54456,1,0,1:0:0:0:
188,243,54550,1,0,1:0:0:0:
346,218,54738,1,0,1:0:0:0:
312,207,54831,1,0,1:0:0:0:
278,198,54925,1,0,1:0:0:0:
39,173,55113,6,0,L|112:190,2,70,8|0|0,0:0|1:0|1:0,0:0:0:0:
318,62,55488,2,0,L|266:116,2,70,0|0|0,1:0|1:0|1:0,0:0:0:0:
284,360,55863,2,0,L|262:288,2,70,8|0|0,0:0|1:0|1:0,0:0:0:0:
437,182,56238,5,0,1:0:0:0:
390,176,56331,1,0,1:0:0:0:
344,170,56425,1,0,1:0:0:0:
381,257,56519,1,0,1:0:0:0:
409,219,56612,1,10,0:0:0:0:
437,182,56706,1,0,1:0:0:0:
344,170,56800,2,0,L|373:237,1,70,2|0,1:2|1:0,1:0:0:0:
484,102,56988,5,2,1:2:0:0:
398,95,57081,1,0,1:0:0:0:
313,90,57175,1,0,1:0:0:0:
151,183,57363,6,0,L|231:176,2,70,8|0|0,0:0|1:0|1:0,0:0:0:0:
387,318,57738,2,0,L|284:302,2,70,0|0|0,1:0|1:0|1:0,0:0:0:0:
115,349,58113,5,10,0:0:0:0:
125,300,58206,1,0,1:0:0:0:
136,251,58300,2,0,L|159:144,1,70,0|0,1:0|1:0,1:0:0:0:
375,84,58488,2,0,L|356:176,2,70,2|0|0,1:2|1:0|1:0,0:0:0:0:
197,95,58863,5,10,0:0:0:0:
157,87,58956,1,0,1:0:0:0:
120,93,59050,1,0,1:0:0:0:
365,234,59238,2,0,L|442:250,2,70,2|0|0,1:2|1:0|1:0,0:0:0:0:
151,312,59613,5,10,0:0:0:0:
198,263,59706,1,0,1:0:0:0:
267,262,59800,1,0,1:0:0:0:
316,309,59894,1,0,1:0:0:0:
236,342,59988,6,0,L|232:243,2,70,2|0|0,1:2|1:0|1:0,0:0:0:0:
290,73,60363,2,0,L|293:164,2,70,8|2|0,0:0|0:0|1:0,0:0:0:0:
511,142,60738,5,0,1:0:0:0:
471,198,60831,1,0,1:0:0:0:
405,217,60925,1,0,1:0:0:0:
341,191,61019,1,0,1:0:0:0:
292,142,61113,5,8,0:0:0:0:
228,116,61207,1,0,1:0:0:0:
162,135,61301,1,0,1:0:0:0:
122,191,61394,1,0,1:0:0:0:
223,212,61488,5,0,1:0:0:0:
223,212,61581,1,0,1:0:0:0:
223,212,61675,1,0,1:0:0:0:
414,129,61863,5,8,0:0:0:0:
414,129,61956,1,0,1:0:0:0:
414,129,62050,1,0,1:0:0:0:
422,337,62238,5,0,1:0:0:0:
352,328,62331,1,0,1:0:0:0:
282,320,62425,1,0,1:0:0:0:
188,348,62519,5,0,1:0:0:0:
216,286,62612,1,10,0:0:0:0:
195,221,62706,1,0,1:0:0:0:
118,206,62800,6,0,P|89:205|45:181,1,70,2|0,1:2|1:0,1:0:0:0:
178,61,62988,5,2,1:2:0:0:
256,72,63081,1,0,1:0:0:0:
332,84,63175,1,0,1:0:0:0:
64,300,63363,6,0,L|158:282,1,70,8|0,0:0|1:0,0:0:0:0:
345,242,63550,1,0,1:0:0:0:
99,141,63738,6,0,L|181:188,1,70,0|0,1:0|1:0,0:0:0:0:
400,315,63925,1,0,1:0:0:0:
246,48,64113,5,8,0:0:0:0:
246,48,64206,1,0,1:0:0:0:
246,48,64300,1,0,1:0:0:0:
201,332,64488,5,0,1:0:0:0:
201,332,64581,1,0,1:0:0:0:
201,332,64675,1,0,1:0:0:0:
431,184,64863,6,0,P|330:168|364:259,1,210,10|0,0:0|0:0,0:0:0:0:
419,274,65238,2,0,B|378:262|378:262|373:253|373:253|339:246|339:246|337:247|337:247|338:243|338:243|335:245|335:245|304:239|304:239|295:242|295:242|261:233|261:233|210:225,1,210,2|0,1:2|0:0,0:0:0:0:
153,177,65613,2,0,P|228:139|242:142,1,70,10|0,0:0|0:0,0:0:0:0:
215,311,65800,2,0,P|181:303|154:281,1,70,8|0,0:0|0:0,0:0:0:0:
34,81,65988,6,0,B|101:66|101:66|98:54|98:54|149:80|149:80|183:60|232:60,1,210,6|0,1:2|0:0,0:0:0:0:
323,20,66363,6,0,B|303:18|303:18|265:2|265:2|291:48|291:48|284:91|284:91|296:148,1,210,14|0,1:2|0:0,0:0:0:0:
301,223,66738,1,0,1:0:0:0:
311,240,66831,1,0,1:0:0:0:
325,226,66925,1,0,1:0:0:0:
318,209,67019,1,0,1:0:0:0:
387,168,67113,6,0,B|311:103|250:148|230:198|230:198|199:268|113:232|131:169,1,350,14|0,1:2|0:0,0:0:0:0:
193,26,67675,5,0,1:0:0:0:
208,102,67769,1,0,1:0:0:0:
224,178,67863,1,8,0:0:0:0:
459,155,68050,5,0,1:0:0:0:
385,137,68144,1,0,1:0:0:0:
328,81,68238,5,8,0:0:0:0:
385,137,68331,1,0,1:0:0:0:
371,216,68425,1,0,1:0:0:0:
298,249,68519,1,0,1:0:0:0:
228,199,68613,5,10,0:0:0:0:
147,176,68706,1,0,1:0:0:0:
88,234,68800,1,2,1:2:0:0:
109,315,68894,1,0,1:0:0:0:
189,337,68988,6,0,P|224:309|228:253,1,70,2|0,1:2|0:0,0:0:0:0:
225,71,69175,1,2,0:0:0:0:
457,72,69363,5,10,0:0:0:0:
391,53,69456,1,0,1:0:0:0:
336,92,69550,1,0,1:0:0:0:
332,159,69644,1,0,1:0:0:0:
409,135,69738,5,0,1:0:0:0:
409,135,69831,1,0,1:0:0:0:
409,135,69925,1,0,1:0:0:0:
228,49,70113,5,10,0:0:0:0:
182,42,70206,1,0,1:0:0:0:
135,48,70300,1,0,1:0:0:0:
93,67,70394,1,0,1:0:0:0:
38,60,70488,5,2,1:2:0:0:
80,83,70581,1,0,1:0:0:0:
96,130,70675,1,0,1:0:0:0:
73,175,70769,1,0,1:0:0:0:
39,212,70863,1,8,0:0:0:0:
17,257,70957,1,0,1:0:0:0:
32,305,71051,1,0,1:0:0:0:
75,329,71144,1,0,1:0:0:0:
127,330,71238,5,2,1:2:0:0:
180,297,71331,1,0,1:0:0:0:
242,299,71425,1,0,1:0:0:0:
290,338,71519,1,0,1:0:0:0:
344,372,71613,1,8,0:0:0:0:
404,365,71706,1,0,1:0:0:0:
442,316,71800,1,0,1:0:0:0:
432,255,71894,1,0,1:0:0:0:
374,218,71988,5,2,1:2:0:0:
312,187,72081,1,0,1:0:0:0:
286,124,72175,1,2,0:0:0:0:
307,59,72269,1,0,1:0:0:0:
371,1,72363,5,10,0:0:0:0:
427,63,72456,1,0,0:0:0:0:
428,152,72550,1,0,0:0:0:0:
374,218,72643,1,0,0:0:0:0:
288,235,72738,5,8,1:2:0:0:
213,195,72831,1,8,0:0:0:0:
134,156,72924,1,8,0:0:0:0:
52,185,73018,1,8,1:2:0:0:
13,264,73112,5,8,1:2:0:0:
43,346,73206,1,8,0:0:0:0:
122,382,73300,1,8,1:2:0:0:
204,351,73394,1,8,0:0:0:0:
249,270,73488,6,0,L|248:227,3,35,8|0|0|0,1:2|1:0|1:0|1:0,1:0:0:0:
144,265,73675,6,0,P|214:138|298:138,1,210.000008010865,14|0,1:2|0:0,0:0:0:0:
88,92,73956,2,0,P|232:89|274:161,1,210.000008010865,14|0,1:2|0:0,0:0:0:0:
367,154,74238,2,0,P|326:217|289:230,1,105.000004005432,14|0,1:2|0:0,0:0:0:0:
21,212,74425,6,0,B|82:198|82:198|148:150|148:150|148:172|148:172|174:207|174:207|172:217|172:217|185:209|185:209|182:219|182:219|208:253|208:253|214:243|214:243|318:229|318:229|313:208|313:208|427:233,1,525.000020027161,14|0,1:2|0:0,0:0:0:0:
504,246,74988,5,14,1:2:0:0:
426,111,75175,1,14,1:2:0:0:
292,35,75363,1,14,1:2:0:0:
137,35,75550,1,14,1:2:0:0:
2,111,75738,1,14,1:2:0:0:
346,243,76300,6,0,P|327:201|121:187,1,280,6|0,1:2|1:0,0:0:0:0:
70,255,76769,1,2,1:2:0:0:
26,322,76863,5,10,0:2:0:0:
83,283,76956,1,2,1:2:0:0:
152,282,77050,1,2,1:2:0:0:
210,318,77144,1,2,1:2:0:0:
277,369,77238,5,10,0:2:0:0:
357,367,77331,1,2,1:2:0:0:
409,306,77425,1,2,1:2:0:0:
399,226,77519,1,2,1:2:0:0:
329,182,77613,5,10,0:2:0:0:
246,206,77706,1,2,1:2:0:0:
162,183,77800,1,2,1:2:0:0:
104,119,77894,1,2,1:2:0:0:
87,35,77988,6,0,P|172:63|183:145,1,140,14|0,1:2|0:0,0:0:0:0:
73,345,78363,5,8,0:0:0:0:
97,281,78456,1,0,1:0:0:0:
161,260,78550,1,0,1:0:0:0:
221,294,78644,1,0,1:0:0:0:
268,354,78738,5,2,1:2:0:0:
342,357,78831,1,0,1:0:0:0:
396,305,78925,1,0,1:0:0:0:
393,230,79019,1,0,1:0:0:0:
332,177,79113,5,10,0:0:0:0:
315,97,79206,1,0,1:0:0:0:
370,38,79300,1,2,0:0:0:0:
450,50,79394,1,0,1:0:0:0:
477,122,79488,5,2,1:2:0:0:
413,172,79581,1,0,1:0:0:0:
332,177,79675,1,0,1:0:0:0:
263,134,79769,1,0,1:0:0:0:
216,66,79863,5,8,0:0:0:0:
141,36,79956,1,0,1:0:0:0:
71,75,80050,1,0,1:0:0:0:
58,154,80144,1,0,1:0:0:0:
110,214,80238,6,0,P|199:235|224:281,1,140,0|0,1:0|0:0,0:0:0:0:
138,298,80519,1,0,1:0:0:0:
221,272,80613,2,0,P|280:321|358:302,1,140,8|0,1:2|0:0,0:0:0:0:
512,288,80988,5,14,1:2:0:0:
377,364,81176,1,14,1:2:0:0:
222,364,81363,1,14,1:2:0:0:
88,288,81551,1,14,1:2:0:0:
10,153,81738,1,14,1:2:0:0:
411,263,82300,6,0,B|364:269|364:269|357:278|357:278|282:225|282:225|272:232|272:232|214:229|214:229|212:235|212:235|210:229|210:229|154:226,1,280,4|0,1:0|1:0,0:0:0:0:
161,79,82769,1,2,1:2:0:0:
215,131,82863,5,10,0:2:0:0:
147,152,82956,1,2,1:2:0:0:
92,108,83050,1,2,1:2:0:0:
99,37,83144,1,2,1:2:0:0:
162,4,83238,5,10,0:2:0:0:
223,38,83331,1,2,1:2:0:0:
294,37,83425,1,2,1:2:0:0:
361,17,83519,1,2,1:2:0:0:
429,0,83613,5,10,0:2:0:0:
385,64,83706,1,2,1:2:0:0:
379,141,83800,1,2,1:2:0:0:
413,211,83894,1,2,1:2:0:0:
481,256,83988,6,0,B|451:232|451:232|409:239|409:239|404:237|404:237|405:242|405:242|400:240|400:240|344:248,1,140,14|2,0:0|0:0,0:0:0:0:
134,141,84363,5,10,0:0:0:0:
199,160,84456,1,0,1:0:0:0:
238,216,84550,1,0,1:0:0:0:
233,285,84644,1,0,1:0:0:0:
179,346,84738,5,0,1:0:0:0:
132,286,84831,1,0,1:0:0:0:
164,219,84925,1,0,1:0:0:0:
238,216,85019,1,0,1:0:0:0:
307,255,85113,5,8,0:0:0:0:
377,201,85206,1,0,1:0:0:0:
378,113,85300,1,0,1:0:0:0:
308,59,85394,1,0,1:0:0:0:
225,84,85488,5,0,1:0:0:0:
227,62,85581,1,0,1:0:0:0:
137,56,85675,1,0,1:0:0:0:
152,40,85769,1,0,1:0:0:0:
80,7,85863,5,8,0:0:0:0:
108,41,85956,1,0,1:0:0:0:
109,86,86050,1,0,1:0:0:0:
83,121,86144,1,0,1:0:0:0:
6,154,86238,5,8,0:0:0:0:
75,103,86331,1,8,0:0:0:0:
160,112,86425,1,0,1:0:0:0:
217,175,86519,1,0,1:0:0:0:
263,247,86613,5,8,0:0:0:0:
330,297,86707,1,8,0:0:0:0:
416,290,86801,1,0,1:0:0:0:
474,227,86894,1,0,1:0:0:0:
511,152,86988,6,0,P|416:102|343:138,1,140,14|0,1:2|0:0,0:0:0:0:
186,361,87363,5,10,0:0:0:0:
232,305,87456,1,0,1:0:0:0:
238,233,87550,1,2,0:0:0:0:
203,170,87644,1,0,1:0:0:0:
127,153,87738,5,0,1:0:0:0:
63,107,87831,1,0,1:0:0:0:
76,30,87925,1,0,1:0:0:0:
151,8,88019,1,0,1:0:0:0:
203,60,88113,5,8,0:0:0:0:
253,116,88206,1,0,1:0:0:0:
328,129,88300,1,0,1:0:0:0:
395,89,88394,1,0,1:0:0:0:
421,18,88488,5,0,1:0:0:0:
335,28,88581,1,0,1:0:0:0:
269,84,88675,1,0,1:0:0:0:
243,166,88769,1,0,1:0:0:0:
243,242,88863,5,10,0:0:0:0:
218,315,88956,1,0,1:0:0:0:
149,349,89050,1,0,1:0:0:0:
76,326,89144,1,0,1:0:0:0:
33,268,89238,5,2,1:2:0:0:
78,205,89331,1,0,1:0:0:0:
145,169,89425,1,0,1:0:0:0:
225,169,89519,1,0,1:0:0:0:
292,205,89613,5,10,0:0:0:0:
363,231,89706,1,0,1:0:0:0:
429,194,89800,1,0,1:0:0:0:
443,120,89894,1,0,1:0:0:0:
399,51,89988,5,2,1:2:0:0:
330,103,90081,1,0,1:0:0:0:
294,182,90175,1,0,1:0:0:0:
299,269,90269,1,0,1:0:0:0:
359,337,90363,5,8,0:0:0:0:
443,318,90456,1,0,1:0:0:0:
457,233,90550,1,0,1:0:0:0:
384,188,90644,1,0,1:0:0:0:
310,235,90738,5,2,1:2:0:0:
229,274,90831,1,0,1:0:0:0:
141,254,90925,1,0,1:0:0:0:
85,184,91019,1,0,1:0:0:0:
85,91,91113,6,0,P|158:122|171:189,1,140,10|0,0:0|0:0,0:0:0:0:
69,361,91488,5,0,1:0:0:0:
136,308,91581,1,0,1:0:0:0:
213,345,91675,2,0,P|265:348|293:328,1,70,2|0,0:0|0:0,0:0:0:0:
318,239,91863,2,0,P|264:237|248:247,1,70,10|0,0:0|0:0,0:0:0:0:
414,299,92050,2,0,P|431:259|425:206,1,70,2|0,0:0|0:0,0:0:0:0:
405,90,92238,5,10,0:0:0:0:
335,79,92331,1,0,1:0:0:0:
266,69,92425,1,0,1:0:0:0:
279,138,92519,5,10,0:0:0:0:
210,125,92613,2,0,L|110:112,1,70,2|0,1:2|1:0,1:0:0:0:
159,48,92800,2,8,L|64:33,1,70,10|8,0:0|0:0,0:0:0:0:
139,279,92988,5,6,0:0:0:0:
139,279,93081,1,0,1:0:0:0:
139,279,93175,1,2,1:2:0:0:
139,279,93269,1,0,1:0:0:0:
156,303,93363,5,2,1:2:0:0:
142,301,93457,1,0,1:0:0:0:
128,298,93551,1,0,1:0:0:0:
114,297,93644,1,0,1:0:0:0:
79,301,93738,5,0,1:0:0:0:
96,286,93831,1,0,1:0:0:0:
114,271,93925,1,0,1:0:0:0:
132,256,94019,1,0,1:0:0:0:
161,214,94113,5,0,1:0:0:0:
174,271,94206,1,0,1:0:0:0:
190,329,94300,2,0,L|105:313,1,70,6|0,1:2|1:0,1:0:0:0:
0,285,94488,6,0,L|74:202,1,70,6|0,1:2|1:0,1:0:0:0:
171,114,94675,1,0,1:0:0:0:
173,83,94769,1,0,1:0:0:0:
128,33,94863,5,2,1:2:0:0:
183,72,94956,1,0,1:0:0:0:
251,82,95050,1,0,1:0:0:0:
315,60,95144,1,0,1:0:0:0:
368,18,95238,5,2,1:2:0:0:
444,11,95331,1,0,1:0:0:0:
502,58,95425,1,0,1:0:0:0:
512,133,95519,1,0,1:0:0:0:
466,195,95613,5,2,1:2:0:0:
391,162,95706,1,0,1:0:0:0:
315,189,95800,6,0,B|276:201|276:201|222:191,1,70,6|0,1:2|0:0,1:0:0:0:
2,115,95988,2,0,B|35:108|35:108|73:121,1,70,6|0,1:2|1:2,1:2:0:0:
118,307,96175,1,0,1:0:0:0:
199,271,96268,1,0,1:0:0:0:
230,185,96363,1,0,1:0:0:0:
193,100,96456,1,0,1:0:0:0:
238,19,96550,6,0,P|286:-1|331:9,1,70,6|0,1:2|1:0,1:0:0:0:
512,255,96738,2,0,P|445:304|415:299,1,70,6|0,1:2|1:2,1:2:0:0:
294,355,96925,1,0,1:0:0:0:
192,350,97018,1,0,1:0:0:0:
109,293,97112,1,0,1:0:0:0:
70,199,97206,1,0,1:0:0:0:
86,99,97300,6,0,B|104:82|104:82|112:-14,1,70,6|0,1:2|1:0,1:0:0:0:
480,97,97488,2,0,B|465:80|465:80|417:76,1,70,6|0,1:2|1:0,1:0:0:0:
292,69,97675,1,8,0:0:0:0:
211,74,97769,1,8,0:0:0:0:
247,2,97863,5,8,1:2:0:0:
304,60,97956,1,8,1:2:0:0:
337,144,98050,1,8,0:0:0:0:
341,228,98144,1,8,0:0:0:0:
279,305,98238,6,0,P|251:358|187:385,1,105.000004005432,6|0,0:0|0:0,0:0:0:0:
279,305,98425,2,0,P|229:283|200:239,1,105.000004005432,6|0,0:0|0:0,0:0:0:0:
279,305,98613,2,0,P|299:255|343:226,1,105.000004005432,6|0,0:0|0:0,0:0:0:0:
279,305,98800,2,0,P|327:325|356:369,1,105.000004005432,6|0,0:0|0:0,0:0:0:0:
103,362,98988,5,0,1:0:0:0:
146,309,99081,1,0,1:0:0:0:
145,240,99175,1,0,1:0:0:0:
99,189,99269,1,0,1:0:0:0:
43,140,99363,5,8,1:2:0:0:
42,66,99456,1,0,1:0:0:0:
90,10,99550,1,0,1:0:0:0:
163,0,99644,1,0,1:0:0:0:
225,39,99738,5,0,1:0:0:0:
285,82,99831,1,0,1:0:0:0:
359,88,99925,1,0,1:0:0:0:
425,54,100019,1,0,1:0:0:0:
484,2,100113,5,10,1:2:0:0:
406,24,100206,1,0,1:0:0:0:
359,88,100300,1,2,1:2:0:0:
360,168,100394,1,0,1:0:0:0:
401,229,100488,5,2,1:2:0:0:
400,301,100581,1,0,1:0:0:0:
347,352,100675,1,0,1:0:0:0:
275,350,100769,1,0,1:0:0:0:
225,296,100863,5,8,1:2:0:0:
229,223,100956,1,0,1:0:0:0:
270,163,101050,1,0,1:0:0:0:
337,135,101144,1,0,1:0:0:0:
408,145,101238,5,2,1:2:0:0:
353,211,101331,1,0,1:0:0:0:
270,233,101425,1,0,1:0:0:0:
188,204,101519,1,0,1:0:0:0:
150,132,101613,5,8,1:2:0:0:
230,105,101706,1,0,1:0:0:0:
310,136,101800,1,0,1:0:0:0:
353,211,101894,1,0,1:0:0:0:
339,295,101988,5,2,1:2:0:0:
306,302,102081,1,0,1:0:0:0:
236,345,102175,5,2,1:2:0:0:
206,314,102269,1,0,1:0:0:0:
118,319,102363,6,0,P|65:332|27:372,1,87.5,10|0,1:2|1:0,1:0:0:0:
30,115,102550,5,2,1:2:0:0:
109,136,102644,1,2,1:2:0:0:
187,158,102738,2,0,B|213:147|213:147|36:108,1,175,2|0,1:2|1:0,1:0:0:0:
242,235,103019,2,0,P|310:167|264:69,1,175,2|0,1:2|1:0,1:0:0:0:
199,51,103300,2,0,B|162:40|127:27|127:27|117:29|117:29|100:11|100:11|101:38|101:67|101:67|105:73|105:73|104:129|104:129|109:136|109:136|97:165|97:165|101:204|100:254,1,350,2|0,1:2|1:0,1:0:0:0:
412,61,103863,5,8,1:2:0:0:
441,92,103956,1,0,1:0:0:0:
452,134,104050,1,0,1:0:0:0:
444,177,104144,1,0,1:0:0:0:
396,227,104238,5,2,1:2:0:0:
345,213,104331,1,0,1:0:0:0:
293,219,104425,1,2,1:2:0:0:
213,219,104519,5,0,1:0:0:0:
204,270,104613,1,10,1:2:0:0:
171,308,104706,1,0,1:0:0:0:
93,328,104800,6,0,P|105:261|134:237,1,87.5,2|0,1:2|1:0,1:0:0:0:
77,34,104988,5,0,1:0:0:0:
127,86,105081,1,0,1:0:0:0:
199,103,105175,1,0,1:0:0:0:
268,80,105269,1,0,1:0:0:0:
320,25,105363,5,8,1:2:0:0:
394,15,105456,1,0,1:0:0:0:
455,60,105550,1,0,1:0:0:0:
465,135,105644,1,0,1:0:0:0:
421,197,105738,5,0,1:0:0:0:
362,243,105831,1,0,1:0:0:0:
290,263,105925,1,0,1:0:0:0:
216,253,106019,1,0,1:0:0:0:
149,222,106113,5,10,1:2:0:0:
181,137,106206,1,0,1:0:0:0:
258,91,106300,1,2,1:2:0:0:
348,102,106394,1,0,1:0:0:0:
413,164,106488,5,2,1:2:0:0:
347,187,106581,1,0,1:0:0:0:
283,157,106675,1,0,1:0:0:0:
258,91,106769,1,0,1:0:0:0:
216,30,106863,5,8,1:2:0:0:
151,0,106957,1,0,1:0:0:0:
84,24,107051,1,0,1:0:0:0:
54,87,107144,1,0,1:0:0:0:
62,166,107238,5,2,1:2:0:0:
145,187,107331,1,0,1:0:0:0:
230,170,107425,1,0,1:0:0:0:
299,116,107519,1,0,1:0:0:0:
336,38,107613,5,8,1:2:0:0:
314,32,107706,1,0,1:0:0:0:
293,31,107800,1,0,1:0:0:0:
271,35,107894,1,0,1:0:0:0:
252,45,107988,5,2,1:2:0:0:
254,131,108081,1,0,1:0:0:0:
301,203,108175,1,2,1:2:0:0:
380,238,108269,1,0,1:0:0:0:
467,221,108363,5,10,1:2:0:0:
418,150,108456,1,0,1:0:0:0:
337,116,108550,1,2,1:2:0:0:
254,131,108644,1,2,1:2:0:0:
188,187,108738,6,0,P|145:220|99:216,1,87.5,2|0,1:2|1:0,1:0:0:0:
344,33,108925,1,0,1:0:0:0:
408,118,109019,2,0,P|453:143|498:150,1,87.5,2|8,1:2|1:2,1:0:0:0:
315,340,109206,1,0,1:0:0:0:
348,261,109299,1,2,1:2:0:0:
324,178,109393,1,0,1:0:0:0:
254,131,109488,6,0,P|218:79|232:25,1,87.5,0|0,1:0|1:0,1:0:0:0:
39,300,109675,5,0,1:0:0:0:
98,344,109768,1,0,1:0:0:0:
170,367,109862,1,8,1:2:0:0:
245,366,109956,1,0,1:0:0:0:
315,340,110050,1,0,1:0:0:0:
388,327,110143,1,0,1:0:0:0:
461,358,110238,5,10,1:2:0:0:
388,327,110331,1,8,1:2:0:0:
374,249,110425,1,10,1:2:0:0:
432,195,110519,1,8,1:2:0:0:
495,148,110613,5,10,1:2:0:0:
495,59,110706,1,8,1:2:0:0:
428,0,110800,1,10,1:2:0:0:
339,10,110894,1,8,1:2:0:0:
288,81,110988,6,0,P|267:114|222:124,1,87.5,12|0,1:2|1:0,1:0:0:0:
14,69,111175,1,0,1:0:0:0:
33,63,111269,1,0,1:0:0:0:
62,34,111363,5,8,1:2:0:0:
27,105,111456,1,0,1:0:0:0:
51,181,111550,1,0,1:0:0:0:
120,220,111644,1,0,1:0:0:0:
198,195,111738,5,0,1:0:0:0:
272,153,111831,1,0,1:0:0:0:
354,176,111925,1,0,1:0:0:0:
395,251,112019,1,0,1:0:0:0:
367,335,112113,6,0,P|336:316|309:269,1,87.5,10|0,1:2|1:0,1:0:0:0:
293,66,112300,2,0,P|317:25|350:5,1,87.5,2|0,1:2|1:0,1:0:0:0:
451,98,112488,5,2,1:2:0:0:
447,183,112581,1,0,1:0:0:0:
395,251,112675,1,0,1:0:0:0:
310,272,112769,1,0,1:0:0:0:
229,238,112863,5,8,1:2:0:0:
157,208,112956,1,0,1:0:0:0:
80,221,113050,1,0,1:0:0:0:
23,274,113144,1,0,1:0:0:0:
0,349,113238,5,2,1:2:0:0:
95,365,113331,1,0,1:0:0:0:
182,323,113425,1,0,1:0:0:0:
229,238,113519,1,0,1:0:0:0:
218,143,113613,5,10,1:2:0:0:
263,45,113706,1,8,1:2:0:0:
364,11,113800,2,8,P|399:15|415:22,1,43.75,8|8,1:2|1:2,1:2:0:0:
459,61,113894,2,8,P|478:86|485:109,1,43.75,8|8,1:2|1:2,1:2:0:0:
489,164,113988,6,0,B|457:171|457:171|420:172|420:172|426:181|426:181|350:155|350:155|353:144|353:144|319:175|319:175|237:165,1,280,6|0,1:2|1:0,1:0:0:0:
127,116,114269,2,0,B|108:92|108:92|157:90|157:90|160:85|160:85|205:83|205:83|200:117|200:117|204:118|204:118|200:119|200:119|195:157|195:157|189:162|189:162|178:232,1,280,6|0,1:2|1:0,1:0:0:0:
233,284,114550,2,0,B|197:267|197:267|59:301,1,140,6|0,1:2|1:0,1:0:0:0:
225,371,114738,2,0,P|321:308|289:221,1,140,6|0,1:2|1:0,1:2:0:0:
298,20,114925,6,8,L|241:47,1,43.75,8|8,1:2|1:2,1:2:0:0:
227,56,115019,2,8,L|170:83,1,43.75,8|8,1:2|1:2,1:2:0:0:
154,89,115113,2,0,B|208:63|208:63|218:63|218:63|267:26|267:26|256:92|256:92|260:95|260:95|255:96|255:96|242:165|242:165|248:168|248:168|242:208|242:208|238:210|238:210|242:212|242:212|233:284|233:284|215:254,1,437.5,14|0,1:2|1:0,1:0:0:0:
87,253,115675,5,6,1:2:0:0:
155,213,115769,1,6,1:2:0:0:
218,259,115863,1,14,1:2:0:0:
341,356,116050,5,6,1:2:0:0:
331,272,116144,1,6,1:2:0:0:
377,202,116238,1,6,1:2:0:0:
468,52,116425,5,2,1:2:0:0:
396,105,116519,2,0,B|367:112|367:112|285:98,1,87.5,6|8,1:2|1:2,1:0:0:0:
129,37,116706,1,0,1:0:0:0:
176,112,116800,2,0,B|189:132|189:132|173:239,1,87.5,6|0,1:2|1:0,1:0:0:0:
25,312,116988,5,10,1:2:0:0:
61,241,117081,1,8,1:2:0:0:
136,213,117175,1,10,1:2:0:0:
210,243,117269,1,8,1:2:0:0:
254,311,117363,5,10,1:2:0:0:
323,360,117456,1,8,1:2:0:0:
408,352,117550,1,8,1:2:0:0:
467,290,117644,1,8,1:2:0:0:
471,205,117738,5,8,1:2:0:0:
384,205,117831,1,8,1:2:0:0:
306,243,117925,1,8,1:2:0:0:
252,311,118019,1,8,1:2:0:0:
186,369,118113,5,10,1:2:0:0:
100,361,118206,1,8,1:2:0:0:
40,300,118300,1,8,1:2:0:0:
33,214,118394,1,8,1:2:0:0:
83,145,118488,6,8,P|133:120|186:125,1,87.5,14|8,1:2|1:2,1:2:0:0:
276,209,118675,2,8,P|362:248|396:233,1,87.5,10|8,1:2|1:2,1:2:0:0:
451,111,118863,5,10,1:2:0:0:
387,55,118956,2,8,L|237:56,1,87.5,8|8,1:2|1:2,1:2:0:0:
111,57,119144,1,8,1:2:0:0:
25,58,119238,5,8,1:2:0:0:
49,116,119331,1,8,1:2:0:0:
107,141,119425,1,8,1:2:0:0:
166,119,119519,1,8,1:2:0:0:
201,57,119613,5,10,1:2:0:0:
266,10,119706,1,8,1:2:0:0:
344,32,119800,1,8,1:2:0:0:
376,106,119894,1,8,1:2:0:0:
339,176,119988,5,10,1:2:0:0:
288,94,120081,1,8,1:2:0:0:
201,57,120175,1,10,1:2:0:0:
107,76,120269,1,8,1:2:0:0:
41,145,120363,5,10,1:2:0:0:
42,248,120456,1,8,1:2:0:0:
102,332,120550,1,8,1:2:0:0:
200,367,120644,1,8,1:2:0:0:
300,341,120738,5,8,1:2:0:0:
273,234,120831,1,8,1:2:0:0:
247,128,120925,1,8,1:2:0:0:
221,22,121019,1,8,1:2:0:0:
145,91,121113,5,8,1:2:0:0:
247,128,121206,1,8,1:2:0:0:
354,107,121300,1,8,1:2:0:0:
435,35,121394,1,8,1:2:0:0:
338,16,121488,5,8,1:2:0:0:
325,203,121675,1,2,0:0:0:0:
456,354,121863,5,2,0:0:0:0:
405,341,121956,1,2,0:0:0:0:
351,324,122050,2,2,L|304:319,1,43.75
302,310,122144,2,2,L|251:305,1,43.75
253,299,122238,6,2,L|210:295,3,43.75
164,219,122425,2,2,L|219:212,3,43.75
288,95,122613,6,2,P|246:89|207:123,1,87.5
356,175,122800,2,2,P|402:110|397:75,1,87.5
77,45,122988,2,0,B|46:103|46:103|50:98|50:98|62:156|62:156|61:159|61:159|65:158|65:158|64:161|64:161|83:248,1,210.000008010865,6|0,1:2|0:0,1:0:0:0:
411,273,123363,5,8,1:2:0:0:
341,227,123456,1,2,1:2:0:0:
258,231,123550,1,2,1:2:0:0:
193,282,123644,1,2,1:2:0:0:
168,362,123738,5,2,1:2:0:0:
212,279,123831,1,2,1:2:0:0:
162,200,123925,1,2,1:2:0:0:
206,118,124019,1,2,1:2:0:0:
171,32,124113,6,0,P|121:82|112:124,1,105.000004005432,10|0,1:2|1:0,1:0:0:0:
290,158,124300,2,0,P|298:106|280:58,1,105.000004005432,2|0,1:2|1:0,1:0:0:0:
53,252,124488,2,0,B|96:246|96:246|129:235|129:235|125:243|125:243|171:282|171:282|176:277|176:277|253:277,1,210.000008010865,2|0,1:2|1:0,1:0:0:0:
512,303,124863,5,8,1:2:0:0:
445,254,124956,1,0,1:0:0:0:
364,267,125050,1,2,1:2:0:0:
316,332,125144,1,2,1:2:0:0:
431,361,125238,6,0,B|405:310|405:310|412:301|412:301|425:242|425:242|418:227|418:227|409:141,1,210.000008010865,2|0,1:2|1:0,1:0:0:0:
474,1,125613,5,8,1:2:0:0:
431,88,125706,1,0,1:0:0:0:
339,119,125800,1,0,1:0:0:0:
252,74,125894,1,0,1:0:0:0:
200,12,125988,6,0,P|242:122|213:157,1,105.000004005432,2|0,1:2|1:0,1:0:0:0:
112,249,126175,1,0,1:0:0:0:
43,197,126269,2,0,P|169:181|177:187,1,105.000004005432,2|8,1:2|1:2,1:0:0:0:
343,248,126456,1,0,1:0:0:0:
431,248,126550,2,0,P|369:228|314:248,1,105.000004005432,2|0,1:2|1:0,1:0:0:0:
111,345,126738,5,0,1:0:0:0:
192,356,126831,1,0,1:0:0:0:
271,370,126925,2,0,P|344:357|366:339,1,105.000004005432,2|0,1:2|1:0,1:0:0:0:
214,132,127113,5,8,1:2:0:0:
136,90,127206,1,0,1:0:0:0:
56,47,127300,2,0,B|43:86|43:86|72:161,1,105.000004005432,2|0,1:2|1:0,1:0:0:0:
405,262,127488,5,0,1:0:0:0:
427,181,127581,1,0,1:0:0:0:
386,106,127675,2,0,P|346:121|250:133,1,105.000004005432,2|0,1:2|1:0,1:0:0:0:
85,198,127863,5,8,1:2:0:0:
133,275,127956,1,2,1:2:0:0:
224,287,128050,1,2,1:2:0:0:
291,224,128144,1,2,1:2:0:0:
285,133,128238,6,0,B|242:157|242:157|238:152|238:152|240:158|240:158|210:174|210:174|225:296,1,210.000008010865,2|2,1:2|1:2,1:0:0:0:
402,209,128519,1,0,1:0:0:0:
480,141,128613,2,0,P|439:111|372:110,1,105.000004005432,10|0,1:2|1:0,1:0:0:0:
213,176,128800,2,0,P|161:185|113:166,1,105.000004005432,2|0,1:2|1:0,1:0:0:0:
14,92,128988,6,0,B|69:77|123:54|123:54|116:61|116:61|170:101|170:101|172:92|172:92|229:95|229:95|284:85,1,315.000012016297,6|0,1:2|1:0,1:0:0:0:
457,10,129363,5,2,1:2:0:0:
387,56,129456,1,2,1:2:0:0:
351,130,129550,1,2,1:2:0:0:
357,213,129644,1,2,1:2:0:0:
416,279,129738,5,2,1:2:0:0:
431,248,129832,1,2,1:2:0:0:
493,194,129925,1,2,1:2:0:0:
483,160,130019,1,2,1:2:0:0:
505,82,130113,5,10,1:2:0:0:
406,93,130206,1,0,1:0:0:0:
306,105,130300,2,0,L|176:122,1,105.000004005432,2|0,1:2|1:0,1:0:0:0:
294,273,130488,5,2,1:2:0:0:
201,236,130581,1,0,1:0:0:0:
107,199,130675,2,0,L|-14:148,1,105.000004005432,2|0,1:2|1:0,1:0:0:0:
201,343,130863,5,10,1:2:0:0:
294,273,130956,2,0,P|301:202|259:159,1,105.000004005432,2|0,1:2|1:0,1:0:0:0:
75,53,131144,5,2,1:2:0:0:
61,143,131237,1,0,1:0:0:0:
112,217,131331,1,2,1:2:0:0:
201,236,131425,2,0,P|258:212|292:163,1,105.000004005432,2|0,1:2|1:0,1:0:0:0:
278,0,131613,5,10,1:2:0:0:
199,51,131706,1,2,1:2:0:0:
287,96,131800,1,2,1:2:0:0:
287,96,131894,1,2,1:2:0:0:
363,39,131988,2,0,B|284:13|284:13|156:74,1,210.000008010865,2|0,1:2|1:0,1:0:0:0:
31,191,132269,5,2,1:2:0:0:
73,281,132363,2,0,B|106:262|106:262|242:271,1,105.000004005432,8|0,1:2|1:0,1:0:0:0:
347,284,132550,2,0,P|321:339|270:356,1,105.000004005432,2|0,1:2|1:0,1:0:0:0:
144,174,132738,5,2,1:2:0:0:
169,146,132831,1,0,1:0:0:0:
242,184,132925,5,0,1:0:0:0:
267,156,133018,1,2,1:2:0:0:
292,128,133113,1,8,1:2:0:0:
340,190,133206,5,0,1:0:0:0:
365,162,133300,1,2,1:2:0:0:
390,134,133394,1,0,1:0:0:0:
441,203,133488,5,2,1:2:0:0:
464,106,133581,1,2,1:2:0:0:
384,49,133675,1,2,1:2:0:0:
295,91,133769,5,2,1:2:0:0:
210,41,133862,1,10,1:2:0:0:
120,83,133956,1,2,1:2:0:0:
29,44,134050,5,2,1:2:0:0:
97,115,134143,1,2,1:2:0:0:
65,212,134238,2,0,B|111:159|111:159|107:152|107:152|166:182|166:182|164:187|164:187|201:184|245:188,1,210.000008010865,6|2,1:2|1:2,1:0:0:0:
394,194,134519,2,0,L|446:195,1,52.5000020027161,0|0,1:0|1:0,1:0:0:0:
444,90,134613,2,0,B|395:76|395:76|341:87,1,105.000004005432,10|0,1:2|1:0,1:0:0:0:
343,302,134800,2,0,B|394:316|394:316|444:305,1,105.000004005432,2|0,1:2|1:0,1:0:0:0:
120,83,134988,6,0,B|179:45|179:45|180:54|180:54|234:3|234:3|210:134|210:134|241:252,1,393.750009387732,6|0,1:2|1:0,1:0:0:0:
259,345,135363,5,10,1:2:0:0:
164,357,135456,1,2,1:2:0:0:
88,299,135550,1,2,1:2:0:0:
74,205,135644,1,2,1:2:0:0:
121,127,135738,5,2,1:2:0:0:
201,175,135831,1,2,1:2:0:0:
295,171,135925,1,2,1:2:0:0:
371,116,136019,1,2,1:2:0:0:
404,27,136113,6,0,P|331:32|300:57,1,105.000004005432,10|0,1:2|1:0,1:0:0:0:
168,269,136300,2,0,P|219:272|265:247,1,105.000004005432,2|0,1:2|1:0,1:0:0:0:
507,164,136488,6,0,B|462:146|431:140|431:140|434:128|434:128|393:148|393:148|392:153|392:153|388:147|388:147|387:152|387:152|353:171|353:171|315:151|315:151|208:157,1,315.000012016297,2|0,1:2|1:0,1:0:0:0:
11,113,136863,5,8,1:2:0:0:
59,102,136956,1,0,1:0:0:0:
132,151,137050,6,2,L|141:98,1,52.5000020027161,2|2,1:2|1:2,1:2:0:0:
173,131,137144,2,2,L|183:72,1,52.5000020027161,2|2,1:2|1:2,1:2:0:0:
259,62,137238,6,0,B|197:46|197:46|182:17|182:17|201:130|201:130|207:128|207:128|197:177|197:177|192:243,1,315.000012016297,2|0,1:2|1:0,1:0:0:0:
300,304,137613,2,0,B|308:271|308:271|294:177,1,105.000004005432,10|0,1:2|1:0,1:0:0:0:
61,261,137800,2,0,B|78:289|78:289|135:332,1,105.000004005432,2|0,1:2|1:0,1:0:0:0:
412,195,137988,6,0,B|347:164|347:164|350:170|350:170|295:203|295:203|298:200|298:200|258:181|258:181|218:186|218:186|214:184|214:184|215:189|215:189|211:187|211:187|169:194,1,280,6|0,1:2|1:0,1:0:0:0:
171,279,138269,2,0,B|231:156|136:69|136:69|156:103|148:126,1,280,6|0,1:2|1:0,1:0:0:0:
57,173,138550,2,0,P|97:201|82:172,1,140,6|0,1:2|1:0,1:0:0:0:
403,74,138738,5,6,1:2:0:0:
325,57,138831,1,2,1:2:0:0:
245,39,138925,6,2,L|258:91,1,52.5000020027161,2|2,1:2|1:2,1:2:0:0:
264,111,139019,2,2,L|280:174,1,52.5000020027161,2|2,1:2|1:2,1:2:0:0:
283,183,139113,6,0,L|309:296,1,105.000004005432,14|0,1:2|1:0,1:0:0:0:
321,372,139300,5,0,1:0:0:0:
367,349,139393,1,0,1:0:0:0:
394,305,139487,1,0,1:0:0:0:
391,253,139581,1,0,1:0:0:0:
376,177,139675,5,6,1:2:0:0:
283,183,139768,1,6,1:2:0:0:
191,190,139863,5,14,1:2:0:0:
187,206,139956,1,2,1:2:0:0:
182,221,140050,1,6,1:2:0:0:
101,236,140144,5,6,1:2:0:0:
95,199,140237,1,6,1:2:0:0:
89,163,140331,1,2,1:2:0:0:
54,74,140425,5,2,1:2:0:0:
95,80,140518,1,6,1:2:0:0:
137,86,140612,1,10,1:2:0:0:
178,92,140706,1,2,1:2:0:0:
220,98,140800,2,0,L|272:103,1,52.5000020027161,6|0,1:2|1:0,1:0:0:0:
484,275,140988,6,0,B|428:286|428:286|378:316|378:316|381:305|381:305|329:286|300:250|300:250|301:265|301:265|234:266|234:266|174:286,1,367.500003504753,6|2,1:2|1:2,1:0:0:0:
21,304,141363,5,8,1:2:0:0:
101,286,141456,1,8,1:2:0:0:
180,269,141550,2,8,B|240:252|240:252|313:255,1,122.500001168251,10|8,1:2|1:2,1:2:0:0:
469,300,141738,1,8,1:2:0:0:
472,376,141831,1,8,1:2:0:0:
401,342,141925,5,8,1:2:0:0:
378,272,142018,1,8,1:2:0:0:
383,199,142112,1,8,1:2:0:0:
416,134,142206,1,8,1:2:0:0:
472,87,142300,2,8,P|497:41|418:0,1,122.500001168251,12|8,1:2|1:2,1:2:0:0:
31,145,142488,6,8,P|89:182|161:167,1,122.500001168251,14|10,1:2|1:2,1:2:0:0:
307,132,142675,1,10,1:2:0:0:
298,42,142769,1,10,1:2:0:0:
224,96,142863,6,8,L|224:234,1,122.500001168251,10|10,1:2|1:2,1:2:0:0:
308,347,143050,1,10,1:2:0:0:
307,256,143144,1,8,1:2:0:0:
224,218,143238,6,8,L|224:359,1,122.500001168251,10|8,1:2|1:2,1:2:0:0:
448,227,143425,1,8,1:2:0:0:
391,156,143518,1,8,1:2:0:0:
313,111,143612,1,8,1:2:0:0:
224,96,143706,1,8,1:2:0:0:
136,115,143800,2,8,P|89:130|-7:112,1,122.500001168251,10|8,1:2|1:2,1:2:0:0:
192,343,143988,5,10,1:2:0:0:
289,334,144081,1,8,1:2:0:0:
378,294,144175,1,8,1:2:0:0:
448,227,144269,1,10,1:2:0:0:
493,140,144363,5,8,1:2:0:0:
390,79,144456,1,8,1:2:0:0:
278,118,144550,1,10,1:2:0:0:
233,228,144644,1,8,1:2:0:0:
289,334,144738,5,8,1:2:0:0:
342,221,144831,1,8,1:2:0:0:
309,100,144925,1,8,1:2:0:0:
206,30,145019,1,8,1:2:0:0:
82,43,145113,5,8,1:2:0:0:
108,192,145206,1,8,1:2:0:0:
214,299,145300,1,8,1:2:0:0:
362,326,145394,1,8,1:2:0:0:
499,263,145488,5,14,1:2:0:0:
482,256,145581,1,8,1:2:0:0:
465,250,145675,2,8,L|457:270,1,17.5,8|8,1:2|1:2,1:2:0:0:
448,243,145769,2,8,L|440:263,1,17.5,8|8,1:2|1:2,1:2:0:0:
417,173,145863,5,8,1:2:0:0:
400,180,145956,1,0,1:0:0:0:
383,187,146050,1,0,1:0:0:0:
366,195,146144,1,8,1:2:0:0:
299,146,146238,5,8,1:2:0:0:
291,162,146331,1,0,1:0:0:0:
284,179,146425,1,0,1:0:0:0:
278,197,146519,1,8,1:2:0:0:
191,204,146613,5,8,1:2:0:0:
196,220,146706,1,0,1:0:0:0:
203,237,146800,1,0,1:0:0:0:
212,254,146894,1,8,1:2:0:0:
324,302,146988,5,12,1:2:0:0:
256,192,147081,12,0,155988,0:0:0:0:
