osu file format v14

[General]
AudioFilename: audio.mp3
AudioLeadIn: 0
PreviewTime: 175435
Countdown: 0
SampleSet: Drum
StackLeniency: 0.5
Mode: 0
LetterboxInBreaks: 0
WidescreenStoryboard: 0

[Editor]
Bookmarks: 22331,44400,66469,74745,77503,110607,132676,154745,176814,220951,231986,243020,254055
DistanceSpacing: 1.4
BeatDivisor: 8
GridSize: 8
TimelineZoom: 3.199999

[Metadata]
Title:BADBOY
TitleUnicode:BΛDBΦY
Artist:Camellia
ArtistUnicode:かめりあ
Creator:NACO969
Version:Impingement
Source:
Tags:Dubstep Techno Camellia
BeatmapID:1491383
BeatmapSetID:705081

[Difficulty]
HPDrainRate:6.6
CircleSize:4.4
OverallDifficulty:8.8
ApproachRate:9.9
SliderMultiplier:3
SliderTickRate:2

[Events]
//Background and Video events
0,0,"BadBoiii.jpg",0,0
//Break Periods
2,462,5314
2,44600,49400
2,133365,140486
2,154945,159797
//Storyboard Layer 0 (Background)
//Storyboard Layer 1 (Fail)
//Storyboard Layer 2 (Pass)
//Storyboard Layer 3 (Foreground)
//Storyboard Layer 4 (Overlay)
//Storyboard Sound Samples

[TimingPoints]
-1117,344.827586206897,4,1,0,75,1,0
11296,-166.666666666667,4,1,0,75,0,0
16469,-333.333333333333,4,1,0,75,0,0
16814,-142.857142857143,4,1,0,75,0,0
21986,-111.111111111111,4,1,0,75,0,0
22331,-133.333333333333,4,2,0,85,0,0
24917,-58.8235294117647,4,2,0,85,0,0
25089,-111.111111111111,4,2,0,85,0,0
26641,-66.6666666666667,4,2,0,85,0,0
26986,-111.111111111111,4,2,0,85,0,0
27503,-333.333333333333,4,2,0,85,0,0
27848,-111.111111111111,4,2,0,85,0,0
30434,-58.8235294117647,4,2,0,85,0,0
30607,-111.111111111111,4,2,0,85,0,0
33365,-125,4,2,0,85,0,0
35951,-58.8235294117647,4,2,0,85,0,0
36124,-125,4,2,0,85,0,0
37676,-66.6666666666667,4,2,0,85,0,0
38020,-125,4,2,0,85,0,0
38538,-333.333333333333,4,2,0,85,0,0
38883,-125,4,2,0,85,0,0
41469,-58.8235294117647,4,2,0,85,0,0
41641,-125,4,2,0,85,0,0
49917,-100,4,1,0,75,0,0
66469,-58.8235294117647,4,3,0,95,0,1
66814,-200,4,3,0,95,0,1
67158,-83.3333333333333,4,3,0,95,0,1
67503,-71.4285714285714,4,3,0,95,0,1
68193,-142.857142857143,4,3,0,95,0,1
68710,-100,4,3,0,95,0,1
68883,-400,4,3,0,95,0,1
69227,-66.6666666666667,4,3,0,95,0,1
70262,-100,4,3,0,95,0,1
70607,-166.666666666667,4,3,0,95,0,1
71986,-58.8235294117647,4,3,0,95,0,1
72331,-200,4,3,0,95,0,1
72676,-83.3333333333333,4,3,0,95,0,1
73020,-71.4285714285714,4,3,0,95,0,1
73710,-142.857142857143,4,3,0,95,0,1
74745,-100,4,1,0,85,0,0
77503,-58.8235294117647,4,3,0,95,0,1
77848,-200,4,3,0,95,0,1
78193,-83.3333333333333,4,3,0,95,0,1
78538,-71.4285714285714,4,3,0,95,0,1
79227,-142.857142857143,4,3,0,95,0,1
79745,-100,4,3,0,95,0,1
79917,-400,4,3,0,95,0,1
80262,-66.6666666666667,4,3,0,95,0,1
80779,-100,4,3,0,95,0,1
81641,-166.666666666667,4,3,0,95,0,1
83020,-58.8235294117647,4,3,0,95,0,1
83365,-200,4,3,0,95,0,1
83710,-83.3333333333333,4,3,0,95,0,1
84055,-71.4285714285714,4,3,0,95,0,1
84745,-142.857142857143,4,3,0,95,0,1
85779,-100,4,1,0,85,0,0
88538,-58.8235294117647,4,3,0,95,0,1
88883,-166.666666666667,4,3,0,95,0,1
89572,-400,4,3,0,95,0,1
89917,-117.647058823529,4,3,0,95,0,1
90262,-83.3333333333333,4,1,0,85,0,0
91296,-58.8235294117647,4,3,0,95,0,1
91986,-71.4285714285714,4,3,0,95,0,1
92676,-100,4,1,0,85,0,0
94055,-58.8235294117647,4,3,0,95,0,1
94400,-166.666666666667,4,3,0,95,0,1
95089,-400,4,3,0,95,0,1
95434,-117.647058823529,4,3,0,95,0,1
96814,-125,4,1,0,85,0,0
99572,-58.8235294117647,4,3,0,95,0,1
99917,-166.666666666667,4,3,0,95,0,1
100607,-400,4,3,0,95,0,1
100951,-117.647058823529,4,3,0,95,0,1
101296,-83.3333333333333,4,1,0,85,0,0
102331,-58.8235294117647,4,3,0,95,0,1
103020,-71.4285714285714,4,3,0,95,0,1
103710,-100,4,1,0,85,0,0
105089,-58.8235294117647,4,3,0,95,0,1
105434,-166.666666666667,4,3,0,95,0,1
106124,-400,4,3,0,95,0,1
106469,-117.647058823529,4,3,0,95,0,1
107848,-125,4,1,0,85,0,0
110607,-166.666666666667,4,1,0,85,0,0
113020,-400,4,1,0,85,0,0
113365,-166.666666666667,4,1,0,85,0,0
116124,-133.333333333333,4,3,0,95,0,1
116814,-66.6666666666667,4,3,0,95,0,1
118020,-74.0740740740741,4,3,0,95,0,1
118193,-83.3333333333333,4,3,0,95,0,1
118365,-95.2380952380952,4,3,0,95,0,1
118538,-111.111111111111,4,3,0,95,0,1
118710,-133.333333333333,4,3,0,95,0,1
119572,-74.0740740740741,4,3,0,95,0,1
121296,-166.666666666667,4,1,0,85,0,0
121641,-166.666666666667,4,1,0,85,0,0
124055,-400,4,1,0,85,0,0
124400,-166.666666666667,4,1,0,85,0,0
127158,-133.333333333333,4,3,0,95,0,1
127848,-66.6666666666667,4,3,0,95,0,1
129055,-74.0740740740741,4,3,0,95,0,1
129227,-83.3333333333333,4,3,0,95,0,1
129400,-95.2380952380952,4,3,0,95,0,1
129572,-111.111111111111,4,3,0,95,0,1
129745,-133.333333333333,4,3,0,95,0,1
132676,-166.666666666667,4,1,0,85,0,0
143710,-166.666666666667,4,1,0,85,0,0
148883,-400,4,1,0,85,0,0
149227,-166.666666666667,4,1,0,85,0,0
170262,-100,4,1,0,85,0,0
172676,-90.909090909091,4,1,0,85,0,0
176814,-54.054054054054,4,3,0,95,0,1
177158,-133.333333333333,4,3,0,95,0,1
177503,-74.074074074074,4,3,0,95,0,1
177848,-64.5161290322581,4,3,0,95,0,1
178710,-250,4,3,0,95,0,1
178883,-111.111111111111,4,3,0,95,0,1
179227,-250,4,3,0,95,0,1
179572,-60.6060606060606,4,3,0,95,0,1
180089,-74.0740740740741,4,3,0,95,0,1
180951,-133.333333333333,4,3,0,95,0,1
182331,-54.054054054054,4,3,0,95,0,1
182676,-133.333333333333,4,3,0,95,0,1
183020,-74.074074074074,4,3,0,95,0,1
183365,-64.5161290322581,4,3,0,95,0,1
185089,-100,4,1,0,85,0,0
187848,-54.054054054054,4,3,0,95,0,1
188193,-133.333333333333,4,3,0,95,0,1
188538,-74.074074074074,4,3,0,95,0,1
188883,-64.5161290322581,4,3,0,95,0,1
189745,-250,4,3,0,95,0,1
189917,-111.111111111111,4,3,0,95,0,1
190262,-250,4,3,0,95,0,1
190607,-60.6060606060606,4,3,0,95,0,1
191124,-74.0740740740741,4,3,0,95,0,1
191986,-133.333333333333,4,3,0,95,0,1
193365,-54.054054054054,4,3,0,95,0,1
193710,-133.333333333333,4,3,0,95,0,1
194055,-74.074074074074,4,3,0,95,0,1
194400,-64.5161290322581,4,3,0,95,0,1
196124,-100,4,1,0,85,0,0
198883,-54.054054054054,4,3,0,95,0,1
199227,-133.333333333333,4,3,0,95,0,1
199917,-250,4,3,0,95,0,1
200262,-100,4,3,0,95,0,1
200607,-74.0740740740741,4,1,0,85,0,0
201641,-54.054054054054,4,3,0,95,0,1
203020,-95.2380952380952,4,1,0,85,0,0
204400,-54.054054054054,4,3,0,95,0,1
204745,-133.333333333333,4,3,0,95,0,1
205434,-250,4,3,0,95,0,1
205779,-100,4,3,0,95,0,1
207158,-117.647058823529,4,1,0,85,0,0
209917,-54.054054054054,4,3,0,95,0,1
210262,-133.333333333333,4,3,0,95,0,1
210951,-250,4,3,0,95,0,1
211296,-100,4,3,0,95,0,1
211641,-74.0740740740741,4,1,0,85,0,0
212676,-54.054054054054,4,3,0,95,0,1
214055,-100,4,1,0,85,0,0
215434,-54.054054054054,4,3,0,95,0,1
215779,-133.333333333333,4,3,0,95,0,1
216469,-250,4,3,0,95,0,1
216814,-100,4,3,0,95,0,1
220951,-125,4,2,0,85,0,0
243020,-125,4,1,0,85,0,0
248193,-400,4,1,0,85,0,0
248538,-125,4,1,0,85,0,0
266469,-400,4,1,0,85,0,0

[Colours]
Combo1 : 255,192,0
Combo2 : 255,128,64
Combo3 : 128,0,0
Combo4 : 128,64,0

[HitObjects]
256,192,262,5,4,0:0:0:0:
256,192,5779,12,0,10951,0:0:0:0:
208,80,11296,6,0,P|176:80|120:112,1,89.9999972534181
56,240,11641,1,8,0:0:0:0:
346,101,11814,2,0,P|323:78|261:61,1,89.9999972534181
125,106,12159,1,8,0:0:0:0:
272,144,12676,6,0,B|232:160|232:160|184:208,1,89.9999972534181
144,360,13020,1,8,0:0:0:0:
288,57,13193,2,0,B|271:96|271:96|271:164,1,89.9999972534181
350,300,13537,1,8,0:0:0:0:
56,240,14055,6,0,P|112:208|152:216,1,89.9999972534181
344,208,14400,1,8,0:0:0:0:
130,45,14572,2,0,P|192:61|214:95,1,89.9999972534181
356,226,14917,1,8,0:0:0:0:
448,48,15434,5,0,0:0:0:0:
440,88,15520,1,0,0:0:0:0:
448,128,15607,1,0,0:0:0:0:
440,168,15693,1,0,0:0:0:0:
448,208,15779,2,0,B|472:256|472:256|440:336|400:296,1,134.999995880127
384,304,16124,5,8,0:0:0:0:
256,152,16296,1,0,0:0:0:0:
200,344,16469,2,2,B|168:352|168:352|152:344|152:344|120:352,1,67.4999979400635,2|0,0:0|0:0,0:0:0:0:
88,352,16814,6,0,P|56:312|64:248,1,104.999996795654
176,64,17158,1,8,0:0:0:0:
312,312,17331,2,0,P|261:306|221:255,1,104.999996795654
170,46,17675,1,8,0:0:0:0:
464,32,18193,6,0,B|456:72|456:72|464:96|464:96|456:144,1,104.999996795654
432,344,18538,1,8,0:0:0:0:
184,80,18710,2,0,B|217:102|217:102|229:125|229:125|268:153,1,104.999996795654
427,277,19055,1,8,0:0:0:0:
88,144,19572,5,8,0:0:0:0:
248,312,19745,1,8,0:0:0:0:
192,88,19917,1,8,0:0:0:0:
320,296,20089,1,8,0:0:0:0:
288,48,20262,1,8,0:0:0:0:
400,288,20434,1,8,0:0:0:0:
392,24,20607,1,8,0:0:0:0:
480,280,20779,1,8,0:0:0:0:
288,136,20951,5,8,0:0:0:0:
248,128,21038,1,0,0:0:0:0:
216,152,21124,1,8,0:0:0:0:
208,184,21210,1,0,0:0:0:0:
224,216,21296,1,8,0:0:0:0:
256,232,21383,1,8,0:0:0:0:
296,224,21469,1,8,0:0:0:0:
328,232,21555,1,8,0:0:0:0:
360,272,21641,5,4,0:0:0:0:
368,320,21727,1,4,0:0:0:0:
336,360,21814,1,4,0:0:0:0:
288,368,21900,1,4,0:0:0:0:
240,352,21986,6,0,B|200:304|152:336|152:336|72:296|80:232,1,202.499993820191,2|0,0:0|0:0,0:0:0:0:
72,232,22331,5,4,0:0:0:0:
144,104,22503,2,2,B|136:72|136:72|176:48,1,56.2500021457673
224,96,22676,2,2,B|243:107|243:107|235:139,1,56.2500021457673
168,176,22848,1,0,0:0:0:0:
304,304,23020,1,8,0:0:0:0:
440,232,23193,6,0,B|456:240|456:240|456:256|456:256|480:272,3,56.2500021457673
480,304,23538,1,0,0:0:0:0:
464,128,23710,2,0,P|416:80|336:72,1,112.500004291535,0|8,0:0|0:0,0:0:0:0:
360,136,23969,1,0,0:0:0:0:
336,200,24055,2,0,P|288:169|262:120,1,112.500004291535,0|8,0:0|0:0,0:0:0:0:
376,16,24400,5,4,0:0:0:0:
208,144,24572,2,2,P|192:184|200:224,2,56.2500021457673
320,264,24917,2,0,P|368:288|376:232,1,127.50000243187
368,200,25089,5,4,0:0:0:0:
224,88,25262,2,2,B|192:40|128:88,1,67.4999979400635
64,128,25434,2,2,B|96:176|160:128,1,67.4999979400635
64,32,25607,1,0,0:0:0:0:
200,152,25779,1,8,0:0:0:0:
224,288,25951,6,0,P|192:328|144:336,3,67.4999979400635
136,336,26296,1,0,0:0:0:0:
341,328,26469,2,2,P|351:296|344:264,1,67.4999979400635
312,232,26641,6,0,P|320:152|400:224,1,225.000008583069,8|0,0:0|0:0,0:0:0:0:
456,104,26986,5,8,0:0:0:0:
416,80,27072,1,8,0:0:0:0:
376,72,27158,1,12,0:0:0:0:
160,72,27331,1,8,0:0:0:0:
48,232,27503,2,2,B|80:248|80:248|88:264|88:264|112:272,1,67.4999979400635
136,288,27848,5,4,0:0:0:0:
344,328,28020,2,2,L|440:280,1,67.4999979400635
448,200,28193,2,2,L|368:240,1,67.4999979400635
280,200,28365,1,0,0:0:0:0:
432,104,28538,1,8,0:0:0:0:
480,304,28710,6,0,P|480:328|448:360,3,67.4999979400635
416,368,29055,1,0,0:0:0:0:
168,336,29227,6,0,L|96:192,1,134.999995880127,0|8,0:0|0:0,0:0:0:0:
176,184,29486,1,0,0:0:0:0:
240,144,29572,2,0,L|168:0,1,134.999995880127,0|8,0:0|0:0,0:0:0:0:
48,184,29917,1,4,0:0:0:0:
280,208,30089,6,2,P|320:160|320:128,2,67.4999979400635
480,192,30434,2,0,P|480:216|416:304,1,127.50000243187
400,320,30607,5,4,0:0:0:0:
160,328,30779,6,2,L|72:328,1,67.4999979400635
208,232,30951,2,2,L|128:264,1,67.4999979400635
224,144,31124,1,0,0:0:0:0:
24,328,31296,1,8,0:0:0:0:
48,64,31469,2,0,P|88:40|176:24,1,134.999995880127
384,64,31814,5,0,0:0:0:0:
391,80,31871,1,0,0:0:0:0:
391,99,31928,1,0,0:0:0:0:
388,119,31986,1,0,0:0:0:0:
344,288,32158,6,0,P|328:272|320:224,1,67.4999979400635,8|0,0:0|0:0,0:0:0:0:
224,48,32331,2,0,P|240:64|248:112,1,67.4999979400635,8|0,0:0|0:0,0:0:0:0:
192,336,32503,2,8,P|208:320|216:272,1,67.4999979400635
120,64,32676,1,4,0:0:0:0:
112,274,32848,5,2,0:0:0:0:
32,96,33020,1,2,0:0:0:0:
184,128,33193,1,2,0:0:0:0:
88,168,33365,5,4,0:0:0:0:
112,274,33538,2,2,L|168:338,1,60
216,276,33710,2,2,L|256:322,1,60
320,266,33883,2,2,L|384:338,1,60
432,264,34055,1,8,0:0:0:0:
272,168,34227,6,0,B|288:136|288:136|288:96,3,60
264,80,34572,1,0,0:0:0:0:
104,152,34745,6,0,B|48:144|48:144|72:216,1,120,0|8,0:0|0:0,0:0:0:0:
88,272,35003,1,0,0:0:0:0:
160,272,35089,2,0,B|216:280|216:280|192:208,1,120,0|8,0:0|0:0,0:0:0:0:
72,72,35434,5,4,0:0:0:0:
104,336,35607,2,2,P|128:360|160:368,2,60
320,344,35951,2,0,B|344:328|344:328|360:344|360:344|384:336|384:336|464:336,1,127.50000243187
464,312,36124,5,4,0:0:0:0:
472,176,36296,2,2,L|475:116,1,60
344,176,36468,2,2,L|394:209,1,60
400,72,36641,2,2,L|346:98,1,60
208,168,36814,1,8,0:0:0:0:
256,304,36986,6,0,P|208:320|192:344,3,60
176,344,37331,1,0,0:0:0:0:
64,120,37503,2,0,P|120:88|160:96,1,60
160,88,37676,6,0,B|208:168|208:168|264:48,1,225.000008583069,8|0,0:0|0:0,0:0:0:0:
288,184,38020,5,8,0:0:0:0:
272,224,38107,1,8,0:0:0:0:
256,264,38193,1,4,0:0:0:0:
472,344,38365,1,8,0:0:0:0:
432,120,38538,2,0,B|416:144|416:144|400:152|400:152|384:176,1,67.4999979400635
368,200,38883,5,4,0:0:0:0:
248,344,39055,2,2,P|208:328|160:360,1,60
72,256,39227,2,2,P|112:240|160:272,1,60
248,168,39400,2,2,P|208:152|160:184,1,60
48,96,39572,1,8,0:0:0:0:
256,64,39745,6,0,P|296:64|336:88,3,60
344,96,40089,1,0,0:0:0:0:
440,240,40262,6,0,P|360:240|368:304,1,120,0|8,0:0|0:0,0:0:0:0:
312,320,40520,1,0,0:0:0:0:
248,344,40607,2,0,P|204:308|223:255,1,120,0|8,0:0|0:0,0:0:0:0:
384,120,40951,1,4,0:0:0:0:
176,208,41124,6,2,P|128:224|96:216,2,60
344,56,41469,2,0,P|272:80|328:112,1,127.50000243187
304,128,41641,5,8,0:0:0:0:
272,296,41814,2,2,B|240:296|240:296|184:320,1,60
328,224,41986,2,2,B|300:208|300:208|239:200,1,60
424,208,42158,2,2,B|408:180|408:180|359:143,1,60
176,104,42331,1,4,0:0:0:0:
88,288,42503,2,0,P|120:352|192:368,1,120
351,327,42848,5,0,0:0:0:0:
367,319,42905,1,0,0:0:0:0:
379,303,42963,1,0,0:0:0:0:
379,283,43020,1,0,0:0:0:0:
352,72,43193,6,0,L|312:136,1,60,8|0,0:0|0:0,0:0:0:0:
191,277,43365,2,0,L|160:328,1,60,8|0,0:0|0:0,0:0:0:0:
160,72,43538,2,8,L|200:136,1,60
320,277,43710,2,0,L|352:328,1,60,8|0,0:0|0:0,0:0:0:0:
256,192,43883,6,0,B|144:192|112:256|112:256|56:240|48:184|48:184|72:136|128:136,1,360,2|4,0:0|0:0,0:0:0:0:
256,64,49917,6,0,P|224:104|264:192,1,150
376,336,50262,1,8,0:0:0:0:
112,304,50434,6,0,P|152:336|248:296,1,150
384,184,50779,1,8,0:0:0:0:
256,64,50951,2,0,P|168:48|120:96,1,150
112,128,51210,1,0,0:0:0:0:
120,176,51296,5,4,0:0:0:0:
336,312,51641,2,0,L|416:344,1,75
432,352,51814,1,4,0:0:0:0:
344,168,51986,2,0,L|504:240,1,150,0|8,0:0|0:0,0:0:0:0:
328,72,52331,5,8,0:0:0:0:
360,88,52417,1,8,0:0:0:0:
392,104,52503,1,8,0:0:0:0:
424,120,52589,1,8,0:0:0:0:
456,136,52676,5,4,0:0:0:0:
104,128,53020,2,0,L|80:200,1,75
72,232,53193,1,4,0:0:0:0:
232,112,53365,2,0,L|184:272,1,150,0|8,0:0|0:0,0:0:0:0:
336,120,53710,5,8,0:0:0:0:
328,160,53796,1,8,0:0:0:0:
320,200,53883,1,8,0:0:0:0:
312,240,53969,1,8,0:0:0:0:
304,280,54055,5,4,0:0:0:0:
464,200,54227,1,0,0:0:0:0:
464,176,54314,1,0,0:0:0:0:
464,152,54400,1,8,0:0:0:0:
320,48,54572,1,0,0:0:0:0:
136,64,54745,6,8,L|112:32,2,37.5
128,104,54917,1,0,0:0:0:0:
104,136,55003,1,0,0:0:0:0:
64,160,55089,1,0,0:0:0:0:
40,200,55176,1,0,0:0:0:0:
32,240,55262,1,4,0:0:0:0:
160,336,55434,5,0,0:0:0:0:
160,185,55607,1,0,0:0:0:0:
289,261,55779,1,8,0:0:0:0:
416,168,55951,5,0,0:0:0:0:
416,17,56124,1,0,0:0:0:0:
287,93,56296,1,8,0:0:0:0:
160,185,56469,5,0,0:0:0:0:
144,224,56555,1,0,0:0:0:0:
136,264,56641,1,0,0:0:0:0:
144,304,56727,1,0,0:0:0:0:
160,336,56814,5,0,0:0:0:0:
424,272,56986,1,0,0:0:0:0:
228,195,57158,2,0,P|172:179|132:227,1,75,8|0,0:0|0:0,0:0:0:0:
144,224,57331,5,0,0:0:0:0:
40,56,57503,1,0,0:0:0:0:
100,295,57676,2,0,P|156:335|196:327,1,75,8|0,0:0|0:0,0:0:0:0:
200,336,57848,5,0,0:0:0:0:
240,312,57934,1,0,0:0:0:0:
256,272,58020,1,0,0:0:0:0:
240,232,58107,1,0,0:0:0:0:
208,208,58193,5,8,0:0:0:0:
40,56,58365,1,0,0:0:0:0:
264,32,58538,1,8,0:0:0:0:
264,32,58624,1,8,0:0:0:0:
264,32,58710,5,0,0:0:0:0:
440,200,58883,1,0,0:0:0:0:
240,256,59055,1,8,0:0:0:0:
240,256,59141,1,8,0:0:0:0:
240,256,59227,5,0,0:0:0:0:
368,88,59400,1,0,0:0:0:0:
464,240,59572,6,2,P|480:264|480:312,3,75
448,336,59917,2,0,B|384:344|384:344|288:304|288:304|168:320,1,225
200,336,60262,1,4,0:0:0:0:
80,240,60434,5,8,0:0:0:0:
48,216,60520,1,8,0:0:0:0:
40,176,60607,1,8,0:0:0:0:
56,144,60693,1,8,0:0:0:0:
88,128,60779,1,8,0:0:0:0:
128,136,60865,1,8,0:0:0:0:
168,128,60951,5,8,0:0:0:0:
208,104,61038,1,0,0:0:0:0:
256,96,61124,1,8,0:0:0:0:
304,104,61210,1,0,0:0:0:0:
344,120,61296,1,8,0:0:0:0:
376,152,61383,1,0,0:0:0:0:
400,192,61469,1,8,0:0:0:0:
408,232,61555,1,0,0:0:0:0:
392,272,61641,5,8,0:0:0:0:
352,288,61727,1,0,0:0:0:0:
312,272,61814,1,8,0:0:0:0:
296,232,61900,1,0,0:0:0:0:
312,192,61986,1,8,0:0:0:0:
352,176,62072,1,8,0:0:0:0:
392,192,62158,1,8,0:0:0:0:
408,232,62245,1,8,0:0:0:0:
392,272,62331,6,0,P|384:304|344:344,3,75,8|0|8|0,0:0|0:0|0:0|0:0,0:0:0:0:
168,328,62676,2,0,P|136:320|96:280,3,75,8|0|8|0,0:0|0:0|0:0|0:0,0:0:0:0:
120,104,63020,2,0,P|128:72|168:32,3,75,8|0|8|0,0:0|0:0|0:0|0:0,0:0:0:0:
344,56,63365,2,8,P|376:64|416:104,3,75
256,200,63710,5,8,0:0:0:0:
212,208,63796,1,0,0:0:0:0:
168,217,63883,1,4,0:0:0:0:
124,226,63969,1,0,0:0:0:0:
141,261,64055,5,8,0:0:0:0:
159,296,64141,1,0,0:0:0:0:
176,331,64227,1,4,0:0:0:0:
194,367,64314,1,0,0:0:0:0:
232,336,64400,5,8,0:0:0:0:
270,294,64486,1,0,0:0:0:0:
307,253,64572,1,4,0:0:0:0:
346,212,64658,1,0,0:0:0:0:
304,160,64745,5,8,0:0:0:0:
258,113,64831,1,8,0:0:0:0:
216,66,64917,1,8,0:0:0:0:
174,20,65003,1,12,0:0:0:0:
112,32,65089,6,2,L|46:68,7,75
80,136,65779,6,0,P|64:248|168:248,1,225
112,200,66124,2,0,P|80:280|168:328,1,150
256,352,66469,6,0,B|312:336|312:336|368:264|368:264|368:144|368:144|288:240,1,382.500007295609,12|0,0:0|0:0,0:0:0:0:
224,256,66814,2,0,L|240:280,1,25
208,144,66928,2,0,L|200:176,1,25
280,56,67043,2,0,L|248:80,1,25
384,32,67158,6,0,B|400:72|400:72|432:96|432:96|456:216,1,179.999994506836
352,322,67503,2,0,P|312:322|232:386,1,104.999996795654
184,322,67676,2,0,P|139:349|88:352,1,104.999996795654
112,264,67848,2,0,P|152:160|48:224,1,209.999993591309,4|0,0:0|0:0,0:0:0:0:
208,48,68193,6,0,L|256:112,1,52.4999983978272
272,208,68365,2,0,L|272:280,1,52.4999983978272
232,368,68538,1,4,0:0:0:0:
432,280,68710,2,0,L|432:192,1,75
368,64,68883,6,0,L|304:48,1,56.25
272,40,69227,6,0,B|232:32|232:32|208:112|152:64|152:64|96:112|80:32|80:32|16:32|8:144|120:152,1,450.000017166138
48,264,69745,2,0,P|88:296|184:296,1,112.500004291535
217,268,69917,2,0,P|115:247|80:344,1,225.000008583069,4|0,0:0|0:0,0:0:0:0:
376,352,70262,2,0,P|387:318|376:261,1,75
376,192,70434,2,0,P|360:160|312:128,1,75
256,88,70607,6,2,L|216:80,2,22.4999993133545
440,136,70779,2,2,L|464:160,2,22.4999993133545
72,136,70951,1,0,0:0:0:0:
72,136,71038,1,0,0:0:0:0:
72,136,71124,2,2,L|48:160,2,22.4999993133545
256,120,71296,5,4,0:0:0:0:
256,328,71469,2,2,L|256:360,2,22.4999993133545
256,72,71641,2,2,L|256:40,2,22.4999993133545
216,240,71814,2,0,L|272:240,1,44.999998626709
288,240,71986,6,0,B|336:272|416:256|416:256|440:192|416:128|416:128|368:184|368:184|344:104,1,382.500007295609
320,56,72331,2,0,L|304:16,1,25
224,32,72446,2,0,L|240:72,1,25
144,72,72561,2,0,L|132:49,1,25
48,96,72676,6,0,B|56:128|56:128|40:152|40:152|56:192|56:192|32:224|32:224|48:280,1,179.999994506836,4|0,0:0|0:0,0:0:0:0:
200,344,73020,2,0,P|240:328|240:248,1,104.999996795654
256,144,73193,2,0,P|216:160|216:240,1,104.999996795654
320,344,73365,2,0,P|399:312|400:160,1,209.999993591309,4|0,0:0|0:0,0:0:0:0:
336,88,73710,6,0,L|264:72,1,52.4999983978272
160,112,73883,2,0,L|128:176,1,52.4999983978272
72,296,74055,1,4,0:0:0:0:
32,96,74227,2,0,L|64:40,1,52.4999983978272
104,40,74400,5,8,0:0:0:0:
144,56,74486,1,8,0:0:0:0:
184,40,74572,1,8,0:0:0:0:
224,56,74658,1,8,0:0:0:0:
264,40,74745,6,0,B|312:72|312:72|336:64|336:64|320:112|392:128,1,150,8|0,0:0|0:0,0:0:0:0:
184,80,75089,1,0,0:0:0:0:
440,160,75262,2,0,P|464:224|424:280,1,75,8|0,0:0|0:0,0:0:0:0:
448,264,75434,1,4,0:0:0:0:
296,344,75607,6,0,L|184:376,1,75
104,352,75779,2,0,L|144:272,1,75
224,232,75951,2,0,P|312:216|328:160,1,150
144,32,76296,5,4,0:0:0:0:
144,208,76469,1,0,0:0:0:0:
216,40,76641,1,0,0:0:0:0:
216,40,76727,1,0,0:0:0:0:
216,40,76814,1,4,0:0:0:0:
312,158,76986,2,2,B|344:182|344:182|344:222|344:222|368:254|368:254|392:230,2,150
184,120,77503,6,0,B|144:128|96:120|96:120|48:136|32:176|32:176|48:216|96:232|96:232|16:272|112:344,1,382.500007295609,4|0,0:0|0:0,0:0:0:0:
176,288,77848,2,0,L|208:272,1,25
288,240,77963,2,0,L|320:240,1,25
408,264,78078,2,0,L|440:288,1,25
440,360,78193,6,0,B|376:368|344:336|344:336|304:368|232:368,1,179.999994506836,4|0,0:0|0:0,0:0:0:0:
224,192,78538,2,0,P|248:136|312:104,1,104.999996795654
392,96,78710,2,0,P|448:120|480:184,1,104.999996795654
496,72,78883,2,0,P|416:32|248:72,1,209.999993591309,4|0,0:0|0:0,0:0:0:0:
48,64,79227,6,0,P|84:86|136:80,1,52.4999983978272
96,224,79400,2,0,P|52:252|37:291,1,52.4999983978272
24,160,79572,1,4,0:0:0:0:
230,157,79745,2,0,P|278:165|318:229,1,75
272,352,79917,6,0,B|296:352|296:352|312:360|312:360|336:360,1,56.25
360,360,80262,6,0,P|424:352|296:184,1,450.000017166138,4|0,0:0|0:0,0:0:0:0:
424,80,80779,2,0,P|480:104|512:144,1,75
408,248,80951,2,0,P|344:288|272:248,1,150,4|0,0:0|0:0,0:0:0:0:
168,144,81296,2,0,P|144:112|136:40,1,75
264,32,81469,2,0,P|288:64|296:136,1,75
192,40,81641,6,2,L|208:72,2,22.4999993133545
136,256,81814,2,2,L|120:288,2,22.4999993133545
351,196,81986,1,0,0:0:0:0:
351,196,82072,1,0,0:0:0:0:
351,196,82158,2,2,L|376:208,2,22.4999993133545
192,40,82331,5,4,0:0:0:0:
136,256,82503,2,2,L|158:221,2,22.4999993133545
386,187,82676,2,2,L|424:208,2,22.4999993133545
136,104,82848,2,0,L|104:168,1,44.999998626709
144,168,83020,6,0,B|176:168|176:168|224:192|224:192|224:248|224:248|208:272|208:272|208:312|208:312|248:344|248:344|280:344|280:344|312:320|312:320|312:248,1,382.500007295609,4|0,0:0|0:0,0:0:0:0:
312,184,83365,2,0,L|312:152,1,25
352,80,83480,2,0,L|352:48,1,25
424,144,83595,2,0,L|424:104,1,25
488,192,83710,6,0,B|488:224|488:272|488:272|456:304|416:280|416:280|392:248,1,179.999994506836,4|0,0:0|0:0,0:0:0:0:
240,112,84055,2,0,P|184:104|160:184,1,104.999996795654
125,276,84227,2,0,P|181:284|205:204,1,104.999996795654
262,43,84400,2,0,P|160:39|88:112,1,209.999993591309,4|0,0:0|0:0,0:0:0:0:
56,312,84745,6,0,B|80:344|80:344|128:352,1,52.4999983978272
256,360,84917,2,0,B|288:336|288:336|296:288,1,52.4999983978272
256,184,85089,1,4,0:0:0:0:
384,80,85262,2,0,P|424:96|464:128,1,52.4999983978272
464,128,85434,5,8,0:0:0:0:
456,176,85520,1,8,0:0:0:0:
472,224,85607,1,8,0:0:0:0:
456,272,85693,1,8,0:0:0:0:
416,288,85779,6,0,P|368:328|264:288,1,150,4|0,0:0|0:0,0:0:0:0:
336,136,86124,1,0,0:0:0:0:
64,192,86296,2,0,P|116:230|180:215,1,75,8|0,0:0|0:0,0:0:0:0:
168,232,86469,1,4,0:0:0:0:
152,56,86641,6,0,B|128:32|128:32|80:64,1,75
192,112,86814,2,0,B|216:136|216:136|264:104,1,75
344,40,86986,2,0,B|384:16|384:16|344:112,1,150
256,296,87331,2,0,P|176:256|144:320,1,150
40,184,87676,5,0,0:0:0:0:
208,144,87848,1,0,0:0:0:0:
384,200,88020,1,0,0:0:0:0:
128,200,88193,1,4,0:0:0:0:
256,72,88365,1,8,0:0:0:0:
232,272,88538,6,0,B|248:296|232:320|232:320|256:304|280:320|280:320|288:296|288:296|320:320|328:296|328:296|360:320|368:296|368:296|408:320|456:320|456:320|488:288|472:240,1,382.500007295609
400,216,88883,2,0,L|344:208,1,29.9999990844727
304,152,88997,2,0,L|336:120,1,29.9999990844727
256,72,89112,2,0,L|208:64,1,29.9999990844727
88,40,89227,5,4,0:0:0:0:
48,72,89314,1,0,0:0:0:0:
40,120,89400,1,0,0:0:0:0:
64,168,89486,1,0,0:0:0:0:
112,184,89572,6,0,L|128:168,1,18.75
208,360,89745,2,0,L|192:376,1,18.75
408,368,89917,6,0,L|464:312,1,63.7500012159348
360,360,90089,2,0,L|416:296,1,63.7500012159348
328,224,90262,6,0,B|320:160|320:160|384:48,1,179.999994506836
464,192,90607,1,4,0:0:0:0:
256,32,90779,1,8,0:0:0:0:
256,192,90951,2,0,B|248:216|248:216|184:256,1,89.9999972534181
264,224,91124,2,0,B|256:248|256:248|192:288,1,89.9999972534181
224,336,91296,6,0,P|152:352|88:184,1,255.000004863739,4|0,0:0|0:0,0:0:0:0:
224,336,91641,2,0,P|144:272|200:136,1,255.000004863739,4|0,0:0|0:0,0:0:0:0:
352,48,91986,6,0,B|392:40|392:40|312:152,1,104.999996795654,4|0,0:0|0:0,0:0:0:0:
432,128,92158,2,0,P|360:216|416:296,1,209.999993591309
472,64,92503,1,0,0:0:0:0:
88,32,92676,5,0,0:0:0:0:
48,64,92762,1,0,0:0:0:0:
32,112,92848,1,0,0:0:0:0:
40,160,92934,1,0,0:0:0:0:
72,200,93020,6,0,P|160:192|184:240,1,150,8|0,0:0|0:0,0:0:0:0:
192,304,93279,1,0,0:0:0:0:
248,264,93365,2,0,P|336:248|360:304,1,150,8|4,0:0|0:0,0:0:0:0:
248,168,93710,2,0,P|288:160|328:120,3,75
376,80,94055,6,0,B|408:72|440:40|440:40|488:128|432:176|432:176|376:224|400:264|400:264|464:240|480:320,1,382.500007295609,4|0,0:0|0:0,0:0:0:0:
424,352,94400,2,0,L|384:360,1,29.9999990844727
304,320,94515,2,0,L|264:312,1,29.9999990844727
184,352,94630,2,0,L|144:360,1,29.9999990844727
64,288,94745,5,4,0:0:0:0:
96,264,94831,1,0,0:0:0:0:
136,272,94917,1,0,0:0:0:0:
168,248,95003,1,0,0:0:0:0:
208,256,95089,6,0,L|216:240,1,18.75
376,80,95262,2,0,L|368:96,1,18.75
152,24,95434,6,0,P|104:32|80:64,1,63.7500012159348
168,40,95607,2,0,P|120:48|96:80,1,63.7500012159348
56,120,95779,5,8,0:0:0:0:
40,168,95865,1,8,0:0:0:0:
48,216,95951,1,8,0:0:0:0:
80,256,96038,1,8,0:0:0:0:
128,240,96124,5,4,0:0:0:0:
184,224,96210,1,0,0:0:0:0:
240,208,96296,1,4,0:0:0:0:
296,192,96383,1,0,0:0:0:0:
320,160,96469,5,2,0:0:0:0:
352,144,96555,1,2,0:0:0:0:
392,144,96641,1,2,0:0:0:0:
424,160,96727,1,2,0:0:0:0:
448,192,96814,6,0,P|472:240|448:304,1,120,4|0,0:0|0:0,0:0:0:0:
280,288,97158,2,0,L|224:320,2,60
256,144,97503,2,0,B|256:96|256:96|192:32,1,120,4|0,0:0|0:0,0:0:0:0:
48,40,97848,1,0,0:0:0:0:
160,128,98020,1,0,0:0:0:0:
40,240,98193,6,0,P|40:280|56:304,1,60
80,312,98365,1,4,0:0:0:0:
280,288,98538,1,0,0:0:0:0:
312,104,98710,1,8,0:0:0:0:
336,88,98796,1,8,0:0:0:0:
368,80,98883,1,4,0:0:0:0:
441,240,99055,6,2,L|457:328,1,60
328,256,99227,2,2,L|312:168,1,60
464,248,99400,2,2,L|480:328,1,60
368,352,99572,6,0,B|296:336|296:336|184:376|128:264|128:264|200:240|256:256|256:256,1,382.500007295609,4|0,0:0|0:0,0:0:0:0:
184,176,99917,2,0,L|128:192,1,29.9999990844727
72,136,100032,2,0,L|43:145,1,29.9999990844727
40,56,100147,2,0,L|68:46,1,29.9999990844727
184,40,100262,5,0,0:0:0:0:
232,64,100348,1,0,0:0:0:0:
224,104,100434,1,0,0:0:0:0:
272,128,100520,1,0,0:0:0:0:
328,152,100607,6,0,L|344:144,1,18.75
472,24,100779,2,0,L|456:32,1,18.75
352,192,100951,6,0,B|384:176|384:176|424:200,1,63.7500012159348
328,216,101124,2,0,B|360:200|360:200|400:224,1,63.7500012159348
472,256,101296,6,0,P|488:296|384:336,1,179.999994506836
208,192,101641,1,4,0:0:0:0:
480,184,101814,1,0,0:0:0:0:
208,312,101986,6,0,P|165:315|141:279,1,89.9999972534181
200,344,102158,2,0,P|157:347|133:311,1,89.9999972534181
136,240,102331,6,0,B|168:168|168:168|256:144|256:144|336:200,1,255.000004863739,4|0,0:0|0:0,0:0:0:0:
136,240,102676,2,0,B|107:166|107:166|152:87|152:87|249:70,1,255.000004863739,4|0,0:0|0:0,0:0:0:0:
496,40,103020,6,0,P|432:24|384:40,1,104.999996795654,4|0,0:0|0:0,0:0:0:0:
445,104,103193,2,0,P|429:192|325:192,1,209.999993591309
192,32,103538,1,0,0:0:0:0:
312,240,103710,5,8,0:0:0:0:
352,256,103796,1,0,0:0:0:0:
400,256,103883,1,0,0:0:0:0:
448,240,103969,1,0,0:0:0:0:
480,288,104055,6,0,B|456:344|456:344|352:360,1,150,8|0,0:0|0:0,0:0:0:0:
312,320,104314,1,0,0:0:0:0:
256,357,104400,2,0,B|167:343|167:343|143:287,1,150,8|0,0:0|0:0,0:0:0:0:
312,165,104745,2,0,L|312:245,3,75
240,272,105089,6,0,B|224:144|168:200|168:200|80:160|152:104|152:104|240:104|256:64,1,382.500007295609,4|0,0:0|0:0,0:0:0:0:
344,40,105434,6,0,L|376:56,1,29.9999990844727
448,120,105549,2,0,L|432:168,1,29.9999990844727
440,248,105664,2,0,L|464:280,1,29.9999990844727
376,344,105779,5,0,0:0:0:0:
336,320,105865,1,0,0:0:0:0:
296,296,105951,1,0,0:0:0:0:
256,320,106038,1,0,0:0:0:0:
216,344,106124,6,0,L|208:328,1,18.75
192,128,106296,2,0,L|176:160,1,18.75
104,352,106469,6,0,P|56:344|40:312,1,63.7500012159348
88,336,106641,2,0,P|40:328|24:296,1,63.7500012159348
24,280,106814,5,8,0:0:0:0:
16,232,106900,1,0,0:0:0:0:
24,184,106986,1,8,0:0:0:0:
40,136,107072,1,0,0:0:0:0:
96,152,107158,5,4,0:0:0:0:
152,152,107245,1,0,0:0:0:0:
208,136,107331,1,4,0:0:0:0:
256,112,107417,1,0,0:0:0:0:
288,96,107503,5,2,0:0:0:0:
328,96,107589,1,2,0:0:0:0:
360,120,107676,1,2,0:0:0:0:
376,160,107762,1,2,0:0:0:0:
360,200,107848,6,0,B|352:224|352:224|336:240|336:240|312:248|312:248|288:240|288:240|264:216|264:216|240:208|240:208|216:216|216:216|200:240|200:240|200:288,1,240,4|0,0:0|0:0,0:0:0:0:
400,344,108365,1,0,0:0:0:0:
440,168,108538,2,0,P|416:112|344:80,1,120,4|0,0:0|0:0,0:0:0:0:
152,40,108883,2,0,L|216:16,1,60
136,80,109055,2,0,L|208:48,1,60
120,120,109227,5,0,0:0:0:0:
48,288,109400,1,4,0:0:0:0:
176,176,109572,1,0,0:0:0:0:
176,336,109745,1,8,0:0:0:0:
208,360,109831,1,8,0:0:0:0:
248,360,109917,1,4,0:0:0:0:
440,216,110089,6,0,P|496:256|504:296,1,60,8|0,0:0|0:0,0:0:0:0:
496,280,110262,1,2,0:0:0:0:
488,312,110348,1,2,0:0:0:0:
464,336,110434,1,2,0:0:0:0:
432,344,110520,1,2,0:0:0:0:
392,328,110607,6,0,P|352:296|240:344,1,179.999994506836
88,296,111124,2,0,L|144:248,1,44.999998626709
256,144,111296,1,4,0:0:0:0:
56,280,111469,2,0,L|96:248,1,44.999998626709
256,104,111641,2,0,P|320:96|400:192,1,179.999994506836,0|4,0:0|0:0,0:0:0:0:
192,64,112158,6,0,P|224:40|256:32,1,44.999998626709
160,80,112331,2,0,P|176:48|200:24,1,44.999998626709
128,96,112503,1,0,0:0:0:0:
56,280,112676,1,4,0:0:0:0:
32,96,112848,1,0,0:0:0:0:
192,344,113020,2,0,P|230:345|260:328,1,56.25
280,304,113365,6,0,P|280:248|392:200,1,179.999994506836,4|0,0:0|0:0,0:0:0:0:
256,32,113883,2,0,L|304:56,1,44.999998626709
488,144,114055,1,4,0:0:0:0:
208,48,114227,2,0,L|256:80,1,44.999998626709
488,224,114400,2,0,P|464:272|344:264,1,179.999994506836,0|4,0:0|0:0,0:0:0:0:
200,128,114917,6,0,P|128:112|96:136,1,89.9999972534181,8|0,0:0|0:0,0:0:0:0:
48,248,115262,1,8,0:0:0:0:
64,288,115348,1,8,0:0:0:0:
80,328,115434,1,4,0:0:0:0:
208,192,115607,5,8,0:0:0:0:
304,352,115779,1,8,0:0:0:0:
248,80,115951,1,8,0:0:0:0:
400,352,116124,6,2,L|440:360,14,28.1250010728836
432,272,116814,2,0,P|480:176|432:96,1,112.500004291535,4|0,0:0|0:0,0:0:0:0:
448,56,116986,2,0,P|400:152|448:232,1,112.500004291535
392,200,117158,5,0,0:0:0:0:
360,232,117245,1,0,0:0:0:0:
320,256,117331,1,0,0:0:0:0:
272,264,117417,1,0,0:0:0:0:
248,256,117503,5,4,0:0:0:0:
232,240,117589,1,0,0:0:0:0:
224,216,117676,1,0,0:0:0:0:
224,192,117762,1,0,0:0:0:0:
240,168,117848,6,0,L|341:221,1,112.500004291535,8|0,0:0|0:0,0:0:0:0:
148,124,118020,2,0,L|222:53,1,101.250000386238,8|0,0:0|0:0,0:0:0:0:
65,182,118193,2,0,L|56:92,1,89.9999972534181,4|0,0:0|0:0,0:0:0:0:
73,283,118365,2,0,L|-2:249,1,78.7499975967408,8|0,0:0|0:0,0:0:0:0:
165,326,118537,2,0,L|89:378,1,78.7499975967408,8|0,0:0|0:0,0:0:0:0:
248,267,118709,2,0,L|255:355,1,67.4999979400635,8|0,0:0|0:0,0:0:0:0:
240,168,118883,6,2,L|288:192,14,28.1250010728836
148,124,119572,2,0,B|72:96|72:96|184:240,1,202.500000772476,4|0,0:0|0:0,0:0:0:0:
352,288,119917,2,0,P|408:254|414:180,1,101.250000386238
456,240,120089,2,0,P|424:296|280:320,1,202.500000772476
40,168,120434,6,0,B|40:208|40:208|56:224|56:224|56:312,1,101.250000386238,4|0,0:0|0:0,0:0:0:0:
208,352,120607,1,0,0:0:0:0:
104,64,120779,1,8,0:0:0:0:
104,104,120865,1,8,0:0:0:0:
104,144,120951,1,4,0:0:0:0:
368,224,121124,1,0,0:0:0:0:
360,48,121296,5,2,0:0:0:0:
312,32,121383,1,2,0:0:0:0:
264,48,121469,1,2,0:0:0:0:
240,88,121555,1,2,0:0:0:0:
248,136,121641,6,0,P|256:216|152:272,1,179.999994506836,4|0,0:0|0:0,0:0:0:0:
80,104,122158,2,0,P|56:128|48:168,1,44.999998626709
24,312,122331,1,4,0:0:0:0:
112,96,122503,2,0,P|88:120|80:160,1,44.999998626709
56,336,122676,2,0,B|112:360|160:336|160:336|208:312|264:336,1,179.999994506836,0|4,0:0|0:0,0:0:0:0:
464,184,123193,6,0,L|448:240,1,44.999998626709
432,160,123365,2,0,L|392:200,1,44.999998626709
416,120,123538,1,0,0:0:0:0:
256,32,123710,1,4,0:0:0:0:
363,254,123883,1,0,0:0:0:0:
456,72,124055,2,0,P|472:96|480:128,1,56.25
480,168,124400,6,0,P|448:248|352:248,1,179.999994506836,4|0,0:0|0:0,0:0:0:0:
160,248,124917,2,0,P|161:225|169:204,1,44.999998626709
336,32,125089,1,4,0:0:0:0:
143,208,125262,2,0,P|150:186|164:168,1,44.999998626709
288,16,125434,2,0,P|208:16|128:96,1,179.999994506836,0|4,0:0|0:0,0:0:0:0:
48,296,125951,6,0,B|72:336|72:336|120:368,1,89.9999972534181,8|0,0:0|0:0,0:0:0:0:
256,152,126296,1,8,0:0:0:0:
272,192,126383,1,8,0:0:0:0:
288,232,126469,1,4,0:0:0:0:
448,352,126641,5,0,0:0:0:0:
200,240,126814,1,0,0:0:0:0:
496,256,126986,1,0,0:0:0:0:
400,40,127158,6,2,L|424:16,14,28.1250010728836
472,88,127848,2,0,P|483:142|465:194,1,112.500004291535,4|0,0:0|0:0,0:0:0:0:
378,282,128020,2,0,P|366:227|384:175,1,112.500004291535
392,128,128193,5,0,0:0:0:0:
360,96,128279,1,0,0:0:0:0:
312,88,128365,1,0,0:0:0:0:
272,104,128451,1,0,0:0:0:0:
256,120,128538,5,4,0:0:0:0:
248,144,128624,1,0,0:0:0:0:
248,168,128710,1,0,0:0:0:0:
256,184,128796,1,0,0:0:0:0:
240,224,128883,6,0,L|139:171,1,112.500004291535,8|0,0:0|0:0,0:0:0:0:
332,268,129055,2,0,L|258:339,1,101.250000386238,8|0,0:0|0:0,0:0:0:0:
415,210,129228,2,0,L|424:300,1,89.9999972534181,4|0,0:0|0:0,0:0:0:0:
407,109,129400,2,0,L|482:143,1,78.7499975967408,8|0,0:0|0:0,0:0:0:0:
320,64,129572,2,0,L|392:16,1,67.4999979400635,8|0,0:0|0:0,0:0:0:0:
232,125,129744,2,0,L|225:37,1,67.4999979400635,8|0,0:0|0:0,0:0:0:0:
240,224,129917,6,2,L|200:200,6,28.1250010728836
152,336,130262,1,4,0:0:0:0:
48,176,130434,1,0,0:0:0:0:
160,64,130607,5,8,0:0:0:0:
192,88,130693,1,0,0:0:0:0:
232,96,130779,1,0,0:0:0:0:
272,88,130865,1,0,0:0:0:0:
304,72,130951,1,4,0:0:0:0:
344,72,131038,1,0,0:0:0:0:
376,96,131124,1,0,0:0:0:0:
384,136,131210,1,0,0:0:0:0:
368,176,131296,5,8,0:0:0:0:
232,352,131469,1,4,0:0:0:0:
128,104,131641,1,4,0:0:0:0:
328,288,131814,1,4,0:0:0:0:
432,120,131986,5,8,0:0:0:0:
400,72,132072,1,8,0:0:0:0:
344,56,132158,1,8,0:0:0:0:
288,72,132245,1,8,0:0:0:0:
256,120,132331,6,0,B|272:184|224:208|224:208|168:232|168:296|224:312|256:264,1,225.000008583069,2|4,0:0|0:0,0:0:0:0:
256,192,140951,12,0,143365,0:0:0:0:
480,56,143710,6,0,P|400:56|368:80,1,89.9999972534181
208,160,144055,1,8,0:0:0:0:
456,248,144227,2,0,P|386:208|347:212,1,89.9999972534181,0|2,0:0|0:0,0:0:0:0:
168,202,144572,1,8,0:0:0:0:
264,344,144745,2,0,L|320:352,3,44.999998626709
352,352,145089,6,0,B|384:320|384:320|376:296|376:296|392:256,1,89.9999972534181
464,72,145434,1,8,0:0:0:0:
176,264,145607,2,0,B|219:252|219:252|224:227|224:227|258:200,1,89.9999972534181,0|2,0:0|0:0,0:0:0:0:
416,80,145952,1,8,0:0:0:0:
224,32,146124,6,0,L|168:32,3,44.999998626709
136,48,146469,6,0,P|72:88|56:128,1,89.9999972534181
96,336,146814,1,8,0:0:0:0:
65,98,146986,2,0,P|48:171|65:211,1,89.9999972534181,0|2,0:0|0:0,0:0:0:0:
240,329,147331,1,8,0:0:0:0:
440,192,147503,2,0,L|328:144,1,89.9999972534181
176,48,147848,5,8,0:0:0:0:
152,88,147934,1,0,0:0:0:0:
128,128,148020,1,8,0:0:0:0:
168,152,148107,1,0,0:0:0:0:
208,176,148193,1,8,0:0:0:0:
384,192,148365,5,8,0:0:0:0:
408,216,148451,1,8,0:0:0:0:
376,224,148538,1,4,0:0:0:0:
216,104,148710,1,8,0:0:0:0:
384,40,148883,2,0,P|424:48|448:64,1,56.25
464,88,149227,6,0,B|480:128|480:128|472:144|472:144|488:208,1,89.9999972534181,4|0,0:0|0:0,0:0:0:0:
256,320,149572,1,8,0:0:0:0:
384,40,149745,2,0,B|400:80|400:80|392:96|392:96|408:160,1,89.9999972534181,0|2,0:0|0:0,0:0:0:0:
176,272,150090,1,8,0:0:0:0:
304,24,150262,2,0,L|328:80,3,44.999998626709
280,88,150607,6,0,B|216:64|216:64|184:104,1,89.9999972534181,4|0,0:0|0:0,0:0:0:0:
280,336,150951,1,8,0:0:0:0:
112,88,151124,2,0,B|59:131|59:131|77:179,1,89.9999972534181,0|2,0:0|0:0,0:0:0:0:
326,211,151468,1,8,0:0:0:0:
56,312,151641,2,0,L|112:288,3,44.999998626709
128,280,151986,5,8,0:0:0:0:
368,344,152158,1,8,0:0:0:0:
256,136,152331,1,8,0:0:0:0:
200,344,152503,1,8,0:0:0:0:
408,232,152676,1,8,0:0:0:0:
240,40,152848,1,8,0:0:0:0:
80,256,153020,1,8,0:0:0:0:
464,216,153193,6,0,L|456:168,2,29.9999990844727
464,256,153365,5,8,0:0:0:0:
448,296,153451,1,0,0:0:0:0:
408,320,153538,1,8,0:0:0:0:
360,320,153624,1,0,0:0:0:0:
320,296,153710,1,8,0:0:0:0:
280,280,153796,1,8,0:0:0:0:
232,280,153883,1,8,0:0:0:0:
192,304,153969,1,8,0:0:0:0:
144,320,154055,5,4,0:0:0:0:
96,296,154141,1,0,0:0:0:0:
80,248,154227,1,4,0:0:0:0:
104,200,154314,1,0,0:0:0:0:
152,184,154400,1,4,0:0:0:0:
200,160,154486,1,4,0:0:0:0:
224,112,154572,1,4,0:0:0:0:
216,56,154658,1,4,0:0:0:0:
176,24,154745,5,4,0:0:0:0:
128,64,160262,6,0,L|200:144,1,89.9999972534181
328,168,160607,1,8,0:0:0:0:
352,192,160693,1,0,0:0:0:0:
376,216,160779,1,0,0:0:0:0:
192,264,160951,1,4,0:0:0:0:
392,336,161124,2,0,P|440:320|456:248,1,89.9999972534181
408,80,161469,5,0,0:0:0:0:
368,64,161555,1,0,0:0:0:0:
328,56,161641,2,0,P|272:48|216:88,1,89.9999972534181,4|0,0:0|0:0,0:0:0:0:
40,152,161986,1,0,0:0:0:0:
80,168,162072,1,0,0:0:0:0:
120,184,162158,2,0,P|160:232|144:288,1,89.9999972534181,4|0,0:0|0:0,0:0:0:0:
272,344,162503,5,8,0:0:0:0:
240,72,162676,1,0,0:0:0:0:
264,112,162762,1,8,0:0:0:0:
288,152,162848,1,8,0:0:0:0:
312,192,162934,1,8,0:0:0:0:
336,232,163020,6,0,B|376:288|376:288|408:248,1,89.9999972534181,4|0,0:0|0:0,0:0:0:0:
184,136,163365,5,0,0:0:0:0:
208,176,163451,1,0,0:0:0:0:
232,216,163538,1,4,0:0:0:0:
400,128,163710,1,0,0:0:0:0:
120,272,163883,5,8,0:0:0:0:
256,48,164055,1,0,0:0:0:0:
280,88,164141,1,8,0:0:0:0:
304,128,164227,1,8,0:0:0:0:
328,168,164314,1,8,0:0:0:0:
352,208,164400,6,0,B|384:256|384:256|448:280,1,89.9999972534181,4|0,0:0|0:0,0:0:0:0:
440,192,164658,1,0,0:0:0:0:
432,176,164745,1,0,0:0:0:0:
424,160,164831,1,0,0:0:0:0:
416,144,164917,1,0,0:0:0:0:
256,256,165089,6,0,L|272:288,2,22.4999993133545
232,216,165262,1,0,0:0:0:0:
192,192,165348,1,0,0:0:0:0:
144,200,165434,1,0,0:0:0:0:
104,176,165520,1,0,0:0:0:0:
96,128,165607,1,0,0:0:0:0:
56,96,165693,1,0,0:0:0:0:
8,96,165779,5,4,0:0:0:0:
72,280,165951,1,0,0:0:0:0:
160,80,166124,1,8,0:0:0:0:
224,288,166296,1,0,0:0:0:0:
304,72,166469,1,0,0:0:0:0:
368,296,166641,1,8,0:0:0:0:
480,72,166814,5,0,0:0:0:0:
440,48,166900,1,0,0:0:0:0:
392,40,166986,1,0,0:0:0:0:
344,48,167072,1,0,0:0:0:0:
304,72,167158,5,4,0:0:0:0:
64,96,167331,1,0,0:0:0:0:
227,297,167503,1,8,0:0:0:0:
246,38,167676,1,0,0:0:0:0:
64,220,167848,1,0,0:0:0:0:
313,288,168020,1,8,0:0:0:0:
136,40,168193,5,0,0:0:0:0:
104,80,168279,1,0,0:0:0:0:
88,128,168365,1,0,0:0:0:0:
88,184,168451,1,0,0:0:0:0:
104,240,168538,5,4,0:0:0:0:
368,48,168710,2,0,P|416:80|440:144,1,89.9999972534181,0|8,0:0|0:0,0:0:0:0:
136,280,169055,1,0,0:0:0:0:
392,48,169227,2,0,P|440:80|464:144,1,89.9999972534181,0|8,0:0|0:0,0:0:0:0:
472,296,169572,5,0,0:0:0:0:
440,328,169658,1,0,0:0:0:0:
392,336,169745,1,0,0:0:0:0:
344,328,169831,1,0,0:0:0:0:
312,296,169917,2,0,L|264:240,3,44.999998626709
264,224,170262,6,0,P|176:208|224:288,1,225
208,360,170607,1,0,0:0:0:0:
48,232,170779,5,0,0:0:0:0:
40,184,170865,1,0,0:0:0:0:
48,136,170951,1,0,0:0:0:0:
80,96,171038,1,0,0:0:0:0:
128,72,171124,1,0,0:0:0:0:
184,72,171210,1,0,0:0:0:0:
224,112,171296,5,0,0:0:0:0:
277,135,171383,1,0,0:0:0:0:
331,127,171469,1,0,0:0:0:0:
377,96,171555,1,0,0:0:0:0:
431,96,171641,1,0,0:0:0:0:
469,135,171727,1,0,0:0:0:0:
461,188,171814,1,0,0:0:0:0:
408,211,171900,1,0,0:0:0:0:
354,188,171986,5,0,0:0:0:0:
300,204,172072,1,0,0:0:0:0:
285,257,172158,1,0,0:0:0:0:
323,296,172245,1,0,0:0:0:0:
377,288,172331,1,0,0:0:0:0:
392,234,172417,1,0,0:0:0:0:
354,188,172503,1,0,0:0:0:0:
331,135,172589,1,0,0:0:0:0:
370,109,172676,6,0,B|402:102|402:102|447:134,3,82.5000025177003
141,274,173020,6,0,B|109:281|109:281|68:252,3,82.5000025177003
173,77,173365,6,0,B|166:45|166:45|195:4,3,82.5000025177003
338,306,173710,6,0,B|345:338|345:338|313:383,3,82.5000025177003
248,368,174055,5,0,0:0:0:0:
200,352,174141,1,0,0:0:0:0:
152,336,174227,1,0,0:0:0:0:
104,320,174314,1,0,0:0:0:0:
136,272,174400,5,0,0:0:0:0:
169,226,174486,1,0,0:0:0:0:
203,181,174572,1,0,0:0:0:0:
237,136,174658,1,0,0:0:0:0:
277,186,174745,5,0,0:0:0:0:
324,236,174831,1,0,0:0:0:0:
371,286,174917,1,0,0:0:0:0:
411,338,175003,1,0,0:0:0:0:
416,264,175089,5,0,0:0:0:0:
422,191,175176,1,0,0:0:0:0:
428,119,175262,1,0,0:0:0:0:
435,46,175348,1,0,0:0:0:0:
360,32,175434,6,2,L|288:112,7,82.5000025177003
256,152,176124,6,0,P|267:253|114:282,1,247.500007553101
56,288,176469,2,0,P|107:226|187:217,1,165.000005035401
344,224,176814,6,0,P|333:285|374:197,1,416.249998412132,4|0,0:0|0:0,0:0:0:0:
256,208,177158,6,0,L|242:234,1,28.1250010728836,8|0,0:0|0:0,0:0:0:0:
256,174,177245,2,0,L|268:148,1,28.1250010728836
272,192,177331,2,0,L|297:203,1,28.1250010728836
238,192,177417,2,0,L|212:178,1,28.1250010728836
144,160,177503,6,0,P|112:112|112:48,1,101.250000386238
176,24,177676,1,8,0:0:0:0:
56,256,177848,6,0,B|64:328|64:328|96:288,1,116.250000886917,4|0,0:0|0:0,0:0:0:0:
192,312,178020,2,0,B|200:240|200:240|227:274,1,116.250000886917
328,336,178193,2,0,B|368:176|368:176|432:312,1,232.500001773834,4|0,0:0|0:0,0:0:0:0:
456,72,178538,1,8,0:0:0:0:
448,360,178710,6,0,B|424:336,1,30
147,146,178883,2,0,L|192:96,1,67.4999979400635
364,146,179055,2,0,L|320:96,1,67.4999979400635,8|0,0:0|0:0,0:0:0:0:
256,344,179227,2,0,B|256:328|256:328|248:304|248:304|256:288|256:288|256:240,1,90,4|0,0:0|0:0,0:0:0:0:
256,152,179572,6,4,P|368:64|312:200,1,371.250003540516,4|0,0:0|0:0,0:0:0:0:
328,128,179917,1,8,0:0:0:0:
200,280,180089,2,0,P|104:296|32:264,1,101.250000386238
72,248,180262,2,0,P|192:240|280:192,1,202.500000772476,0|8,0:0|0:0,0:0:0:0:
168,32,180607,6,0,P|152:72|64:120,1,101.250000386238
198,71,180779,2,0,P|164:97|63:95,1,101.250000386238
24,192,180951,6,2,L|24:232,2,28.1250010728836
256,192,181124,2,2,L|256:232,2,28.1250010728836,10|2|2,0:0|0:0|0:0,0:0:0:0:
488,192,181296,1,4,0:0:0:0:
448,192,181383,1,0,0:0:0:0:
408,192,181469,2,2,L|408:224,4,28.1250010728836
64,192,181814,6,2,L|64:160,2,28.1250010728836,6|2|2,0:0|0:0|0:0,0:0:0:0:
448,192,181986,2,2,L|448:160,2,28.1250010728836
256,192,182158,2,0,L|256:152,2,28.1250010728836,4|0|0,0:0|0:0|0:0,0:0:0:0:
256,288,182331,6,0,P|104:344|152:176,1,416.249998412132,4|0,0:0|0:0,0:0:0:0:
266,202,182676,6,0,B|272:214|272:214|286:216,1,28.1250010728836,8|0,0:0|0:0,0:0:0:0:
243,179,182762,2,0,B|238:167|238:167|224:160,1,28.1250010728836
243,202,182848,2,0,B|231:208|231:208|225:225,1,28.1250010728836
266,179,182934,2,0,B|278:174|278:174|284:156,1,28.1250010728836
264,72,183020,6,0,B|309:60|309:60|360:77,1,101.250000386238
428,122,183193,1,8,0:0:0:0:
240,312,183365,6,0,P|208:344|112:304,1,116.250000886917,4|0,0:0|0:0,0:0:0:0:
40,312,183538,2,0,P|72:280|32:184,1,116.250000886917
32,120,183710,2,0,B|80:32|192:24|192:24|96:96|144:184,1,348.750002660751,4|0,0:0|0:0,0:0:0:0:
224,112,184055,2,0,P|288:64|360:80,1,116.250000886917,8|0,0:0|0:0,0:0:0:0:
304,144,184227,1,0,0:0:0:0:
480,304,184400,6,0,L|320:304,1,116.250000886917
480,184,184572,2,0,L|360:184,1,116.250000886917,4|0,0:0|0:0,0:0:0:0:
465,63,184745,5,8,0:0:0:0:
417,63,184831,1,2,0:0:0:0:
369,63,184917,1,2,0:0:0:0:
321,63,185003,1,2,0:0:0:0:
272,64,185089,6,0,B|192:48|192:48|128:128,1,150,4|0,0:0|0:0,0:0:0:0:
256,288,185434,1,8,0:0:0:0:
40,120,185607,2,0,L|144:200,1,75
256,288,185779,1,4,0:0:0:0:
24,256,185951,5,8,0:0:0:0:
64,272,186038,1,8,0:0:0:0:
104,288,186124,1,4,0:0:0:0:
320,336,186296,2,0,P|408:336|424:288,1,150
392,136,186641,5,8,0:0:0:0:
120,248,186814,1,4,0:0:0:0:
256,64,186986,2,0,B|248:96|248:96|264:120|264:120|256:160|256:160|256:208,1,150
256,360,187331,5,0,0:0:0:0:
176,80,187503,1,4,0:0:0:0:
336,80,187676,1,4,0:0:0:0:
152,168,187848,6,0,P|89:184|180:105,1,416.249998412132,4|0,0:0|0:0,0:0:0:0:
248,204,188193,6,0,P|234:218|236:228,1,28.1250010728836,8|0,0:0|0:0,0:0:0:0:
261,177,188279,2,0,P|276:164|274:153,1,28.1250010728836
241,184,188365,2,0,P|228:170|217:172,1,28.1250010728836
268,197,188451,2,0,P|282:212|292:210,1,28.1250010728836
360,208,188538,6,0,B|416:216|416:216|472:288,1,101.250000386238
480,328,188710,1,4,0:0:0:0:
392,80,188883,6,0,P|336:80|296:40,1,116.250000886917,8|0,0:0|0:0,0:0:0:0:
208,88,189055,2,0,P|152:64|80:72,1,116.250000886917
136,152,189227,2,0,P|138:254|240:238,1,232.500001773834,4|0,0:0|0:0,0:0:0:0:
392,80,189572,1,8,0:0:0:0:
392,304,189745,6,0,P|368:328|352:336,1,30
96,304,189917,2,0,L|176:240,1,67.4999979400635
97,66,190089,2,0,L|177:130,1,67.4999979400635,4|0,0:0|0:0,0:0:0:0:
400,192,190262,2,0,B|360:184|360:184|344:192|344:192|296:192,1,90,8|0,0:0|0:0,0:0:0:0:
192,192,190607,6,0,P|128:248|248:208,1,371.250003540516,4|0,0:0|0:0,0:0:0:0:
200,264,190951,1,8,0:0:0:0:
352,112,191124,2,0,B|392:80|392:80|448:112,1,101.250000386238
448,88,191296,2,0,B|361:38|361:38|281:102,1,202.500000772476,0|4,0:0|0:0,0:0:0:0:
392,240,191641,6,0,P|408:304|392:336,1,101.250000386238,8|0,0:0|0:0,0:0:0:0:
345,253,191814,2,0,P|390:300|393:336,1,101.250000386238
256,344,191986,6,2,L|216:344,2,28.1250010728836
256,40,192158,2,2,L|296:40,2,28.1250010728836,6|2|2,0:0|0:0|0:0,0:0:0:0:
256,248,192331,1,8,0:0:0:0:
256,296,192417,1,0,0:0:0:0:
256,344,192503,2,2,L|216:344,4,28.1250010728836
256,192,192848,6,2,L|296:192,2,28.1250010728836,6|2|2,0:0|0:0|0:0,0:0:0:0:
256,40,193020,2,2,L|296:40,2,28.1250010728836,10|2|2,0:0|0:0|0:0,0:0:0:0:
256,296,193193,2,0,L|296:296,2,28.1250010728836,8|0|0,0:0|0:0|0:0,0:0:0:0:
184,296,193365,6,0,P|165:343|125:209,1,416.249998412132,4|0,0:0|0:0,0:0:0:0:
266,186,193710,6,0,L|300:186,1,28.1250010728836,8|0,0:0|0:0,0:0:0:0:
245,197,193796,2,0,L|217:197,1,28.1250010728836
261,202,193883,2,0,L|261:230,1,28.1250010728836
250,181,193969,2,0,L|250:153,1,28.1250010728836
344,120,194055,6,0,B|392:96|392:96|400:72|400:72|456:48,1,101.250000386238
496,104,194227,1,4,0:0:0:0:
264,272,194400,6,0,B|312:240|312:240|400:248,1,116.250000886917,8|0,0:0|0:0,0:0:0:0:
400,328,194572,2,0,B|352:360|352:360|280:360,1,116.250000886917
176,360,194745,2,0,B|136:376|32:320|32:320|128:264|192:280,1,232.500001773834,4|0,0:0|0:0,0:0:0:0:
200,288,195003,2,0,P|176:232|88:200,1,116.250000886917,0|4,0:0|0:0,0:0:0:0:
64,56,195262,1,4,0:0:0:0:
272,48,195434,6,0,L|232:168,1,116.250000886917
400,32,195607,2,0,L|360:152,1,116.250000886917,4|0,0:0|0:0,0:0:0:0:
496,80,195779,5,10,0:0:0:0:
480,128,195865,1,2,0:0:0:0:
464,176,195951,1,2,0:0:0:0:
448,224,196038,1,2,0:0:0:0:
432,272,196124,6,0,P|376:328|288:304,1,150,4|0,0:0|0:0,0:0:0:0:
152,168,196469,1,0,0:0:0:0:
376,184,196641,1,8,0:0:0:0:
368,224,196727,1,0,0:0:0:0:
352,264,196814,1,0,0:0:0:0:
70,338,196986,6,0,L|64:264,1,75
128,160,197158,2,0,L|134:234,1,75
96,344,197331,2,0,L|88:184,1,150
208,32,197676,2,0,P|135:44|87:100,1,150
216,176,198020,5,0,0:0:0:0:
304,296,198193,1,0,0:0:0:0:
424,224,198365,1,8,0:0:0:0:
240,320,198538,1,4,0:0:0:0:
408,192,198710,1,8,0:0:0:0:
200,232,198883,6,0,P|145:87|270:180,1,416.249998412132,4|0,0:0|0:0,0:0:0:0:
304,272,199227,2,0,L|323:239,1,37.5000014305115
408,192,199342,2,0,L|388:224,1,37.5000014305115
304,296,199457,2,0,L|323:263,1,37.5000014305115
384,168,199572,6,0,L|368:192,1,28.1250010728836,8|0,0:0|0:0,0:0:0:0:
336,176,199658,2,0,L|352:152,1,28.1250010728836
336,112,199745,2,0,L|320:136,1,28.1250010728836
288,152,199831,2,0,L|304:128,1,28.1250010728836
288,80,199917,6,0,L|264:120,1,30
32,104,200089,2,0,L|56:72,1,30
128,248,200262,6,0,P|192:240|232:264,1,75,4|0,0:0|0:0,0:0:0:0:
104,288,200434,2,0,P|160:272|224:304,1,75
376,280,200607,6,0,B|448:296|448:296|288:352,1,202.500000772476,8|0,0:0|0:0,0:0:0:0:
104,360,200951,1,4,0:0:0:0:
256,168,201124,1,8,0:0:0:0:
448,296,201296,6,0,B|480:304|480:304|392:336,1,101.250000386238
480,304,201469,2,0,B|512:312|512:312|424:344,1,101.250000386238
480,224,201641,6,0,P|408:112|256:160,1,277.499998941422
480,224,201986,2,0,P|349:195|276:337,1,277.499998941422
112,360,202331,6,0,B|64:328|64:328|32:232,1,138.749999470711,4|0,0:0|0:0,0:0:0:0:
88,152,202503,2,0,B|128:280|128:280|176:296|176:296|200:264|200:264|184:208,1,277.499998941422
128,40,202848,1,8,0:0:0:0:
416,40,203020,6,0,L|464:120,1,78.7499975967408
368,40,203193,2,0,L|464:192,1,157.499995193482,4|0,0:0|0:0,0:0:0:0:
377,343,203538,5,0,0:0:0:0:
377,343,203624,1,8,0:0:0:0:
112,360,203796,1,4,0:0:0:0:
112,360,203883,1,0,0:0:0:0:
229,123,204055,1,8,0:0:0:0:
377,343,204227,1,4,0:0:0:0:
200,200,204400,6,0,P|152:152|272:192,1,416.249998412132,4|0,0:0|0:0,0:0:0:0:
248,256,204745,2,0,L|224:288,1,37.5000014305115
168,352,204860,2,0,L|136:330,1,37.5000014305115
64,280,204974,2,0,L|88:248,1,37.5000014305115
48,176,205089,6,0,L|88:176,1,28.1250010728836
88,128,205176,2,0,L|59:128,1,28.1250010728836
56,80,205262,2,0,L|104:80,1,28.1250010728836,8|0,0:0|0:0,0:0:0:0:
120,56,205348,2,0,L|91:56,1,28.1250010728836
144,16,205434,6,0,L|176:16,1,30
144,192,205607,2,0,L|184:192,1,30
464,160,205779,6,0,L|392:192,1,75
496,184,205951,2,0,L|400:192,1,75
352,192,206124,5,8,0:0:0:0:
336,144,206210,1,8,0:0:0:0:
320,96,206296,1,8,0:0:0:0:
304,48,206383,1,8,0:0:0:0:
256,96,206469,5,4,0:0:0:0:
208,144,206555,1,4,0:0:0:0:
160,192,206641,1,4,0:0:0:0:
112,240,206727,1,4,0:0:0:0:
104,288,206814,5,6,0:0:0:0:
136,320,206900,1,2,0:0:0:0:
184,312,206986,1,2,0:0:0:0:
208,272,207072,1,2,0:0:0:0:
248,248,207158,6,0,P|320:232|376:256,1,127.50000243187,4|0,0:0|0:0,0:0:0:0:
288,344,207503,1,8,0:0:0:0:
440,192,207676,1,0,0:0:0:0:
232,128,207848,2,0,P|160:144|96:96,1,127.50000243187,0|4,0:0|0:0,0:0:0:0:
400,128,208193,5,8,0:0:0:0:
176,64,208365,1,0,0:0:0:0:
448,128,208538,2,0,P|424:96|392:88,1,63.7500012159348
376,88,208710,1,4,0:0:0:0:
256,288,208883,5,8,0:0:0:0:
176,64,209055,1,0,0:0:0:0:
368,192,209227,1,8,0:0:0:0:
124,192,209400,1,4,0:0:0:0:
335,51,209572,1,4,0:0:0:0:
256,288,209745,1,4,0:0:0:0:
152,120,209917,6,0,P|56:160|192:152,1,416.249998412132,4|0,0:0|0:0,0:0:0:0:
224,56,210262,2,0,L|264:48,1,37.5000014305115
296,144,210377,2,0,L|318:110,1,37.5000014305115
408,168,210492,2,0,L|400:128,1,37.5000014305115
488,184,210607,6,0,L|448:208,1,28.1250010728836,8|0,0:0|0:0,0:0:0:0:
432,224,210693,2,0,L|424:256,1,28.1250010728836
488,248,210779,2,0,L|448:272,1,28.1250010728836,8|0,0:0|0:0,0:0:0:0:
432,288,210865,2,0,L|424:320,1,28.1250010728836
432,352,210951,6,0,L|392:368,1,30
160,368,211124,2,0,L|200:352,1,30
360,224,211296,6,0,P|392:192|376:144,1,75,4|0,0:0|0:0,0:0:0:0:
344,256,211469,2,0,P|392:240|408:192,1,75
320,160,211641,6,0,B|248:144|256:80|256:80|184:96|192:128,1,202.500000772476
192,360,211986,1,4,0:0:0:0:
128,128,212158,1,8,0:0:0:0:
336,48,212331,6,0,B|392:56|392:56|440:88,1,101.250000386238,4|0,0:0|0:0,0:0:0:0:
312,64,212503,2,0,B|368:72|368:72|416:104,1,101.250000386238
336,152,212676,6,0,B|272:112|200:104|200:104|136:168|112:280,1,277.499998941422,4|0,0:0|0:0,0:0:0:0:
336,152,213020,2,0,B|262:168|205:214|205:214|205:304|268:400,1,277.499998941422,4|0,0:0|0:0,0:0:0:0:
488,232,213365,6,0,P|488:312|456:368,1,138.749999470711,4|0,0:0|0:0,0:0:0:0:
384,320,213538,2,0,P|400:256|328:328,1,277.499998941422
104,328,213883,1,0,0:0:0:0:
32,192,214055,6,0,L|120:192,1,75
256,192,214227,2,0,L|352:192,1,75,4|0,0:0|0:0,0:0:0:0:
376,192,214400,1,8,0:0:0:0:
104,112,214572,5,0,0:0:0:0:
152,112,214658,1,0,0:0:0:0:
200,112,214745,1,8,0:0:0:0:
472,112,214917,1,4,0:0:0:0:
56,112,215089,1,8,0:0:0:0:
472,112,215262,1,4,0:0:0:0:
254,257,215434,6,0,P|401:303|296:192,1,416.249998412132,4|0,0:0|0:0,0:0:0:0:
208,168,215779,2,0,L|184:120,1,37.5000014305115,8|0,0:0|0:0,0:0:0:0:
152,48,215894,2,0,L|122:92,1,37.5000014305115
80,160,216009,2,0,L|133:163,1,37.5000014305115
120,256,216124,6,0,L|96:288,1,28.1250010728836
154,315,216210,2,0,L|160:288,1,28.1250010728836
216,288,216296,2,0,L|220:315,1,28.1250010728836,4|0,0:0|0:0,0:0:0:0:
280,304,216383,2,0,L|265:279,1,28.1250010728836
296,240,216469,6,0,L|328:264,1,30,8|0,0:0|0:0,0:0:0:0:
456,112,216641,2,0,L|488:136,1,30
208,56,216814,2,0,L|272:104,1,75,4|0,0:0|0:0,0:0:0:0:
192,96,216986,2,0,L|256:152,1,75
176,136,217158,5,8,0:0:0:0:
160,184,217245,1,8,0:0:0:0:
168,232,217331,1,8,0:0:0:0:
208,272,217417,1,8,0:0:0:0:
272,280,217503,5,4,0:0:0:0:
296,216,217589,1,4,0:0:0:0:
320,152,217676,1,4,0:0:0:0:
344,88,217762,1,4,0:0:0:0:
384,64,217848,5,2,0:0:0:0:
432,64,217934,1,2,0:0:0:0:
464,96,218020,1,2,0:0:0:0:
472,144,218107,1,2,0:0:0:0:
448,184,218193,5,4,0:0:0:0:
256,328,218365,1,0,0:0:0:0:
392,128,218538,1,8,0:0:0:0:
328,360,218710,1,0,0:0:0:0:
72,272,218883,5,4,0:0:0:0:
256,80,219055,1,0,0:0:0:0:
136,320,219227,1,8,0:0:0:0:
184,56,219400,1,0,0:0:0:0:
448,192,219572,5,8,0:0:0:0:
152,256,219745,1,8,0:0:0:0:
424,128,219917,1,8,0:0:0:0:
192,312,220089,1,8,0:0:0:0:
312,72,220262,5,4,0:0:0:0:
376,56,220348,1,4,0:0:0:0:
440,72,220434,1,4,0:0:0:0:
480,128,220520,1,4,0:0:0:0:
480,200,220607,5,2,0:0:0:0:
440,240,220693,1,2,0:0:0:0:
384,240,220779,1,2,0:0:0:0:
344,200,220865,1,2,0:0:0:0:
336,144,220951,5,4,0:0:0:0:
160,112,221124,2,2,L|104:168,1,60
160,216,221296,2,2,L|112:272,1,60
168,320,221469,1,8,0:0:0:0:
273,227,221641,6,0,P|353:219|393:251,1,120,0|4,0:0|0:0,0:0:0:0:
480,192,221986,5,8,0:0:0:0:
472,160,222072,1,0,0:0:0:0:
448,136,222158,1,0,0:0:0:0:
416,128,222245,1,0,0:0:0:0:
384,136,222331,5,4,0:0:0:0:
232,176,222503,2,0,P|144:168|120:136,1,120,0|8,0:0|0:0,0:0:0:0:
192,112,222762,1,0,0:0:0:0:
256,64,222848,2,0,P|202:39|143:48,1,120
376,56,223193,1,4,0:0:0:0:
240,224,223365,5,8,0:0:0:0:
200,232,223451,1,0,0:0:0:0:
160,224,223538,1,0,0:0:0:0:
128,200,223624,1,0,0:0:0:0:
112,168,223710,5,4,0:0:0:0:
256,136,223883,2,2,P|336:160|344:168,1,60
360,224,224055,2,2,P|336:304|328:312,1,60,6|2,0:0|0:0,0:0:0:0:
264,336,224227,1,0,0:0:0:0:
96,304,224400,6,0,B|56:240|56:240|144:264,1,120,0|8,0:0|0:0,0:0:0:0:
192,352,224745,5,4,0:0:0:0:
224,368,224831,1,0,0:0:0:0:
264,376,224917,1,0,0:0:0:0:
304,368,225003,1,0,0:0:0:0:
336,352,225089,5,4,0:0:0:0:
304,168,225262,6,0,P|264:208|256:232,1,60,8|0,0:0|0:0,0:0:0:0:
352,232,225434,2,0,P|432:240|480:184,1,120,4|0,0:0|0:0,0:0:0:0:
376,72,225779,1,0,0:0:0:0:
208,176,225951,1,8,0:0:0:0:
376,280,226124,5,4,0:0:0:0:
415,288,226210,1,0,0:0:0:0:
454,278,226296,1,0,0:0:0:0:
485,248,226383,1,0,0:0:0:0:
500,211,226469,5,8,0:0:0:0:
440,72,226641,6,2,L|360:40,1,60
288,72,226814,2,2,L|208:40,1,60,6|2,0:0|0:0,0:0:0:0:
136,72,226986,1,0,0:0:0:0:
40,152,227158,6,0,B|24:240|24:240|72:208,1,120,0|8,0:0|0:0,0:0:0:0:
192,160,227503,5,4,0:0:0:0:
232,144,227589,1,0,0:0:0:0:
272,136,227676,1,0,0:0:0:0:
312,144,227762,1,0,0:0:0:0:
344,168,227848,5,8,0:0:0:0:
256,288,228020,6,0,B|304:328|304:328|416:304,1,120,8|4,0:0|0:0,0:0:0:0:
424,272,228279,1,0,0:0:0:0:
496,224,228365,2,0,B|448:184|448:184|336:208,1,120,8|0,0:0|0:0,0:0:0:0:
208,240,228710,1,8,0:0:0:0:
40,152,228883,5,4,0:0:0:0:
48,120,228969,1,0,0:0:0:0:
72,96,229055,1,0,0:0:0:0:
104,88,229141,1,0,0:0:0:0:
136,96,229227,5,4,0:0:0:0:
128,224,229400,2,2,P|96:240|88:280,1,60
128,352,229572,2,2,P|152:368|200:352,1,60,6|2,0:0|0:0,0:0:0:0:
256,256,229745,1,0,0:0:0:0:
376,120,229917,6,0,P|448:128|488:176,1,120,0|8,0:0|0:0,0:0:0:0:
448,288,230262,5,4,0:0:0:0:
424,312,230348,1,0,0:0:0:0:
392,320,230434,2,0,L|376:368,2,40
384,288,230607,5,4,0:0:0:0:
312,136,230779,1,0,0:0:0:0:
160,208,230951,1,8,0:0:0:0:
232,360,231124,1,0,0:0:0:0:
232,168,231296,5,8,0:0:0:0:
392,56,231469,1,0,0:0:0:0:
376,224,231641,1,8,0:0:0:0:
296,104,231814,1,0,0:0:0:0:
408,136,231986,5,4,0:0:0:0:
440,248,232158,2,0,L|424:328,1,60
352,288,232331,2,0,L|336:352,1,60
264,320,232503,2,0,L|248:384,1,60
152,360,232676,1,8,0:0:0:0:
208,224,232848,6,0,L|248:144,3,60
256,136,233193,1,0,0:0:0:0:
128,48,233365,6,0,P|56:64|24:144,1,120,0|8,0:0|0:0,0:0:0:0:
96,136,233624,1,0,0:0:0:0:
29,173,233710,2,0,P|69:216|128:224,1,120,0|8,0:0|0:0,0:0:0:0:
272,104,234055,1,4,0:0:0:0:
416,48,234227,5,8,0:0:0:0:
440,288,234400,2,0,P|403:340|296:352,1,180
240,336,234745,5,0,0:0:0:0:
184,232,234917,2,2,L|232:168,1,60
328,160,235089,2,2,L|280:96,1,60
200,64,235262,2,2,L|164:112,1,60
64,240,235434,1,8,0:0:0:0:
192,352,235607,1,0,0:0:0:0:
328,160,235779,6,0,P|296:216|304:248,3,60
288,240,236124,1,0,0:0:0:0:
448,240,236296,6,0,P|456:168|424:112,1,120,8|0,0:0|0:0,0:0:0:0:
296,56,236641,1,8,0:0:0:0:
256,64,236727,1,8,0:0:0:0:
216,72,236814,1,4,0:0:0:0:
72,24,236986,5,0,0:0:0:0:
184,176,237158,1,0,0:0:0:0:
16,104,237331,1,0,0:0:0:0:
136,272,237503,5,0,0:0:0:0:
264,192,237676,2,2,L|312:144,1,60
344,296,237848,2,2,L|286:280,1,60
400,176,238020,2,2,L|415:233,1,60
320,360,238193,1,8,0:0:0:0:
136,272,238365,1,0,0:0:0:0:
208,120,238538,6,0,L|264:80,3,60
288,64,238883,1,0,0:0:0:0:
376,160,239055,6,0,B|304:216|304:216|336:264,1,120,8|0,0:0|0:0,0:0:0:0:
400,232,239314,1,0,0:0:0:0:
464,280,239400,2,0,B|408:352|408:352|360:320,1,120,8|4,0:0|0:0,0:0:0:0:
240,312,239745,1,0,0:0:0:0:
64,272,239917,6,0,L|24:336,3,60
256,192,240262,12,0,242676,0:0:0:0:
128,40,243020,6,0,P|136:96|192:152,1,120
336,192,243365,1,8,0:0:0:0:
120,288,243538,2,0,P|165:321|244:321,1,120
374,248,243883,1,8,0:0:0:0:
368,48,244400,6,0,B|328:64|328:64|304:64|304:64|248:88,1,120
40,192,244745,1,8,0:0:0:0:
374,248,244917,2,0,B|334:231|334:231|317:214|317:214|260:191,1,120
40,117,245262,1,8,0:0:0:0:
176,40,245779,6,0,B|160:72|160:72|208:96|176:176,1,120
56,312,246124,1,8,0:0:0:0:
120,128,246296,2,0,B|153:139|153:139|171:88|254:109,1,120
405,209,246641,1,8,0:0:0:0:
232,344,247158,5,0,0:0:0:0:
192,328,247245,1,0,0:0:0:0:
160,296,247331,1,0,0:0:0:0:
144,256,247417,1,0,0:0:0:0:
144,216,247503,6,0,B|176:176|176:176|224:160|224:160|296:96,1,180
312,80,247848,1,0,0:0:0:0:
272,272,248020,1,0,0:0:0:0:
448,192,248193,6,0,L|472:256,1,56.25
472,296,248538,6,0,P|409:279|376:232,1,120
245,114,248883,1,8,0:0:0:0:
281,381,249055,2,0,P|248:325|248:264,1,120
249,93,249400,1,8,0:0:0:0:
432,96,249917,6,0,B|392:112|392:112|336:176,1,120
304,312,250261,1,8,0:0:0:0:
448,9,250434,2,0,B|431:48|431:48|432:136,1,120
510,252,250778,1,8,0:0:0:0:
256,192,251296,12,0,253883,0:0:0:0:
256,192,254055,12,0,262331,0:0:0:0:
