osu file format v14

[General]
AudioFilename: audio.mp3
AudioLeadIn: 0
PreviewTime: 263207
Countdown: 0
SampleSet: Normal
StackLeniency: 0.7
Mode: 1
LetterboxInBreaks: 0
WidescreenStoryboard: 1

[Editor]
Bookmarks: 151220
DistanceSpacing: 1
BeatDivisor: 8
GridSize: 4
TimelineZoom: 2.299999

[Metadata]
Title:BAD ACCESS (FROM A MOE MAID)
TitleUnicode:BAD ACCESS (FROM A MOE MAID)
Artist:Camellia
ArtistUnicode:かめりあ
Creator:woosungko
Version:EXC_BAD_ACCESS KERN_INVALID_ADDRESS (ft. Horiiizon)
Source:
Tags:fa electronic instrumental tera io i/o o!tfac #3 osu!taiko featured artist cup 3rd third place horiiizon collab :3 かめるかめりあ KamelCamellia Cametek 大箭将也 Masaya Oya techdance edm dance techno
BeatmapID:3937052
BeatmapSetID:1908855

[Difficulty]
HPDrainRate:6
CircleSize:5
OverallDifficulty:7
ApproachRate:5
SliderMultiplier:1.4
SliderTickRate:1

[Events]
//Background and Video events
0,0,"bg.jpg",0,30
//Break Periods
//Storyboard Layer 0 (Background)
//Storyboard Layer 1 (Fail)
//Storyboard Layer 2 (Pass)
//Storyboard Layer 3 (Foreground)
//Storyboard Layer 4 (Overlay)
//Storyboard Sound Samples

[TimingPoints]
832,400,8,1,0,50,1,8
4032,400,4,1,0,50,1,0
4032,-133.333333333333,4,1,0,50,0,0
4033,-33.3333333333333,4,1,0,50,0,0
5632,-133.333333333333,4,1,0,50,0,0
5633,-33.3333333333333,4,1,0,50,0,0
7232,-133.333333333333,4,1,0,60,0,0
9629,-76.9230769230769,4,1,0,80,0,0
9729,-81.2182741116751,4,1,0,80,0,0
9829,-86.0215053763441,4,1,0,80,0,0
9929,-91.4285714285714,4,1,0,80,0,0
10029,-97.5609756097561,4,1,0,80,0,0
10129,-104.575163398693,4,1,0,80,0,0
10229,-112.676056338028,4,1,0,80,0,0
10329,-122.137404580153,4,1,0,80,0,0
10429,-133.333333333333,4,1,0,60,0,0
12829,-66.6666666666667,4,1,0,80,0,0
12929,-71.1111111111111,4,1,0,80,0,0
13029,-76.1904761904762,4,1,0,80,0,0
13129,-82.0512820512821,4,1,0,80,0,0
13229,-88.8888888888889,4,1,0,80,0,0
13329,-96.969696969697,4,1,0,80,0,0
13429,-106.666666666667,4,1,0,80,0,0
13529,-118.518518518519,4,1,0,80,0,0
13629,-133.333333333333,4,1,0,60,0,0
16029,-58.8235294117647,4,1,0,80,0,0
16129,-63.2411067193676,4,1,0,80,0,0
16229,-68.3760683760684,4,1,0,80,0,0
16329,-74.4186046511628,4,1,0,80,0,0
16429,-81.6326530612245,4,1,0,80,0,0
16529,-90.3954802259887,4,1,0,80,0,0
16629,-101.26582278481,4,1,0,80,0,0
16729,-115.107913669065,4,1,0,80,0,0
16829,-133.333333333333,4,1,0,60,0,0
19229,-52.6315789473684,4,1,0,80,0,0
19329,-56.9395017793594,4,1,0,80,0,0
19429,-62.015503875969,4,1,0,80,0,0
19529,-68.0851063829787,4,1,0,80,0,0
19629,-75.4716981132076,4,1,0,80,0,0
19729,-84.6560846560847,4,1,0,80,0,0
19829,-96.3855421686747,4,1,0,80,0,0
19929,-111.888111888112,4,1,0,80,0,0
20029,-50,4,1,0,90,0,0
20429,-94.7712418300654,4,1,0,90,0,0
20729,-91.1949685534591,4,1,0,90,0,0
21029,-87.8787878787879,4,1,0,90,0,0
21329,-84.7953216374269,4,1,0,90,0,0
21629,-81.9209039548023,4,1,0,90,0,0
21929,-79.2349726775956,4,1,0,90,0,0
22229,-76.7195767195767,4,1,0,90,0,0
22529,-74.3589743589744,4,1,0,90,0,0
22829,-71.9424460431655,4,1,0,90,0,0
22929,-57.1428571428571,4,1,0,90,0,0
23207,-50,4,1,0,90,0,0
23607,-94.7712418300654,4,1,0,90,0,0
23907,-91.1949685534591,4,1,0,90,0,0
24207,-87.8787878787879,4,1,0,90,0,0
24507,-84.7953216374269,4,1,0,90,0,0
24807,-81.9209039548023,4,1,0,90,0,0
25107,-79.2349726775956,4,1,0,90,0,0
25407,-76.7195767195767,4,1,0,90,0,0
25729,-66.6666666666667,4,1,0,90,0,0
25829,-68.9655172413793,4,1,0,90,0,0
25929,-71.4285714285714,4,1,0,90,0,0
26032,-74.0740740740741,4,1,0,70,0,0
26132,-76.9230769230769,4,1,0,70,0,0
26232,-80,4,1,0,70,0,0
26332,-83.3333333333333,4,1,0,70,0,0
26407,-50,4,1,0,90,0,0
26807,-94.7712418300654,4,1,0,90,0,0
27107,-91.1949685534591,4,1,0,90,0,0
27407,-87.8787878787879,4,1,0,90,0,0
27707,-84.7953216374269,4,1,0,90,0,0
28007,-81.9209039548023,4,1,0,90,0,0
28307,-79.2349726775956,4,1,0,90,0,0
28607,-76.7195767195767,4,1,0,90,0,0
28907,-74.3589743589744,4,1,0,90,0,0
29207,-71.9424460431655,4,1,0,90,0,0
29307,-57.1428571428571,4,1,0,90,0,0
29607,-50,4,1,0,90,0,0
30029,-94.5945945945946,4,1,0,90,0,0
30329,-57.1428571428571,4,1,0,90,0,0
30529,-88.6075949367089,4,1,0,90,0,0
30629,-87.5,4,1,0,90,0,0
30829,-85.3658536585366,4,1,0,90,0,0
30929,-57.1428571428571,4,1,0,90,0,0
31229,-81.3953488372093,4,1,0,90,0,0
31529,-57.1428571428571,4,1,0,90,0,0
31829,-76.0869565217391,4,1,0,90,0,0
31929,-75.2688172043011,4,1,0,90,0,0
32029,-74.468085106383,4,1,0,90,0,0
32129,-57.1428571428571,4,1,0,90,0,0
32329,-80,4,1,0,70,0,0
32429,-82.7586206896552,4,1,0,70,0,0
32529,-85.7142857142857,4,1,0,70,0,0
32629,-88.8888888888889,4,1,0,70,0,0
32729,-92.3076923076923,4,1,0,70,0,0
32829,-96,4,1,0,100,0,0
32929,-100,4,1,0,90,0,0
33229,-98.2456140350877,4,1,0,90,0,0
33329,-96.551724137931,4,1,0,90,0,0
33429,-94.9152542372881,4,1,0,90,0,0
33529,-93.3333333333333,4,1,0,90,0,0
33629,-91.8032786885246,4,1,0,90,0,0
33729,-90.3225806451613,4,1,0,90,0,0
33829,-88.8888888888889,4,1,0,90,0,0
33929,-87.5,4,1,0,90,0,0
34029,-86.1538461538461,4,1,0,90,0,0
34129,-84.8484848484848,4,1,0,90,0,0
34229,-83.5820895522388,4,1,0,90,0,0
34329,-82.3529411764706,4,1,0,90,0,0
34429,-81.1594202898551,4,1,0,90,0,0
34529,-80,4,1,0,90,0,0
34729,-90.9090909090909,4,1,0,90,0,0
34829,-89.4568690095847,4,1,0,90,0,0
34929,-88.0503144654088,4,1,0,90,0,0
35029,-86.687306501548,4,1,0,90,0,0
35129,-85.3658536585366,4,1,0,90,0,0
35229,-84.0840840840841,4,1,0,90,0,0
35329,-82.8402366863905,4,1,0,90,0,0
35429,-81.6326530612245,4,1,0,90,0,0
35529,-80.4597701149425,4,1,0,90,0,0
35629,-79.3201133144476,4,1,0,90,0,0
35729,-78.2122905027933,4,1,0,90,0,0
35829,-77.1349862258953,4,1,0,90,0,0
35929,-76.0869565217391,4,1,0,90,0,0
36029,-75.0670241286863,4,1,0,90,0,0
36129,-74.0740740740741,4,1,0,90,0,0
36329,-83.3333333333333,4,1,0,90,0,0
36429,-82.1114369501466,4,1,0,90,0,0
36529,-80.9248554913295,4,1,0,90,0,0
36629,-79.7720797720798,4,1,0,90,0,0
36729,-78.6516853932584,4,1,0,90,0,0
36829,-77.5623268698061,4,1,0,90,0,0
36929,-76.5027322404372,4,1,0,90,0,0
37029,-75.4716981132076,4,1,0,90,0,0
37129,-74.468085106383,4,1,0,90,0,0
37229,-73.490813648294,4,1,0,90,0,0
37329,-72.5388601036269,4,1,0,90,0,0
37429,-71.6112531969309,4,1,0,90,0,0
37529,-70.7070707070707,4,1,0,90,0,0
37629,-69.8254364089776,4,1,0,90,0,0
37729,-68.9655172413793,4,1,0,90,0,0
37929,-76.9230769230769,4,1,0,90,0,0
38029,-75.8807588075881,4,1,0,90,0,0
38129,-74.8663101604278,4,1,0,90,0,0
38229,-73.8786279683377,4,1,0,90,0,0
38329,-72.9166666666667,4,1,0,90,0,0
38429,-71.9424460431655,4,1,0,70,0,0
38629,-77.3694390715667,4,1,0,70,0,0
38729,-80.4020100502513,4,1,0,70,0,0
38829,-83.6820083682009,4,1,0,70,0,0
39029,-91.1161731207289,4,1,0,70,0,0
39095,-93.8680684298219,4,1,0,70,0,0
39162,-96.837059542687,4,1,0,70,0,0
39229,-100,4,1,0,100,0,0
39396,-99.0519315126645,4,1,0,100,0,0
39462,-98.135426889107,4,1,0,100,0,0
39529,-97.2222222222222,4,1,0,100,0,0
39629,-95.8904109589041,4,1,0,100,0,0
39695,-95.0312245452077,4,1,0,100,0,0
39762,-94.1746266648729,4,1,0,100,0,0
39829,-93.3333333333333,4,1,0,100,0,0
39929,-92.1052631578947,4,1,0,100,0,0
39995,-91.3122880250456,4,1,0,100,0,0
40062,-90.5211431527221,4,1,0,100,0,0
40129,-89.7435897435897,4,1,0,100,0,0
40229,-88.6075949367089,4,1,0,100,0,0
40295,-87.8734622144113,4,1,0,100,0,0
40362,-87.1405452508403,4,1,0,100,0,0
40429,-86.4197530864198,4,1,0,100,0,0
40529,-85.3658536585366,4,1,0,100,0,0
40595,-84.6842487297363,4,1,0,100,0,0
40662,-84.0033601344054,4,1,0,100,0,0
40729,-83.3333333333333,4,1,0,100,0,0
40829,-82.3529411764706,4,1,0,100,0,0
40895,-81.7184216670558,4,1,0,100,0,0
40962,-81.0842117456272,4,1,0,100,0,0
41029,-80.4597701149425,4,1,0,100,0,0
41129,-79.5454545454545,4,1,0,100,0,0
41195,-78.9533047597564,4,1,0,100,0,0
41262,-78.3611328780925,4,1,0,100,0,0
41329,-77.7777777777778,4,1,0,100,0,0
41429,-76.9230769230769,4,1,0,100,0,0
41495,-76.3691904865808,4,1,0,100,0,0
41562,-75.8150113722517,4,1,0,100,0,0
41629,-75.2688172043011,4,1,0,100,0,0
41729,-74.468085106383,4,1,0,100,0,0
41795,-73.948869638707,4,1,0,100,0,0
41862,-73.4291408790517,4,1,0,100,0,0
41929,-72.9166666666667,4,1,0,100,0,0
42029,-72.1649484536082,4,1,0,100,0,0
42129,-71.4285714285714,4,1,0,100,0,0
42195,-70.9507399148591,4,1,0,100,0,0
42262,-70.4721634954193,4,1,0,100,0,0
42329,-70,4,1,0,100,0,0
42429,-69.3069306930693,4,1,0,100,0,0
42495,-68.8569742278182,4,1,0,100,0,0
42562,-68.4061370077201,4,1,0,100,0,0
42629,-67.9611650485437,4,1,0,100,0,0
42695,-67.5284584217635,4,1,0,100,0,0
42762,-67.0947953608741,4,1,0,100,0,0
42829,-66.6666666666667,4,1,0,100,0,0
42895,-66.2502366079879,4,1,0,100,0,0
42962,-65.8327847267939,4,1,0,100,0,0
43028,-65.4266753902234,4,1,0,100,0,0
43095,-65.0195058517555,4,1,0,100,0,0
43162,-64.6173728422413,4,1,0,100,0,0
43228,-64.2260757867694,4,1,0,100,0,0
43295,-63.8336677001641,4,1,0,100,0,0
43362,-63.4460255596846,4,1,0,100,0,0
43428,-63.0687449319759,4,1,0,100,0,0
43495,-62.6903098692459,4,1,0,100,0,0
43562,-62.3163892103623,4,1,0,100,0,0
43629,-61.9469026548673,4,1,0,100,0,0
43696,-61.5817717955485,4,1,0,100,0,0
43763,-61.2209200629701,4,1,0,100,0,0
43829,-60.8695652173913,4,1,0,100,0,0
43896,-60.5169879830552,4,1,0,100,0,0
43963,-60.1684717208183,4,1,0,100,0,0
44029,-55.5555555555556,4,1,0,100,0,0
44095,-56.3567548662902,4,1,0,100,0,0
44162,-57.1819129143919,4,1,0,100,0,0
44229,-58.0191526695749,4,1,0,100,0,0
44329,-59.2916212155299,4,1,0,100,0,0
44429,-60.5919973769179,4,1,0,100,0,0
44495,-61.4658301745375,4,1,0,100,0,0
44562,-62.3657937116877,4,1,0,100,0,0
44629,-63.2789342345858,4,1,0,100,0,0
44729,-64.6667596289628,4,1,0,100,0,0
44829,-66.0850226302396,4,1,0,100,0,0
44929,-67.5343907920709,4,1,0,100,0,0
45029,-69.0155463088113,4,1,0,100,0,0
45129,-70.5291863366141,4,1,0,100,0,0
45229,-72.0760233215707,4,1,0,100,0,0
45329,-73.6567853350483,4,1,0,100,0,0
45429,-75.2722164163809,4,1,0,100,0,0
45529,-76.9230769230769,4,1,0,100,0,0
45632,-58.8235294117647,4,1,0,100,0,1
45732,-60.6060606060606,4,1,0,100,0,1
45932,-58.8235294117647,4,1,0,100,0,1
46032,-60.6060606060606,4,1,0,100,0,1
46132,-62.5,4,1,0,100,0,1
46232,-64.5161290322581,4,1,0,100,0,1
46332,-66.6666666666667,4,1,0,100,0,1
46432,-68.9655172413793,4,1,0,100,0,1
46607,-58.8235294117647,4,1,0,100,0,1
46707,-60.6060606060606,4,1,0,100,0,1
46807,-62.5,4,1,0,100,0,1
46907,-64.5161290322581,4,1,0,100,0,1
47107,-58.8235294117647,4,1,0,100,0,1
47207,-60.6060606060606,4,1,0,100,0,1
47307,-62.5,4,1,0,100,0,1
47507,-58.8235294117647,4,1,0,100,0,1
47607,-60.6060606060606,4,1,0,100,0,1
47707,-62.5,4,1,0,100,0,1
47807,-64.5161290322581,4,1,0,100,0,1
47907,-66.6666666666667,4,1,0,100,0,1
48007,-68.9655172413793,4,1,0,100,0,1
48107,-71.4285714285714,4,1,0,100,0,1
48307,-58.8235294117647,4,1,0,100,0,1
48407,-60.6060606060606,4,1,0,100,0,1
48507,-62.5,4,1,0,100,0,1
48607,-64.5161290322581,4,1,0,100,0,1
48707,-66.6666666666667,4,1,0,100,0,1
48807,-58.8235294117647,4,1,0,100,0,1
48907,-60.6060606060606,4,1,0,100,0,1
49107,-58.8235294117647,4,1,0,100,0,1
49207,-60.6060606060606,4,1,0,100,0,1
49307,-62.5,4,1,0,100,0,1
49407,-64.5161290322581,4,1,0,100,0,1
49507,-66.6666666666667,4,1,0,100,0,1
49607,-68.9655172413793,4,1,0,100,0,1
49807,-58.8235294117647,4,1,0,100,0,1
49907,-60.6060606060606,4,1,0,100,0,1
50007,-62.5,4,1,0,100,0,1
50107,-64.5161290322581,4,1,0,100,0,1
50307,-58.8235294117647,4,1,0,100,0,1
50407,-60.6060606060606,4,1,0,100,0,1
50507,-62.5,4,1,0,100,0,1
50707,-58.8235294117647,4,1,0,100,0,1
50807,-60.6060606060606,4,1,0,100,0,1
50907,-62.5,4,1,0,100,0,1
51007,-64.5161290322581,4,1,0,100,0,1
51107,-66.6666666666667,4,1,0,100,0,1
51207,-68.9655172413793,4,1,0,100,0,1
51307,-71.4285714285714,4,1,0,100,0,1
51532,-76.9230769230769,4,1,0,100,0,1
51632,-80,4,1,0,100,0,1
51732,-83.3333333333333,4,1,0,100,0,1
51832,-86.9565217391304,4,1,0,100,0,1
51932,-90.9090909090909,4,1,0,100,0,1
52032,-71.4285714285714,4,1,0,100,0,0
52079,-74.0740740740741,4,1,0,100,0,0
52129,-76.9230769230769,4,1,0,100,0,0
52179,-80,4,1,0,100,0,0
52229,-83.3333333333333,4,1,0,100,0,0
52432,-58.8235294117647,4,1,0,100,0,1
52507,-60.6060606060606,4,1,0,100,0,1
52607,-62.5,4,1,0,100,0,1
52707,-64.5161290322581,4,1,0,100,0,1
52807,-66.6666666666667,4,1,0,100,0,1
53007,-58.8235294117647,4,1,0,100,0,1
53107,-60.6060606060606,4,1,0,100,0,1
53207,-62.5,4,1,0,100,0,1
53307,-64.5161290322581,4,1,0,100,0,1
53507,-58.8235294117647,4,1,0,100,0,1
53607,-60.6060606060606,4,1,0,100,0,1
53707,-62.5,4,1,0,100,0,1
53907,-58.8235294117647,4,1,0,100,0,1
54007,-60.6060606060606,4,1,0,100,0,1
54107,-62.5,4,1,0,100,0,1
54207,-64.5161290322581,4,1,0,100,0,1
54307,-66.6666666666667,4,1,0,100,0,1
54407,-68.9655172413793,4,1,0,100,0,1
54507,-71.4285714285714,4,1,0,100,0,1
54707,-58.8235294117647,4,1,0,100,0,1
54807,-60.6060606060606,4,1,0,100,0,1
54907,-62.5,4,1,0,100,0,1
55007,-64.5161290322581,4,1,0,100,0,1
55107,-66.6666666666667,4,1,0,100,0,1
55207,-58.8235294117647,4,1,0,100,0,1
55307,-60.6060606060606,4,1,0,100,0,1
55407,-62.5,4,1,0,100,0,1
55507,-64.5161290322581,4,1,0,100,0,1
55607,-66.6666666666667,4,1,0,100,0,1
55707,-68.9655172413793,4,1,0,100,0,1
55807,-71.4285714285714,4,1,0,100,0,1
55907,-74.0740740740741,4,1,0,100,0,1
56007,-76.9230769230769,4,1,0,100,0,1
56207,-58.8235294117647,4,1,0,100,0,1
56307,-60.6060606060606,4,1,0,100,0,1
56407,-62.5,4,1,0,100,0,1
56507,-64.5161290322581,4,1,0,100,0,1
56707,-58.8235294117647,4,1,0,100,0,1
56807,-60.6060606060606,4,1,0,100,0,1
56907,-62.5,4,1,0,100,0,1
57107,-58.8235294117647,4,1,0,100,0,1
57207,-60.6060606060606,4,1,0,100,0,1
57307,-62.5,4,1,0,100,0,1
57407,-64.5161290322581,4,1,0,100,0,1
57507,-66.6666666666667,4,1,0,100,0,1
57632,-58.8235294117647,4,1,0,100,0,0
57707,-60.6060606060606,4,1,0,100,0,0
57807,-62.5,4,1,0,100,0,0
57907,-64.5161290322581,4,1,0,100,0,0
58007,-66.6666666666667,4,1,0,100,0,0
58107,-68.9655172413793,4,1,0,100,0,0
58207,-71.4285714285714,4,1,0,100,0,0
58307,-74.0740740740741,4,1,0,100,0,0
58432,-58.8235294117647,4,1,0,100,0,1
58507,-60.6060606060606,4,1,0,100,0,1
58707,-58.8235294117647,4,1,0,100,0,1
58807,-60.6060606060606,4,1,0,100,0,1
58907,-62.5,4,1,0,100,0,1
59007,-64.5161290322581,4,1,0,100,0,1
59107,-66.6666666666667,4,1,0,100,0,1
59207,-68.9655172413793,4,1,0,100,0,1
59407,-58.8235294117647,4,1,0,100,0,1
59507,-60.6060606060606,4,1,0,100,0,1
59607,-62.5,4,1,0,100,0,1
59707,-64.5161290322581,4,1,0,100,0,1
59907,-58.8235294117647,4,1,0,100,0,1
60007,-60.6060606060606,4,1,0,100,0,1
60107,-62.5,4,1,0,100,0,1
60307,-58.8235294117647,4,1,0,100,0,1
60407,-60.6060606060606,4,1,0,100,0,1
60507,-62.5,4,1,0,100,0,1
60607,-64.5161290322581,4,1,0,100,0,1
60707,-66.6666666666667,4,1,0,100,0,1
60807,-68.9655172413793,4,1,0,100,0,1
60907,-71.4285714285714,4,1,0,100,0,1
61107,-58.8235294117647,4,1,0,100,0,1
61207,-60.6060606060606,4,1,0,100,0,1
61307,-62.5,4,1,0,100,0,1
61407,-64.5161290322581,4,1,0,100,0,1
61507,-66.6666666666667,4,1,0,100,0,1
61632,-68.9655172413793,4,1,0,100,0,0
61707,-71.4285714285714,4,1,0,100,0,0
62032,-58.8235294117647,4,1,0,100,0,1
62107,-60.6060606060606,4,1,0,100,0,1
62207,-62.5,4,1,0,100,0,1
62307,-64.5161290322581,4,1,0,100,0,1
62407,-66.6666666666667,4,1,0,100,0,1
62607,-58.8235294117647,4,1,0,100,0,1
62707,-60.6060606060606,4,1,0,100,0,1
62807,-62.5,4,1,0,100,0,1
62907,-64.5161290322581,4,1,0,100,0,1
63107,-58.8235294117647,4,1,0,100,0,1
63207,-60.6060606060606,4,1,0,100,0,1
63307,-62.5,4,1,0,100,0,1
63529,-58.8235294117647,4,1,0,100,0,1
63629,-60.2883355176933,4,1,0,100,0,1
63729,-61.8279569892473,4,1,0,100,0,1
63829,-63.448275862069,4,1,0,100,0,1
63929,-65.1558073654391,4,1,0,100,0,1
64032,-66.957787481805,4,1,0,100,0,0
64079,-67.8966789667897,4,1,0,100,0,0
64129,-68.8622754491018,4,1,0,100,0,0
64229,-70.8782742681048,4,1,0,100,0,0
64329,-73.015873015873,4,1,0,100,0,0
64429,-75.2864157119476,4,1,0,100,0,0
64529,-77.7027027027027,4,1,0,100,0,0
64629,-80.2792321116928,4,1,0,100,0,0
64729,-83.0324909747292,4,1,0,100,0,0
64829,-85.981308411215,4,1,0,100,0,0
64929,-89.1472868217054,4,1,0,100,0,0
65229,-100.217864923747,4,1,0,100,0,0
65529,-114.427860696517,4,1,0,100,0,0
65629,-120.104438642298,4,1,0,100,0,0
65832,-76.9230769230769,4,1,0,100,0,1
66432,-133.333333333333,4,1,0,100,0,1
66632,-76.9230769230769,4,1,0,100,0,1
67232,-133.333333333333,4,1,0,100,0,0
68032,-133.333333333333,4,1,0,100,0,1
68033,-76.9230769230769,4,1,0,100,0,1
68832,-133.333333333333,4,1,0,100,0,1
69032,-76.9230769230769,4,1,0,100,0,1
69532,-111.111111111111,4,1,0,100,0,0
69629,-106.382978723404,4,1,0,100,0,0
69729,-102.040816326531,4,1,0,100,0,0
69829,-98.0392156862745,4,1,0,100,0,0
69929,-94.3396226415094,4,1,0,100,0,0
70029,-76.9230769230769,4,1,0,80,0,0
70529,-79.2079207920792,4,1,0,80,0,0
70629,-81.6326530612245,4,1,0,80,0,0
70729,-84.2105263157895,4,1,0,80,0,0
70829,-86.9565217391304,4,1,0,80,0,0
70929,-89.8876404494382,4,1,0,80,0,0
71029,-93.0232558139535,4,1,0,80,0,0
71232,-58.8235294117647,4,1,0,100,0,1
71429,-66.6666666666667,4,1,0,100,0,1
71529,-67.5324675324675,4,1,0,100,0,1
71629,-68.4210526315789,4,1,0,100,0,1
71829,-70.2702702702703,4,1,0,100,0,1
71929,-71.2328767123288,4,1,0,100,0,1
72129,-73.2394366197183,4,1,0,100,0,1
72229,-74.2857142857143,4,1,0,100,0,1
72429,-76.4705882352941,4,1,0,100,0,1
72529,-77.6119402985075,4,1,0,100,0,1
72729,-80,4,1,0,100,0,1
72832,-75.187969924812,4,1,0,100,0,1
72898,-77.8937529210157,4,1,0,100,0,1
72965,-80.8472794890452,4,1,0,100,0,1
73032,-84.0336134453782,4,1,0,100,0,1
73129,-85.2459016393443,4,1,0,100,0,1
73329,-88.135593220339,4,1,0,100,0,1
73429,-89.6551724137931,4,1,0,100,0,1
73629,-92.8571428571429,4,1,0,100,0,1
73729,-94.5454545454545,4,1,0,100,0,1
74032,-76.9230769230769,4,1,0,100,0,0
74095,-74.6469401479489,4,1,0,100,0,0
74162,-72.4700761697497,4,1,0,100,0,0
74229,-70.4165785578346,4,1,0,100,0,0
74295,-68.504422958239,4,1,0,100,0,0
74362,-66.6666666666667,4,1,0,100,0,0
74432,-100,4,1,0,100,0,0
74732,-66.6666666666667,4,1,0,100,0,1
74829,-67.5675675675676,4,1,0,100,0,1
75029,-69.4444444444444,4,1,0,100,0,1
75129,-70.4225352112676,4,1,0,100,0,1
75329,-72.463768115942,4,1,0,100,0,1
75429,-73.5294117647059,4,1,0,100,0,1
75629,-75.7575757575758,4,1,0,100,0,1
75729,-76.9230769230769,4,1,0,100,0,1
75898,-75.7575757575758,4,1,0,100,0,1
75948,-78.125,4,1,0,100,0,1
75998,-80.6451612903226,4,1,0,100,0,1
76229,-83.3333333333333,4,1,0,100,0,1
76329,-84.7457627118644,4,1,0,100,0,1
76529,-87.719298245614,4,1,0,100,0,1
76629,-89.2857142857143,4,1,0,100,0,1
76829,-92.5925925925926,4,1,0,100,0,1
76929,-94.3396226415094,4,1,0,100,0,1
77029,-96.1538461538461,4,1,0,100,0,1
77129,-98.0392156862745,4,1,0,100,0,1
77232,-74.0740740740741,4,1,0,70,0,0
77632,-58.8235294117647,4,1,0,100,0,1
77829,-66.6666666666667,4,1,0,100,0,1
77929,-67.5324675324675,4,1,0,100,0,1
78029,-68.4210526315789,4,1,0,100,0,1
78229,-70.2702702702703,4,1,0,100,0,1
78329,-71.2328767123288,4,1,0,100,0,1
78529,-73.2394366197183,4,1,0,100,0,1
78629,-74.2857142857143,4,1,0,100,0,1
78829,-76.4705882352941,4,1,0,100,0,1
78929,-77.6119402985075,4,1,0,100,0,1
79129,-80,4,1,0,100,0,1
79232,-75.187969924812,4,1,0,100,0,1
79298,-77.8937529210157,4,1,0,100,0,1
79365,-80.8472794890452,4,1,0,100,0,1
79432,-84.0336134453782,4,1,0,100,0,1
79529,-85.2459016393443,4,1,0,100,0,1
79729,-88.135593220339,4,1,0,100,0,1
79829,-89.6551724137931,4,1,0,100,0,1
80029,-92.8571428571429,4,1,0,100,0,1
80129,-94.5454545454545,4,1,0,100,0,1
80432,-76.9230769230769,4,1,0,100,0,0
80495,-74.6469401479489,4,1,0,100,0,0
80562,-72.4700761697497,4,1,0,100,0,0
80629,-70.4165785578346,4,1,0,100,0,0
80695,-68.504422958239,4,1,0,100,0,0
80762,-66.6666666666667,4,1,0,100,0,0
80832,-100,4,1,0,100,0,0
81132,-66.6666666666667,4,1,0,100,0,1
81229,-67.5675675675676,4,1,0,100,0,1
81429,-69.4444444444444,4,1,0,100,0,1
81529,-70.4225352112676,4,1,0,100,0,1
81729,-72.463768115942,4,1,0,100,0,1
81829,-73.5294117647059,4,1,0,100,0,1
82029,-75.7575757575758,4,1,0,100,0,1
82129,-76.9230769230769,4,1,0,100,0,1
82432,-80.6451612903226,4,1,0,80,0,0
82562,-83.3263894675444,4,1,0,80,0,0
82695,-86.1920358558869,4,1,0,80,0,0
82829,-89.2857142857143,4,1,0,80,0,0
82962,-92.5840199981483,4,1,0,80,0,0
83095,-96.1353585848875,4,1,0,80,0,0
83229,-100,4,1,0,80,0,0
83529,-94.1176470588235,4,1,0,80,0,0
83629,-88.8888888888889,4,1,0,80,0,0
83729,-84.2105263157895,4,1,0,80,0,0
83829,-80,4,1,0,80,0,0
83929,-76.1904761904762,4,1,0,80,0,0
84032,-58.8235294117647,4,1,0,100,0,1
84229,-66.6666666666667,4,1,0,100,0,1
84329,-67.4698795180723,4,1,0,100,0,1
84429,-68.2926829268293,4,1,0,100,0,1
84629,-70,4,1,0,100,0,1
84729,-70.8860759493671,4,1,0,100,0,1
84929,-72.7272727272727,4,1,0,100,0,1
85029,-73.6842105263158,4,1,0,100,0,1
85229,-75.6756756756757,4,1,0,100,0,1
85329,-76.7123287671233,4,1,0,100,0,1
85529,-78.8732394366197,4,1,0,100,0,1
85629,-80,4,1,0,100,0,1
85829,-82.3529411764706,4,1,0,100,0,1
85929,-83.5820895522388,4,1,0,100,0,1
86129,-86.1538461538462,4,1,0,100,0,1
86229,-87.5,4,1,0,100,0,1
86429,-90.3225806451613,4,1,0,100,0,1
86529,-91.8032786885246,4,1,0,100,0,1
86729,-94.9152542372881,4,1,0,100,0,1
86829,-96.551724137931,4,1,0,100,0,1
87029,-100,4,1,0,100,0,1
87132,-102.040816326531,4,1,0,100,0,1
87207,-100,4,1,0,100,0,1
87310,-102.040816326531,4,1,0,100,0,1
87407,-100,4,1,0,100,0,1
87510,-102.040816326531,4,1,0,100,0,1
87607,-100,4,1,0,100,0,1
87829,-96.2463907603465,4,1,0,100,0,1
87929,-94.4733112895607,4,1,0,100,0,1
88129,-91.1161731207289,4,1,0,100,0,1
88229,-89.5255147717099,4,1,0,100,0,1
88429,-86.5051903114187,4,1,0,100,0,1
88529,-85.0701829008932,4,1,0,100,0,1
88729,-82.3384108686702,4,1,0,100,0,1
88829,-81.0372771474878,4,1,0,100,0,1
89029,-78.5545954438335,4,1,0,100,0,1
89129,-77.3694390715667,4,1,0,100,0,1
89229,-76.219512195122,4,1,0,100,0,1
89329,-75.1032669921142,4,1,0,100,0,1
89429,-74.019245003701,4,1,0,100,0,1
89632,-71.9424460431655,4,1,0,100,0,0
89807,-77.3694390715667,4,1,0,100,0,0
89907,-80.4020100502513,4,1,0,100,0,0
90007,-83.6820083682009,4,1,0,100,0,0
90207,-91.1161731207289,4,1,0,100,0,0
90273,-93.8680684298219,4,1,0,100,0,0
90340,-96.837059542687,4,1,0,100,0,0
90407,-100,4,1,0,100,0,0
90529,-98.5324947589099,4,1,0,100,0,0
90579,-97.8147762747139,4,1,0,100,0,0
90629,-97.1074380165289,4,1,0,100,0,0
90729,-95.7230142566192,4,1,0,100,0,0
90829,-94.3775100401606,4,1,0,100,0,0
90879,-93.7188434695912,4,1,0,100,0,0
90929,-93.0693069306931,4,1,0,100,0,0
91029,-91.796875,4,1,0,100,0,0
91129,-90.5587668593449,4,1,0,100,0,0
91179,-89.9521531100478,4,1,0,100,0,0
91229,-89.3536121673004,4,1,0,100,0,0
91329,-88.1801125703565,4,1,0,100,0,0
91429,-87.037037037037,4,1,0,100,0,0
91479,-86.4765409383625,4,1,0,100,0,0
91529,-85.9232175502742,4,1,0,100,0,0
91629,-84.8375451263538,4,1,0,100,0,0
91729,-83.7789661319073,4,1,0,100,0,0
91829,-82.7464788732394,4,1,0,100,0,0
91929,-81.7391304347826,4,1,0,100,0,0
92029,-80.7560137457045,4,1,0,100,0,0
92129,-79.7962648556876,4,1,0,100,0,0
92179,-79.3248945147679,4,1,0,100,0,0
92229,-78.8590604026846,4,1,0,100,0,0
92329,-77.9436152570481,4,1,0,100,0,0
92429,-77.0491803278689,4,1,0,100,0,0
92479,-76.6096169519152,4,1,0,100,0,0
92529,-76.1750405186386,4,1,0,100,0,0
92629,-75.3205128205128,4,1,0,100,0,0
92729,-74.4849445324881,4,1,0,100,0,0
92779,-74.0740740740741,4,1,0,100,0,0
92829,-73.6677115987461,4,1,0,100,0,0
92929,-72.8682170542636,4,1,0,100,0,0
93029,-72.0858895705521,4,1,0,100,0,0
93079,-71.7009916094584,4,1,0,100,0,0
93129,-71.3201820940819,4,1,0,100,0,0
93229,-70.5705705705706,4,1,0,100,0,0
93329,-69.8365527488856,4,1,0,100,0,0
93429,-69.1176470588235,4,1,0,100,0,0
93529,-68.4133915574964,4,1,0,100,0,0
93629,-67.7233429394813,4,1,0,100,0,0
93679,-67.3835125448029,4,1,0,100,0,0
93729,-67.0470756062767,4,1,0,100,0,0
93779,-66.7139815471966,4,1,0,100,0,0
93829,-66.3841807909605,4,1,0,100,0,0
93879,-66.0576247364722,4,1,0,100,0,0
93929,-65.7342657342657,4,1,0,100,0,0
93979,-65.4140570633264,4,1,0,100,0,0
94029,-65.0969529085873,4,1,0,100,0,0
94079,-64.7829083390765,4,1,0,100,0,0
94129,-64.4718792866941,4,1,0,100,0,0
94229,-63.8586956521739,4,1,0,100,0,0
94329,-63.257065948856,4,1,0,100,0,0
94429,-62.6666666666667,4,1,0,100,0,0
94479,-62.3755806237558,4,1,0,100,0,0
94529,-62.0871862615588,4,1,0,100,0,0
94579,-61.801446416831,4,1,0,100,0,0
94629,-61.5183246073298,4,1,0,100,0,0
94679,-61.2377850162867,4,1,0,100,0,0
94729,-60.9597924773022,4,1,0,100,0,0
94779,-60.6843124596514,4,1,0,100,0,0
94829,-60.4113110539846,4,1,0,100,0,0
94879,-60.1407549584133,4,1,0,100,0,0
94929,-59.8726114649682,4,1,0,100,0,0
95029,-59.3434343434343,4,1,0,100,0,0
95129,-58.8235294117647,4,1,0,100,0,0
95233,-33.3333333333333,4,1,0,100,0,0
96832,-50,4,1,0,100,0,0
97029,-66.6666666666667,4,1,0,100,0,0
97079,-68.9655172413793,4,1,0,100,0,0
97129,-71.4285714285714,4,1,0,100,0,0
97179,-74.0740740740741,4,1,0,100,0,0
97229,-76.9230769230769,4,1,0,100,0,0
97429,-58.8235294117647,4,1,0,100,0,0
97529,-59.5854922279793,4,1,0,100,0,0
97629,-60.3674540682415,4,1,0,100,0,0
97729,-61.1702127659575,4,1,0,100,0,0
97832,-61.9946091644205,4,1,0,100,0,1
97929,-62.8415300546448,4,1,0,100,0,1
98029,-63.7119113573407,4,1,0,100,0,1
98129,-64.6067415730337,4,1,0,100,0,1
98232,-65.5270655270655,4,1,0,100,0,0
98329,-66.4739884393064,4,1,0,100,0,0
98429,-67.4486803519062,4,1,0,100,0,0
98529,-68.4523809523809,4,1,0,100,0,0
98632,-69.4864048338369,4,1,0,100,0,1
98729,-70.5521472392638,4,1,0,100,0,1
98829,-71.6510903426791,4,1,0,100,0,1
98929,-72.7848101265823,4,1,0,100,0,1
99032,-73.9549839228296,4,1,0,100,0,0
99129,-75.1633986928105,4,1,0,100,0,0
99229,-76.4119601328904,4,1,0,100,0,0
99329,-77.7027027027027,4,1,0,100,0,0
99429,-79.0378006872852,4,1,0,100,0,0
99529,-80.4195804195804,4,1,0,100,0,0
99632,-81.8505338078292,4,1,0,100,0,0
99732,-83.3333333333333,4,1,0,100,0,0
100032,-50,4,1,0,100,0,0
100204,-66.6666666666667,4,1,0,100,0,0
100254,-68.9655172413793,4,1,0,100,0,0
100304,-71.4285714285714,4,1,0,100,0,0
100354,-74.0740740740741,4,1,0,100,0,0
100404,-76.9230769230769,4,1,0,100,0,0
100604,-58.8235294117647,4,1,0,100,0,0
100704,-59.5854922279793,4,1,0,100,0,0
100804,-60.3674540682415,4,1,0,100,0,0
100904,-61.1702127659575,4,1,0,100,0,0
101032,-61.9946091644205,4,1,0,100,0,1
101104,-62.8415300546448,4,1,0,100,0,1
101204,-63.7119113573407,4,1,0,100,0,1
101332,-64.6067415730337,4,1,0,100,0,0
101404,-65.5270655270655,4,1,0,100,0,0
101504,-66.4739884393064,4,1,0,100,0,0
101604,-67.4486803519062,4,1,0,100,0,0
101704,-68.4523809523809,4,1,0,100,0,0
101832,-69.4864048338369,4,1,0,100,0,1
101904,-70.5521472392638,4,1,0,100,0,1
102004,-71.6510903426791,4,1,0,100,0,1
102104,-72.7848101265823,4,1,0,100,0,1
102232,-73.9549839228296,4,1,0,100,0,0
102304,-75.1633986928105,4,1,0,100,0,0
102429,-66.2251655629139,4,1,0,100,0,0
102529,-69.060773480663,4,1,0,100,0,0
102629,-72.1500721500721,4,1,0,100,0,0
102729,-75.5287009063444,4,1,0,100,0,0
102829,-79.2393026941363,4,1,0,100,0,0
102929,-83.3333333333333,4,1,0,100,0,0
103207,-50,4,1,0,100,0,0
103404,-66.6666666666667,4,1,0,100,0,0
103454,-68.9655172413793,4,1,0,100,0,0
103504,-71.4285714285714,4,1,0,100,0,0
103554,-74.0740740740741,4,1,0,100,0,0
103604,-76.9230769230769,4,1,0,100,0,0
103804,-58.8235294117647,4,1,0,100,0,0
103904,-59.5854922279793,4,1,0,100,0,0
104004,-60.3674540682415,4,1,0,100,0,0
104104,-61.1702127659575,4,1,0,100,0,0
104232,-61.9946091644205,4,1,0,100,0,1
104304,-62.8415300546448,4,1,0,100,0,1
104404,-63.7119113573407,4,1,0,100,0,1
104504,-64.6067415730337,4,1,0,100,0,1
104632,-65.5270655270655,4,1,0,100,0,0
104704,-66.4739884393064,4,1,0,100,0,0
104804,-67.4486803519062,4,1,0,100,0,0
104904,-68.4523809523809,4,1,0,100,0,0
105032,-69.4864048338369,4,1,0,100,0,1
105104,-70.5521472392638,4,1,0,100,0,1
105204,-71.6510903426791,4,1,0,100,0,1
105304,-72.7848101265823,4,1,0,100,0,1
105432,-73.9549839228296,4,1,0,100,0,0
105504,-75.1633986928105,4,1,0,100,0,0
105604,-76.4119601328904,4,1,0,100,0,0
105704,-77.7027027027027,4,1,0,100,0,0
105804,-79.0378006872852,4,1,0,100,0,0
105904,-80.4195804195804,4,1,0,100,0,0
106004,-81.8505338078292,4,1,0,100,0,0
106104,-83.3333333333333,4,1,0,100,0,0
106407,-50,4,1,0,100,0,0
106604,-66.6666666666667,4,1,0,100,0,0
106654,-68.9655172413793,4,1,0,100,0,0
106704,-71.4285714285714,4,1,0,100,0,0
106754,-74.0740740740741,4,1,0,100,0,0
106804,-76.9230769230769,4,1,0,100,0,0
107029,-58.8235294117647,4,1,0,100,0,0
107129,-59.7701149425287,4,1,0,100,0,0
107229,-60.7476635514019,4,1,0,100,0,0
107329,-61.7577197149644,4,1,0,100,0,0
107432,-62.8019323671498,4,1,0,100,0,1
107529,-63.8820638820639,4,1,0,100,0,1
107629,-65,4,1,0,100,0,1
107729,-66.1577608142494,4,1,0,100,0,1
107832,-67.3575129533679,4,1,0,100,0,0
107929,-68.6015831134565,4,1,0,100,0,0
108029,-69.8924731182796,4,1,0,100,0,0
108129,-71.2328767123288,4,1,0,100,0,0
108232,-72.6256983240224,4,1,0,100,0,1
108279,-73.3427362482369,4,1,0,100,0,1
108329,-74.0740740740741,4,1,0,100,0,1
108429,-75.5813953488372,4,1,0,100,0,1
108529,-77.1513353115727,4,1,0,100,0,1
108629,-78.7878787878788,4,1,0,100,0,1
108679,-79.6324655436447,4,1,0,100,0,1
108729,-80.4953560371517,4,1,0,100,0,1
108832,-82.2784810126582,4,1,0,80,0,0
108895,-83.499261352688,4,1,0,80,0,0
108962,-84.7761583357788,4,1,0,80,0,0
109029,-86.0927152317881,4,1,0,80,0,0
109095,-87.4302239558814,4,1,0,80,0,0
109162,-88.8311865796577,4,1,0,80,0,0
109229,-90.2777777777778,4,1,0,80,0,0
109362,-93.293623739639,4,1,0,70,0,0
109495,-96.517930061623,4,1,0,70,0,0
109629,-58.8235294117647,4,1,0,60,0,0
111182,-133.333333333333,4,1,0,60,0,0
112007,-76.9230769230769,4,1,0,80,0,0
112107,-81.2182741116751,4,1,0,80,0,0
112207,-86.0215053763441,4,1,0,80,0,0
112307,-91.4285714285714,4,1,0,80,0,0
112407,-97.5609756097561,4,1,0,80,0,0
112507,-104.575163398693,4,1,0,80,0,0
112607,-112.676056338028,4,1,0,80,0,0
112707,-122.137404580153,4,1,0,80,0,0
112807,-133.333333333333,4,1,0,60,0,0
115207,-66.6666666666667,4,1,0,80,0,0
115307,-71.1111111111111,4,1,0,80,0,0
115407,-76.1904761904762,4,1,0,80,0,0
115507,-82.0512820512821,4,1,0,80,0,0
115607,-88.8888888888889,4,1,0,80,0,0
115707,-96.969696969697,4,1,0,80,0,0
115807,-106.666666666667,4,1,0,80,0,0
115907,-118.518518518519,4,1,0,80,0,0
116007,-133.333333333333,4,1,0,60,0,0
118407,-58.8235294117647,4,1,0,80,0,0
118507,-63.2411067193676,4,1,0,80,0,0
118607,-68.3760683760684,4,1,0,80,0,0
118707,-74.4186046511628,4,1,0,80,0,0
118807,-81.6326530612245,4,1,0,80,0,0
118907,-90.3954802259887,4,1,0,80,0,0
119007,-101.26582278481,4,1,0,80,0,0
119107,-115.107913669065,4,1,0,80,0,0
119207,-133.333333333333,4,1,0,60,0,0
121629,-52.6315789473684,4,1,0,80,0,0
121729,-55.9440559440559,4,1,0,80,0,0
121829,-59.7014925373134,4,1,0,80,0,0
121929,-64,4,1,0,80,0,0
122029,-68.9655172413793,4,1,0,80,0,0
122129,-74.7663551401869,4,1,0,80,0,0
122229,-81.6326530612245,4,1,0,80,0,0
122329,-89.8876404494382,4,1,0,80,0,0
122429,-100,4,1,0,60,0,0
123329,-89.2857142857143,4,1,0,60,0,0
123529,-90.9090909090909,4,1,0,60,0,0
123729,-92.5925925925926,4,1,0,60,0,0
123929,-94.3396226415094,4,1,0,60,0,0
124032,-100,4,1,0,60,0,0
124882,-89.2857142857143,4,1,0,60,0,0
125082,-90.9090909090909,4,1,0,60,0,0
125282,-92.5925925925926,4,1,0,60,0,0
125482,-94.3396226415094,4,1,0,60,0,0
125585,-100,4,1,0,60,0,0
126832,-89.2857142857143,4,1,0,60,0,0
127032,-90.9090909090909,4,1,0,60,0,0
127232,-100,4,1,0,60,0,0
127829,-83.3333333333333,4,1,0,60,0,0
127929,-84.4277673545966,4,1,0,60,0,0
128029,-85.5513307984791,4,1,0,60,0,0
128129,-86.7052023121387,4,1,0,60,0,0
128329,-89.1089108910891,4,1,0,60,0,0
128529,-91.6496945010183,4,1,0,60,0,0
128729,-94.3396226415094,4,1,0,60,0,0
128785,-100,4,1,0,60,0,0
129682,-89.2857142857143,4,1,0,60,0,0
129882,-90.9090909090909,4,1,0,60,0,0
130082,-92.5925925925926,4,1,0,60,0,0
130282,-94.3396226415094,4,1,0,60,0,0
130385,-100,4,1,0,60,0,0
131282,-89.2857142857143,4,1,0,60,0,0
131482,-90.9090909090909,4,1,0,60,0,0
131682,-92.5925925925926,4,1,0,60,0,0
131882,-94.3396226415094,4,1,0,60,0,0
131985,-100,4,1,0,60,0,0
133182,-89.2857142857143,4,1,0,60,0,0
133382,-90.9090909090909,4,1,0,60,0,0
133582,-100,4,1,0,60,0,0
134182,-83.3333333333333,4,1,0,60,0,0
134282,-84.4277673545966,4,1,0,60,0,0
134382,-85.5513307984791,4,1,0,60,0,0
134482,-86.7052023121387,4,1,0,60,0,0
134682,-89.1089108910891,4,1,0,60,0,0
134882,-91.6496945010183,4,1,0,60,0,0
135082,-94.3396226415094,4,1,0,60,0,0
135182,-100,4,1,0,60,0,0
136082,-89.2857142857143,4,1,0,60,0,0
136282,-90.9090909090909,4,1,0,60,0,0
136482,-92.5925925925926,4,1,0,60,0,0
136682,-94.3396226415094,4,1,0,60,0,0
136785,-100,4,1,0,60,0,0
137682,-89.2857142857143,4,1,0,60,0,0
137882,-90.9090909090909,4,1,0,60,0,0
138082,-92.5925925925926,4,1,0,60,0,0
138282,-94.3396226415094,4,1,0,60,0,0
138385,-100,4,1,0,60,0,0
139582,-89.2857142857143,4,1,0,60,0,0
139782,-90.9090909090909,4,1,0,60,0,0
139982,-100,4,1,0,60,0,0
140582,-83.3333333333333,4,1,0,60,0,0
140682,-84.4277673545966,4,1,0,60,0,0
140782,-85.5513307984791,4,1,0,60,0,0
140882,-86.7052023121387,4,1,0,60,0,0
141082,-89.1089108910891,4,1,0,60,0,0
141282,-91.6496945010183,4,1,0,60,0,0
141482,-94.3396226415094,4,1,0,60,0,0
141585,-100,4,1,0,60,0,0
142482,-89.2857142857143,4,1,0,60,0,0
142682,-90.9090909090909,4,1,0,60,0,0
142882,-92.5925925925926,4,1,0,60,0,0
143082,-94.3396226415094,4,1,0,60,0,0
143185,-100,4,1,0,60,0,0
144082,-89.2857142857143,4,1,0,60,0,0
144282,-90.9090909090909,4,1,0,60,0,0
144482,-92.5925925925926,4,1,0,60,0,0
144682,-94.3396226415094,4,1,0,60,0,0
144785,-100,4,1,0,60,0,0
145382,-83.3333333333333,4,1,0,60,0,0
145482,-84.4277673545966,4,1,0,60,0,0
145582,-85.5513307984791,4,1,0,60,0,0
145682,-86.7052023121387,4,1,0,60,0,0
145882,-89.1089108910891,4,1,0,60,0,0
146082,-91.6496945010183,4,1,0,60,0,0
146282,-94.3396226415094,4,1,0,60,0,0
146385,-100,4,1,0,60,0,0
146982,-83.3333333333333,4,1,0,60,0,0
147082,-84.4277673545966,4,1,0,60,0,0
147182,-85.5513307984791,4,1,0,60,0,0
147282,-86.7052023121387,4,1,0,60,0,0
147482,-89.1089108910891,4,1,0,60,0,0
147682,-91.6496945010183,4,1,0,60,0,0
147929,-94.3396226415094,4,1,0,60,0,0
148029,-93.8009787928222,4,1,0,65,0,0
148129,-93.2684509326845,4,1,0,65,0,0
148229,-92.741935483871,4,1,0,65,0,0
148329,-92.2213311948677,4,1,0,65,0,0
148429,-91.7065390749601,4,1,0,65,0,0
148529,-91.197462331483,4,1,0,65,0,0
148629,-90.6940063091483,4,1,0,65,0,0
148729,-90.1960784313725,4,1,0,65,0,0
148829,-89.7035881435257,4,1,0,65,0,0
148929,-89.2164468580295,4,1,0,65,0,0
149029,-88.7345679012346,4,1,0,65,0,0
149129,-88.2578664620107,4,1,0,65,0,0
149229,-87.7862595419847,4,1,0,65,0,0
149329,-87.3196659073652,4,1,0,65,0,0
149429,-86.8580060422961,4,1,0,65,0,0
149529,-86.4012021036814,4,1,0,65,0,0
149629,-85.949177877429,4,1,0,65,0,0
149729,-85.5018587360595,4,1,0,65,0,0
149829,-85.0591715976331,4,1,0,65,0,0
149929,-84.6210448859456,4,1,0,65,0,0
150029,-84.1874084919473,4,1,0,65,0,0
150129,-83.7581937363438,4,1,0,65,0,0
150229,-71.4285714285714,4,1,0,70,0,0
150329,-72,4,1,0,70,0,0
150429,-72.5806451612903,4,1,0,70,0,0
150529,-73.1707317073171,4,1,0,70,0,0
150729,-74.3801652892562,4,1,0,70,0,0
150929,-75.6302521008403,4,1,0,70,0,0
151129,-76.9230769230769,4,1,0,70,0,0
151222,-55.5555555555556,4,1,0,70,0,0
151232,-55.5555555555556,4,1,0,70,0,0
151782,-76.9230769230769,4,1,0,70,0,0
151882,-78.5836239904348,4,1,0,70,0,0
151982,-80.2800174731105,4,1,0,70,0,0
152082,-82.0130311916818,4,1,0,70,0,0
152282,-85.5920985021826,4,1,0,70,0,0
152482,-89.3273571231003,4,1,0,70,0,0
152682,-93.2256232787005,4,1,0,70,0,0
152782,-103.092783505155,4,1,0,70,0,0
153382,-76.9230769230769,4,1,0,70,0,0
153482,-78.5836239904348,4,1,0,70,0,0
153582,-80.2800174731105,4,1,0,70,0,0
153682,-82.0130311916818,4,1,0,70,0,0
153882,-85.5920985021826,4,1,0,70,0,0
154082,-89.3273571231003,4,1,0,70,0,0
154282,-93.2256232787005,4,1,0,70,0,0
154382,-103.092783505155,4,1,0,70,0,0
156582,-76.9230769230769,4,1,0,70,0,0
156682,-78.5836239904348,4,1,0,70,0,0
156782,-80.2800174731105,4,1,0,70,0,0
156882,-82.0130311916818,4,1,0,70,0,0
157082,-85.5920985021826,4,1,0,70,0,0
157282,-89.3273571231003,4,1,0,70,0,0
157482,-93.2256232787005,4,1,0,70,0,0
157582,-103.092783505155,4,1,0,70,0,0
158182,-76.9230769230769,4,1,0,70,0,0
158282,-78.5836239904348,4,1,0,70,0,0
158382,-80.2800174731105,4,1,0,70,0,0
158482,-82.0130311916818,4,1,0,70,0,0
158682,-85.5920985021826,4,1,0,70,0,0
158882,-89.3273571231003,4,1,0,70,0,0
159082,-93.2256232787005,4,1,0,70,0,0
159182,-103.092783505155,4,1,0,70,0,0
159782,-76.9230769230769,4,1,0,70,0,0
159882,-78.5836239904348,4,1,0,70,0,0
159982,-80.2800174731105,4,1,0,70,0,0
160082,-82.0130311916818,4,1,0,70,0,0
160282,-85.5920985021826,4,1,0,70,0,0
160482,-89.3273571231003,4,1,0,70,0,0
160682,-93.2256232787005,4,1,0,70,0,0
160782,-103.092783505155,4,1,0,70,0,0
162982,-76.9230769230769,4,1,0,70,0,0
163082,-78.5836239904348,4,1,0,70,0,0
163182,-80.2800174731105,4,1,0,70,0,0
163282,-82.0130311916818,4,1,0,70,0,0
163482,-85.5920985021826,4,1,0,70,0,0
163682,-89.3273571231003,4,1,0,70,0,0
163882,-93.2256232787005,4,1,0,70,0,0
163982,-103.092783505155,4,1,0,70,0,0
164582,-76.9230769230769,4,1,0,70,0,0
164682,-78.5836239904348,4,1,0,70,0,0
164782,-80.2800174731105,4,1,0,70,0,0
164882,-82.0130311916818,4,1,0,70,0,0
165082,-85.5920985021826,4,1,0,70,0,0
165282,-89.3273571231003,4,1,0,70,0,0
165482,-93.2256232787005,4,1,0,70,0,0
165582,-103.092783505155,4,1,0,70,0,0
166182,-76.9230769230769,4,1,0,70,0,0
166282,-78.5836239904348,4,1,0,70,0,0
166382,-80.2800174731105,4,1,0,70,0,0
166482,-82.0130311916818,4,1,0,70,0,0
166682,-85.5920985021826,4,1,0,70,0,0
166882,-89.3273571231003,4,1,0,70,0,0
167082,-93.2256232787005,4,1,0,70,0,0
167182,-103.092783505155,4,1,0,70,0,0
169382,-76.9230769230769,4,1,0,70,0,0
169482,-78.5836239904348,4,1,0,70,0,0
169582,-80.2800174731105,4,1,0,70,0,0
169682,-82.0130311916818,4,1,0,70,0,0
169882,-85.5920985021826,4,1,0,70,0,0
170082,-89.3273571231003,4,1,0,70,0,0
170282,-93.2256232787005,4,1,0,70,0,0
170382,-103.092783505155,4,1,0,70,0,0
170982,-76.9230769230769,4,1,0,70,0,0
171082,-78.5836239904348,4,1,0,70,0,0
171182,-80.2800174731105,4,1,0,70,0,0
171282,-82.0130311916818,4,1,0,70,0,0
171482,-85.5920985021826,4,1,0,70,0,0
171682,-89.3273571231003,4,1,0,70,0,0
171882,-93.2256232787005,4,1,0,70,0,0
171982,-103.092783505155,4,1,0,70,0,0
172582,-76.9230769230769,4,1,0,70,0,0
172682,-78.5836239904348,4,1,0,70,0,0
172782,-80.2800174731105,4,1,0,70,0,0
172882,-82.0130311916818,4,1,0,70,0,0
173082,-85.5920985021826,4,1,0,70,0,0
173282,-89.3273571231003,4,1,0,70,0,0
173482,-93.2256232787005,4,1,0,70,0,0
173582,-103.092783505155,4,1,0,70,0,0
174182,-76.9230769230769,4,1,0,70,0,0
174282,-78.5836239904348,4,1,0,70,0,0
174382,-80.2800174731105,4,1,0,70,0,0
174482,-82.0130311916818,4,1,0,70,0,0
174682,-85.5920985021826,4,1,0,70,0,0
174882,-89.3273571231003,4,1,0,70,0,0
175082,-93.2256232787005,4,1,0,70,0,0
175182,-103.092783505155,4,1,0,70,0,0
175782,-76.9230769230769,4,1,0,70,0,0
175882,-78.5836239904348,4,1,0,70,0,0
175982,-80.2800174731105,4,1,0,70,0,0
176082,-82.0130311916818,4,1,0,70,0,0
176282,-85.5920985021826,4,1,0,70,0,0
176482,-89.3273571231003,4,1,0,70,0,0
176682,-93.2256232787005,4,1,0,70,0,0
176782,-103.092783505155,4,1,0,70,0,0
177424,-95.2380952380952,4,1,0,70,0,0
178024,-90.9090909090909,4,1,0,70,0,0
178424,-76.9230769230769,4,1,0,40,0,0
179007,-108.695652173913,4,1,0,70,0,0
179131,-107.195563241107,4,1,0,70,0,0
179331,-104.257207028537,4,1,0,70,0,0
179431,-102.818372270193,4,1,0,70,0,0
179631,-100,4,1,0,70,0,0
180007,-55.5555555555556,4,1,0,80,0,0
180224,-78.8609264198583,4,1,0,80,0,0
180274,-78.5787012595213,4,1,0,80,0,0
180324,-78.2974861182741,4,1,0,80,0,0
180424,-77.7380714474789,4,1,0,80,0,0
180524,-77.1826536454136,4,1,0,80,0,0
180624,-76.6312041555165,4,1,0,80,0,0
180724,-76.0836946252547,4,1,0,80,0,0
180824,-75.5400969046666,4,1,0,80,0,0
180924,-75.0003830449147,4,1,0,80,0,0
181024,-74.4645252968485,4,1,0,80,0,0
181074,-74.1980338473385,4,1,0,80,0,0
181124,-73.9324961095776,4,1,0,80,0,0
181224,-73.4042681290556,4,1,0,80,0,0
181324,-72.8798141966733,4,1,0,80,0,0
181424,-72.3591073478625,4,1,0,80,0,0
181524,-71.84212081071,4,1,0,80,0,0
181624,-71.3288280045802,4,1,0,80,0,0
181724,-70.8192025387496,4,1,0,80,0,0
181824,-70.3132182110491,4,1,0,80,0,0
181874,-70.061583337046,4,1,0,80,0,0
181924,-69.8108490065172,4,1,0,80,0,0
182024,-69.3120690960623,4,1,0,80,0,0
182124,-68.8168528351349,4,1,0,80,0,0
182224,-68.3251747624089,4,1,0,80,0,0
182324,-67.8370095984724,4,1,0,80,0,0
182424,-67.3523322445286,4,1,0,80,0,0
182524,-66.8711177811045,4,1,0,80,0,0
182624,-66.3933414667702,4,1,0,80,0,0
182674,-66.1557349321854,4,1,0,80,0,0
182724,-65.918978736867,4,1,0,80,0,0
182824,-65.4480052022437,4,1,0,80,0,0
182890,-65.1390075018473,4,1,0,80,0,0
182957,-64.8268201674462,4,1,0,80,0,0
183024,-64.5161290322581,4,1,0,80,0,0
183224,-80,4,1,0,80,0,0
183324,-79.4284213212668,4,1,0,80,0,0
183424,-78.8609264198583,4,1,0,80,0,0
183474,-78.5787012595213,4,1,0,80,0,0
183524,-78.2974861182741,4,1,0,80,0,0
183624,-77.7380714474789,4,1,0,80,0,0
183724,-77.1826536454136,4,1,0,80,0,0
183824,-76.6312041555165,4,1,0,80,0,0
183924,-76.0836946252547,4,1,0,80,0,0
184024,-75.5400969046666,4,1,0,80,0,0
184124,-75.0003830449147,4,1,0,80,0,0
184224,-74.4645252968485,4,1,0,80,0,0
184274,-74.1980338473385,4,1,0,80,0,0
184324,-73.9324961095776,4,1,0,80,0,0
184424,-73.4042681290556,4,1,0,80,0,0
184524,-72.8798141966733,4,1,0,80,0,0
184624,-72.3591073478625,4,1,0,80,0,0
184724,-71.84212081071,4,1,0,80,0,0
184824,-71.3288280045802,4,1,0,80,0,0
184924,-70.8192025387496,4,1,0,80,0,0
185024,-70.3132182110491,4,1,0,80,0,0
185074,-70.061583337046,4,1,0,80,0,0
185124,-69.8108490065172,4,1,0,80,0,0
185224,-69.3120690960623,4,1,0,80,0,0
185324,-68.8168528351349,4,1,0,80,0,0
185424,-68.3251747624089,4,1,0,80,0,0
185524,-67.8370095984724,4,1,0,80,0,0
185624,-67.3523322445286,4,1,0,80,0,0
185831,-86.9565217391304,4,1,0,80,0,0
185931,-89.0058324450561,4,1,0,80,0,0
186031,-91.1034394062302,4,1,0,80,0,0
186224,-95.4481217239136,4,1,0,80,0,0
186297,-96.9268611685508,4,1,0,80,0,0
186364,-98.4514404001033,4,1,0,80,0,0
186431,-55.5555555555556,4,1,0,80,0,0
186624,-97.4976833034581,4,1,0,80,0,0
186724,-96.2701047719568,4,1,0,80,0,0
186824,-95.0579824954141,4,1,0,80,0,0
186890,-94.266354103949,4,1,0,80,0,0
186957,-93.4694742069623,4,1,0,80,0,0
187024,-92.6793307280354,4,1,0,80,0,0
187124,-91.5124193424435,4,1,0,80,0,0
187190,-90.7503178605755,4,1,0,80,0,0
187257,-89.9831607488398,4,1,0,80,0,0
187324,-89.2224887938281,4,1,0,80,0,0
187424,-88.0991019803228,4,1,0,80,0,0
187490,-87.3654260852599,4,1,0,80,0,0
187557,-86.6268831300264,4,1,0,80,0,0
187624,-85.8945834419657,4,1,0,80,0,0
187724,-84.8130977796099,4,1,0,80,0,0
187790,-84.1067872267462,4,1,0,80,0,0
187857,-83.3957911499569,4,1,0,80,0,0
187924,-82.6908054730163,4,1,0,80,0,0
188024,-81.6496580927726,4,1,0,80,0,0
188090,-80.9696921835153,4,1,0,80,0,0
188157,-80.2852155154659,4,1,0,80,0,0
188224,-79.6065250656478,4,1,0,80,0,0
188324,-78.6042113918567,4,1,0,80,0,0
188390,-77.9496074986012,4,1,0,80,0,0
188457,-77.2906610931303,4,1,0,80,0,0
188524,-76.6372850860132,4,1,0,80,0,0
188624,-75.6723566621109,4,1,0,80,0,0
188690,-75.0421688082324,4,1,0,80,0,0
188757,-74.4078004132946,4,1,0,80,0,0
188824,-73.7787946466881,4,1,0,80,0,0
188924,-72.849857042023,4,1,0,80,0,0
188990,-72.2431745348341,4,1,0,80,0,0
189057,-71.6324674163872,4,1,0,80,0,0
189124,-71.0269229058535,4,1,0,80,0,0
189224,-70.1326337005763,4,1,0,80,0,0
189324,-69.2496043549404,4,1,0,80,0,0
189424,-68.3776930977622,4,1,0,80,0,0
189490,-67.808254090347,4,1,0,80,0,0
189557,-67.2350375376544,4,1,0,80,0,0
189624,-66.6666666666667,4,1,0,80,0,0
189824,-58.8235294117647,4,1,0,80,0,0
189890,-59.9102778233553,4,1,0,80,0,0
189957,-61.0340300118963,4,1,0,80,0,0
190024,-62.1788607036112,4,1,0,80,0,0
190124,-63.9276295593108,4,1,0,80,0,0
190224,-65.7255822127844,4,1,0,80,0,0
190324,-67.5741019491675,4,1,0,80,0,0
190424,-69.4746109582319,4,1,0,80,0,0
190524,-71.4285714285714,4,1,0,80,0,0
190624,-58.8235294117647,4,1,0,80,0,0
190690,-59.9102778233553,4,1,0,80,0,0
190757,-61.0340300118963,4,1,0,80,0,0
190824,-62.1788607036112,4,1,0,80,0,0
190924,-63.9276295593108,4,1,0,80,0,0
191024,-65.7255822127844,4,1,0,80,0,0
191124,-67.5741019491675,4,1,0,80,0,0
191231,-58.8235294117647,4,1,0,80,0,0
191331,-57.8962466906212,4,1,0,80,0,0
191431,-56.9835814746415,4,1,0,80,0,0
191531,-56.0853033363062,4,1,0,80,0,0
191631,-55.2011854805107,4,1,0,80,0,0
191731,-54.3310046873045,4,1,0,80,0,0
191831,-53.4745412555331,4,1,0,80,0,0
191931,-52.6315789473684,4,1,0,80,0,0
192031,-43.4782608695652,4,1,0,80,0,0
192164,-40.5469418613766,4,1,0,80,0,0
192297,-37.8132533691267,4,1,0,80,0,0
192431,-35.2453688425121,4,1,0,80,0,0
192564,-32.8691141908226,4,1,0,80,0,0
192697,-30.6530674289954,4,1,0,80,0,0
192824,-28.5714285714286,4,1,0,80,0,0
192857,-117.647058823529,4,1,0,30,0,0
193624,-108.258720348799,4,1,0,40,0,0
193724,-107.139130175199,4,1,0,42,0,0
193924,-104.934565821935,4,1,0,46,0,0
194124,-102.775364017159,4,1,0,50,0,0
194224,-101.712481625135,4,1,0,52,0,0
194324,-100.660591351603,4,1,0,54,0,0
194424,-99.6195795182563,4,1,0,56,0,0
194524,-98.5893336224294,4,1,0,58,0,0
194724,-96.5606954380358,4,1,0,62,0,0
194924,-94.5737998309776,4,1,0,66,0,0
195024,-93.5957363860224,4,1,0,68,0,0
195124,-92.6277878788625,4,1,0,70,0,0
195224,-91.6698497028211,4,1,0,72,0,0
195324,-90.7218183330432,4,1,0,74,0,0
195524,-88.8550672549513,4,1,0,78,0,0
195724,-87.0267276599137,4,1,0,72,0,0
195824,-86.126714535662,4,1,0,74,0,0
195924,-85.2360091682983,4,1,0,76,0,0
196024,-84.3545152988506,4,1,0,78,0,0
196124,-83.4821376638378,4,1,0,80,0,0
196324,-81.7643549589841,4,1,0,84,0,0
196524,-80.0832866180828,4,1,0,88,0,0
196624,-78.2986808858105,4,1,0,90,0,0
196690,-77.1426818961556,4,1,0,90,0,0
196757,-75.9866234408765,4,1,0,90,0,0
196824,-74.8478896509989,4,1,0,90,0,0
196890,-73.7428380226,4,1,0,90,0,0
196957,-72.6377295493547,4,1,0,90,0,0
197024,-71.549182206253,4,1,0,90,0,0
197090,-70.4928325793456,4,1,0,90,0,0
197157,-69.4364286128666,4,1,0,90,0,0
197224,-68.3958558919137,4,1,0,90,0,0
197290,-67.3860618645668,4,1,0,90,0,0
197357,-66.37621589251,4,1,0,90,0,0
197424,-65.3815034489465,4,1,0,90,0,0
197524,-63.9245177186278,4,1,0,90,0,0
197631,-40,4,1,0,90,0,0
198407,-100,4,1,0,70,0,0
198524,-98.0232008697597,4,1,0,70,0,0
198724,-94.1860621726429,4,1,0,70,0,0
198924,-90.4991290722652,4,1,0,70,0,0
199124,-86.9565217391304,4,1,0,70,0,0
199224,-52.6315789473684,4,1,0,100,0,0
199232,-52.6315789473684,4,1,0,100,0,1
199424,-63.2361244361419,4,1,0,100,0,1
199524,-63.6074315751016,4,1,0,100,0,1
199624,-63.9809189392517,4,1,0,100,0,1
199824,-64.7344856252996,4,1,0,100,0,1
199924,-65.1145907766491,4,1,0,100,0,1
200024,-65.4969278129774,4,1,0,100,0,1
200124,-65.8815098393703,4,1,0,100,0,1
200324,-66.6574616678933,4,1,0,100,0,1
200424,-67.048858066754,4,1,0,100,0,1
200524,-67.4425526500522,4,1,0,100,0,1
200724,-68.2368904267161,4,1,0,100,0,1
200824,-68.6375608470141,4,1,0,100,0,1
201024,-69.4459734194407,4,1,0,100,0,1
201124,-69.8537432809331,4,1,0,100,0,1
201224,-70.2639074678521,4,1,0,100,0,1
201424,-71.0914751361066,4,1,0,100,0,1
201524,-71.5089069833708,4,1,0,100,0,1
201624,-71.9287898888916,4,1,0,100,0,1
201724,-72.3511382446869,4,1,0,100,0,1
201924,-73.2032892982005,4,1,0,100,0,1
202024,-73.6331212044742,4,1,0,100,0,1
202124,-74.0654769791345,4,1,0,100,0,1
202324,-74.9378194987961,4,1,0,100,0,1
202424,-75.3806723955978,4,1,0,100,0,1
202624,-72.3487457915135,4,1,0,100,0,1
202674,-71.6100136813493,4,1,0,100,0,1
202724,-70.8788245510201,4,1,0,100,0,1
202774,-70.1551013813411,4,1,0,100,0,1
202824,-69.4387679395485,4,1,0,100,0,1
202924,-68.0279691925713,4,1,0,100,0,1
203024,-66.6458338732951,4,1,0,100,0,1
203074,-65.9653325466688,4,1,0,100,0,1
203124,-65.2917796221951,4,1,0,100,0,1
203174,-64.6251041517499,4,1,0,100,0,1
203224,-63.96523591164,4,1,0,100,0,1
203324,-62.6656438055013,4,1,0,100,0,1
203424,-61.3924557236464,4,1,0,100,0,1
203474,-60.7655951213137,4,1,0,100,0,1
203524,-60.1451352112178,4,1,0,100,0,1
203574,-59.5310106377424,4,1,0,100,0,1
203624,-58.9231567125983,4,1,0,100,0,1
203724,-57.7260053499699,4,1,0,100,0,1
203824,-56.5531767063708,4,1,0,100,0,1
203874,-55.9757285819047,4,1,0,100,0,1
203924,-55.4041766131609,4,1,0,100,0,1
203974,-54.8384605961992,4,1,0,100,0,1
204032,-82.7820477338357,4,1,0,100,0,1
204033,-54.2785209418046,4,1,0,100,0,1
204124,-53.1757353998846,4,1,0,100,0,1
204224,-52.0953553312599,4,1,0,100,0,1
204274,-51.5634247310458,4,1,0,100,0,1
204324,-51.0369255202838,4,1,0,100,0,1
204374,-50.5158022406275,4,1,0,100,0,1
204424,-50,4,1,0,100,0,1
204624,-85.74123295893,4,1,0,100,0,1
204724,-86.2429867753694,4,1,0,100,0,1
204824,-86.7493846130047,4,1,0,100,0,1
204924,-87.2587558955489,4,1,0,100,0,1
205124,-88.2864887352618,4,1,0,100,0,1
205224,-88.8048855192738,4,1,0,100,0,1
205324,-89.3263262030889,4,1,0,100,0,1
205524,-90.378410867231,4,1,0,100,0,1
205624,-52.6315789473684,4,1,0,100,0,1
205824,-63.2361244361419,4,1,0,100,0,1
205924,-63.6074315751016,4,1,0,100,0,1
206024,-63.9809189392517,4,1,0,100,0,1
206224,-64.7344856252996,4,1,0,100,0,1
206324,-65.1145907766491,4,1,0,100,0,1
206424,-65.4969278129774,4,1,0,100,0,1
206524,-65.8815098393703,4,1,0,100,0,1
206724,-66.6574616678933,4,1,0,100,0,1
206824,-67.048858066754,4,1,0,100,0,1
206924,-67.4425526500522,4,1,0,100,0,1
207124,-68.2368904267161,4,1,0,100,0,1
207224,-68.6375608470141,4,1,0,100,0,1
207424,-69.4459734194407,4,1,0,100,0,1
207524,-69.8537432809331,4,1,0,100,0,1
207624,-70.2639074678521,4,1,0,100,0,1
207824,-71.0914751361066,4,1,0,100,0,1
207924,-71.5089069833708,4,1,0,100,0,1
208024,-71.9287898888916,4,1,0,100,0,1
208124,-72.3511382446869,4,1,0,100,0,1
208324,-73.2032892982005,4,1,0,100,0,1
208424,-73.6331212044742,4,1,0,100,0,1
208524,-74.0654769791345,4,1,0,100,0,1
208724,-74.9378194987961,4,1,0,100,0,1
208824,-75.3806723955978,4,1,0,100,0,1
209024,-72.3487457915135,4,1,0,100,0,1
209074,-71.6100136813493,4,1,0,100,0,1
209124,-70.8788245510201,4,1,0,100,0,1
209174,-70.1551013813411,4,1,0,100,0,1
209224,-69.4387679395485,4,1,0,100,0,1
209324,-68.0279691925713,4,1,0,100,0,1
209424,-66.6458338732951,4,1,0,100,0,1
209474,-65.9653325466688,4,1,0,100,0,1
209524,-65.2917796221951,4,1,0,100,0,1
209574,-64.6251041517499,4,1,0,100,0,1
209624,-63.96523591164,4,1,0,100,0,1
209724,-62.6656438055013,4,1,0,100,0,1
209824,-61.3924557236464,4,1,0,100,0,1
209874,-60.7655951213137,4,1,0,100,0,1
209924,-60.1451352112178,4,1,0,100,0,1
209974,-59.5310106377424,4,1,0,100,0,1
210024,-58.9231567125983,4,1,0,100,0,1
210124,-57.7260053499699,4,1,0,100,0,1
210224,-56.5531767063708,4,1,0,100,0,1
210274,-55.9757285819047,4,1,0,100,0,1
210324,-55.4041766131609,4,1,0,100,0,1
210374,-54.8384605961992,4,1,0,100,0,1
210432,-82.7820477338357,4,1,0,100,0,1
210433,-54.2785209418046,4,1,0,100,0,1
210524,-53.1757353998846,4,1,0,100,0,1
210624,-52.0953553312599,4,1,0,100,0,1
210674,-51.5634247310458,4,1,0,100,0,1
210724,-51.0369255202838,4,1,0,100,0,1
210774,-50.5158022406275,4,1,0,100,0,1
210824,-50,4,1,0,100,0,1
211024,-85.74123295893,4,1,0,100,0,1
211124,-86.2429867753694,4,1,0,100,0,1
211224,-86.7493846130047,4,1,0,100,0,1
211324,-87.2587558955489,4,1,0,100,0,1
211524,-88.2864887352618,4,1,0,100,0,1
211624,-88.8048855192738,4,1,0,100,0,1
211724,-89.3263262030889,4,1,0,100,0,1
211924,-90.378410867231,4,1,0,100,0,1
212024,-52.6315789473684,4,1,0,100,0,1
212224,-63.2361244361419,4,1,0,100,0,1
212324,-63.6074315751016,4,1,0,100,0,1
212424,-63.9809189392517,4,1,0,100,0,1
212624,-64.7344856252996,4,1,0,100,0,1
212724,-65.1145907766491,4,1,0,100,0,1
212824,-65.4969278129774,4,1,0,100,0,1
212924,-65.8815098393703,4,1,0,100,0,1
213124,-66.6574616678933,4,1,0,100,0,1
213224,-67.048858066754,4,1,0,100,0,1
213324,-67.4425526500522,4,1,0,100,0,1
213524,-68.2368904267161,4,1,0,100,0,1
213624,-68.6388907955247,4,1,0,100,0,1
213724,-69.0404927457656,4,1,0,100,0,1
213824,-69.4444444444444,4,1,0,100,0,1
213924,-69.8537432809331,4,1,0,100,0,1
214024,-70.2639074678521,4,1,0,100,0,1
214224,-71.0914751361066,4,1,0,100,0,1
214324,-71.5089069833708,4,1,0,100,0,1
214424,-71.9287898888916,4,1,0,100,0,1
214524,-72.3511382446869,4,1,0,100,0,1
214724,-73.2032892982005,4,1,0,100,0,1
214824,-73.6331212044742,4,1,0,100,0,1
214924,-74.0654769791345,4,1,0,100,0,1
215124,-74.9378194987961,4,1,0,100,0,1
215224,-75.3806723955978,4,1,0,100,0,1
215424,-72.3487457915135,4,1,0,100,0,1
215474,-71.6100136813493,4,1,0,100,0,1
215524,-70.8788245510201,4,1,0,100,0,1
215574,-70.1551013813411,4,1,0,100,0,1
215624,-69.4387679395485,4,1,0,100,0,1
215724,-68.0279691925713,4,1,0,100,0,1
215824,-66.6458338732951,4,1,0,100,0,1
215874,-65.9653325466688,4,1,0,100,0,1
215924,-65.2917796221951,4,1,0,100,0,1
215974,-64.6251041517499,4,1,0,100,0,1
216024,-63.96523591164,4,1,0,100,0,1
216124,-62.6656438055013,4,1,0,100,0,1
216224,-61.3924557236464,4,1,0,100,0,1
216274,-60.7655951213137,4,1,0,100,0,1
216324,-60.1451352112178,4,1,0,100,0,1
216374,-59.5310106377424,4,1,0,100,0,1
216424,-58.9231567125983,4,1,0,100,0,1
216524,-57.7260053499699,4,1,0,100,0,1
216624,-56.5531767063708,4,1,0,100,0,1
216674,-55.9757285819047,4,1,0,100,0,1
216724,-55.4041766131609,4,1,0,100,0,1
216774,-54.8384605961992,4,1,0,100,0,1
216824,-82.7820477338357,4,1,0,100,0,1
216833,-54.2785209418046,4,1,0,100,0,1
216924,-53.1757353998846,4,1,0,100,0,1
217024,-52.0953553312599,4,1,0,100,0,1
217074,-51.5634247310458,4,1,0,100,0,1
217124,-51.0369255202838,4,1,0,100,0,1
217174,-50.5158022406275,4,1,0,100,0,1
217224,-50,4,1,0,100,0,1
217424,-85.74123295893,4,1,0,100,0,1
217524,-86.2429867753694,4,1,0,100,0,1
217624,-86.7493846130047,4,1,0,100,0,1
217724,-87.2587558955489,4,1,0,100,0,1
217924,-88.2864887352618,4,1,0,100,0,1
218024,-88.8048855192738,4,1,0,100,0,1
218124,-89.3263262030889,4,1,0,100,0,1
218324,-90.378410867231,4,1,0,100,0,1
218424,-62.5,4,1,0,100,0,1
218724,-58.925565098879,4,1,0,100,0,1
219024,-55.5555555555556,4,1,0,100,0,1
219225,-76.9230769230769,4,1,0,100,0,1
219232,-76.9230769230769,4,1,0,100,0,0
219324,-78.1106410724787,4,1,0,100,0,0
219524,-80.5410544536296,4,1,0,100,0,0
219624,-81.7844741483436,4,1,0,100,0,0
219690,-82.615628590898,4,1,0,100,0,0
219757,-83.4680164748588,4,1,0,100,0,0
219824,-84.3291988825329,4,1,0,100,0,0
220024,-62.5,4,1,0,100,0,0
220032,-62.5,4,1,0,100,0,1
220324,-58.925565098879,4,1,0,100,0,1
220624,-55.5555555555556,4,1,0,100,0,1
220819,-76.9230769230769,4,1,0,100,0,1
220832,-76.9230769230769,4,1,0,100,0,0
220931,-78.1110249786376,4,1,0,100,0,0
221131,-80.5422420136748,4,1,0,100,0,0
221331,-83.0491310332119,4,1,0,100,0,0
221531,-85.6311012159616,4,1,0,100,0,0
221631,-83.7603650431337,4,1,0,100,0,0
221731,-81.9304978277131,4,1,0,100,0,0
221831,-80.1406067277779,4,1,0,100,0,0
221931,-78.3898184068392,4,1,0,100,0,0
222031,-76.6772786077159,4,1,0,100,0,0
222131,-75.00215173572,4,1,0,100,0,0
222231,-73.3636204509468,4,1,0,100,0,0
222331,-71.7608852694726,4,1,0,100,0,0
222431,-70.193164173265,4,1,0,100,0,0
222531,-68.6596922286148,4,1,0,100,0,0
222631,-67.1597212129045,4,1,0,100,0,0
222731,-65.6925192495296,4,1,0,100,0,0
222831,-64.2573704507964,4,1,0,100,0,0
222931,-62.853574568621,4,1,0,100,0,0
223031,-61.4804466528593,4,1,0,100,0,0
223131,-60.1373167171009,4,1,0,100,0,0
223231,-58.8235294117647,4,1,0,100,0,0
223431,-45.4545454545455,4,1,0,100,0,0
223731,-48.5990049999368,4,1,0,100,0,0
224031,-51.9609923136453,4,1,0,100,0,0
224331,-55.5555555555556,4,1,0,100,0,0
224807,-100,4,1,0,70,0,0
225024,-95.7214880303362,4,1,0,74,0,0
225124,-93.651375820488,4,1,0,76,0,0
225224,-91.6260327074179,4,1,0,78,0,0
225324,-89.6444904962536,4,1,0,80,0,0
225424,-87.7058019307029,4,1,0,82,0,0
225524,-85.8090402402272,4,1,0,84,0,0
225624,-83.9532986970081,4,1,0,86,0,0
225824,-80.361346763329,4,1,0,90,0,0
226024,-55.5555555555556,4,1,0,100,0,0
226032,-55.5555555555556,4,1,0,100,0,1
226424,-81.0672270816756,4,1,0,100,0,1
226624,-83.2222883572714,4,1,0,100,0,1
226824,-85.4346389872556,4,1,0,100,0,1
227224,-55.5555555555556,4,1,0,100,0,1
227724,-96.140969466434,4,1,0,100,0,1
228024,-100,4,1,0,100,0,1
228224,-95.4087051328672,4,1,0,100,0,1
228274,-94.2942047540283,4,1,0,100,0,1
228324,-93.1927232196722,4,1,0,100,0,1
228374,-92.1041084524064,4,1,0,100,0,1
228424,-91.028210151304,4,1,0,100,0,1
228524,-88.9139705019461,4,1,0,100,0,1
228624,-86.8488366109843,4,1,0,100,0,1
228674,-85.8343268639978,4,1,0,100,0,1
228724,-84.8316679381263,4,1,0,100,0,1
228774,-83.8407214000414,4,1,0,100,0,1
228824,-82.8613504334997,4,1,0,100,0,1
228924,-80.93679592238,4,1,0,100,0,1
229024,-79.0569415042095,4,1,0,100,0,1
229074,-78.1334514397171,4,1,0,100,0,1
229124,-77.220748965574,4,1,0,100,0,1
229174,-76.318708068399,4,1,0,100,0,1
229224,-75.4272042068145,4,1,0,100,0,1
229324,-73.6753166819561,4,1,0,100,0,1
229424,-71.9641188516453,4,1,0,100,0,1
229474,-71.1234823750128,4,1,0,100,0,1
229524,-70.2926656487936,4,1,0,100,0,1
229574,-69.4715539652625,4,1,0,100,0,1
229624,-90.9090909090909,4,1,0,100,0,1
229633,-68.6600339566323,4,1,0,100,0,1
229724,-67.0653220988898,4,1,0,100,0,1
229824,-65.5076493418099,4,1,0,100,0,1
229874,-64.7424330032523,4,1,0,100,0,1
229924,-63.9861554077374,4,1,0,100,0,1
229974,-63.2387121388757,4,1,0,100,0,1
230024,-62.5,4,1,0,100,0,1
230224,-87.8631678952874,4,1,0,100,0,1
230232,-87.8631678952874,4,1,0,100,0,0
230324,-87.3479313099039,4,1,0,100,0,0
230424,-86.835716112723,4,1,0,100,0,0
230524,-86.3265045860846,4,1,0,100,0,0
230624,-85.8202791162264,4,1,0,100,0,0
230724,-85.3170221926746,4,1,0,100,0,0
230824,-84.8167164076382,4,1,0,100,0,0
231024,-83.8248891317523,4,1,0,100,0,0
231124,-83.3333333333333,4,1,0,100,0,0
231224,-52.6315789473684,4,1,0,100,0,0
231232,-52.6315789473684,4,1,0,100,0,1
231424,-63.2361244361419,4,1,0,100,0,1
231524,-63.6074315751016,4,1,0,100,0,1
231624,-63.9809189392517,4,1,0,100,0,1
231824,-64.7344856252996,4,1,0,100,0,1
231924,-65.1145907766491,4,1,0,100,0,1
232024,-65.4969278129774,4,1,0,100,0,1
232124,-65.8815098393703,4,1,0,100,0,1
232324,-66.6574616678933,4,1,0,100,0,1
232424,-67.048858066754,4,1,0,100,0,1
232524,-67.4425526500522,4,1,0,100,0,1
232724,-68.2368904267161,4,1,0,100,0,1
232824,-68.6388907955247,4,1,0,100,0,1
232924,-69.0404927457656,4,1,0,100,0,1
233024,-69.4444444444444,4,1,0,100,0,1
233124,-69.8537432809331,4,1,0,100,0,1
233224,-70.2639074678521,4,1,0,100,0,1
233424,-71.0914751361066,4,1,0,100,0,1
233524,-71.5089069833708,4,1,0,100,0,1
233624,-71.9287898888916,4,1,0,100,0,1
233724,-72.3536647131177,4,1,0,100,0,1
233824,-72.7773837037617,4,1,0,100,0,1
234024,-73.6322803917237,4,1,0,100,0,1
234124,-74.0654769791345,4,1,0,100,0,1
234224,-55.5555555555556,4,1,0,100,0,1
234424,-75.3806723955978,4,1,0,100,0,1
234531,-73.9213699579802,4,1,0,100,0,1
234581,-73.2023472181695,4,1,0,100,0,1
234624,-72.490318311139,4,1,0,100,0,1
234674,-71.7852152088636,4,1,0,100,0,1
234724,-71.0869705450173,4,1,0,100,0,1
234824,-69.7107903372475,4,1,0,100,0,1
234881,-69.0327233115533,4,1,0,100,0,1
234924,-68.3612517481843,4,1,0,100,0,1
234981,-67.6963114940087,4,1,0,100,0,1
235024,-67.0378390199033,4,1,0,100,0,1
235124,-65.7400463790927,4,1,0,100,0,1
235174,-65.100602219851,4,1,0,100,0,1
235224,-64.4673778437599,4,1,0,100,0,1
235281,-63.840312751866,4,1,0,100,0,1
235324,-63.2193470336805,4,1,0,100,0,1
235431,-61.9954769845161,4,1,0,100,0,1
235481,-61.3924557236464,4,1,0,100,0,1
235531,-60.7952999655319,4,1,0,100,0,1
235581,-60.2039526572546,4,1,0,100,0,1
235631,-59.618357300842,4,1,0,100,0,1
235731,-58.4641991941155,4,1,0,100,0,1
235781,-57.8955261742664,4,1,0,100,0,1
235831,-57.3323845566765,4,1,0,100,0,1
235881,-56.7747205381761,4,1,0,100,0,1
235931,-56.2224808389315,4,1,0,100,0,1
236031,-55.1340638650607,4,1,0,100,0,1
236081,-54.5977826018795,4,1,0,100,0,1
236131,-54.0667176709089,4,1,0,100,0,1
236181,-53.5408183336212,4,1,0,100,0,1
236224,-53.0200343450151,4,1,0,100,0,1
236324,-51.9936138727195,4,1,0,100,0,1
236374,-51.4878793236889,4,1,0,100,0,1
236424,-50.9870639832887,4,1,0,100,0,1
236481,-50.4911200030702,4,1,0,100,0,1
236531,-50,4,1,0,100,0,1
236624,-43.4782608695652,4,1,0,100,0,1
236724,-45.3969101676112,4,1,0,100,0,1
236824,-47.4002274136217,4,1,0,70,0,1
236832,-47.4002274136217,4,1,0,70,0,0
236881,-48.4347977559614,4,1,0,70,0,0
236924,-49.4919489138721,4,1,0,70,0,0
236981,-50.5721737424174,4,1,0,70,0,0
237031,-51.6759758538503,4,1,0,70,0,0
237081,-52.803869852403,4,1,0,70,0,0
237124,-53.9563815742004,4,1,0,70,0,0
237224,-56.3374191677466,4,1,0,70,0,0
237324,-58.8235294117647,4,1,0,70,0,0
237531,-74.0740740740741,4,1,0,70,0,0
237631,-73.0213420502314,4,1,0,72,0,0
237681,-72.4554938439877,4,1,0,73,0,0
237731,-71.8940304406457,4,1,0,74,0,0
237781,-71.3369178620178,4,1,0,75,0,0
237831,-70.7841223932163,4,1,0,76,0,0
237881,-70.2356105806124,4,1,0,77,0,0
237931,-69.6913492298126,4,1,0,78,0,0
237981,-69.1513054036492,4,1,0,79,0,0
238031,-68.6154464201872,4,1,0,80,0,0
238164,-67.2101880857185,4,1,0,82,0,0
238297,-65.8337097284942,4,1,0,84,0,0
238431,-64.4753897319895,4,1,0,86,0,0
238531,-63.4800114858949,4,1,0,88,0,0
238631,-62.5,4,1,0,90,0,0
238824,-55.5555555555556,4,1,0,100,0,0
238832,-55.5555555555556,4,1,0,100,0,1
239224,-81.0672270816756,4,1,0,100,0,1
239424,-83.2222883572714,4,1,0,100,0,1
239624,-85.4346389872556,4,1,0,100,0,1
240024,-55.5555555555556,4,1,0,100,0,1
240524,-96.140969466434,4,1,0,100,0,1
240824,-100,4,1,0,100,0,1
241024,-95.4087051328672,4,1,0,100,0,1
241074,-94.2942047540283,4,1,0,100,0,1
241124,-93.1927232196722,4,1,0,100,0,1
241174,-92.1041084524064,4,1,0,100,0,1
241224,-91.028210151304,4,1,0,100,0,1
241324,-88.9139705019461,4,1,0,100,0,1
241424,-86.8488366109843,4,1,0,100,0,1
241474,-85.8343268639978,4,1,0,100,0,1
241524,-84.8316679381263,4,1,0,100,0,1
241574,-83.8407214000414,4,1,0,100,0,1
241624,-82.8613504334997,4,1,0,100,0,1
241724,-80.93679592238,4,1,0,100,0,1
241824,-79.0569415042095,4,1,0,100,0,1
241874,-78.1334514397171,4,1,0,100,0,1
241924,-77.220748965574,4,1,0,100,0,1
241974,-76.318708068399,4,1,0,100,0,1
242024,-75.4272042068145,4,1,0,100,0,1
242124,-73.6753166819561,4,1,0,100,0,1
242224,-71.9641188516453,4,1,0,100,0,1
242274,-71.1234823750128,4,1,0,100,0,1
242324,-70.2926656487936,4,1,0,100,0,1
242374,-69.4715539652625,4,1,0,100,0,1
242424,-90.9090909090909,4,1,0,100,0,1
242433,-68.6600339566323,4,1,0,100,0,1
242524,-67.0653220988898,4,1,0,100,0,1
242624,-65.5076493418099,4,1,0,100,0,1
242674,-64.7424330032523,4,1,0,100,0,1
242724,-63.9861554077374,4,1,0,100,0,1
242774,-63.2387121388757,4,1,0,100,0,1
242824,-62.5,4,1,0,100,0,1
243024,-87.8631678952874,4,1,0,100,0,1
243032,-87.8631678952874,4,1,0,100,0,0
243124,-87.3479313099039,4,1,0,100,0,0
243224,-86.835716112723,4,1,0,100,0,0
243324,-86.3265045860846,4,1,0,100,0,0
243424,-85.8202791162264,4,1,0,100,0,0
243524,-85.3170221926746,4,1,0,100,0,0
243624,-84.8167164076382,4,1,0,100,0,0
243824,-83.8248891317523,4,1,0,100,0,0
243924,-83.3333333333333,4,1,0,100,0,0
244024,-52.6315789473684,4,1,0,100,0,0
244032,-52.6315789473684,4,1,0,100,0,1
244224,-63.6400901102351,4,1,0,100,0,1
244324,-64.2179104485115,4,1,0,100,0,1
244424,-64.8009771078215,4,1,0,100,0,1
244624,-65.9830403579687,4,1,0,100,0,1
244724,-66.582133518178,4,1,0,100,0,1
244824,-67.1866661460545,4,1,0,100,0,1
244924,-67.7966876292569,4,1,0,100,0,1
245124,-69.0333969584219,4,1,0,100,0,1
245224,-69.6601858381012,4,1,0,100,0,1
245324,-70.2926656487936,4,1,0,100,0,1
245524,-71.5749052156457,4,1,0,100,0,1
245624,-72.2247697251423,4,1,0,100,0,1
245724,-72.8805346808836,4,1,0,100,0,1
245824,-73.5422536559846,4,1,0,100,0,1
245924,-74.2099807099768,4,1,0,100,0,1
246024,-74.883770393226,4,1,0,100,0,1
246224,-76.2497583299049,4,1,0,100,0,1
246324,-76.9420681785453,4,1,0,100,0,1
246424,-77.6406638559808,4,1,0,100,0,1
246524,-78.3456024344077,4,1,0,100,0,1
246724,-79.7747391786618,4,1,0,100,0,1
246824,-80.4990540986796,4,1,0,100,0,1
246924,-81.2299454376086,4,1,0,100,0,1
247024,-81.9674729060586,4,1,0,100,0,1
247124,-82.7116967567823,4,1,0,100,0,1
247224,-83.4626777895972,4,1,0,100,0,1
247424,-84.9851573659438,4,1,0,100,0,1
247524,-85.7567802893652,4,1,0,100,0,1
247624,-86.5354091648188,4,1,0,100,0,1
247824,-88.1139397916021,4,1,0,100,0,1
247924,-88.9139705019461,4,1,0,100,0,1
248024,-89.7212650928862,4,1,0,100,0,1
248124,-90.5358895168422,4,1,0,100,0,1
248324,-92.1873946729941,4,1,0,100,0,1
248424,-93.0244103259025,4,1,0,100,0,1
248524,-93.8690256642744,4,1,0,100,0,1
248724,-95.5813320293503,4,1,0,100,0,1
248824,-96.4491629439585,4,1,0,100,0,1
248924,-97.3248733312665,4,1,0,100,0,1
249024,-98.2085347329642,4,1,0,100,0,1
249124,-99.1002193403043,4,1,0,100,0,1
249224,-100,4,1,0,100,0,1
249531,-94.6772480999074,4,1,0,100,0,1
249631,-92.9667184774856,4,1,0,100,0,1
249831,-89.6378130777142,4,1,0,100,0,1
249931,-88.0183307032715,4,1,0,100,0,1
250131,-84.8666146789187,4,1,0,100,0,1
250231,-83.3333333333333,4,1,0,100,0,1
250424,-55.5555555555556,4,1,0,100,0,1
250724,-78.8385879117639,4,1,0,100,0,1
250824,-79.4876333789852,4,1,0,100,0,1
251024,-80.8017982709721,4,1,0,100,0,1
251324,-82.8138957933904,4,1,0,100,0,1
251424,-83.4956683252347,4,1,0,100,0,1
251624,-84.8760978496973,4,1,0,100,0,1
251924,-86.9896521251009,4,1,0,100,0,1
252024,-87.7039115944571,4,1,0,100,0,1
252224,-81.8919867956703,4,1,0,100,0,1
252274,-80.500211024524,4,1,0,100,0,1
252324,-79.1320888472512,4,1,0,100,0,1
252374,-77.7872182648267,4,1,0,100,0,1
252424,-76.4652041103041,4,1,0,100,0,1
252474,-75.1656579327031,4,1,0,100,0,1
252524,-73.8881978828691,4,1,0,100,0,1
252574,-72.6324486012743,4,1,0,100,0,1
252624,-71.3980411077242,4,1,0,100,0,1
252674,-70.1846126929396,4,1,0,100,0,1
252724,-68.9918068119803,4,1,0,100,0,1
252774,-67.819272979481,4,1,0,100,0,1
252824,-66.6666666666667,4,1,0,100,0,1
252832,-66.6666666666667,4,1,0,100,0,0
253024,-95.1997091266611,4,1,0,100,0,0
253124,-95.9834489338555,4,1,0,100,0,0
253324,-97.5703382830362,4,1,0,100,0,0
253424,-98.3735944989989,4,1,0,100,0,0
253524,-99.183463590963,4,1,0,100,0,0
253624,-55.5555555555556,4,1,0,100,0,0
253632,-55.5555555555556,4,1,0,100,0,1
253924,-78.8385879117639,4,1,0,100,0,1
254024,-79.4876333789852,4,1,0,100,0,1
254224,-80.8017982709721,4,1,0,100,0,1
254524,-82.8138957933904,4,1,0,100,0,1
254624,-83.4956683252347,4,1,0,100,0,1
254824,-84.8760978496973,4,1,0,100,0,1
255124,-86.9896521251009,4,1,0,100,0,1
255224,-87.7039115944571,4,1,0,100,0,1
255424,-81.8919867956703,4,1,0,100,0,1
255474,-80.500211024524,4,1,0,100,0,1
255524,-79.1320888472512,4,1,0,100,0,1
255574,-77.7872182648267,4,1,0,100,0,1
255624,-76.4652041103041,4,1,0,100,0,1
255674,-75.1656579327031,4,1,0,100,0,1
255724,-73.8881978828691,4,1,0,100,0,1
255774,-72.6324486012743,4,1,0,100,0,1
255824,-71.3980411077242,4,1,0,100,0,1
255874,-70.1846126929396,4,1,0,100,0,1
255924,-68.9918068119803,4,1,0,100,0,1
255974,-67.819272979481,4,1,0,100,0,1
256024,-66.6666666666667,4,1,0,100,0,1
256032,-66.6666666666667,4,1,0,100,0,0
256324,-95.9834489338555,4,1,0,100,0,0
256524,-97.5703382830362,4,1,0,100,0,0
256624,-98.3735944989989,4,1,0,100,0,0
256824,-55.5555555555556,4,1,0,100,0,0
256832,-55.5555555555556,4,1,0,100,0,1
257124,-78.8385879117639,4,1,0,100,0,1
257224,-79.4876333789852,4,1,0,100,0,1
257424,-80.8017982709721,4,1,0,100,0,1
257724,-82.8138957933904,4,1,0,100,0,1
257824,-83.4956683252347,4,1,0,100,0,1
258024,-84.8760978496973,4,1,0,100,0,1
258324,-86.9896521251009,4,1,0,100,0,1
258424,-87.7039115944571,4,1,0,100,0,1
258624,-81.8919867956703,4,1,0,100,0,1
258674,-80.500211024524,4,1,0,100,0,1
258724,-79.1320888472512,4,1,0,100,0,1
258774,-77.7872182648267,4,1,0,100,0,1
258824,-76.4652041103041,4,1,0,100,0,1
258874,-75.1656579327031,4,1,0,100,0,1
258924,-73.8881978828691,4,1,0,100,0,1
258974,-72.6324486012743,4,1,0,100,0,1
259024,-71.3980411077242,4,1,0,100,0,1
259074,-70.1846126929396,4,1,0,100,0,1
259124,-68.9918068119803,4,1,0,100,0,1
259174,-67.819272979481,4,1,0,100,0,1
259224,-66.6666666666667,4,1,0,100,0,1
259232,-66.6666666666667,4,1,0,100,0,0
259424,-95.2018278750952,4,1,0,100,0,0
259490,-95.7185467687705,4,1,0,100,0,0
259557,-96.2459634281963,4,1,0,100,0,0
259624,-96.7762861945577,4,1,0,100,0,0
259690,-97.3015506422327,4,1,0,100,0,0
259757,-97.8376897764868,4,1,0,100,0,0
259824,-98.3767830791933,4,1,0,100,0,0
260024,-100,4,1,0,100,0,0
260124,-97.9190063555012,4,1,0,100,0,0
260224,-95.8813180564868,4,1,0,100,0,0
260324,-93.8860339214696,4,1,0,100,0,0
260424,-91.9322715224918,4,1,0,100,0,0
260524,-90.0191667948654,4,1,0,100,0,0
260624,-88.1458736550335,4,1,0,100,0,0
260724,-86.3115636263843,4,1,0,100,0,0
260824,-84.5154254728517,4,1,0,100,0,0
260924,-82.7566648401405,4,1,0,100,0,0
261024,-81.034503904418,4,1,0,100,0,0
261124,-79.3481810283159,4,1,0,100,0,0
261224,-77.6969504240912,4,1,0,100,0,0
261324,-76.0800818237965,4,1,0,100,0,0
261424,-74.4968601563138,4,1,0,100,0,0
261524,-72.9465852311097,4,1,0,100,0,0
261624,-71.4285714285714,4,1,0,100,0,0
261674,-70.3290045808148,4,1,0,100,0,0
261724,-69.2463643945957,4,1,0,100,0,0
261774,-68.1803903019721,4,1,0,100,0,0
261824,-67.1308257461679,4,1,0,100,0,0
261874,-66.0974181198257,4,1,0,100,0,0
261924,-65.0799187042095,4,1,0,100,0,0
261974,-64.0780826093436,4,1,0,100,0,0
262024,-63.091668715073,4,1,0,100,0,0
262074,-62.1204396130306,4,1,0,100,0,0
262124,-61.1641615494988,4,1,0,100,0,0
262174,-60.2226043691496,4,1,0,100,0,0
262224,-59.2955414596512,4,1,0,100,0,0
262274,-58.3827496971279,4,1,0,100,0,0
262324,-57.4840093924581,4,1,0,100,0,0
262374,-56.5991042384011,4,1,0,100,0,0
262424,-55.7278212575353,4,1,0,100,0,0
262474,-54.8699507510004,4,1,0,100,0,0
262524,-54.0252862480266,4,1,0,100,0,0
262574,-53.1936244562421,4,1,0,100,0,0
262624,-52.3747652127447,4,1,0,100,0,0
262674,-51.5685114359271,4,1,0,100,0,0
262724,-50.7746690780436,4,1,0,100,0,0
262774,-49.9930470785072,4,1,0,100,0,0
262824,-49.2234573179051,4,1,0,100,0,0
262874,-48.4657145727228,4,1,0,100,0,0
262924,-47.7196364707648,4,1,0,100,0,0
262974,-46.9850434472612,4,1,0,100,0,0
263024,-46.261758701651,4,1,0,100,0,0
263074,-45.5496081550295,4,1,0,100,0,0
263124,-44.8484204082514,4,1,0,100,0,0
263174,-44.1580267006791,4,1,0,100,0,0
263224,-35.7142857142857,4,1,0,100,0,0
263282,-35.7142857142857,4,1,0,70,0,0
263624,-76.9230769230769,4,1,0,70,0,0
263924,-79.0948898455711,4,1,0,70,0,0
264224,-81.3280207958793,4,1,0,70,0,0
264524,-83.6242010007091,4,1,0,70,0,0
264824,-85.9852105654747,4,1,0,70,0,0
265124,-88.412879854318,4,1,0,70,0,0
265424,-90.9090909090909,4,1,0,70,0,0
265624,-86.1653769958519,4,1,0,70,0,0
265724,-83.8871676742127,4,1,0,70,0,0
265824,-81.6691941212101,4,1,0,70,0,0
265874,-80.582296402538,4,1,0,70,0,0
265924,-79.5098637053905,4,1,0,70,0,0
266024,-77.4076259044162,4,1,0,70,0,0
266074,-76.3774434358779,4,1,0,70,0,0
266124,-75.3609711917015,4,1,0,70,0,0
266224,-73.3684299524868,4,1,0,70,0,0
266274,-72.3920032839494,4,1,0,70,0,0
266324,-71.4285714285714,4,1,0,70,0,0
266424,-55.5555555555556,4,1,0,80,0,0
266432,-55.5555555555556,4,1,0,80,0,1
266624,-78.8609264198583,4,1,0,80,0,1
266674,-78.5787012595213,4,1,0,80,0,1
266724,-78.2974861182741,4,1,0,80,0,1
266774,-78.0172773814901,4,1,0,80,0,1
266824,-77.7380714474789,4,1,0,80,0,1
266924,-77.1826536454136,4,1,0,80,0,1
267024,-76.6312041555165,4,1,0,80,0,1
267124,-76.0836946252547,4,1,0,80,0,1
267224,-75.5400969046666,4,1,0,80,0,1
267324,-75.0003830449147,4,1,0,80,0,1
267424,-74.4645252968485,4,1,0,80,0,1
267474,-74.1980338473385,4,1,0,80,0,1
267524,-73.9324961095776,4,1,0,80,0,1
267574,-73.6679086704502,4,1,0,80,0,1
267624,-73.4042681290556,4,1,0,80,0,1
267724,-72.8798141966733,4,1,0,80,0,1
267824,-72.3591073478625,4,1,0,80,0,1
267924,-71.84212081071,4,1,0,80,0,1
268024,-71.3288280045802,4,1,0,80,0,1
268124,-70.8192025387496,4,1,0,80,0,1
268224,-70.3132182110491,4,1,0,80,0,1
268274,-70.061583337046,4,1,0,80,0,1
268324,-69.8108490065172,4,1,0,80,0,1
268374,-69.5610119966242,4,1,0,80,0,1
268424,-69.3120690960623,4,1,0,80,0,1
268524,-68.8168528351349,4,1,0,80,0,1
268624,-68.3251747624089,4,1,0,80,0,1
268724,-67.8370095984724,4,1,0,80,0,1
268824,-67.3523322445286,4,1,0,80,0,1
268924,-66.8711177811045,4,1,0,80,0,1
269024,-66.3933414667702,4,1,0,80,0,1
269074,-66.1557349321854,4,1,0,80,0,1
269124,-65.918978736867,4,1,0,80,0,1
269174,-65.6830698376459,4,1,0,80,0,1
269224,-65.4480052022437,4,1,0,80,0,1
269324,-64.9803966480034,4,1,0,80,0,1
269424,-64.5161290322581,4,1,0,80,0,1
269624,-80,4,1,0,80,0,1
269632,-80,4,1,0,80,0,0
269724,-78.4754921702057,4,1,0,80,0,0
269824,-76.9800358919501,4,1,0,80,0,0
269874,-76.2430286650211,4,1,0,80,0,0
269924,-75.513077548761,4,1,0,80,0,0
269974,-74.7901149879329,4,1,0,80,0,0
270024,-55.5555555555556,4,1,0,80,0,0
270032,-55.5555555555556,4,1,0,80,0,1
270424,-80,4,1,0,80,0,1
270432,-80,4,1,0,80,0,0
270624,-76.9800358919501,4,1,0,80,0,0
270674,-76.2430286650211,4,1,0,80,0,0
270724,-75.513077548761,4,1,0,80,0,0
270824,-55.5555555555556,4,1,0,80,0,0
270832,-55.5555555555556,4,1,0,80,0,1
271224,-80,4,1,0,80,0,1
271232,-80,4,1,0,80,0,0
271324,-78.4754921702057,4,1,0,80,0,0
271424,-76.9800358919501,4,1,0,80,0,0
271474,-76.2430286650211,4,1,0,80,0,0
271524,-75.513077548761,4,1,0,80,0,0
271574,-74.7901149879329,4,1,0,80,0,0
271624,-55.5555555555556,4,1,0,80,0,0
271632,-55.5555555555556,4,1,0,80,0,1
272024,-68.9655172413793,4,1,0,80,0,1
272032,-68.9655172413793,4,1,0,80,0,0
272074,-69.6082350395894,4,1,0,80,0,0
272124,-70.2569425872375,4,1,0,80,0,0
272174,-70.9116957052428,4,1,0,80,0,0
272224,-71.5725507347425,4,1,0,80,0,0
272324,-72.9127945229977,4,1,0,80,0,0
272424,-74.2781352708208,4,1,0,80,0,0
272524,-75.6690429355321,4,1,0,80,0,0
272624,-77.0859962747168,4,1,0,80,0,0
272724,-78.5294830110153,4,1,0,80,0,0
272832,-80,4,1,0,80,0,0
272932,-79.3650793650794,4,1,0,80,0,1
273027,-78.7219789103922,4,1,0,80,0,1
273032,-78.7219789103922,4,1,0,80,0,1
273081,-78.4056765816487,4,1,0,80,0,1
273131,-78.0906451452857,4,1,0,80,0,1
273181,-77.7768794948993,4,1,0,80,0,1
273231,-77.4643745446028,4,1,0,80,0,1
273331,-76.8431265028263,4,1,0,80,0,1
273431,-76.2268607400868,4,1,0,80,0,1
273531,-75.6155372995511,4,1,0,80,0,1
273631,-75.0091165448314,4,1,0,80,0,1
273731,-74.4075591574154,4,1,0,80,0,1
273831,-73.810826134117,4,1,0,80,0,1
273881,-73.5142566561155,4,1,0,80,0,1
273931,-73.2188787845476,4,1,0,80,0,1
273981,-72.9246877315775,4,1,0,80,0,1
274031,-72.6316787286072,4,1,0,80,0,1
274131,-72.0491878939964,4,1,0,80,0,1
274331,-70.8981831237758,4,1,0,80,0,1
274431,-70.3295945604512,4,1,0,80,0,1
274531,-69.7655659581875,4,1,0,80,0,1
274631,-69.2060607470533,4,1,0,80,0,1
274681,-68.9279930653152,4,1,0,80,0,1
274731,-68.6510426504001,4,1,0,80,0,1
274781,-68.3752050131667,4,1,0,80,0,1
274831,-68.1004756825106,4,1,0,80,0,1
274931,-67.5543241462654,4,1,0,80,0,1
275031,-67.0125526308284,4,1,0,80,0,1
275131,-66.4751260093512,4,1,0,80,0,1
275231,-65.9420094366952,4,1,0,80,0,1
275331,-65.4131683471726,4,1,0,80,0,1
275431,-64.888568452305,4,1,0,80,0,1
275531,-64.3681757386006,4,1,0,80,0,1
275631,-63.8519564653486,4,1,0,80,0,1
275731,-63.3398771624317,4,1,0,80,0,1
275931,-62.3280059270972,4,1,0,80,0,1
276031,-61.828148387968,4,1,0,80,0,1
276331,-60.352499946936,4,1,0,80,0,1
276431,-59.8684855515604,4,1,0,80,0,1
276531,-59.3883528501517,4,1,0,80,0,1
276631,-58.9120707123382,4,1,0,80,0,1
276731,-58.4396082574072,4,1,0,80,0,1
276831,-57.9709348523027,4,1,0,80,0,1
276931,-57.5060201096398,4,1,0,80,0,1
277031,-57.0448338857337,4,1,0,80,0,1
277131,-56.5873462786456,4,1,0,80,0,1
277231,-56.1335276262444,4,1,0,80,0,1
277431,-55.236779724489,4,1,0,80,0,1
277631,-54.354357606865,4,1,0,80,0,1
277731,-53.9184470554174,4,1,0,80,0,1
277831,-53.4860324151943,4,1,0,80,0,1
278024,-71.4285714285714,4,1,0,80,0,1
278032,-71.4285714285714,4,1,0,80,0,0
278428,-50,4,1,0,80,0,0
278432,-50,4,1,0,80,0,1
278531,-51.8307324814039,4,1,0,80,0,1
278631,-53.7284965911771,4,1,0,80,0,1
278731,-55.6957466689064,4,1,0,80,0,1
278831,-57.7350269189626,4,1,0,80,0,1
278931,-59.848974700868,4,1,0,80,0,1
279031,-62.04032394014,4,1,0,80,0,1
279131,-64.3119086640206,4,1,0,80,0,1
279227,-66.6666666666667,4,1,0,80,0,1
279232,-66.6666666666667,4,1,0,80,0,0
279282,-66.6666666666667,4,1,0,60,0,0
280082,-89.2857142857143,4,1,0,60,0,0
280282,-90.9090909090909,4,1,0,60,0,0
280482,-92.5925925925926,4,1,0,60,0,0
280682,-94.3396226415094,4,1,0,60,0,0
280785,-100,4,1,0,60,0,0
281635,-89.2857142857143,4,1,0,60,0,0
281835,-90.9090909090909,4,1,0,60,0,0
282035,-92.5925925925926,4,1,0,60,0,0
282235,-94.3396226415094,4,1,0,60,0,0
282382,-100,4,1,0,60,0,0
283985,-100,4,1,0,60,0,0
284582,-83.3333333333333,4,1,0,60,0,0
284682,-84.4277673545966,4,1,0,60,0,0
284782,-85.5513307984791,4,1,0,60,0,0
284882,-86.7052023121387,4,1,0,60,0,0
285082,-89.1089108910891,4,1,0,60,0,0
285282,-91.6496945010183,4,1,0,60,0,0
285482,-94.3396226415094,4,1,0,60,0,0
285582,-100,4,1,0,60,0,0
286435,-89.2857142857143,4,1,0,60,0,0
286635,-90.9090909090909,4,1,0,60,0,0
286835,-92.5925925925926,4,1,0,60,0,0
287035,-94.3396226415094,4,1,0,60,0,0
287182,-100,4,1,0,60,0,0
288035,-89.2857142857143,4,1,0,60,0,0
288235,-90.9090909090909,4,1,0,60,0,0
288435,-92.5925925925926,4,1,0,60,0,0
288635,-94.3396226415094,4,1,0,60,0,0
288782,-100,4,1,0,60,0,0
289382,-83.3333333333333,4,1,0,60,0,0
289482,-84.4277673545966,4,1,0,60,0,0
289582,-85.5513307984791,4,1,0,60,0,0
289682,-86.7052023121387,4,1,0,60,0,0
289882,-89.1089108910891,4,1,0,60,0,0
290082,-91.6496945010183,4,1,0,60,0,0
290282,-94.3396226415094,4,1,0,60,0,0
290382,-100,4,1,0,60,0,0
290935,-83.3333333333333,4,1,0,60,0,0
291035,-84.4277673545966,4,1,0,60,0,0
291135,-85.5513307984791,4,1,0,60,0,0
291235,-86.7052023121387,4,1,0,60,0,0
291435,-89.1089108910891,4,1,0,60,0,0
291635,-91.6496945010183,4,1,0,60,0,0
291835,-94.3396226415094,4,1,0,60,0,0
291982,-100,4,1,0,60,0,0
292624,-93.3914315927013,4,1,0,60,0,0
293224,-87.2195949493421,4,1,0,60,0,0
293482,-76.9230769230769,4,1,0,40,0,0
295224,-133.333333333333,4,1,0,60,0,0
297624,-76.9230769230769,4,1,0,80,0,0
297724,-81.2182741116751,4,1,0,80,0,0
297824,-86.0215053763441,4,1,0,80,0,0
297924,-91.4285714285714,4,1,0,80,0,0
298024,-97.5609756097561,4,1,0,80,0,0
298124,-104.575163398693,4,1,0,80,0,0
298224,-112.676056338028,4,1,0,80,0,0
298324,-122.137404580153,4,1,0,80,0,0
298424,-133.333333333333,4,1,0,60,0,0
300824,-66.6666666666667,4,1,0,80,0,0
300924,-71.1111111111111,4,1,0,80,0,0
301024,-76.1904761904762,4,1,0,80,0,0
301124,-82.0512820512821,4,1,0,80,0,0
301224,-88.8888888888889,4,1,0,80,0,0
301324,-96.969696969697,4,1,0,80,0,0
301424,-106.666666666667,4,1,0,80,0,0
301524,-118.518518518519,4,1,0,80,0,0
301624,-133.333333333333,4,1,0,60,0,0
304024,-58.8235294117647,4,1,0,80,0,0
304124,-63.2411067193676,4,1,0,80,0,0
304224,-68.3760683760684,4,1,0,80,0,0
304324,-74.4186046511628,4,1,0,80,0,0
304424,-81.6326530612245,4,1,0,80,0,0
304524,-90.3954802259887,4,1,0,80,0,0
304624,-101.26582278481,4,1,0,80,0,0
304724,-115.107913669065,4,1,0,80,0,0
304824,-133.333333333333,4,1,0,60,0,0
307224,-52.6315789473684,4,1,0,80,0,0
307324,-56.9395017793594,4,1,0,80,0,0
307424,-62.015503875969,4,1,0,80,0,0
307524,-68.0851063829787,4,1,0,80,0,0
307624,-75.4716981132076,4,1,0,80,0,0
307724,-84.6560846560847,4,1,0,80,0,0
307824,-96.3855421686747,4,1,0,80,0,0
307924,-111.888111888112,4,1,0,80,0,0

[HitObjects]
182,131,4033,6,4,L|181:197,24,52.500002002716
200,109,5633,2,4,L|250:136,24,52.500002002716
149,279,7232,5,0,0:0:0:0:
146,244,8832,1,0,0:0:0:0:
132,214,9632,1,0,0:0:0:0:
130,225,9732,1,0,0:0:0:0:
127,232,9832,1,0,0:0:0:0:
122,232,9932,1,0,0:0:0:0:
143,246,10032,1,8,0:0:0:0:
148,236,10132,1,8,0:0:0:0:
146,235,10232,1,8,0:0:0:0:
157,241,10332,1,8,0:0:0:0:
124,239,10432,1,0,0:0:0:0:
124,233,12032,1,0,0:0:0:0:
137,197,12832,1,0,0:0:0:0:
130,262,12932,1,8,0:0:0:0:
137,197,13032,1,0,0:0:0:0:
127,266,13132,1,8,0:0:0:0:
137,197,13232,1,0,0:0:0:0:
131,278,13332,1,8,0:0:0:0:
137,197,13432,1,0,0:0:0:0:
126,273,13532,1,8,0:0:0:0:
132,287,13632,1,0,0:0:0:0:
143,220,15232,1,0,0:0:0:0:
139,249,16032,1,0,0:0:0:0:
139,249,16132,1,0,0:0:0:0:
209,208,16232,1,8,0:0:0:0:
137,258,16332,1,8,0:0:0:0:
149,257,16432,1,0,0:0:0:0:
149,257,16532,1,0,0:0:0:0:
154,274,16632,1,8,0:0:0:0:
150,278,16732,1,8,0:0:0:0:
184,244,16832,1,0,0:0:0:0:
140,238,18432,1,0,0:0:0:0:
125,228,19232,1,8,0:0:0:0:
137,253,19332,1,8,0:0:0:0:
138,258,19432,1,8,0:0:0:0:
148,279,19532,1,8,0:0:0:0:
149,280,19632,1,8,0:0:0:0:
137,262,19732,1,8,0:0:0:0:
137,263,19832,1,8,0:0:0:0:
137,263,19932,1,8,0:0:0:0:
149,281,20032,1,4,0:0:0:0:
161,277,20432,1,0,0:0:0:0:
103,230,20732,1,0,0:0:0:0:
113,209,21032,1,0,0:0:0:0:
122,227,21332,1,0,0:0:0:0:
120,229,21632,1,8,0:0:0:0:
133,203,21932,1,8,0:0:0:0:
132,217,22232,1,8,0:0:0:0:
133,217,22532,1,8,0:0:0:0:
139,200,22832,1,8,0:0:0:0:
139,206,22932,1,4,0:0:0:0:
98,186,23232,1,4,0:0:0:0:
123,156,23632,1,0,0:0:0:0:
126,201,23932,1,0,0:0:0:0:
127,216,24232,1,8,0:0:0:0:
129,230,24532,1,8,0:0:0:0:
116,188,24832,1,0,0:0:0:0:
136,184,25132,1,0,0:0:0:0:
133,200,25432,1,8,0:0:0:0:
134,203,25732,1,8,0:0:0:0:
136,232,25832,1,0,0:0:0:0:
138,242,25932,1,0,0:0:0:0:
144,244,26032,1,8,0:0:0:0:
108,212,26132,1,0,0:0:0:0:
132,208,26232,1,0,0:0:0:0:
134,212,26332,1,8,0:0:0:0:
135,214,26432,1,4,0:0:0:0:
145,243,26832,1,8,0:0:0:0:
134,227,27132,1,8,0:0:0:0:
139,248,27432,1,0,0:0:0:0:
129,245,27732,1,8,0:0:0:0:
127,224,28032,1,8,0:0:0:0:
133,202,28332,1,0,0:0:0:0:
133,207,28632,1,8,0:0:0:0:
133,209,28932,1,8,0:0:0:0:
146,216,29232,1,8,0:0:0:0:
148,219,29332,1,4,0:0:0:0:
114,214,29632,1,4,0:0:0:0:
125,157,30032,1,8,0:0:0:0:
144,242,30332,1,4,0:0:0:0:
147,249,30532,1,8,0:0:0:0:
219,171,30632,1,8,0:0:0:0:
162,240,30832,1,8,0:0:0:0:
128,194,30932,1,4,0:0:0:0:
100,244,31232,1,8,0:0:0:0:
101,213,31532,1,4,0:0:0:0:
126,230,31832,1,8,0:0:0:0:
126,230,31932,1,8,0:0:0:0:
128,223,32132,1,4,0:0:0:0:
151,222,32332,1,8,0:0:0:0:
116,233,32432,1,8,0:0:0:0:
126,284,32532,1,0,0:0:0:0:
121,238,32632,1,8,0:0:0:0:
215,187,32732,1,8,0:0:0:0:
101,192,32832,5,0,0:0:0:0:
102,197,32932,1,8,0:0:0:0:
116,225,33132,1,0,0:0:0:0:
117,229,33232,1,8,0:0:0:0:
115,185,33332,1,0,0:0:0:0:
121,192,33432,1,8,0:0:0:0:
120,194,33532,1,8,0:0:0:0:
119,205,33632,1,0,0:0:0:0:
121,208,33732,1,8,0:0:0:0:
122,210,33832,1,8,0:0:0:0:
123,212,33932,1,8,0:0:0:0:
128,217,34032,1,0,0:0:0:0:
135,220,34132,1,8,0:0:0:0:
137,222,34232,1,8,0:0:0:0:
140,224,34332,1,8,0:0:0:0:
142,225,34432,1,0,0:0:0:0:
235,188,34532,1,8,0:0:0:0:
136,214,34732,1,0,0:0:0:0:
132,216,34832,1,8,0:0:0:0:
138,227,34932,1,8,0:0:0:0:
137,230,35032,1,0,0:0:0:0:
134,232,35132,1,8,0:0:0:0:
138,237,35232,1,0,0:0:0:0:
141,239,35332,1,0,0:0:0:0:
146,238,35432,1,8,0:0:0:0:
149,241,35532,1,8,0:0:0:0:
153,244,35632,1,0,0:0:0:0:
158,245,35732,1,0,0:0:0:0:
159,246,35832,1,8,0:0:0:0:
162,247,35932,1,8,0:0:0:0:
163,246,36032,1,0,0:0:0:0:
168,244,36132,1,8,0:0:0:0:
100,243,36332,5,0,0:0:0:0:
100,243,36432,1,8,0:0:0:0:
115,234,36532,1,0,0:0:0:0:
136,214,36632,1,8,0:0:0:0:
136,214,36732,1,8,0:0:0:0:
136,214,36832,1,0,0:0:0:0:
130,240,36932,1,8,0:0:0:0:
145,230,37032,1,0,0:0:0:0:
145,234,37132,1,0,0:0:0:0:
145,234,37232,1,8,0:0:0:0:
145,234,37332,1,0,0:0:0:0:
148,236,37432,1,8,0:0:0:0:
151,238,37532,1,8,0:0:0:0:
160,242,37632,1,0,0:0:0:0:
103,212,37732,1,8,0:0:0:0:
133,213,37932,1,0,0:0:0:0:
137,211,38032,1,8,0:0:0:0:
137,211,38132,1,0,0:0:0:0:
131,160,38232,1,8,0:0:0:0:
139,283,38332,1,8,0:0:0:0:
129,183,38432,1,0,0:0:0:0:
145,202,38632,1,0,0:0:0:0:
145,202,38732,1,0,0:0:0:0:
121,238,38832,1,8,0:0:0:0:
133,251,39032,1,8,0:0:0:0:
161,207,39098,1,8,0:0:0:0:
161,207,39165,1,8,0:0:0:0:
125,212,39232,1,8,0:0:0:0:
144,196,39332,1,0,0:0:0:0:
143,197,39399,1,0,0:0:0:0:
145,202,39465,1,0,0:0:0:0:
147,224,39532,1,8,0:0:0:0:
119,225,39632,1,0,0:0:0:0:
128,236,39698,1,8,0:0:0:0:
131,239,39765,1,8,0:0:0:0:
133,240,39832,1,0,0:0:0:0:
138,231,39932,1,8,0:0:0:0:
138,236,39998,1,8,0:0:0:0:
139,239,40065,1,8,0:0:0:0:
140,263,40132,1,0,0:0:0:0:
115,265,40232,1,8,0:0:0:0:
141,219,40298,1,0,0:0:0:0:
140,219,40365,1,0,0:0:0:0:
114,215,40432,1,8,0:0:0:0:
131,203,40532,1,0,0:0:0:0:
127,202,40598,1,0,0:0:0:0:
130,205,40665,1,0,0:0:0:0:
69,218,40732,1,8,0:0:0:0:
146,221,40832,1,0,0:0:0:0:
116,243,40898,1,0,0:0:0:0:
116,243,40965,1,8,0:0:0:0:
117,243,41032,1,0,0:0:0:0:
141,242,41132,1,8,0:0:0:0:
137,241,41198,1,8,0:0:0:0:
126,236,41265,1,8,0:0:0:0:
126,236,41332,1,0,0:0:0:0:
127,277,41432,1,8,0:0:0:0:
127,277,41498,1,8,0:0:0:0:
126,271,41565,1,0,0:0:0:0:
140,215,41632,1,8,0:0:0:0:
153,233,41732,1,0,0:0:0:0:
155,230,41798,1,0,0:0:0:0:
131,271,41865,1,8,0:0:0:0:
131,270,41932,1,8,0:0:0:0:
83,242,42032,1,0,0:0:0:0:
159,241,42132,1,8,0:0:0:0:
159,241,42198,1,8,0:0:0:0:
159,241,42265,1,8,0:0:0:0:
159,241,42332,1,8,0:0:0:0:
157,188,42432,1,0,0:0:0:0:
153,192,42498,1,0,0:0:0:0:
132,249,42565,1,8,0:0:0:0:
131,249,42632,1,0,0:0:0:0:
125,226,42698,1,8,0:0:0:0:
127,228,42765,1,8,0:0:0:0:
116,232,42832,1,0,0:0:0:0:
102,204,42898,1,8,0:0:0:0:
157,188,42965,1,0,0:0:0:0:
153,192,43031,1,0,0:0:0:0:
132,249,43098,1,8,0:0:0:0:
131,249,43165,1,0,0:0:0:0:
125,226,43231,1,8,0:0:0:0:
127,228,43298,1,8,0:0:0:0:
116,232,43365,1,0,0:0:0:0:
102,204,43431,1,8,0:0:0:0:
137,218,43498,1,0,0:0:0:0:
141,220,43565,1,0,0:0:0:0:
125,226,43632,1,8,0:0:0:0:
127,228,43699,1,8,0:0:0:0:
116,232,43766,1,0,0:0:0:0:
102,204,43832,1,8,0:0:0:0:
137,218,43899,1,0,0:0:0:0:
141,220,43966,1,0,0:0:0:0:
160,250,44032,1,8,0:0:0:0:
163,153,44098,1,8,0:0:0:0:
146,174,44165,1,8,0:0:0:0:
142,188,44232,1,0,0:0:0:0:
131,231,44332,1,0,0:0:0:0:
130,234,44432,1,8,0:0:0:0:
122,234,44498,1,8,0:0:0:0:
121,244,44565,1,8,0:0:0:0:
102,204,44632,1,0,0:0:0:0:
126,202,44732,1,0,0:0:0:0:
141,212,44832,1,8,0:0:0:0:
143,214,44932,1,8,0:0:0:0:
145,216,45032,1,0,0:0:0:0:
127,203,45132,1,8,0:0:0:0:
138,202,45232,1,0,0:0:0:0:
127,187,45332,1,0,0:0:0:0:
142,197,45432,1,8,0:0:0:0:
101,229,45532,1,8,0:0:0:0:
101,192,45632,5,0,0:0:0:0:
102,197,45732,1,8,0:0:0:0:
116,225,45932,1,0,0:0:0:0:
117,229,46032,1,8,0:0:0:0:
115,185,46132,1,0,0:0:0:0:
141,178,46232,1,0,0:0:0:0:
120,194,46332,1,8,0:0:0:0:
119,205,46432,1,0,0:0:0:0:
122,210,46632,1,8,0:0:0:0:
152,199,46732,1,0,0:0:0:0:
128,217,46832,1,0,0:0:0:0:
135,220,46932,1,8,0:0:0:0:
148,266,47132,1,0,0:0:0:0:
140,189,47232,1,8,0:0:0:0:
121,146,47332,1,8,0:0:0:0:
134,147,47532,1,8,0:0:0:0:
139,220,47632,1,0,0:0:0:0:
142,222,47732,1,0,0:0:0:0:
132,192,47832,1,8,0:0:0:0:
134,232,47932,1,8,0:0:0:0:
138,237,48032,1,0,0:0:0:0:
124,222,48132,1,8,0:0:0:0:
116,185,48332,1,8,0:0:0:0:
115,205,48432,1,0,0:0:0:0:
116,222,48532,1,8,0:0:0:0:
159,246,48632,1,8,0:0:0:0:
162,247,48732,1,8,0:0:0:0:
101,192,48832,5,0,0:0:0:0:
102,197,48932,1,8,0:0:0:0:
116,225,49132,1,0,0:0:0:0:
145,240,49232,1,0,0:0:0:0:
147,249,49332,1,8,0:0:0:0:
141,178,49432,1,0,0:0:0:0:
120,194,49532,1,8,0:0:0:0:
119,205,49632,1,0,0:0:0:0:
122,210,49832,1,8,0:0:0:0:
135,180,49932,1,8,0:0:0:0:
128,217,50032,1,0,0:0:0:0:
135,220,50132,1,8,0:0:0:0:
148,266,50332,1,0,0:0:0:0:
140,189,50432,1,8,0:0:0:0:
126,226,50532,1,0,0:0:0:0:
134,147,50732,1,8,0:0:0:0:
153,157,50832,1,8,0:0:0:0:
142,222,50932,1,0,0:0:0:0:
142,166,51032,1,0,0:0:0:0:
134,232,51132,1,8,0:0:0:0:
138,237,51232,1,0,0:0:0:0:
124,222,51332,1,8,0:0:0:0:
134,172,51532,1,0,0:0:0:0:
115,205,51632,1,0,0:0:0:0:
110,235,51732,1,8,0:0:0:0:
125,191,51832,1,0,0:0:0:0:
131,204,51932,1,8,0:0:0:0:
116,220,52032,1,0,0:0:0:0:
181,238,52082,1,0,0:0:0:0:
177,238,52132,1,8,0:0:0:0:
171,258,52182,1,8,0:0:0:0:
167,258,52232,1,0,0:0:0:0:
117,229,52432,1,8,0:0:0:0:
115,185,52532,1,0,0:0:0:0:
141,178,52632,1,0,0:0:0:0:
120,194,52732,1,8,0:0:0:0:
119,205,52832,1,0,0:0:0:0:
122,210,53032,1,8,0:0:0:0:
152,199,53132,1,0,0:0:0:0:
128,217,53232,1,0,0:0:0:0:
135,220,53332,1,8,0:0:0:0:
148,266,53532,1,0,0:0:0:0:
140,189,53632,1,8,0:0:0:0:
121,146,53732,1,8,0:0:0:0:
134,147,53932,1,8,0:0:0:0:
139,220,54032,1,0,0:0:0:0:
142,222,54132,1,0,0:0:0:0:
132,192,54232,1,8,0:0:0:0:
134,232,54332,1,8,0:0:0:0:
138,237,54432,1,0,0:0:0:0:
124,222,54532,1,8,0:0:0:0:
116,185,54732,1,8,0:0:0:0:
115,205,54832,1,0,0:0:0:0:
116,222,54932,1,8,0:0:0:0:
159,246,55032,1,8,0:0:0:0:
162,247,55132,1,8,0:0:0:0:
101,192,55232,5,0,0:0:0:0:
102,197,55332,1,8,0:0:0:0:
91,192,55432,1,0,0:0:0:0:
90,213,55532,1,8,0:0:0:0:
145,240,55632,1,0,0:0:0:0:
98,179,55732,1,0,0:0:0:0:
96,215,55832,1,8,0:0:0:0:
120,194,55932,1,8,0:0:0:0:
119,205,56032,1,0,0:0:0:0:
122,210,56232,1,8,0:0:0:0:
135,180,56332,1,8,0:0:0:0:
128,217,56432,1,0,0:0:0:0:
135,220,56532,1,8,0:0:0:0:
148,266,56732,1,0,0:0:0:0:
140,189,56832,1,8,0:0:0:0:
126,226,56932,1,0,0:0:0:0:
124,176,57132,1,0,0:0:0:0:
126,176,57232,1,8,0:0:0:0:
142,222,57332,1,0,0:0:0:0:
112,181,57432,1,8,0:0:0:0:
118,163,57532,1,0,0:0:0:0:
118,163,57632,1,8,0:0:0:0:
124,222,57732,1,8,0:0:0:0:
111,207,57832,1,0,0:0:0:0:
131,165,57932,1,8,0:0:0:0:
110,142,58032,1,8,0:0:0:0:
112,181,58132,1,0,0:0:0:0:
159,246,58232,1,8,0:0:0:0:
131,204,58332,1,8,0:0:0:0:
101,192,58432,5,0,0:0:0:0:
102,197,58532,1,8,0:0:0:0:
116,225,58732,1,0,0:0:0:0:
117,229,58832,1,8,0:0:0:0:
115,185,58932,1,0,0:0:0:0:
141,178,59032,1,0,0:0:0:0:
120,194,59132,1,8,0:0:0:0:
119,205,59232,1,0,0:0:0:0:
122,210,59432,1,8,0:0:0:0:
152,199,59532,1,0,0:0:0:0:
128,217,59632,1,0,0:0:0:0:
135,220,59732,1,8,0:0:0:0:
148,266,59932,1,0,0:0:0:0:
140,189,60032,1,8,0:0:0:0:
121,146,60132,1,8,0:0:0:0:
134,147,60332,1,8,0:0:0:0:
139,220,60432,1,0,0:0:0:0:
142,222,60532,1,0,0:0:0:0:
132,192,60632,1,8,0:0:0:0:
134,232,60732,1,8,0:0:0:0:
138,237,60832,1,0,0:0:0:0:
124,222,60932,1,8,0:0:0:0:
116,185,61132,1,8,0:0:0:0:
115,205,61232,1,0,0:0:0:0:
116,222,61332,1,8,0:0:0:0:
159,246,61432,1,8,0:0:0:0:
162,247,61532,1,8,0:0:0:0:
101,192,61632,5,0,0:0:0:0:
108,175,61732,1,8,0:0:0:0:
118,221,62032,1,8,0:0:0:0:
119,167,62132,1,0,0:0:0:0:
141,178,62232,1,0,0:0:0:0:
120,194,62332,1,8,0:0:0:0:
119,205,62432,1,0,0:0:0:0:
122,210,62632,1,8,0:0:0:0:
135,180,62732,1,8,0:0:0:0:
128,217,62832,1,0,0:0:0:0:
135,220,62932,1,8,0:0:0:0:
148,266,63132,1,0,0:0:0:0:
140,189,63232,1,8,0:0:0:0:
126,226,63332,1,0,0:0:0:0:
134,147,63532,1,8,0:0:0:0:
153,157,63632,1,8,0:0:0:0:
142,222,63732,1,0,0:0:0:0:
142,166,63832,1,0,0:0:0:0:
134,232,63932,1,8,0:0:0:0:
138,237,64032,1,0,0:0:0:0:
147,195,64082,1,8,0:0:0:0:
141,183,64132,1,0,0:0:0:0:
140,183,64232,1,8,0:0:0:0:
134,172,64332,1,0,0:0:0:0:
135,162,64432,1,8,0:0:0:0:
110,235,64532,1,8,0:0:0:0:
125,191,64632,1,0,0:0:0:0:
131,204,64732,1,8,0:0:0:0:
101,192,64832,1,0,0:0:0:0:
102,170,64932,1,8,0:0:0:0:
145,191,65232,1,8,0:0:0:0:
165,198,65532,1,8,0:0:0:0:
133,164,65632,1,8,0:0:0:0:
146,183,65832,1,4,0:0:0:0:
146,183,66032,1,4,0:0:0:0:
133,164,66632,1,4,0:0:0:0:
127,166,66832,1,4,0:0:0:0:
150,186,67232,1,8,0:0:0:0:
143,199,68033,1,4,0:0:0:0:
82,235,68832,1,8,0:0:0:0:
92,195,69032,1,4,0:0:0:0:
96,203,69232,1,4,0:0:0:0:
118,242,69532,1,0,0:0:0:0:
105,196,69632,1,8,0:0:0:0:
107,137,69732,1,0,0:0:0:0:
121,227,69832,1,8,0:0:0:0:
107,137,69932,1,0,0:0:0:0:
105,232,70032,1,8,0:0:0:0:
115,180,70132,1,8,0:0:0:0:
111,231,70432,1,8,0:0:0:0:
130,209,70532,1,8,0:0:0:0:
116,269,70632,1,0,0:0:0:0:
140,199,70732,1,0,0:0:0:0:
140,201,70832,1,8,0:0:0:0:
125,187,70932,1,0,0:0:0:0:
127,194,71032,1,8,0:0:0:0:
126,194,71232,1,4,0:0:0:0:
116,198,71432,1,8,0:0:0:0:
112,200,71532,1,8,0:0:0:0:
141,248,71632,1,8,0:0:0:0:
139,192,71832,1,0,0:0:0:0:
139,192,71932,1,8,0:0:0:0:
139,192,72132,1,0,0:0:0:0:
139,192,72232,1,8,0:0:0:0:
139,192,72432,1,0,0:0:0:0:
139,192,72532,1,8,0:0:0:0:
115,215,72732,1,0,0:0:0:0:
149,215,72832,1,8,0:0:0:0:
151,212,72898,1,8,0:0:0:0:
121,205,72965,1,8,0:0:0:0:
139,192,73032,1,0,0:0:0:0:
139,192,73132,1,8,0:0:0:0:
139,192,73332,1,0,0:0:0:0:
139,192,73432,1,8,0:0:0:0:
139,192,73632,1,0,0:0:0:0:
139,192,73732,1,8,0:0:0:0:
160,216,74032,1,8,0:0:0:0:
166,187,74098,1,8,0:0:0:0:
166,187,74165,1,8,0:0:0:0:
201,198,74232,1,8,0:0:0:0:
142,216,74298,1,8,0:0:0:0:
142,216,74365,1,8,0:0:0:0:
139,192,74732,1,0,0:0:0:0:
139,192,74832,1,8,0:0:0:0:
139,192,75032,1,0,0:0:0:0:
139,192,75132,1,8,0:0:0:0:
139,192,75332,1,0,0:0:0:0:
139,192,75432,1,8,0:0:0:0:
139,192,75632,1,0,0:0:0:0:
139,192,75732,1,8,0:0:0:0:
148,217,75932,1,0,0:0:0:0:
148,217,75982,1,0,0:0:0:0:
119,187,76032,1,8,0:0:0:0:
139,192,76232,1,0,0:0:0:0:
139,192,76332,1,8,0:0:0:0:
139,192,76532,1,0,0:0:0:0:
139,192,76632,1,8,0:0:0:0:
96,175,76832,1,8,0:0:0:0:
122,191,76932,1,0,0:0:0:0:
96,179,77032,1,0,0:0:0:0:
121,193,77132,1,8,0:0:0:0:
256,192,77232,12,0,77432,0:0:0:0:
126,194,77632,5,4,0:0:0:0:
116,198,77832,1,8,0:0:0:0:
112,200,77932,1,8,0:0:0:0:
141,248,78032,1,8,0:0:0:0:
139,192,78232,1,0,0:0:0:0:
139,192,78332,1,8,0:0:0:0:
139,192,78532,1,0,0:0:0:0:
139,192,78632,1,8,0:0:0:0:
139,192,78832,1,0,0:0:0:0:
139,192,78932,1,8,0:0:0:0:
115,215,79132,1,0,0:0:0:0:
149,215,79232,1,8,0:0:0:0:
151,212,79298,1,8,0:0:0:0:
121,205,79365,1,8,0:0:0:0:
139,192,79432,1,0,0:0:0:0:
139,192,79532,1,8,0:0:0:0:
139,192,79732,1,0,0:0:0:0:
139,192,79832,1,8,0:0:0:0:
139,192,80032,1,0,0:0:0:0:
139,192,80132,1,8,0:0:0:0:
160,216,80432,1,8,0:0:0:0:
166,187,80498,1,8,0:0:0:0:
166,187,80565,1,8,0:0:0:0:
201,198,80632,1,8,0:0:0:0:
142,216,80698,1,8,0:0:0:0:
142,216,80765,1,8,0:0:0:0:
139,192,81132,1,0,0:0:0:0:
139,192,81232,1,8,0:0:0:0:
139,192,81432,1,0,0:0:0:0:
139,192,81532,1,8,0:0:0:0:
139,192,81732,1,0,0:0:0:0:
139,192,81832,1,8,0:0:0:0:
139,192,82032,1,0,0:0:0:0:
139,192,82132,1,8,0:0:0:0:
117,206,82432,1,8,0:0:0:0:
138,222,82565,1,0,0:0:0:0:
142,234,82698,1,0,0:0:0:0:
146,239,82832,1,8,0:0:0:0:
126,222,82965,1,8,0:0:0:0:
141,244,83098,1,8,0:0:0:0:
146,245,83232,1,0,0:0:0:0:
136,246,83432,1,8,0:0:0:0:
112,235,83532,1,0,0:0:0:0:
116,242,83632,1,8,0:0:0:0:
103,229,83732,1,0,0:0:0:0:
125,248,83832,1,0,0:0:0:0:
115,242,83932,1,8,0:0:0:0:
142,217,84032,1,4,0:0:0:0:
174,277,84232,1,0,0:0:0:0:
166,193,84332,1,0,0:0:0:0:
139,192,84432,1,8,0:0:0:0:
111,216,84632,1,8,0:0:0:0:
119,228,84732,1,0,0:0:0:0:
121,248,84932,1,0,0:0:0:0:
121,190,85032,1,8,0:0:0:0:
123,251,85232,1,8,0:0:0:0:
123,254,85332,1,0,0:0:0:0:
132,222,85532,1,0,0:0:0:0:
128,220,85632,1,8,0:0:0:0:
132,185,85832,1,8,0:0:0:0:
141,247,85932,1,0,0:0:0:0:
136,207,86132,1,0,0:0:0:0:
135,208,86232,1,8,0:0:0:0:
138,185,86432,1,8,0:0:0:0:
151,189,86532,1,0,0:0:0:0:
159,222,86732,1,0,0:0:0:0:
153,217,86832,1,8,0:0:0:0:
141,212,87032,1,8,0:0:0:0:
168,190,87132,1,0,0:0:0:0:
168,190,87232,1,8,0:0:0:0:
168,190,87332,1,0,0:0:0:0:
141,243,87432,1,8,0:0:0:0:
141,245,87532,1,0,0:0:0:0:
141,214,87632,1,8,0:0:0:0:
149,151,87832,1,8,0:0:0:0:
147,166,87932,1,0,0:0:0:0:
142,169,88132,1,0,0:0:0:0:
141,169,88232,1,8,0:0:0:0:
141,170,88432,1,0,0:0:0:0:
142,175,88532,1,8,0:0:0:0:
145,163,88732,1,0,0:0:0:0:
136,147,88832,1,8,0:0:0:0:
119,217,89032,1,8,0:0:0:0:
119,217,89132,1,0,0:0:0:0:
122,209,89232,1,8,0:0:0:0:
152,227,89332,1,0,0:0:0:0:
152,227,89432,1,8,0:0:0:0:
129,183,89632,5,0,0:0:0:0:
145,202,89832,1,0,0:0:0:0:
145,202,89932,1,0,0:0:0:0:
121,238,90032,1,8,0:0:0:0:
133,251,90232,1,8,0:0:0:0:
161,207,90298,1,8,0:0:0:0:
161,207,90365,1,8,0:0:0:0:
107,190,90432,1,0,0:0:0:0:
121,193,90532,1,8,0:0:0:0:
121,193,90582,1,8,0:0:0:0:
116,191,90632,1,0,0:0:0:0:
126,206,90732,1,8,0:0:0:0:
116,251,90832,1,0,0:0:0:0:
120,258,90882,1,0,0:0:0:0:
120,256,90932,1,0,0:0:0:0:
113,220,91032,1,8,0:0:0:0:
136,154,91132,1,0,0:0:0:0:
136,154,91182,1,8,0:0:0:0:
136,154,91232,1,0,0:0:0:0:
125,184,91332,1,8,0:0:0:0:
126,169,91432,1,0,0:0:0:0:
122,172,91482,1,0,0:0:0:0:
139,210,91532,1,8,0:0:0:0:
98,214,91632,1,0,0:0:0:0:
81,181,91732,1,0,0:0:0:0:
140,182,91832,1,8,0:0:0:0:
113,188,91932,1,0,0:0:0:0:
130,182,92032,1,8,0:0:0:0:
135,248,92132,1,0,0:0:0:0:
128,197,92182,1,0,0:0:0:0:
127,203,92232,1,8,0:0:0:0:
129,215,92332,1,0,0:0:0:0:
138,219,92432,1,8,0:0:0:0:
125,225,92482,1,8,0:0:0:0:
154,208,92532,1,8,0:0:0:0:
125,155,92632,1,0,0:0:0:0:
128,172,92732,1,8,0:0:0:0:
118,175,92782,1,0,0:0:0:0:
116,180,92832,1,8,0:0:0:0:
50,168,92932,1,0,0:0:0:0:
110,163,93032,1,8,0:0:0:0:
126,190,93082,1,8,0:0:0:0:
121,180,93132,1,0,0:0:0:0:
134,212,93232,1,8,0:0:0:0:
135,214,93332,1,8,0:0:0:0:
139,212,93432,1,0,0:0:0:0:
122,221,93532,1,0,0:0:0:0:
136,197,93632,1,8,0:0:0:0:
126,171,93682,1,8,0:0:0:0:
174,159,93732,1,0,0:0:0:0:
115,192,93782,1,8,0:0:0:0:
118,202,93832,1,0,0:0:0:0:
119,203,93882,1,0,0:0:0:0:
139,232,93932,1,8,0:0:0:0:
153,200,93982,1,8,0:0:0:0:
151,235,94032,1,8,0:0:0:0:
156,238,94082,1,8,0:0:0:0:
160,239,94132,1,0,0:0:0:0:
115,237,94232,1,8,0:0:0:0:
110,217,94332,1,8,0:0:0:0:
167,178,94432,1,0,0:0:0:0:
167,178,94482,1,0,0:0:0:0:
136,180,94532,1,8,0:0:0:0:
162,174,94582,1,0,0:0:0:0:
162,173,94632,1,8,0:0:0:0:
162,173,94682,1,8,0:0:0:0:
163,173,94732,1,0,0:0:0:0:
129,172,94782,1,0,0:0:0:0:
150,198,94832,1,0,0:0:0:0:
102,205,94882,1,0,0:0:0:0:
98,201,94932,1,8,0:0:0:0:
99,208,95032,1,0,0:0:0:0:
111,229,95132,1,0,0:0:0:0:
91,121,95233,2,4,L|212:121,7,105.000004005432
125,244,96832,5,4,0:0:0:0:
163,163,97032,1,8,0:0:0:0:
125,244,97082,1,8,0:0:0:0:
117,243,97132,1,0,0:0:0:0:
128,251,97182,1,0,0:0:0:0:
102,175,97232,1,8,0:0:0:0:
137,209,97432,1,8,0:0:0:0:
106,168,97532,1,8,0:0:0:0:
106,183,97632,5,8,0:0:0:0:
137,165,97732,1,8,0:0:0:0:
125,239,97832,1,0,0:0:0:0:
125,209,97932,1,8,0:0:0:0:
125,239,98032,1,0,0:0:0:0:
98,199,98132,1,0,0:0:0:0:
130,227,98232,1,8,0:0:0:0:
130,227,98332,1,8,0:0:0:0:
89,249,98432,1,8,0:0:0:0:
113,204,98532,1,8,0:0:0:0:
113,209,98632,1,0,0:0:0:0:
131,153,98732,1,8,0:0:0:0:
133,167,98832,1,0,0:0:0:0:
114,241,98932,1,0,0:0:0:0:
114,222,99032,1,8,0:0:0:0:
115,217,99132,1,8,0:0:0:0:
99,190,99232,1,0,0:0:0:0:
117,246,99332,1,8,0:0:0:0:
122,251,99432,1,8,0:0:0:0:
123,251,99532,1,8,0:0:0:0:
127,252,99632,1,0,0:0:0:0:
118,202,99732,1,8,0:0:0:0:
56,271,100032,1,4,0:0:0:0:
99,229,100232,1,8,0:0:0:0:
121,191,100282,1,8,0:0:0:0:
117,251,100332,1,0,0:0:0:0:
90,240,100382,1,0,0:0:0:0:
105,229,100432,1,8,0:0:0:0:
112,224,100632,1,8,0:0:0:0:
114,281,100732,1,8,0:0:0:0:
106,183,100832,5,8,0:0:0:0:
137,165,100932,1,8,0:0:0:0:
125,239,101032,1,0,0:0:0:0:
125,209,101132,1,8,0:0:0:0:
125,239,101232,1,0,0:0:0:0:
98,199,101332,1,0,0:0:0:0:
130,227,101432,1,8,0:0:0:0:
130,227,101532,1,8,0:0:0:0:
89,249,101632,1,8,0:0:0:0:
113,204,101732,1,8,0:0:0:0:
113,209,101832,1,0,0:0:0:0:
131,153,101932,1,8,0:0:0:0:
133,167,102032,1,0,0:0:0:0:
114,241,102132,1,0,0:0:0:0:
114,222,102232,1,8,0:0:0:0:
115,217,102332,1,8,0:0:0:0:
99,190,102432,1,0,0:0:0:0:
117,246,102532,1,8,0:0:0:0:
126,208,102632,1,0,0:0:0:0:
115,252,102732,1,0,0:0:0:0:
129,256,102832,1,8,0:0:0:0:
94,243,102932,1,0,0:0:0:0:
94,204,103232,1,4,0:0:0:0:
126,208,103432,1,8,0:0:0:0:
93,197,103482,1,8,0:0:0:0:
94,204,103532,1,0,0:0:0:0:
94,204,103582,1,0,0:0:0:0:
94,204,103632,1,8,0:0:0:0:
137,209,103832,1,8,0:0:0:0:
106,168,103932,1,8,0:0:0:0:
106,183,104032,5,8,0:0:0:0:
137,165,104132,1,8,0:0:0:0:
125,239,104232,1,0,0:0:0:0:
125,209,104332,1,8,0:0:0:0:
125,239,104432,1,0,0:0:0:0:
98,199,104532,1,0,0:0:0:0:
130,227,104632,1,8,0:0:0:0:
130,227,104732,1,8,0:0:0:0:
89,249,104832,1,8,0:0:0:0:
113,204,104932,1,8,0:0:0:0:
113,209,105032,1,0,0:0:0:0:
131,153,105132,1,8,0:0:0:0:
133,167,105232,1,0,0:0:0:0:
114,241,105332,1,0,0:0:0:0:
114,222,105432,1,8,0:0:0:0:
115,217,105532,1,8,0:0:0:0:
99,190,105632,1,0,0:0:0:0:
117,246,105732,1,8,0:0:0:0:
122,251,105832,1,8,0:0:0:0:
123,251,105932,1,8,0:0:0:0:
127,252,106032,1,0,0:0:0:0:
118,202,106132,1,8,0:0:0:0:
56,271,106432,1,4,0:0:0:0:
86,251,106632,1,8,0:0:0:0:
124,226,106682,1,8,0:0:0:0:
56,200,106732,1,0,0:0:0:0:
56,200,106782,1,0,0:0:0:0:
105,229,106832,1,8,0:0:0:0:
112,224,107032,1,8,0:0:0:0:
114,281,107132,1,8,0:0:0:0:
106,183,107232,5,8,0:0:0:0:
137,165,107332,1,8,0:0:0:0:
125,239,107432,1,0,0:0:0:0:
125,209,107532,1,8,0:0:0:0:
125,239,107632,1,0,0:0:0:0:
98,199,107732,1,0,0:0:0:0:
130,227,107832,1,8,0:0:0:0:
130,227,107932,1,8,0:0:0:0:
89,249,108032,1,8,0:0:0:0:
113,204,108132,1,8,0:0:0:0:
113,209,108232,1,0,0:0:0:0:
154,201,108282,1,0,0:0:0:0:
131,153,108332,1,8,0:0:0:0:
133,167,108432,1,0,0:0:0:0:
126,185,108532,1,0,0:0:0:0:
149,272,108632,1,8,0:0:0:0:
160,219,108682,1,8,0:0:0:0:
110,175,108732,1,0,0:0:0:0:
130,162,108832,1,8,0:0:0:0:
154,232,108898,1,8,0:0:0:0:
121,232,108965,1,0,0:0:0:0:
148,229,109032,1,8,0:0:0:0:
130,238,109098,1,0,0:0:0:0:
131,239,109165,1,0,0:0:0:0:
131,239,109232,1,8,0:0:0:0:
109,205,109365,1,0,0:0:0:0:
107,202,109498,1,0,0:0:0:0:
103,222,109632,1,12,0:0:0:0:
146,244,111232,1,0,0:0:0:0:
132,214,112032,1,0,0:0:0:0:
130,225,112132,1,0,0:0:0:0:
127,232,112232,1,0,0:0:0:0:
122,232,112332,1,0,0:0:0:0:
143,246,112432,1,8,0:0:0:0:
148,236,112532,1,8,0:0:0:0:
146,235,112632,1,8,0:0:0:0:
157,241,112732,1,8,0:0:0:0:
124,239,112832,1,0,0:0:0:0:
124,233,114432,1,0,0:0:0:0:
137,197,115232,1,0,0:0:0:0:
130,262,115332,1,8,0:0:0:0:
137,197,115432,1,0,0:0:0:0:
127,266,115532,1,8,0:0:0:0:
137,197,115632,1,0,0:0:0:0:
131,278,115732,1,8,0:0:0:0:
137,197,115832,1,0,0:0:0:0:
126,273,115932,1,8,0:0:0:0:
132,287,116032,1,0,0:0:0:0:
143,220,117632,1,0,0:0:0:0:
139,249,118432,1,0,0:0:0:0:
139,249,118532,1,0,0:0:0:0:
209,208,118632,1,8,0:0:0:0:
137,258,118732,1,8,0:0:0:0:
149,257,118832,1,0,0:0:0:0:
149,257,118932,1,0,0:0:0:0:
154,274,119032,1,8,0:0:0:0:
150,278,119132,1,8,0:0:0:0:
184,244,119232,1,0,0:0:0:0:
140,238,120832,1,0,0:0:0:0:
125,228,121632,1,8,0:0:0:0:
137,253,121732,1,8,0:0:0:0:
138,258,121832,1,8,0:0:0:0:
148,279,121932,1,8,0:0:0:0:
149,280,122032,1,8,0:0:0:0:
137,262,122132,1,8,0:0:0:0:
137,263,122232,1,8,0:0:0:0:
137,263,122332,1,8,0:0:0:0:
156,225,122432,1,0,0:0:0:0:
156,256,123332,1,8,0:0:0:0:
156,265,123532,1,0,0:0:0:0:
149,253,123732,1,8,0:0:0:0:
134,283,123932,1,0,0:0:0:0:
134,283,124932,1,0,0:0:0:0:
149,253,125132,1,8,0:0:0:0:
156,256,125332,1,8,0:0:0:0:
156,265,125532,1,0,0:0:0:0:
101,245,126832,1,0,0:0:0:0:
101,250,127032,1,8,0:0:0:0:
145,298,127832,1,0,0:0:0:0:
131,171,127932,1,8,0:0:0:0:
117,209,128032,1,8,0:0:0:0:
134,283,128132,1,0,0:0:0:0:
149,253,128332,1,0,0:0:0:0:
156,256,128532,1,0,0:0:0:0:
156,265,128732,1,8,0:0:0:0:
156,256,129732,1,0,0:0:0:0:
156,265,129932,1,0,0:0:0:0:
149,253,130132,1,8,0:0:0:0:
134,283,130332,1,0,0:0:0:0:
134,283,131332,1,0,0:0:0:0:
149,253,131532,1,8,0:0:0:0:
156,256,131732,1,8,0:0:0:0:
156,265,131932,1,0,0:0:0:0:
158,231,133232,1,8,0:0:0:0:
155,223,133432,1,0,0:0:0:0:
145,298,134232,1,0,0:0:0:0:
131,171,134332,1,0,0:0:0:0:
117,209,134432,1,0,0:0:0:0:
134,283,134532,1,8,0:0:0:0:
149,253,134732,1,8,0:0:0:0:
156,256,134932,1,0,0:0:0:0:
156,265,135132,1,8,0:0:0:0:
156,256,136132,1,8,0:0:0:0:
156,265,136332,1,0,0:0:0:0:
149,253,136532,1,8,0:0:0:0:
134,283,136732,1,0,0:0:0:0:
134,283,137732,1,0,0:0:0:0:
149,253,137932,1,8,0:0:0:0:
156,256,138132,1,8,0:0:0:0:
156,265,138332,1,0,0:0:0:0:
101,245,139632,1,0,0:0:0:0:
101,250,139832,1,8,0:0:0:0:
145,298,140632,1,0,0:0:0:0:
131,171,140732,1,8,0:0:0:0:
117,209,140832,1,8,0:0:0:0:
134,283,140932,1,0,0:0:0:0:
149,253,141132,1,0,0:0:0:0:
156,256,141332,1,0,0:0:0:0:
156,265,141532,1,8,0:0:0:0:
156,256,142532,1,0,0:0:0:0:
156,265,142732,1,0,0:0:0:0:
149,253,142932,1,8,0:0:0:0:
134,283,143132,1,8,0:0:0:0:
149,253,144132,1,8,0:0:0:0:
134,283,144332,1,0,0:0:0:0:
183,220,144532,1,0,0:0:0:0:
156,265,144732,1,0,0:0:0:0:
145,298,145432,1,0,0:0:0:0:
131,171,145532,1,0,0:0:0:0:
117,209,145632,1,8,0:0:0:0:
134,283,145732,1,0,0:0:0:0:
149,253,145932,1,8,0:0:0:0:
156,256,146132,1,0,0:0:0:0:
156,265,146332,1,8,0:0:0:0:
145,298,147032,1,8,0:0:0:0:
147,152,147132,1,8,0:0:0:0:
117,209,147232,1,0,0:0:0:0:
134,283,147332,1,8,0:0:0:0:
149,253,147532,1,0,0:0:0:0:
156,256,147732,1,8,0:0:0:0:
172,246,147932,1,0,0:0:0:0:
130,218,148032,1,8,0:0:0:0:
139,228,148132,1,0,0:0:0:0:
139,228,148232,1,8,0:0:0:0:
140,227,148332,1,8,0:0:0:0:
153,208,148432,1,0,0:0:0:0:
109,180,148532,1,8,0:0:0:0:
134,191,148632,1,0,0:0:0:0:
135,192,148732,1,0,0:0:0:0:
128,164,148832,1,8,0:0:0:0:
127,171,148932,1,0,0:0:0:0:
136,215,149032,1,8,0:0:0:0:
136,215,149132,1,8,0:0:0:0:
120,210,149232,1,0,0:0:0:0:
121,210,149332,1,8,0:0:0:0:
126,226,149432,1,0,0:0:0:0:
115,212,149532,1,8,0:0:0:0:
117,216,149632,1,0,0:0:0:0:
117,216,149732,1,8,0:0:0:0:
117,216,149832,1,0,0:0:0:0:
118,216,149932,1,8,0:0:0:0:
118,216,150032,1,0,0:0:0:0:
109,201,150132,1,8,0:0:0:0:
112,202,150232,1,0,0:0:0:0:
108,197,150332,1,0,0:0:0:0:
108,198,150432,1,8,0:0:0:0:
107,252,150532,1,0,0:0:0:0:
111,255,150732,1,8,0:0:0:0:
113,255,150932,1,0,0:0:0:0:
113,255,151132,1,8,0:0:0:0:
377,183,151232,5,4,0:0:0:0:
385,226,152032,1,8,0:0:0:0:
391,224,152132,1,0,0:0:0:0:
390,217,152332,1,0,0:0:0:0:
402,204,152532,1,8,0:0:0:0:
379,219,152732,1,0,0:0:0:0:
411,231,153632,1,0,0:0:0:0:
388,163,153732,1,8,0:0:0:0:
425,212,153932,1,0,0:0:0:0:
395,203,154132,1,8,0:0:0:0:
407,209,154332,1,0,0:0:0:0:
377,218,155232,1,0,0:0:0:0:
378,207,156032,1,0,0:0:0:0:
369,191,156632,1,0,0:0:0:0:
337,208,156732,1,8,0:0:0:0:
337,208,156832,1,8,0:0:0:0:
369,191,156932,1,0,0:0:0:0:
377,199,157132,1,8,0:0:0:0:
376,198,157332,1,8,0:0:0:0:
402,209,157532,1,0,0:0:0:0:
397,197,158432,1,0,0:0:0:0:
384,178,158532,1,8,0:0:0:0:
384,178,158732,1,8,0:0:0:0:
407,209,158932,1,0,0:0:0:0:
406,209,159132,1,0,0:0:0:0:
396,190,160032,1,8,0:0:0:0:
422,212,160132,1,0,0:0:0:0:
404,215,160332,1,8,0:0:0:0:
404,214,160532,1,8,0:0:0:0:
419,216,160732,1,0,0:0:0:0:
349,175,161632,1,0,0:0:0:0:
352,164,162432,1,0,0:0:0:0:
339,187,163032,1,0,0:0:0:0:
339,187,163132,1,0,0:0:0:0:
378,196,163232,1,8,0:0:0:0:
339,187,163332,1,0,0:0:0:0:
360,191,163532,1,8,0:0:0:0:
370,176,163732,1,0,0:0:0:0:
360,191,163932,1,8,0:0:0:0:
334,192,164832,1,8,0:0:0:0:
372,175,164932,1,0,0:0:0:0:
350,186,165132,1,0,0:0:0:0:
356,185,165332,1,8,0:0:0:0:
350,186,165532,1,0,0:0:0:0:
309,171,166432,1,0,0:0:0:0:
347,174,166532,1,8,0:0:0:0:
338,186,166732,1,0,0:0:0:0:
348,182,166932,1,8,0:0:0:0:
338,185,167132,1,0,0:0:0:0:
305,189,168032,1,0,0:0:0:0:
305,189,168832,1,0,0:0:0:0:
317,185,169432,1,8,0:0:0:0:
343,182,169532,1,0,0:0:0:0:
317,185,169632,1,8,0:0:0:0:
349,178,169732,1,0,0:0:0:0:
338,183,169932,1,8,0:0:0:0:
338,182,170132,1,8,0:0:0:0:
343,182,170332,1,0,0:0:0:0:
400,187,171232,1,0,0:0:0:0:
371,197,171332,1,8,0:0:0:0:
325,186,171532,1,8,0:0:0:0:
248,193,171732,1,0,0:0:0:0:
321,193,171932,1,0,0:0:0:0:
399,184,172832,1,8,0:0:0:0:
374,185,172932,1,0,0:0:0:0:
434,191,173132,1,8,0:0:0:0:
434,191,173332,1,8,0:0:0:0:
439,191,173532,1,0,0:0:0:0:
377,185,174232,1,0,0:0:0:0:
413,189,174432,1,8,0:0:0:0:
406,182,174532,1,0,0:0:0:0:
437,187,174732,1,8,0:0:0:0:
406,186,174932,1,0,0:0:0:0:
441,188,175132,1,8,0:0:0:0:
381,204,176032,1,0,0:0:0:0:
422,196,176132,1,8,0:0:0:0:
395,204,176332,1,0,0:0:0:0:
395,204,176532,1,0,0:0:0:0:
435,187,176732,1,8,0:0:0:0:
298,175,177432,1,0,0:0:0:0:
308,201,178032,1,8,0:0:0:0:
256,192,178432,12,0,178832,0:0:0:0:
385,225,179032,5,0,0:0:0:0:
376,217,179132,1,8,0:0:0:0:
430,192,179332,1,0,0:0:0:0:
370,217,179432,1,8,0:0:0:0:
402,255,179632,1,0,0:0:0:0:
345,172,180032,5,4,0:0:0:0:
385,225,180232,1,8,0:0:0:0:
436,239,180282,1,0,0:0:0:0:
368,212,180332,1,8,0:0:0:0:
396,212,180432,1,0,0:0:0:0:
396,212,180532,1,0,0:0:0:0:
401,209,180632,1,8,0:0:0:0:
401,209,180732,1,8,0:0:0:0:
414,211,180832,1,0,0:0:0:0:
363,182,180932,1,8,0:0:0:0:
367,226,181032,1,0,0:0:0:0:
409,187,181082,1,8,0:0:0:0:
367,226,181132,1,0,0:0:0:0:
404,196,181232,1,8,0:0:0:0:
404,196,181332,1,8,0:0:0:0:
374,209,181432,1,0,0:0:0:0:
374,209,181532,1,0,0:0:0:0:
389,203,181632,1,8,0:0:0:0:
378,210,181732,1,0,0:0:0:0:
396,220,181832,1,8,0:0:0:0:
397,210,181882,1,0,0:0:0:0:
396,220,181932,1,8,0:0:0:0:
406,223,182032,1,0,0:0:0:0:
425,205,182132,1,0,0:0:0:0:
426,215,182232,1,8,0:0:0:0:
426,215,182332,1,8,0:0:0:0:
365,198,182432,1,0,0:0:0:0:
426,215,182532,1,8,0:0:0:0:
408,210,182632,1,0,0:0:0:0:
423,211,182682,1,8,0:0:0:0:
408,210,182732,1,0,0:0:0:0:
414,234,182832,1,8,0:0:0:0:
428,198,182898,1,0,0:0:0:0:
428,198,182965,1,0,0:0:0:0:
403,224,183032,1,8,0:0:0:0:
409,192,183232,1,0,0:0:0:0:
409,192,183332,1,0,0:0:0:0:
428,187,183432,1,8,0:0:0:0:
428,187,183482,1,8,0:0:0:0:
413,216,183532,1,0,0:0:0:0:
381,235,183632,1,8,0:0:0:0:
397,215,183732,1,0,0:0:0:0:
407,206,183832,1,8,0:0:0:0:
407,206,183932,1,8,0:0:0:0:
406,214,184032,1,0,0:0:0:0:
414,207,184132,1,8,0:0:0:0:
443,186,184232,1,0,0:0:0:0:
413,205,184282,1,0,0:0:0:0:
400,227,184332,1,8,0:0:0:0:
397,215,184432,1,0,0:0:0:0:
435,212,184532,1,8,0:0:0:0:
354,193,184632,1,0,0:0:0:0:
420,194,184732,1,0,0:0:0:0:
401,192,184832,1,8,0:0:0:0:
411,201,184932,1,0,0:0:0:0:
383,184,185032,1,8,0:0:0:0:
403,184,185082,1,8,0:0:0:0:
413,205,185132,1,0,0:0:0:0:
419,211,185232,1,8,0:0:0:0:
422,188,185332,1,0,0:0:0:0:
419,211,185432,1,8,0:0:0:0:
419,211,185532,1,8,0:0:0:0:
383,201,185632,1,0,0:0:0:0:
399,198,185832,1,0,0:0:0:0:
384,247,185932,1,0,0:0:0:0:
427,228,186032,1,8,0:0:0:0:
132,163,186232,1,8,0:0:0:0:
429,228,186298,1,8,0:0:0:0:
427,228,186365,1,8,0:0:0:0:
418,197,186432,1,4,0:0:0:0:
408,206,186632,1,8,0:0:0:0:
389,206,186732,1,8,0:0:0:0:
390,216,186832,1,0,0:0:0:0:
420,204,186898,1,8,0:0:0:0:
420,204,186965,1,8,0:0:0:0:
489,194,187032,1,0,0:0:0:0:
397,155,187132,1,8,0:0:0:0:
438,201,187198,1,0,0:0:0:0:
438,201,187265,1,0,0:0:0:0:
397,215,187332,1,8,0:0:0:0:
417,214,187432,1,0,0:0:0:0:
417,214,187498,1,0,0:0:0:0:
458,206,187565,1,8,0:0:0:0:
466,210,187632,1,0,0:0:0:0:
494,204,187732,1,8,0:0:0:0:
494,204,187798,1,8,0:0:0:0:
417,206,187865,1,0,0:0:0:0:
443,199,187932,1,8,0:0:0:0:
414,206,188032,1,0,0:0:0:0:
414,206,188098,1,0,0:0:0:0:
450,209,188165,1,8,0:0:0:0:
450,209,188232,1,8,0:0:0:0:
448,207,188332,1,0,0:0:0:0:
448,207,188398,1,8,0:0:0:0:
485,198,188465,1,8,0:0:0:0:
485,198,188532,1,0,0:0:0:0:
434,199,188632,1,8,0:0:0:0:
434,199,188698,1,8,0:0:0:0:
446,205,188765,1,0,0:0:0:0:
446,205,188832,1,0,0:0:0:0:
414,197,188932,1,8,0:0:0:0:
418,195,188998,1,0,0:0:0:0:
462,180,189065,1,0,0:0:0:0:
456,181,189132,1,8,0:0:0:0:
405,183,189232,1,0,0:0:0:0:
412,183,189332,1,0,0:0:0:0:
417,184,189432,1,8,0:0:0:0:
417,184,189498,1,8,0:0:0:0:
417,184,189565,1,8,0:0:0:0:
372,204,189632,1,0,0:0:0:0:
402,205,189832,1,8,0:0:0:0:
348,194,189898,1,0,0:0:0:0:
348,205,189965,1,0,0:0:0:0:
403,204,190032,1,8,0:0:0:0:
388,184,190132,1,0,0:0:0:0:
414,200,190232,1,8,0:0:0:0:
414,200,190332,1,8,0:0:0:0:
388,184,190432,1,0,0:0:0:0:
388,184,190532,1,0,0:0:0:0:
394,200,190632,1,8,0:0:0:0:
411,198,190698,1,0,0:0:0:0:
411,198,190765,1,0,0:0:0:0:
390,194,190832,1,8,0:0:0:0:
402,184,190932,1,0,0:0:0:0:
392,215,191032,1,8,0:0:0:0:
391,215,191132,1,8,0:0:0:0:
410,211,191232,1,0,0:0:0:0:
411,211,191332,1,0,0:0:0:0:
345,191,191432,1,0,0:0:0:0:
345,191,191532,1,0,0:0:0:0:
447,208,191632,1,8,0:0:0:0:
447,208,191732,1,8,0:0:0:0:
432,223,191832,1,8,0:0:0:0:
441,200,191932,1,8,0:0:0:0:
417,201,192032,1,4,0:0:0:0:
412,201,192165,1,4,0:0:0:0:
412,201,192298,1,4,0:0:0:0:
397,223,192432,1,12,0:0:0:0:
397,223,192565,1,12,0:0:0:0:
397,223,192698,1,12,0:0:0:0:
419,205,192832,1,4,0:0:0:0:
402,208,193632,1,8,0:0:0:0:
433,209,193732,1,0,0:0:0:0:
395,197,193932,1,8,0:0:0:0:
367,197,194132,1,0,0:0:0:0:
426,197,194232,1,8,0:0:0:0:
405,202,194332,1,8,0:0:0:0:
367,197,194432,1,0,0:0:0:0:
405,202,194532,1,8,0:0:0:0:
426,197,194732,1,8,0:0:0:0:
360,201,194932,1,0,0:0:0:0:
446,207,195032,1,8,0:0:0:0:
360,201,195132,1,0,0:0:0:0:
360,201,195232,1,0,0:0:0:0:
435,192,195332,1,8,0:0:0:0:
462,191,195532,1,8,0:0:0:0:
412,225,195732,1,0,0:0:0:0:
412,225,195832,1,0,0:0:0:0:
452,211,195932,1,8,0:0:0:0:
412,225,196032,1,0,0:0:0:0:
470,212,196132,1,8,0:0:0:0:
402,208,196332,1,8,0:0:0:0:
446,228,196532,1,0,0:0:0:0:
440,229,196632,1,8,0:0:0:0:
440,229,196698,1,8,0:0:0:0:
418,220,196765,1,0,0:0:0:0:
417,204,196832,1,0,0:0:0:0:
407,204,196898,1,8,0:0:0:0:
408,238,196965,1,0,0:0:0:0:
369,222,197032,1,8,0:0:0:0:
370,215,197098,1,8,0:0:0:0:
371,215,197165,1,0,0:0:0:0:
405,221,197232,1,8,0:0:0:0:
390,223,197298,1,0,0:0:0:0:
390,223,197365,1,0,0:0:0:0:
352,247,197432,1,8,0:0:0:0:
418,254,197532,1,8,0:0:0:0:
409,233,197632,1,4,0:0:0:0:
409,233,197732,1,4,0:0:0:0:
400,236,198032,1,4,0:0:0:0:
400,236,198132,1,4,0:0:0:0:
419,237,198432,1,8,0:0:0:0:
338,228,198532,1,0,0:0:0:0:
374,242,198732,1,8,0:0:0:0:
443,210,198932,1,0,0:0:0:0:
416,204,199132,1,0,0:0:0:0:
393,228,199232,1,12,0:0:0:0:
418,218,199432,1,0,0:0:0:0:
422,220,199532,1,8,0:0:0:0:
418,218,199632,1,0,0:0:0:0:
422,220,199832,1,8,0:0:0:0:
376,201,199932,1,8,0:0:0:0:
385,217,200032,1,0,0:0:0:0:
418,218,200132,1,8,0:0:0:0:
418,218,200332,1,8,0:0:0:0:
423,229,200432,1,0,0:0:0:0:
418,218,200532,1,8,0:0:0:0:
422,220,200732,1,8,0:0:0:0:
411,195,200832,1,0,0:0:0:0:
411,195,201032,1,8,0:0:0:0:
411,195,201132,1,8,0:0:0:0:
433,182,201232,1,0,0:0:0:0:
394,207,201432,1,8,0:0:0:0:
437,186,201532,1,0,0:0:0:0:
438,186,201632,1,0,0:0:0:0:
393,206,201732,1,8,0:0:0:0:
407,214,201932,1,8,0:0:0:0:
431,186,202032,1,0,0:0:0:0:
365,198,202132,1,8,0:0:0:0:
410,187,202332,1,8,0:0:0:0:
429,189,202432,1,0,0:0:0:0:
155,255,202632,1,8,0:0:0:0:
156,268,202682,1,8,0:0:0:0:
154,268,202732,1,0,0:0:0:0:
155,266,202782,1,0,0:0:0:0:
154,266,202832,1,8,0:0:0:0:
130,223,202932,1,0,0:0:0:0:
130,223,203032,1,8,0:0:0:0:
130,223,203082,1,8,0:0:0:0:
132,259,203132,1,0,0:0:0:0:
122,274,203182,1,0,0:0:0:0:
121,274,203232,1,8,0:0:0:0:
105,221,203332,1,8,0:0:0:0:
132,268,203432,1,0,0:0:0:0:
155,270,203482,1,0,0:0:0:0:
130,213,203532,1,8,0:0:0:0:
125,216,203582,1,8,0:0:0:0:
113,224,203632,1,0,0:0:0:0:
103,257,203732,1,8,0:0:0:0:
174,244,203832,1,0,0:0:0:0:
414,185,203882,1,0,0:0:0:0:
112,232,203932,1,8,0:0:0:0:
111,232,203982,1,8,0:0:0:0:
107,239,204033,1,0,0:0:0:0:
107,239,204132,1,0,0:0:0:0:
163,207,204232,1,8,0:0:0:0:
163,207,204282,1,8,0:0:0:0:
427,187,204332,1,8,0:0:0:0:
427,187,204382,1,8,0:0:0:0:
434,218,204432,1,0,0:0:0:0:
400,174,204632,1,0,0:0:0:0:
421,207,204732,1,8,0:0:0:0:
407,226,204832,1,8,0:0:0:0:
477,207,204932,1,0,0:0:0:0:
420,231,205132,1,0,0:0:0:0:
434,216,205232,1,8,0:0:0:0:
420,231,205332,1,0,0:0:0:0:
420,227,205532,1,0,0:0:0:0:
437,211,205632,1,12,0:0:0:0:
418,218,205832,1,0,0:0:0:0:
422,220,205932,1,8,0:0:0:0:
418,218,206032,1,0,0:0:0:0:
422,220,206232,1,8,0:0:0:0:
376,201,206332,1,8,0:0:0:0:
385,217,206432,1,0,0:0:0:0:
418,218,206532,1,8,0:0:0:0:
418,218,206732,1,8,0:0:0:0:
423,229,206832,1,0,0:0:0:0:
418,218,206932,1,8,0:0:0:0:
422,220,207132,1,8,0:0:0:0:
411,195,207232,1,0,0:0:0:0:
411,195,207432,1,8,0:0:0:0:
411,195,207532,1,8,0:0:0:0:
433,182,207632,1,0,0:0:0:0:
394,207,207832,1,8,0:0:0:0:
437,186,207932,1,0,0:0:0:0:
438,186,208032,1,0,0:0:0:0:
393,206,208132,1,8,0:0:0:0:
407,214,208332,1,8,0:0:0:0:
431,186,208432,1,0,0:0:0:0:
365,198,208532,1,8,0:0:0:0:
410,187,208732,1,8,0:0:0:0:
429,189,208832,1,0,0:0:0:0:
441,206,209032,1,8,0:0:0:0:
359,195,209082,1,0,0:0:0:0:
365,198,209132,1,0,0:0:0:0:
365,198,209182,1,0,0:0:0:0:
469,189,209232,1,8,0:0:0:0:
369,181,209332,1,0,0:0:0:0:
446,204,209432,1,8,0:0:0:0:
405,204,209482,1,0,0:0:0:0:
418,204,209532,1,0,0:0:0:0:
418,204,209582,1,0,0:0:0:0:
417,188,209632,1,8,0:0:0:0:
410,186,209732,1,8,0:0:0:0:
454,222,209832,1,0,0:0:0:0:
391,190,209882,1,8,0:0:0:0:
499,192,209932,1,8,0:0:0:0:
391,190,209982,1,8,0:0:0:0:
453,194,210032,1,0,0:0:0:0:
469,189,210132,1,8,0:0:0:0:
450,192,210232,1,0,0:0:0:0:
398,189,210282,1,8,0:0:0:0:
439,174,210332,1,8,0:0:0:0:
397,176,210382,1,8,0:0:0:0:
437,218,210433,1,0,0:0:0:0:
423,180,210532,1,0,0:0:0:0:
471,230,210632,1,8,0:0:0:0:
430,197,210682,1,8,0:0:0:0:
430,195,210732,1,8,0:0:0:0:
431,192,210782,1,8,0:0:0:0:
429,195,210832,1,0,0:0:0:0:
400,174,211032,1,0,0:0:0:0:
421,207,211132,1,8,0:0:0:0:
407,226,211232,1,8,0:0:0:0:
477,207,211332,1,0,0:0:0:0:
420,231,211532,1,0,0:0:0:0:
434,216,211632,1,8,0:0:0:0:
420,231,211732,1,0,0:0:0:0:
420,227,211932,1,0,0:0:0:0:
437,211,212032,1,12,0:0:0:0:
448,221,212232,1,0,0:0:0:0:
457,230,212332,1,0,0:0:0:0:
429,217,212432,1,8,0:0:0:0:
373,203,212632,1,0,0:0:0:0:
397,205,212732,1,8,0:0:0:0:
365,209,212832,1,0,0:0:0:0:
397,205,212932,1,8,0:0:0:0:
417,204,213132,1,0,0:0:0:0:
438,221,213232,1,8,0:0:0:0:
439,221,213332,1,8,0:0:0:0:
447,225,213532,1,8,0:0:0:0:
407,222,213632,1,0,0:0:0:0:
405,225,213732,1,8,0:0:0:0:
445,211,213832,1,0,0:0:0:0:
441,211,213932,1,0,0:0:0:0:
405,225,214032,1,8,0:0:0:0:
445,207,214232,1,8,0:0:0:0:
407,222,214332,1,0,0:0:0:0:
445,207,214432,1,8,0:0:0:0:
445,211,214532,1,8,0:0:0:0:
462,220,214732,1,0,0:0:0:0:
441,211,214832,1,8,0:0:0:0:
445,207,214932,1,8,0:0:0:0:
462,229,215132,1,8,0:0:0:0:
451,216,215232,1,0,0:0:0:0:
439,215,215432,1,8,0:0:0:0:
397,283,215482,1,8,0:0:0:0:
423,206,215532,1,0,0:0:0:0:
423,206,215582,1,0,0:0:0:0:
439,217,215632,1,8,0:0:0:0:
428,189,215732,1,0,0:0:0:0:
419,186,215832,1,8,0:0:0:0:
358,120,215882,1,8,0:0:0:0:
367,188,215932,1,0,0:0:0:0:
425,205,215982,1,0,0:0:0:0:
437,200,216032,1,8,0:0:0:0:
448,209,216132,1,8,0:0:0:0:
439,215,216232,1,0,0:0:0:0:
435,210,216282,1,0,0:0:0:0:
463,197,216332,1,8,0:0:0:0:
463,197,216382,1,8,0:0:0:0:
466,188,216432,1,0,0:0:0:0:
406,183,216532,1,8,0:0:0:0:
392,206,216632,1,0,0:0:0:0:
386,208,216682,1,0,0:0:0:0:
391,203,216732,1,8,0:0:0:0:
427,212,216782,1,8,0:0:0:0:
440,217,216833,1,0,0:0:0:0:
382,211,216932,1,0,0:0:0:0:
439,215,217032,1,8,0:0:0:0:
434,221,217082,1,8,0:0:0:0:
434,220,217132,1,8,0:0:0:0:
434,220,217182,1,8,0:0:0:0:
410,206,217232,1,0,0:0:0:0:
413,214,217432,1,0,0:0:0:0:
413,214,217532,1,0,0:0:0:0:
413,214,217632,1,8,0:0:0:0:
413,215,217732,1,0,0:0:0:0:
407,220,217932,1,8,0:0:0:0:
407,220,218032,1,8,0:0:0:0:
479,215,218132,1,0,0:0:0:0:
409,207,218332,1,0,0:0:0:0:
407,201,218432,1,12,0:0:0:0:
424,223,218732,1,4,0:0:0:0:
396,216,219032,1,12,0:0:0:0:
436,220,219232,1,0,0:0:0:0:
427,209,219332,1,0,0:0:0:0:
385,233,219532,1,0,0:0:0:0:
396,242,219633,1,8,0:0:0:0:
396,242,219698,1,8,0:0:0:0:
396,242,219765,1,8,0:0:0:0:
400,200,219832,1,0,0:0:0:0:
375,240,220032,1,12,0:0:0:0:
430,252,220332,1,4,0:0:0:0:
439,213,220632,1,12,0:0:0:0:
420,256,220832,1,0,0:0:0:0:
419,260,220932,1,0,0:0:0:0:
426,221,221132,1,8,0:0:0:0:
419,237,221332,1,0,0:0:0:0:
417,248,221532,1,8,0:0:0:0:
390,237,221632,1,0,0:0:0:0:
390,237,221732,1,0,0:0:0:0:
354,226,221832,1,8,0:0:0:0:
379,227,221932,1,0,0:0:0:0:
354,226,222032,1,8,0:0:0:0:
419,237,222132,1,8,0:0:0:0:
500,245,222232,1,0,0:0:0:0:
422,240,222332,1,8,0:0:0:0:
388,244,222432,1,0,0:0:0:0:
389,241,222532,1,0,0:0:0:0:
422,231,222632,1,8,0:0:0:0:
396,228,222732,1,0,0:0:0:0:
422,231,222832,1,8,0:0:0:0:
422,231,222932,1,8,0:0:0:0:
432,241,223032,1,8,0:0:0:0:
432,241,223132,1,8,0:0:0:0:
414,217,223232,1,0,0:0:0:0:
448,178,223432,1,12,0:0:0:0:
414,229,223732,1,12,0:0:0:0:
414,229,224032,1,12,0:0:0:0:
414,229,224332,1,12,0:0:0:0:
436,228,224832,1,0,0:0:0:0:
360,218,225032,1,8,0:0:0:0:
360,218,225132,1,8,0:0:0:0:
360,218,225232,1,0,0:0:0:0:
402,221,225332,1,0,0:0:0:0:
402,221,225432,1,0,0:0:0:0:
402,221,225532,1,0,0:0:0:0:
430,227,225632,1,8,0:0:0:0:
419,206,225832,1,8,0:0:0:0:
444,216,226032,1,4,0:0:0:0:
430,211,226632,1,0,0:0:0:0:
431,219,226832,1,0,0:0:0:0:
415,203,227232,1,12,0:0:0:0:
394,222,227732,1,0,0:0:0:0:
394,222,228032,1,0,0:0:0:0:
384,233,228232,1,8,0:0:0:0:
387,200,228282,1,8,0:0:0:0:
382,145,228332,1,8,0:0:0:0:
383,164,228382,1,8,0:0:0:0:
405,220,228432,1,0,0:0:0:0:
337,142,228532,1,0,0:0:0:0:
360,200,228632,1,8,0:0:0:0:
367,197,228682,1,8,0:0:0:0:
363,220,228732,1,8,0:0:0:0:
363,220,228782,1,8,0:0:0:0:
383,211,228832,1,0,0:0:0:0:
351,181,228932,1,8,0:0:0:0:
390,169,229032,1,0,0:0:0:0:
372,208,229082,1,0,0:0:0:0:
354,187,229132,1,0,0:0:0:0:
350,185,229182,1,0,0:0:0:0:
354,174,229232,1,8,0:0:0:0:
367,190,229332,1,8,0:0:0:0:
362,180,229432,1,0,0:0:0:0:
384,191,229482,1,0,0:0:0:0:
396,203,229532,1,0,0:0:0:0:
396,204,229582,1,0,0:0:0:0:
299,203,229633,1,8,0:0:0:0:
395,207,229732,1,0,0:0:0:0:
377,207,229832,1,8,0:0:0:0:
396,222,229882,1,8,0:0:0:0:
396,222,229932,1,8,0:0:0:0:
398,223,229982,1,8,0:0:0:0:
389,217,230032,1,0,0:0:0:0:
422,210,230232,1,8,0:0:0:0:
422,210,230332,1,8,0:0:0:0:
387,226,230432,1,0,0:0:0:0:
422,210,230532,1,8,0:0:0:0:
386,223,230632,1,0,0:0:0:0:
386,223,230732,1,0,0:0:0:0:
412,233,230832,1,8,0:0:0:0:
476,218,231032,1,0,0:0:0:0:
428,227,231132,1,0,0:0:0:0:
440,197,231232,1,12,0:0:0:0:
354,204,231432,1,0,0:0:0:0:
371,216,231532,1,0,0:0:0:0:
425,228,231632,1,8,0:0:0:0:
392,212,231832,1,8,0:0:0:0:
392,212,231932,1,8,0:0:0:0:
379,197,232032,1,0,0:0:0:0:
392,212,232132,1,8,0:0:0:0:
408,221,232332,1,0,0:0:0:0:
416,233,232432,1,8,0:0:0:0:
394,206,232532,1,8,0:0:0:0:
366,217,232732,1,8,0:0:0:0:
378,227,232832,1,0,0:0:0:0:
432,190,232932,1,8,0:0:0:0:
359,219,233032,1,8,0:0:0:0:
349,270,233132,1,0,0:0:0:0:
359,219,233232,1,8,0:0:0:0:
326,244,233432,1,8,0:0:0:0:
356,267,233532,1,0,0:0:0:0:
357,266,233632,1,0,0:0:0:0:
281,246,233732,1,8,0:0:0:0:
357,250,233832,1,0,0:0:0:0:
380,244,234032,1,8,0:0:0:0:
380,244,234132,1,8,0:0:0:0:
345,237,234232,1,4,0:0:0:0:
373,244,234532,1,0,0:0:0:0:
350,243,234582,1,0,0:0:0:0:
392,227,234632,1,8,0:0:0:0:
396,241,234732,1,0,0:0:0:0:
354,218,234832,1,8,0:0:0:0:
354,218,234882,1,8,0:0:0:0:
452,195,234932,1,0,0:0:0:0:
353,218,235032,1,8,0:0:0:0:
447,197,235132,1,0,0:0:0:0:
352,177,235182,1,0,0:0:0:0:
447,197,235232,1,0,0:0:0:0:
358,181,235332,1,0,0:0:0:0:
406,193,235432,1,8,0:0:0:0:
406,193,235482,1,8,0:0:0:0:
361,209,235532,1,8,0:0:0:0:
382,191,235632,1,8,0:0:0:0:
447,214,235732,1,0,0:0:0:0:
417,197,235782,1,0,0:0:0:0:
447,206,235832,1,8,0:0:0:0:
461,201,235932,1,0,0:0:0:0:
382,227,236032,1,8,0:0:0:0:
460,201,236082,1,0,0:0:0:0:
420,200,236132,1,8,0:0:0:0:
395,211,236232,1,0,0:0:0:0:
411,215,236332,1,8,0:0:0:0:
411,215,236382,1,8,0:0:0:0:
449,142,236432,1,0,0:0:0:0:
331,217,236532,1,0,0:0:0:0:
381,207,236632,1,8,0:0:0:0:
381,207,236732,1,8,0:0:0:0:
446,215,236832,1,0,0:0:0:0:
426,230,236882,1,0,0:0:0:0:
381,207,236932,1,8,0:0:0:0:
426,230,236982,1,0,0:0:0:0:
449,204,237032,1,8,0:0:0:0:
449,204,237082,1,8,0:0:0:0:
469,194,237132,1,0,0:0:0:0:
422,212,237232,1,8,0:0:0:0:
437,205,237332,1,0,0:0:0:0:
422,212,237532,1,8,0:0:0:0:
474,226,237632,1,0,0:0:0:0:
474,226,237682,1,0,0:0:0:0:
474,226,237732,1,0,0:0:0:0:
474,226,237782,1,0,0:0:0:0:
430,215,237832,1,8,0:0:0:0:
430,215,237882,1,8,0:0:0:0:
430,215,237932,1,8,0:0:0:0:
430,215,237982,1,8,0:0:0:0:
505,206,238032,1,0,0:0:0:0:
384,205,238165,1,8,0:0:0:0:
384,205,238298,1,8,0:0:0:0:
483,242,238432,1,0,0:0:0:0:
437,231,238532,1,0,0:0:0:0:
356,243,238632,1,8,0:0:0:0:
397,232,238832,1,4,0:0:0:0:
369,230,239432,1,0,0:0:0:0:
368,243,239632,1,0,0:0:0:0:
378,212,240032,1,12,0:0:0:0:
378,212,240532,1,0,0:0:0:0:
378,212,240832,1,0,0:0:0:0:
389,212,241032,1,8,0:0:0:0:
389,212,241082,1,8,0:0:0:0:
389,212,241132,1,8,0:0:0:0:
388,212,241182,1,8,0:0:0:0:
392,201,241232,1,0,0:0:0:0:
430,200,241332,1,0,0:0:0:0:
465,195,241432,1,8,0:0:0:0:
465,195,241482,1,8,0:0:0:0:
465,195,241532,1,8,0:0:0:0:
465,195,241582,1,8,0:0:0:0:
446,191,241632,1,0,0:0:0:0:
409,198,241732,1,8,0:0:0:0:
456,189,241832,1,0,0:0:0:0:
456,189,241882,1,0,0:0:0:0:
465,195,241932,1,0,0:0:0:0:
465,195,241982,1,0,0:0:0:0:
456,189,242032,1,8,0:0:0:0:
456,189,242132,1,8,0:0:0:0:
465,195,242232,1,0,0:0:0:0:
465,195,242282,1,0,0:0:0:0:
456,189,242332,1,0,0:0:0:0:
456,189,242382,1,0,0:0:0:0:
465,195,242433,1,8,0:0:0:0:
421,198,242532,1,0,0:0:0:0:
448,185,242632,1,8,0:0:0:0:
447,182,242682,1,8,0:0:0:0:
447,183,242732,1,8,0:0:0:0:
447,183,242782,1,8,0:0:0:0:
421,198,242832,1,0,0:0:0:0:
412,203,243032,1,8,0:0:0:0:
399,196,243132,1,8,0:0:0:0:
431,201,243232,1,0,0:0:0:0:
431,201,243332,1,0,0:0:0:0:
392,191,243432,1,8,0:0:0:0:
431,201,243532,1,0,0:0:0:0:
392,191,243632,1,8,0:0:0:0:
439,199,243832,1,0,0:0:0:0:
439,199,243932,1,0,0:0:0:0:
342,169,244032,1,12,0:0:0:0:
386,193,244232,1,0,0:0:0:0:
412,184,244332,1,8,0:0:0:0:
412,184,244432,1,8,0:0:0:0:
403,189,244632,1,8,0:0:0:0:
371,187,244732,1,0,0:0:0:0:
425,203,244832,1,8,0:0:0:0:
408,193,244932,1,8,0:0:0:0:
454,185,245132,1,8,0:0:0:0:
337,226,245232,1,0,0:0:0:0:
401,201,245332,1,8,0:0:0:0:
401,218,245532,1,8,0:0:0:0:
438,187,245632,1,0,0:0:0:0:
387,186,245732,1,0,0:0:0:0:
422,195,245832,1,8,0:0:0:0:
395,203,245932,1,0,0:0:0:0:
425,194,246032,1,8,0:0:0:0:
414,167,246232,1,0,0:0:0:0:
435,178,246332,1,8,0:0:0:0:
414,167,246432,1,0,0:0:0:0:
413,199,246532,1,8,0:0:0:0:
388,202,246732,1,0,0:0:0:0:
365,209,246832,1,8,0:0:0:0:
378,191,246932,1,0,0:0:0:0:
402,190,247032,1,0,0:0:0:0:
407,218,247132,1,8,0:0:0:0:
354,195,247232,1,0,0:0:0:0:
424,203,247432,1,8,0:0:0:0:
436,215,247532,1,0,0:0:0:0:
385,234,247632,1,8,0:0:0:0:
381,197,247832,1,0,0:0:0:0:
413,217,247932,1,8,0:0:0:0:
408,215,248032,1,8,0:0:0:0:
396,201,248132,1,0,0:0:0:0:
396,210,248332,1,8,0:0:0:0:
431,204,248432,1,0,0:0:0:0:
385,205,248532,1,8,0:0:0:0:
393,207,248732,1,8,0:0:0:0:
323,187,248832,1,0,0:0:0:0:
431,204,248932,1,8,0:0:0:0:
352,245,249032,1,8,0:0:0:0:
468,196,249132,1,0,0:0:0:0:
352,245,249232,1,8,0:0:0:0:
395,220,249532,1,0,0:0:0:0:
395,220,249632,1,0,0:0:0:0:
395,220,249832,1,0,0:0:0:0:
395,220,249932,1,0,0:0:0:0:
395,220,250132,1,0,0:0:0:0:
395,220,250232,1,0,0:0:0:0:
389,209,250432,1,12,0:0:0:0:
377,213,250732,1,0,0:0:0:0:
406,217,250832,1,8,0:0:0:0:
438,251,251032,1,0,0:0:0:0:
385,223,251332,1,8,0:0:0:0:
395,233,251432,1,0,0:0:0:0:
385,223,251632,1,8,0:0:0:0:
471,222,251932,1,0,0:0:0:0:
401,240,252032,1,8,0:0:0:0:
441,235,252232,1,8,0:0:0:0:
441,235,252282,1,8,0:0:0:0:
461,191,252332,1,0,0:0:0:0:
461,191,252382,1,0,0:0:0:0:
502,205,252432,1,8,0:0:0:0:
399,223,252482,1,8,0:0:0:0:
405,253,252532,1,0,0:0:0:0:
405,253,252582,1,0,0:0:0:0:
399,223,252632,1,8,0:0:0:0:
389,228,252682,1,8,0:0:0:0:
432,215,252732,1,8,0:0:0:0:
492,209,252782,1,8,0:0:0:0:
387,229,252832,1,0,0:0:0:0:
435,245,253032,1,8,0:0:0:0:
435,245,253132,1,8,0:0:0:0:
417,249,253332,1,8,0:0:0:0:
417,249,253432,1,8,0:0:0:0:
417,249,253532,1,8,0:0:0:0:
397,251,253632,1,4,0:0:0:0:
380,251,253932,1,8,0:0:0:0:
395,262,254032,1,0,0:0:0:0:
373,265,254232,1,8,0:0:0:0:
397,262,254532,1,0,0:0:0:0:
390,241,254632,1,8,0:0:0:0:
395,262,254832,1,0,0:0:0:0:
390,244,255132,1,8,0:0:0:0:
449,252,255232,1,0,0:0:0:0:
423,241,255432,1,8,0:0:0:0:
423,241,255482,1,8,0:0:0:0:
422,221,255532,1,8,0:0:0:0:
423,241,255582,1,8,0:0:0:0:
422,221,255632,1,0,0:0:0:0:
422,221,255682,1,0,0:0:0:0:
449,237,255732,1,8,0:0:0:0:
401,218,255782,1,8,0:0:0:0:
452,236,255832,1,0,0:0:0:0:
452,236,255882,1,0,0:0:0:0:
409,247,255932,1,8,0:0:0:0:
409,247,255982,1,8,0:0:0:0:
452,236,256032,1,0,0:0:0:0:
380,257,256332,1,8,0:0:0:0:
385,254,256532,1,0,0:0:0:0:
383,247,256632,1,8,0:0:0:0:
387,247,256832,1,4,0:0:0:0:
374,217,257132,1,8,0:0:0:0:
287,168,257232,1,0,0:0:0:0:
374,217,257432,1,8,0:0:0:0:
362,215,257732,1,0,0:0:0:0:
374,217,257832,1,8,0:0:0:0:
420,218,258032,1,0,0:0:0:0:
344,207,258332,1,8,0:0:0:0:
362,215,258432,1,0,0:0:0:0:
344,207,258632,1,8,0:0:0:0:
399,224,258682,1,8,0:0:0:0:
397,207,258732,1,0,0:0:0:0:
397,207,258782,1,0,0:0:0:0:
399,226,258832,1,8,0:0:0:0:
399,224,258882,1,8,0:0:0:0:
399,224,258932,1,0,0:0:0:0:
397,207,258982,1,0,0:0:0:0:
399,224,259032,1,8,0:0:0:0:
399,224,259082,1,8,0:0:0:0:
397,207,259132,1,0,0:0:0:0:
397,207,259182,1,0,0:0:0:0:
399,224,259232,1,8,0:0:0:0:
468,209,259432,1,0,0:0:0:0:
406,212,259498,1,8,0:0:0:0:
406,212,259565,1,8,0:0:0:0:
407,212,259632,1,8,0:0:0:0:
383,232,259698,1,0,0:0:0:0:
334,180,259765,1,0,0:0:0:0:
419,194,259832,1,8,0:0:0:0:
419,194,260032,1,0,0:0:0:0:
419,194,260132,1,0,0:0:0:0:
419,194,260232,1,0,0:0:0:0:
419,194,260332,1,0,0:0:0:0:
470,201,260432,1,8,0:0:0:0:
470,201,260532,1,8,0:0:0:0:
393,186,260632,1,0,0:0:0:0:
393,186,260732,1,0,0:0:0:0:
393,186,260832,1,0,0:0:0:0:
393,186,260932,1,0,0:0:0:0:
447,196,261032,1,8,0:0:0:0:
446,197,261132,1,8,0:0:0:0:
418,180,261232,1,0,0:0:0:0:
417,181,261332,1,0,0:0:0:0:
417,181,261432,1,0,0:0:0:0:
415,177,261532,1,0,0:0:0:0:
397,185,261632,1,8,0:0:0:0:
417,192,261682,1,8,0:0:0:0:
417,192,261732,1,8,0:0:0:0:
417,192,261782,1,8,0:0:0:0:
447,196,261832,1,0,0:0:0:0:
447,196,261882,1,0,0:0:0:0:
418,200,261932,1,8,0:0:0:0:
454,192,262032,1,0,0:0:0:0:
454,192,262082,1,0,0:0:0:0:
454,192,262132,1,0,0:0:0:0:
454,192,262182,1,0,0:0:0:0:
453,199,262232,1,8,0:0:0:0:
453,199,262282,1,8,0:0:0:0:
454,198,262332,1,0,0:0:0:0:
435,227,262432,1,8,0:0:0:0:
435,227,262482,1,8,0:0:0:0:
435,227,262532,1,0,0:0:0:0:
443,224,262582,1,0,0:0:0:0:
464,199,262632,1,0,0:0:0:0:
464,199,262682,1,0,0:0:0:0:
464,199,262732,1,8,0:0:0:0:
373,217,262832,1,0,0:0:0:0:
373,217,262882,1,0,0:0:0:0:
422,209,262932,1,8,0:0:0:0:
422,209,262982,1,8,0:0:0:0:
373,217,263032,1,8,0:0:0:0:
367,214,263082,1,8,0:0:0:0:
436,218,263132,1,0,0:0:0:0:
407,196,263232,1,12,0:0:0:0:
412,206,263632,1,8,0:0:0:0:
403,206,263932,1,8,0:0:0:0:
386,199,264232,1,0,0:0:0:0:
385,198,264532,1,0,0:0:0:0:
377,207,264832,1,8,0:0:0:0:
378,202,265132,1,8,0:0:0:0:
384,194,265432,1,0,0:0:0:0:
379,176,265632,1,8,0:0:0:0:
393,197,265732,1,8,0:0:0:0:
390,172,265832,1,0,0:0:0:0:
417,188,265882,1,0,0:0:0:0:
431,221,265932,1,0,0:0:0:0:
422,228,266032,1,8,0:0:0:0:
361,204,266082,1,8,0:0:0:0:
422,228,266132,1,8,0:0:0:0:
428,211,266232,1,0,0:0:0:0:
428,211,266282,1,0,0:0:0:0:
379,194,266332,1,0,0:0:0:0:
370,183,266432,1,12,0:0:0:0:
420,222,266632,1,8,0:0:0:0:
397,218,266682,1,8,0:0:0:0:
397,218,266732,1,8,0:0:0:0:
331,229,266832,1,0,0:0:0:0:
377,205,266932,1,0,0:0:0:0:
419,244,267032,1,8,0:0:0:0:
412,238,267132,1,8,0:0:0:0:
377,205,267232,1,0,0:0:0:0:
406,235,267332,1,8,0:0:0:0:
375,220,267432,1,0,0:0:0:0:
378,210,267482,1,0,0:0:0:0:
377,219,267532,1,0,0:0:0:0:
366,226,267632,1,8,0:0:0:0:
405,221,267732,1,8,0:0:0:0:
362,214,267832,1,0,0:0:0:0:
365,215,267932,1,0,0:0:0:0:
432,216,268032,1,8,0:0:0:0:
386,216,268132,1,0,0:0:0:0:
409,212,268232,1,8,0:0:0:0:
409,212,268282,1,8,0:0:0:0:
409,212,268332,1,8,0:0:0:0:
435,225,268432,1,0,0:0:0:0:
392,218,268532,1,0,0:0:0:0:
366,230,268632,1,8,0:0:0:0:
363,228,268732,1,8,0:0:0:0:
390,221,268832,1,0,0:0:0:0:
363,224,268932,1,8,0:0:0:0:
368,224,269032,1,0,0:0:0:0:
368,224,269082,1,0,0:0:0:0:
368,224,269132,1,0,0:0:0:0:
341,238,269232,1,8,0:0:0:0:
274,258,269332,1,0,0:0:0:0:
372,235,269432,1,8,0:0:0:0:
403,224,269632,1,0,0:0:0:0:
403,224,269732,1,0,0:0:0:0:
423,221,269832,1,8,0:0:0:0:
423,221,269882,1,8,0:0:0:0:
404,224,269932,1,0,0:0:0:0:
403,224,269982,1,0,0:0:0:0:
397,228,270032,1,12,0:0:0:0:
408,221,270432,1,0,0:0:0:0:
399,211,270632,1,0,0:0:0:0:
355,222,270682,1,8,0:0:0:0:
405,239,270732,1,0,0:0:0:0:
391,212,270832,1,12,0:0:0:0:
399,195,271232,1,0,0:0:0:0:
400,222,271332,1,8,0:0:0:0:
415,216,271432,1,0,0:0:0:0:
428,172,271482,1,8,0:0:0:0:
418,216,271532,1,0,0:0:0:0:
418,216,271582,1,0,0:0:0:0:
406,203,271632,1,12,0:0:0:0:
440,204,272032,1,0,0:0:0:0:
440,204,272082,1,0,0:0:0:0:
404,214,272132,1,8,0:0:0:0:
404,214,272182,1,8,0:0:0:0:
440,204,272232,1,0,0:0:0:0:
430,199,272332,1,8,0:0:0:0:
477,205,272432,1,0,0:0:0:0:
404,214,272532,1,8,0:0:0:0:
441,219,272632,1,8,0:0:0:0:
409,188,272732,1,0,0:0:0:0:
177,172,272932,1,0,0:0:0:0:
412,192,273032,1,8,0:0:0:0:
412,192,273082,1,8,0:0:0:0:
407,210,273132,1,0,0:0:0:0:
407,210,273232,1,0,0:0:0:0:
399,192,273332,1,8,0:0:0:0:
380,237,273432,1,0,0:0:0:0:
371,184,273532,1,8,0:0:0:0:
397,177,273632,1,0,0:0:0:0:
456,215,273732,1,8,0:0:0:0:
434,197,273832,1,0,0:0:0:0:
434,197,273882,1,0,0:0:0:0:
446,210,273932,1,8,0:0:0:0:
413,207,274032,1,8,0:0:0:0:
413,215,274132,1,0,0:0:0:0:
407,193,274332,1,8,0:0:0:0:
448,199,274432,1,0,0:0:0:0:
456,200,274532,1,0,0:0:0:0:
392,205,274632,1,8,0:0:0:0:
392,205,274682,1,8,0:0:0:0:
409,200,274732,1,0,0:0:0:0:
409,199,274832,1,0,0:0:0:0:
394,204,274932,1,8,0:0:0:0:
477,185,275032,1,0,0:0:0:0:
399,205,275132,1,8,0:0:0:0:
416,199,275232,1,0,0:0:0:0:
416,199,275332,1,0,0:0:0:0:
476,191,275432,1,8,0:0:0:0:
415,198,275532,1,0,0:0:0:0:
464,185,275632,1,8,0:0:0:0:
463,185,275732,1,8,0:0:0:0:
417,201,275932,1,0,0:0:0:0:
483,192,276032,1,8,0:0:0:0:
378,205,276332,1,0,0:0:0:0:
412,208,276432,1,8,0:0:0:0:
378,205,276532,1,0,0:0:0:0:
408,209,276632,1,8,0:0:0:0:
376,193,276732,1,0,0:0:0:0:
412,208,276832,1,8,0:0:0:0:
382,191,276932,1,8,0:0:0:0:
411,226,277032,1,0,0:0:0:0:
393,229,277132,1,0,0:0:0:0:
394,221,277232,1,8,0:0:0:0:
376,212,277432,1,8,0:0:0:0:
399,212,277632,1,0,0:0:0:0:
385,219,277732,1,8,0:0:0:0:
377,192,277832,1,0,0:0:0:0:
376,236,278032,1,8,0:0:0:0:
373,198,278232,1,8,0:0:0:0:
373,258,278332,1,8,0:0:0:0:
342,227,278432,1,0,0:0:0:0:
342,227,278532,1,0,0:0:0:0:
399,207,278632,1,8,0:0:0:0:
343,248,278732,1,0,0:0:0:0:
397,206,278832,1,8,0:0:0:0:
397,206,278932,1,8,0:0:0:0:
409,192,279032,1,0,0:0:0:0:
399,207,279132,1,8,0:0:0:0:
409,192,279232,1,0,0:0:0:0:
387,221,280132,1,8,0:0:0:0:
396,217,280332,1,0,0:0:0:0:
381,224,280532,1,8,0:0:0:0:
415,209,280732,1,0,0:0:0:0:
385,191,281732,1,0,0:0:0:0:
399,204,281932,1,8,0:0:0:0:
399,204,282132,1,8,0:0:0:0:
368,207,282332,1,0,0:0:0:0:
330,222,284632,1,0,0:0:0:0:
382,199,284732,1,8,0:0:0:0:
382,199,284832,1,8,0:0:0:0:
330,222,284932,1,0,0:0:0:0:
379,207,285132,1,8,0:0:0:0:
307,229,285332,1,0,0:0:0:0:
380,204,285532,1,8,0:0:0:0:
351,191,286532,1,0,0:0:0:0:
351,191,286732,1,0,0:0:0:0:
386,209,286932,1,8,0:0:0:0:
386,209,287132,1,8,0:0:0:0:
407,210,288132,1,8,0:0:0:0:
360,229,288332,1,0,0:0:0:0:
374,256,288532,1,8,0:0:0:0:
329,228,288732,1,0,0:0:0:0:
326,254,289432,1,0,0:0:0:0:
348,247,289632,1,8,0:0:0:0:
312,240,289732,1,0,0:0:0:0:
363,249,289932,1,8,0:0:0:0:
344,223,290132,1,0,0:0:0:0:
321,241,290332,1,8,0:0:0:0:
372,217,291332,1,8,0:0:0:0:
372,217,291532,1,8,0:0:0:0:
470,212,291732,1,0,0:0:0:0:
429,205,291932,1,8,0:0:0:0:
386,193,292632,1,0,0:0:0:0:
414,191,293232,1,8,0:0:0:0:
256,192,293632,12,0,295032,0:0:0:0:
360,193,295232,5,0,0:0:0:0:
360,188,296832,1,0,0:0:0:0:
319,184,297632,1,0,0:0:0:0:
319,184,297732,1,0,0:0:0:0:
319,184,297832,1,0,0:0:0:0:
321,188,297932,1,0,0:0:0:0:
338,204,298032,1,8,0:0:0:0:
337,204,298132,1,8,0:0:0:0:
337,204,298232,1,8,0:0:0:0:
337,204,298332,1,8,0:0:0:0:
346,179,298432,1,0,0:0:0:0:
321,195,300032,1,0,0:0:0:0:
311,193,300832,1,0,0:0:0:0:
354,195,300932,1,8,0:0:0:0:
311,193,301032,1,0,0:0:0:0:
354,195,301132,1,8,0:0:0:0:
311,193,301232,1,0,0:0:0:0:
354,195,301332,1,8,0:0:0:0:
311,193,301432,1,0,0:0:0:0:
354,195,301532,1,8,0:0:0:0:
339,203,301632,1,0,0:0:0:0:
316,175,303232,1,0,0:0:0:0:
371,194,304032,1,0,0:0:0:0:
371,194,304132,1,0,0:0:0:0:
351,185,304232,1,8,0:0:0:0:
351,185,304332,1,8,0:0:0:0:
371,194,304432,1,0,0:0:0:0:
373,194,304532,1,0,0:0:0:0:
351,185,304632,1,8,0:0:0:0:
351,185,304732,1,8,0:0:0:0:
374,194,304832,1,0,0:0:0:0:
332,199,306432,1,0,0:0:0:0:
355,223,307232,1,8,0:0:0:0:
355,223,307332,1,8,0:0:0:0:
357,229,307432,1,8,0:0:0:0:
357,229,307532,1,8,0:0:0:0:
357,229,307632,1,8,0:0:0:0:
357,229,307732,1,8,0:0:0:0:
357,229,307832,1,8,0:0:0:0:
357,229,307932,1,8,0:0:0:0:
