osu file format v14

[General]
AudioFilename: audio.mp3
AudioLeadIn: 0
PreviewTime: 166791
Countdown: 0
SampleSet: None
StackLeniency: 0.7
Mode: 3
LetterboxInBreaks: 0
SpecialStyle: 0
WidescreenStoryboard: 0

[Editor]
DistanceSpacing: 0.8
BeatDivisor: 9
GridSize: 32
TimelineZoom: 3.049999

[Metadata]
Title:Asymmetric Snowflakes
TitleUnicode:Asymmetric Snowflakes
Artist:Camellia
ArtistUnicode:Camellia
Creator:xranoxxd
Version:Blooming Flower
Source:Flowers Unfold Re:Bloom
Tags:Artcore
BeatmapID:4556920
BeatmapSetID:2160931

[Difficulty]
HPDrainRate:4
CircleSize:4
OverallDifficulty:4
ApproachRate:5
SliderMultiplier:1.4
SliderTickRate:1

[Events]
//Background and Video events
0,0,"flowers unfoldc.png",0,0
//Break Periods
//Storyboard Layer 0 (Background)
//Storyboard Layer 1 (Fail)
//Storyboard Layer 2 (Pass)
//Storyboard Layer 3 (Foreground)
//Storyboard Layer 4 (Overlay)
//Storyboard Sound Samples

[TimingPoints]
2791,500,4,1,0,50,1,0

[HitObjects]
448,192,4291,5,0,0:0:0:0:
64,192,4679,1,0,0:0:0:0:
320,192,4791,1,0,0:0:0:0:
448,192,4791,1,0,0:0:0:0:
448,192,5179,1,0,0:0:0:0:
64,192,5291,1,0,0:0:0:0:
192,192,5679,1,0,0:0:0:0:
64,192,5791,1,0,0:0:0:0:
448,192,5791,1,0,0:0:0:0:
320,192,6068,1,0,0:0:0:0:
320,192,6568,1,0,0:0:0:0:
192,192,6568,1,0,0:0:0:0:
64,192,7291,1,0,0:0:0:0:
448,192,7679,1,0,0:0:0:0:
192,192,7791,1,0,0:0:0:0:
64,192,7791,1,0,0:0:0:0:
64,192,8179,1,0,0:0:0:0:
448,192,8291,1,0,0:0:0:0:
320,192,8679,1,0,0:0:0:0:
64,192,8791,1,0,0:0:0:0:
448,192,8791,1,0,0:0:0:0:
192,192,9179,1,0,0:0:0:0:
64,192,9291,1,0,0:0:0:0:
448,192,9679,1,0,0:0:0:0:
192,192,9791,1,0,0:0:0:0:
320,192,9791,1,0,0:0:0:0:
192,192,10068,1,0,0:0:0:0:
64,192,10179,1,0,0:0:0:0:
448,192,10291,1,0,0:0:0:0:
192,192,10513,1,0,0:0:0:0:
320,192,10513,1,0,0:0:0:0:
64,192,10791,1,0,0:0:0:0:
448,192,11068,1,0,0:0:0:0:
320,192,11568,1,0,0:0:0:0:
64,192,11568,1,0,0:0:0:0:
448,192,11679,1,0,0:0:0:0:
320,192,11791,1,0,0:0:0:0:
192,192,11957,1,0,0:0:0:0:
64,192,12068,1,0,0:0:0:0:
320,192,12179,1,0,0:0:0:0:
192,192,12291,1,0,0:0:0:0:
448,192,12568,1,0,0:0:0:0:
64,192,12679,1,0,0:0:0:0:
320,192,12791,1,0,0:0:0:0:
448,192,12791,1,0,0:0:0:0:
320,192,13179,1,0,0:0:0:0:
64,192,13291,1,0,0:0:0:0:
320,192,13679,1,0,0:0:0:0:
64,192,13791,1,0,0:0:0:0:
448,192,13791,1,0,0:0:0:0:
192,192,14068,1,0,0:0:0:0:
448,192,14179,1,0,0:0:0:0:
448,192,14457,1,0,0:0:0:0:
192,192,14568,1,0,0:0:0:0:
320,192,14568,1,0,0:0:0:0:
448,192,14791,1,0,0:0:0:0:
64,192,15291,1,0,0:0:0:0:
320,192,15679,1,0,0:0:0:0:
64,192,15791,1,0,0:0:0:0:
192,192,15846,1,0,0:0:0:0:
448,192,16179,1,0,0:0:0:0:
192,192,16291,1,0,0:0:0:0:
320,192,16291,1,0,0:0:0:0:
64,192,16679,1,0,0:0:0:0:
320,192,16791,1,0,0:0:0:0:
448,192,16791,1,0,0:0:0:0:
192,192,17179,1,0,0:0:0:0:
64,192,17291,1,0,0:0:0:0:
448,192,17291,1,0,0:0:0:0:
192,192,17679,1,0,0:0:0:0:
448,192,17791,1,0,0:0:0:0:
320,192,17791,1,0,0:0:0:0:
64,192,18068,1,0,0:0:0:0:
192,192,18179,1,0,0:0:0:0:
448,192,18291,1,0,0:0:0:0:
320,192,18291,1,0,0:0:0:0:
64,192,18568,1,0,0:0:0:0:
448,192,18568,1,0,0:0:0:0:
64,192,18902,1,0,0:0:0:0:
64,192,19291,1,0,0:0:0:0:
64,192,19679,1,0,0:0:0:0:
64,192,20068,1,0,0:0:0:0:
64,192,20291,1,0,0:0:0:0:
448,192,20679,1,0,0:0:0:0:
192,192,20791,1,0,0:0:0:0:
64,192,20791,1,0,0:0:0:0:
192,192,21179,1,0,0:0:0:0:
448,192,21291,1,0,0:0:0:0:
320,192,21679,1,0,0:0:0:0:
64,192,21791,1,0,0:0:0:0:
448,192,21791,1,0,0:0:0:0:
192,192,22068,1,0,0:0:0:0:
192,192,22568,1,0,0:0:0:0:
320,192,22568,1,0,0:0:0:0:
448,192,23291,1,0,0:0:0:0:
192,192,23624,1,0,0:0:0:0:
64,192,23679,1,0,0:0:0:0:
320,192,23791,1,0,0:0:0:0:
448,192,23846,1,0,0:0:0:0:
320,192,24179,1,0,0:0:0:0:
64,192,24291,1,0,0:0:0:0:
192,192,24679,1,0,0:0:0:0:
64,192,24791,1,0,0:0:0:0:
448,192,24791,1,0,0:0:0:0:
320,192,25179,1,0,0:0:0:0:
448,192,25291,1,0,0:0:0:0:
64,192,25679,1,0,0:0:0:0:
192,192,25791,1,0,0:0:0:0:
320,192,25791,1,0,0:0:0:0:
320,192,26068,1,0,0:0:0:0:
448,192,26179,1,0,0:0:0:0:
64,192,26291,1,0,0:0:0:0:
192,192,26568,1,0,0:0:0:0:
320,192,26568,1,0,0:0:0:0:
448,192,26791,1,0,0:0:0:0:
64,192,27068,1,0,0:0:0:0:
192,192,27568,1,0,0:0:0:0:
448,192,27568,1,0,0:0:0:0:
64,192,27679,1,0,0:0:0:0:
192,192,27791,1,0,0:0:0:0:
320,192,27957,1,0,0:0:0:0:
448,192,28068,1,0,0:0:0:0:
192,192,28179,1,0,0:0:0:0:
320,192,28291,1,0,0:0:0:0:
64,192,28513,1,0,0:0:0:0:
448,192,28679,1,0,0:0:0:0:
192,192,28791,1,0,0:0:0:0:
64,192,28791,1,0,0:0:0:0:
192,192,29179,1,0,0:0:0:0:
448,192,29291,1,0,0:0:0:0:
320,192,29679,1,0,0:0:0:0:
448,192,29791,1,0,0:0:0:0:
64,192,29791,1,0,0:0:0:0:
192,192,30068,1,0,0:0:0:0:
64,192,30568,128,0,31291:0:0:0:0:
448,192,31291,1,0,0:0:0:0:
192,192,31679,1,0,0:0:0:0:
448,192,31791,1,0,0:0:0:0:
320,192,31846,1,0,0:0:0:0:
64,192,32068,1,0,0:0:0:0:
192,192,32124,1,0,0:0:0:0:
320,192,32179,1,0,0:0:0:0:
448,192,32235,1,0,0:0:0:0:
192,192,32291,1,0,0:0:0:0:
64,192,32291,1,0,0:0:0:0:
320,192,32402,1,0,0:0:0:0:
448,192,32402,1,0,0:0:0:0:
192,192,32513,1,0,0:0:0:0:
320,192,32679,1,0,0:0:0:0:
64,192,32791,1,0,0:0:0:0:
448,192,32791,1,0,0:0:0:0:
448,192,33068,1,0,0:0:0:0:
192,192,33179,1,0,0:0:0:0:
448,192,33291,1,0,0:0:0:0:
448,192,33568,1,0,0:0:0:0:
448,192,33791,1,0,0:0:0:0:
448,192,34068,1,0,0:0:0:0:
64,192,34179,1,0,0:0:0:0:
448,192,34291,1,0,0:0:0:0:
320,192,34568,1,0,0:0:0:0:
448,192,34568,1,0,0:0:0:0:
64,192,34791,1,0,0:0:0:0:
448,192,34791,1,0,0:0:0:0:
192,192,34902,1,0,0:0:0:0:
64,192,35068,1,0,0:0:0:0:
64,192,35291,1,0,0:0:0:0:
192,192,35291,1,0,0:0:0:0:
64,192,35568,1,0,0:0:0:0:
320,192,35568,1,0,0:0:0:0:
64,192,35791,1,0,0:0:0:0:
64,192,36068,1,0,0:0:0:0:
64,192,36291,1,0,0:0:0:0:
192,192,36291,1,0,0:0:0:0:
64,192,36568,1,0,0:0:0:0:
320,192,36568,1,0,0:0:0:0:
320,192,36791,1,0,0:0:0:0:
448,192,36791,1,0,0:0:0:0:
64,192,36846,1,0,0:0:0:0:
192,192,36902,1,0,0:0:0:0:
448,192,36957,1,0,0:0:0:0:
320,192,37013,1,0,0:0:0:0:
320,192,37291,1,0,0:0:0:0:
192,192,37291,1,0,0:0:0:0:
320,192,37568,1,0,0:0:0:0:
320,192,37791,1,0,0:0:0:0:
64,192,37791,1,0,0:0:0:0:
320,192,38068,1,0,0:0:0:0:
320,192,38291,1,0,0:0:0:0:
192,192,38291,1,0,0:0:0:0:
64,192,38568,1,0,0:0:0:0:
320,192,38568,1,0,0:0:0:0:
192,192,38791,1,0,0:0:0:0:
448,192,38791,1,0,0:0:0:0:
192,192,39068,1,0,0:0:0:0:
320,192,39068,1,0,0:0:0:0:
192,192,39291,1,0,0:0:0:0:
64,192,39291,1,0,0:0:0:0:
192,192,39568,1,0,0:0:0:0:
448,192,39568,1,0,0:0:0:0:
192,192,39791,1,0,0:0:0:0:
192,192,40068,1,0,0:0:0:0:
64,192,40068,1,0,0:0:0:0:
448,192,40124,1,0,0:0:0:0:
320,192,40179,1,0,0:0:0:0:
192,192,40235,1,0,0:0:0:0:
64,192,40291,1,0,0:0:0:0:
448,192,40346,1,0,0:0:0:0:
320,192,40402,1,0,0:0:0:0:
192,192,40457,1,0,0:0:0:0:
64,192,40513,1,0,0:0:0:0:
320,192,40568,1,0,0:0:0:0:
192,192,40624,1,0,0:0:0:0:
320,192,40679,1,0,0:0:0:0:
448,192,40791,128,0,40846:0:0:0:0:
192,192,40791,1,0,0:0:0:0:
320,192,40902,1,0,0:0:0:0:
64,192,41068,128,0,41124:0:0:0:0:
192,192,41179,1,0,0:0:0:0:
192,192,41402,1,0,0:0:0:0:
64,192,41568,1,0,0:0:0:0:
192,192,41624,1,0,0:0:0:0:
320,192,41679,1,0,0:0:0:0:
448,192,41735,1,0,0:0:0:0:
64,192,41791,128,0,41846:0:0:0:0:
192,192,41902,1,0,0:0:0:0:
448,192,42068,128,0,42124:0:0:0:0:
320,192,42179,1,0,0:0:0:0:
448,192,42291,1,0,0:0:0:0:
320,192,42346,1,0,0:0:0:0:
192,192,42402,1,0,0:0:0:0:
64,192,42457,1,0,0:0:0:0:
448,192,42513,1,0,0:0:0:0:
320,192,42568,1,0,0:0:0:0:
192,192,42624,1,0,0:0:0:0:
64,192,42679,1,0,0:0:0:0:
192,192,42791,128,0,42846:0:0:0:0:
64,192,42902,1,0,0:0:0:0:
320,192,43068,128,0,43124:0:0:0:0:
448,192,43179,1,0,0:0:0:0:
64,192,43402,1,0,0:0:0:0:
448,192,43513,1,0,0:0:0:0:
320,192,43568,1,0,0:0:0:0:
192,192,43624,1,0,0:0:0:0:
64,192,43679,1,0,0:0:0:0:
320,192,43791,128,0,43846:0:0:0:0:
448,192,43902,1,0,0:0:0:0:
192,192,44068,128,0,44124:0:0:0:0:
64,192,44179,1,0,0:0:0:0:
448,192,44291,1,0,0:0:0:0:
320,192,44346,1,0,0:0:0:0:
192,192,44402,1,0,0:0:0:0:
64,192,44457,1,0,0:0:0:0:
448,192,44513,1,0,0:0:0:0:
320,192,44568,1,0,0:0:0:0:
192,192,44624,1,0,0:0:0:0:
64,192,44679,1,0,0:0:0:0:
448,192,44791,128,0,44853:0:0:0:0:
320,192,44902,1,0,0:0:0:0:
64,192,45068,1,0,0:0:0:0:
192,192,45124,1,0,0:0:0:0:
320,192,45179,1,0,0:0:0:0:
448,192,45235,1,0,0:0:0:0:
192,192,45291,128,0,45346:0:0:0:0:
64,192,45402,1,0,0:0:0:0:
448,192,45568,1,0,0:0:0:0:
320,192,45624,1,0,0:0:0:0:
192,192,45679,1,0,0:0:0:0:
64,192,45735,1,0,0:0:0:0:
320,192,45791,128,0,45846:0:0:0:0:
448,192,45902,1,0,0:0:0:0:
64,192,46068,1,0,0:0:0:0:
192,192,46124,1,0,0:0:0:0:
320,192,46179,1,0,0:0:0:0:
448,192,46235,1,0,0:0:0:0:
64,192,46291,128,0,46346:0:0:0:0:
192,192,46402,1,0,0:0:0:0:
448,192,46568,1,0,0:0:0:0:
320,192,46624,1,0,0:0:0:0:
192,192,46679,1,0,0:0:0:0:
64,192,46735,1,0,0:0:0:0:
448,192,46791,1,0,0:0:0:0:
320,192,46846,1,0,0:0:0:0:
64,192,46902,1,0,0:0:0:0:
192,192,46957,1,0,0:0:0:0:
448,192,47013,1,0,0:0:0:0:
320,192,47068,1,0,0:0:0:0:
64,192,47124,1,0,0:0:0:0:
192,192,47179,1,0,0:0:0:0:
448,192,47235,1,0,0:0:0:0:
320,192,47291,1,0,0:0:0:0:
64,192,47346,1,0,0:0:0:0:
192,192,47402,1,0,0:0:0:0:
448,192,47457,1,0,0:0:0:0:
320,192,47513,1,0,0:0:0:0:
64,192,47568,1,0,0:0:0:0:
192,192,47624,1,0,0:0:0:0:
448,192,47679,1,0,0:0:0:0:
320,192,47735,1,0,0:0:0:0:
448,192,47791,128,0,48166:0:0:0:0:
64,192,48179,128,0,48291:0:0:0:0:
192,192,48291,128,0,48402:0:0:0:0:
320,192,48457,128,0,48791:0:0:0:0:
192,192,48791,1,0,0:0:0:0:
64,192,48791,1,0,0:0:0:0:
192,192,48957,1,0,0:0:0:0:
448,192,49291,1,0,0:0:0:0:
