osu file format v14

[General]
AudioFilename: audio.mp3
AudioLeadIn: 0
PreviewTime: 75468
Countdown: 0
SampleSet: None
StackLeniency: 0.7
Mode: 0
LetterboxInBreaks: 0
WidescreenStoryboard: 0

[Editor]
Bookmarks: 1406,16406,30820,46406,60468,65273,67968,76406,91406,94218,99843,106406,121406,128906,151406,158906,161250,162656,164531,165937,166406,173906,181406,184218,192656,196406,211406,226406,236953,241406,249140,256406
DistanceSpacing: 1.4
BeatDivisor: 8
GridSize: 8
TimelineZoom: 2.6

[Metadata]
Title:Artificial Snow
TitleUnicode:Artificial Snow
Artist:Camellia
ArtistUnicode:かめりあ
Creator:jonghokim
Version:Aesthetic
Source:
Tags:camellia artificial snow crystallized
BeatmapID:1477676
BeatmapSetID:697586

[Difficulty]
HPDrainRate:5.5
CircleSize:4
OverallDifficulty:9
ApproachRate:9.8
SliderMultiplier:2.29999990463257
SliderTickRate:1

[Events]
//Background and Video events
0,0,"background.jpg",0,0
//Break Periods
2,136591,147147
//Storyboard Layer 0 (Background)
//Storyboard Layer 1 (Fail)
//Storyboard Layer 2 (Pass)
//Storyboard Layer 3 (Foreground)
//Storyboard Sound Samples

[TimingPoints]
-14,468.75,4,3,0,50,1,0
1392,-200,4,3,0,50,0,0
30806,-66.6666666666667,4,3,0,50,0,0
43579,-33.3333333333333,4,3,0,50,0,0
46406,-200,4,3,0,50,0,0
61640,-100,4,3,0,50,0,0
64218,-200,4,3,0,50,0,0
64453,-66.6666666666667,4,3,0,50,0,0
72173,-33.3333333333333,4,3,0,50,0,0
72642,-66.6666666666667,4,3,0,50,0,0
74517,-33.3333333333333,4,3,0,50,0,0
75103,-66.6666666666667,4,3,0,50,0,0
75454,-33.3333333333333,4,3,0,50,0,1
76875,-50,4,3,0,50,0,1
79673,-33.3333333333333,4,3,0,50,0,1
81548,-50,4,3,0,50,0,1
82954,-33.3333333333333,4,3,0,50,0,1
84361,-50,4,3,0,50,0,1
85767,-33.3333333333333,4,3,0,50,0,1
88111,-50,4,3,0,50,0,1
91392,-33.3333333333333,4,3,0,50,0,1
91875,-50,4,3,0,50,0,1
94204,-33.3333333333333,4,3,0,50,0,1
96314,-50,4,3,0,50,0,1
97954,-33.3333333333333,4,3,0,50,0,1
99361,-50,4,3,0,50,0,1
99829,-33.3333333333333,4,3,0,50,0,1
100312,-50,4,3,0,50,0,1
100767,-33.3333333333333,4,3,0,50,0,1
104751,-50,4,3,0,50,0,1
105454,-33.3333333333333,4,3,0,50,0,1
106392,-200,4,3,0,50,0,0
121392,-66.6666666666667,4,3,0,50,0,0
133696,-33.3333333333333,4,3,0,50,0,0
136406,-100,4,3,0,50,0,0
159361,-80,4,3,0,50,0,0
159829,-66.6666666666667,4,3,0,50,0,0
160298,-57.1428571428571,4,3,0,50,0,0
160767,-50,4,3,0,50,0,0
161236,-44.4444444444445,4,3,0,50,0,0
161704,-40,4,3,0,50,0,0
162173,-36.3636363636364,4,3,0,50,0,0
164517,-80,4,3,0,50,0,0
164986,-100,4,3,0,50,0,0
165454,-133.333333333333,4,3,0,50,0,0
166392,-33.3333333333333,4,3,0,50,0,1
167343,-50,4,3,0,50,0,1
169673,-33.3333333333333,4,3,0,50,0,1
171093,-50,4,3,0,50,0,1
172954,-33.3333333333333,4,3,0,50,0,1
174361,-50,4,3,0,50,0,1
176704,-33.3333333333333,4,3,0,50,0,1
182343,-50,4,3,0,50,0,1
183267,-33.3333333333333,4,3,0,50,0,1
187017,-40,4,3,0,50,0,1
187486,-33.3333333333333,4,3,0,50,0,1
189361,-50,4,3,0,50,0,1
189829,-33.3333333333333,4,3,0,50,0,1
196392,-66.6666666666667,4,3,0,50,0,0
208579,-33.3333333333333,4,3,0,50,0,0
211392,-200,4,3,0,50,0,0

[HitObjects]
36,101,1392,6,0,B|212:19|362:150,1,344.999985694885
431,319,3267,2,0,B|270:262|224:347|86:283,1,344.999985694885
218,67,5142,2,0,B|98:169|98:169|281:250|272:249,1,344.999985694885
446,82,7017,2,0,B|393:211|306:278|203:317,1,344.999985694885
60,293,8892,2,0,P|95:168|236:275,1,344.999985694885
458,167,10767,2,0,P|423:41|282:149,1,344.999985694885
168,273,12642,2,0,B|79:347|58:131|336:200,1,344.999985694885
79,145,14517,6,0,L|57:176,3,28.7499988079071
209,315,14986,2,0,L|223:343,3,28.7499988079071
329,175,15454,2,0,L|342:138,1,28.7499988079071
364,100,15689,1,0,0:0:0:0:
412,101,15806,1,0,0:0:0:0:
453,125,15923,1,0,0:0:0:0:
478,167,16040,1,0,0:0:0:0:
479,215,16157,1,0,0:0:0:0:
456,258,16274,1,0,0:0:0:0:
434,223,16392,6,0,P|338:153|274:229,1,229.999990463257
250,292,18267,6,0,P|154:362|90:286,1,229.999990463257
29,198,20142,6,0,P|125:128|189:204,1,229.999990463257
136,295,22017,2,0,P|278:284|350:206,1,229.999990463257
51,155,23892,2,0,B|88:112|88:112|128:160|128:160|172:112|172:112|201:161,1,229.999990463257
322,120,25767,2,0,B|416:192|416:192|336:271,1,229.999990463257
256,320,27642,2,0,L|256:80,1,229.999990463257
109,261,29517,5,0,0:0:0:0:
177,300,29634,1,0,0:0:0:0:
250,270,29751,1,0,0:0:0:0:
271,194,29868,1,0,0:0:0:0:
209,135,29986,5,0,0:0:0:0:
230,59,30103,1,0,0:0:0:0:
303,29,30220,1,0,0:0:0:0:
371,68,30337,1,0,0:0:0:0:
340,116,30454,5,0,0:0:0:0:
340,116,30806,2,8,L|368:88,1,21.5624999284744
160,168,30923,2,8,L|136:144,1,21.5624999284744
368,288,31157,1,8,0:0:0:0:
80,304,31392,6,4,P|8:216|48:80,1,258.749999141693
56,80,31861,1,4,0:0:0:0:
122,201,32095,1,4,0:0:0:0:
122,201,32212,1,4,0:0:0:0:
122,201,32329,2,4,P|203:279|347:232,1,258.749999141693
347,236,32798,1,4,0:0:0:0:
178,315,33032,6,4,P|28:224|154:57,1,431.249998569489
166,58,33736,1,4,0:0:0:0:
384,136,33970,1,4,0:0:0:0:
384,136,34087,1,4,0:0:0:0:
384,136,34204,2,4,P|304:295|196:302,1,258.749999141693
222,306,34673,1,4,0:0:0:0:
80,246,34907,6,4,B|106:155|106:155|257:276|257:276|309:129,1,431.249998569489
303,126,35611,1,4,0:0:0:0:
76,92,35845,1,4,0:0:0:0:
76,92,35962,1,4,0:0:0:0:
76,92,36079,2,4,P|78:261|177:345,1,258.749999141693
145,330,36548,1,4,0:0:0:0:
244,300,36782,6,4,P|401:165|241:64,1,431.249998569489
246,57,37486,1,4,0:0:0:0:
80,96,37720,1,0,0:0:0:0:
80,120,37837,1,0,0:0:0:0:
80,144,37954,2,0,L|80:248,1,86.2499997138978
208,152,38189,1,0,0:0:0:0:
208,168,38306,2,0,L|208:272,1,86.2499997138978
344,168,38540,2,0,L|344:344,1,172.499999427796
273,93,38892,6,0,P|160:145|92:127,1,172.499999427796
98,132,39243,1,0,0:0:0:0:
12,295,39361,2,0,P|144:256|218:306,1,172.499999427796
182,272,39712,1,0,0:0:0:0:
359,318,39946,1,0,0:0:0:0:
312,73,40298,5,0,0:0:0:0:
71,237,40532,1,0,0:0:0:0:
121,141,40650,1,0,0:0:0:0:
121,141,40708,1,0,0:0:0:0:
121,141,40767,2,0,P|156:250|310:216,1,301.874998998642
310,196,41236,1,0,0:0:0:0:
287,113,41353,1,0,0:0:0:0:
211,71,41470,1,0,0:0:0:0:
133,86,41587,5,0,0:0:0:0:
133,86,41704,2,0,L|71:178,1,86.2499997138978
290,210,41939,1,0,0:0:0:0:
348,146,42056,2,0,L|279:224,1,86.2499997138978
88,240,42290,1,0,0:0:0:0:
144,306,42407,2,0,P|87:239|84:234,1,86.2499997138978
219,98,42642,5,0,0:0:0:0:
219,98,42759,2,0,L|179:187,1,86.2499997138978
182,184,42993,1,0,0:0:0:0:
313,308,43111,1,0,0:0:0:0:
313,308,43228,2,0,L|382:239,1,86.2499997138978
378,241,43462,1,0,0:0:0:0:
252,190,43579,6,0,B|112:8|400:8|248:200,1,344.999998855591
252,194,43931,2,0,B|112:376|400:376|248:184,1,344.999998855591
172,133,44282,5,8,0:0:0:0:
172,133,44341,1,8,0:0:0:0:
172,133,44400,1,8,0:0:0:0:
172,133,44458,1,8,0:0:0:0:
172,133,44517,2,8,P|309:237|494:268,1,344.999998855591
92,271,44868,2,8,P|262:247|401:141,1,344.999998855591
405,129,45220,5,8,0:0:0:0:
104,112,45337,2,8,L|72:64,2,43.1249998569489
213,109,45454,2,8,B|89:269|255:297|430:273,1,344.999998855591
69,177,45806,2,8,B|254:57|254:57|427:124,1,344.999998855591
458,291,46157,2,8,L|107:78,1,344.999998855591
106,254,46743,6,0,L|80:178,1,57.4999976158142
302,196,47095,2,0,L|344:139,1,57.4999976158142
197,175,47446,2,0,L|168:112,1,57.4999976158142
354,328,47798,2,0,L|404:279,1,57.4999976158142
335,130,48150,2,0,L|297:72,1,57.4999976158142
93,103,48501,2,0,L|129:50,1,57.4999976158142
216,224,48853,6,0,L|153:238,1,57.4999976158142
405,259,49204,2,0,L|471:306,1,57.4999976158142
146,128,49556,2,0,L|92:171,1,57.4999976158142
401,96,49907,2,0,L|464:140,1,57.4999976158142
75,311,50259,2,0,L|150:318,1,57.4999976158142
407,239,50611,2,0,L|340:219,1,57.4999976158142
112,177,50962,6,0,L|59:135,1,57.4999976158142
375,97,51314,2,0,L|437:63,1,57.4999976158142
256,131,51665,2,0,L|176:115,1,57.4999976158142
339,260,52017,2,0,L|411:243,1,57.4999976158142
149,193,52368,2,0,L|73:169,1,57.4999976158142
45,303,52720,2,0,L|111:334,1,57.4999976158142
156,103,53071,6,0,L|87:125,1,57.4999976158142
348,232,53423,2,0,L|386:183,1,57.4999976158142
177,275,53775,2,0,L|105:247,1,57.4999976158142
331,89,54126,2,0,L|260:131,1,57.4999976158142
367,292,54478,2,0,L|422:255,1,57.4999976158142
112,198,54829,2,0,L|94:138,1,57.4999976158142
378,111,55181,6,0,L|310:118,1,57.4999976158142
196,281,55532,2,0,L|241:321,1,57.4999976158142
79,97,55884,2,0,L|54:157,1,57.4999976158142
368,242,56236,2,0,L|308:201,1,57.4999976158142
112,254,56587,2,0,L|70:311,1,57.4999976158142
378,121,56939,2,0,L|453:132,1,57.4999976158142
168,121,57290,6,0,L|98:152,1,57.4999976158142
416,306,57642,2,0,L|463:246,1,57.4999976158142
202,250,57993,2,0,L|242:314,1,57.4999976158142
333,150,58345,2,0,P|309:103|293:87,1,57.4999976158142
202,182,58696,2,0,P|174:154|175:112,1,57.4999976158142
230,303,59048,2,0,P|260:289|305:302,1,57.4999976158142
56,268,59400,6,0,P|48:223|69:197,1,57.4999976158142
362,171,59751,2,0,P|368:201|356:239,1,57.4999976158142
131,161,60103,2,0,P|117:120|134:94,1,57.4999976158142
274,135,60454,2,0,P|274:174|255:203,1,57.4999976158142
256,192,60806,5,4,0:0:0:0:
166,128,60923,1,4,0:0:0:0:
129,294,61040,1,4,0:0:0:0:
384,47,61157,1,4,0:0:0:0:
477,353,61274,1,4,0:0:0:0:
305,216,61392,6,4,L|288:211,2,14.3749994039536
110,101,61626,1,4,0:0:0:0:
114,105,61743,2,4,L|135:174,1,57.4999976158142
133,177,61978,5,4,0:0:0:0:
304,155,62095,1,4,0:0:0:0:
304,155,62212,2,4,L|287:225,1,57.4999976158142
285,232,62446,5,4,0:0:0:0:
458,255,62564,1,4,0:0:0:0:
458,255,62681,2,4,L|408:307,1,57.4999976158142
403,312,62915,5,4,0:0:0:0:
54,255,63032,1,4,0:0:0:0:
54,255,63149,2,4,L|103:307,1,57.4999976158142
109,312,63383,5,4,0:0:0:0:
208,155,63501,1,4,0:0:0:0:
208,155,63618,2,4,L|224:225,1,57.4999976158142
227,232,63852,5,4,0:0:0:0:
347,296,63970,2,4,L|373:245,1,57.4999976158142
102,214,64204,2,4,L|85:224,2,14.3749994039536
249,79,64439,1,4,0:0:0:0:
338,79,64556,2,4,L|243:80,1,86.2499997138978
338,79,64790,1,4,0:0:0:0:
97,139,64907,5,4,0:0:0:0:
97,139,65025,2,4,L|103:240,1,86.2499997138978
102,225,65259,1,4,0:0:0:0:
360,312,65376,1,4,0:0:0:0:
360,312,65493,2,4,L|392:224,1,86.2499997138978
280,96,65728,5,4,0:0:0:0:
280,96,65845,1,4,0:0:0:0:
280,96,65962,2,4,L|240:192,1,86.2499997138978
46,230,66196,1,4,0:0:0:0:
96,160,66314,2,4,L|40:240,1,86.2499997138978
136,240,66548,1,4,0:0:0:0:
216,208,66665,1,4,0:0:0:0:
280,152,66782,1,4,0:0:0:0:
328,80,66900,1,4,0:0:0:0:
408,56,67017,6,4,P|464:128|464:144,1,86.2499997138978
472,136,67251,1,4,0:0:0:0:
472,136,67368,1,4,0:0:0:0:
152,160,67486,2,4,P|200:240|216:240,1,86.2499997138978
192,240,67720,1,4,0:0:0:0:
192,240,67837,1,4,0:0:0:0:
360,120,67954,6,0,L|384:80,2,43.1249998569489
168,80,68189,1,0,0:0:0:0:
168,80,68306,1,0,0:0:0:0:
80,208,68423,6,0,L|48:176,2,43.1249998569489
200,328,68657,1,0,0:0:0:0:
200,328,68775,1,0,0:0:0:0:
424,248,68892,6,8,L|456:288,2,43.1249998569489
304,88,69126,1,0,0:0:0:0:
304,88,69243,1,0,0:0:0:0:
104,144,69361,6,8,L|58:132,2,43.1249998569489
376,192,69595,1,0,0:0:0:0:
368,192,69712,1,0,0:0:0:0:
176,232,69829,6,8,L|119:220,2,43.1249998569489
456,288,70064,1,0,0:0:0:0:
456,288,70181,1,0,0:0:0:0:
112,280,70298,6,8,L|64:328,2,43.1249998569489
312,104,70532,1,0,0:0:0:0:
312,104,70650,1,0,0:0:0:0:
104,80,70767,6,8,L|70:43,2,43.1249998569489
256,208,71001,1,0,0:0:0:0:
256,208,71118,1,0,0:0:0:0:
32,272,71236,2,0,L|32:320,1,43.1249998569489
48,272,71353,2,0,L|48:320,1,43.1249998569489
104,159,71470,2,0,L|104:111,1,43.1249998569489
120,159,71587,2,0,L|120:111,1,43.1249998569489
141,258,71704,6,0,L|141:306,1,43.1249998569489
157,258,71821,2,0,L|157:306,1,43.1249998569489
213,145,71938,2,0,L|213:97,1,43.1249998569489
229,145,72055,2,0,L|229:97,1,43.1249998569489
311,214,72173,6,0,P|279:247|234:267,1,86.2499997138978
201,170,72290,2,0,P|233:137|278:117,1,86.2499997138978
327,218,72407,6,0,P|295:251|250:271,1,86.2499997138978
185,166,72524,2,0,P|217:133|262:113,1,86.2499997138978
256,112,72642,6,8,L|256:64,2,43.1249998569489
256,280,72876,1,0,0:0:0:0:
256,280,72993,1,0,0:0:0:0:
120,192,73111,6,0,L|72:192,2,43.1249998569489,8|0|0,0:0|0:0|0:0,0:0:0:0:
368,192,73345,1,0,0:0:0:0:
368,192,73462,1,0,0:0:0:0:
256,112,73579,2,8,L|256:64,2,43.1249998569489
256,280,73814,2,4,L|256:304,8,21.5624999284744
176,208,74165,5,4,0:0:0:0:
64,160,74282,1,4,0:0:0:0:
64,160,74341,1,4,0:0:0:0:
64,160,74400,1,4,0:0:0:0:
64,160,74458,1,4,0:0:0:0:
64,160,74517,2,4,P|368:104|504:256,1,517.499998283387
504,248,74986,1,4,0:0:0:0:
432,184,75103,6,4,L|472:184,4,21.5624999284744
312,192,75337,1,4,0:0:0:0:
216,328,75454,2,4,P|120:296|56:232,1,172.499999427796
256,96,75689,2,4,P|350:131|412:197,1,172.499999427796
408,288,75923,5,4,0:0:0:0:
408,288,76040,2,4,L|216:216,1,172.499999427796
232,224,76275,1,4,0:0:0:0:
176,320,76392,2,4,B|72:40|120:16|392:152,1,517.499998283387
384,256,76861,5,8,0:0:0:0:
371,273,76919,1,8,0:0:0:0:
356,289,76978,1,8,0:0:0:0:
339,302,77036,1,8,0:0:0:0:
320,311,77095,1,8,0:0:0:0:
299,318,77153,1,8,0:0:0:0:
278,321,77212,1,8,0:0:0:0:
256,320,77271,1,8,0:0:0:0:
235,316,77329,6,0,P|163:272|136:233,1,114.999995231628
146,101,77564,2,0,L|92:55,1,57.4999976158142
323,171,77681,2,0,L|371:124,1,57.4999976158142
177,243,77798,5,0,0:0:0:0:
254,115,77915,1,0,0:0:0:0:
177,243,78032,2,0,L|142:309,2,57.4999976158142
53,164,78267,5,0,0:0:0:0:
248,72,78384,1,0,0:0:0:0:
58,69,78501,5,0,0:0:0:0:
251,163,78618,1,0,0:0:0:0:
115,249,78736,6,0,L|76:308,1,57.4999976158142
226,276,78853,2,0,L|187:335,1,57.4999976158142
343,245,78970,6,0,L|304:304,1,57.4999976158142
430,300,79087,2,0,L|391:359,1,57.4999976158142
196,167,79204,5,0,0:0:0:0:
310,141,79321,1,0,0:0:0:0:
310,141,79439,2,0,L|186:170,1,114.999995231628
80,124,79673,6,0,B|10:237|133:326|325:340|409:310|467:151,1,517.499998283387
390,359,80142,2,0,B|126:169|126:169|340:70|372:165,1,517.499998283387
436,55,80611,5,8,0:0:0:0:
436,55,80670,1,8,0:0:0:0:
436,55,80728,2,8,L|409:169,1,86.2499997138978
298,150,80845,2,8,L|325:264,1,86.2499997138978
458,231,80963,2,8,L|431:345,1,86.2499997138978
337,342,81079,6,0,B|249:335|249:335|184:270|184:270,1,172.499999427796
103,139,81314,1,0,0:0:0:0:
103,139,81431,1,0,0:0:0:0:
232,192,81548,6,0,L|232:128,1,57.4999976158142
312,104,81665,2,0,L|312:168,1,57.4999976158142
392,192,81782,2,0,L|392:128,1,57.4999976158142
472,104,81900,2,0,L|472:168,1,57.4999976158142
407,296,82017,5,0,0:0:0:0:
168,234,82134,1,0,0:0:0:0:
321,125,82251,1,0,0:0:0:0:
94,41,82368,1,0,0:0:0:0:
176,80,82486,6,0,L|240:80,1,57.4999976158142
404,184,82603,2,0,L|332:184,1,57.4999976158142
156,231,82720,6,0,L|220:231,1,57.4999976158142
384,335,82837,2,0,L|312:335,1,57.4999976158142
327,335,82954,6,0,B|393:268|393:268|351:218|351:218|405:169|459:190,1,258.749999141693
456,184,83189,1,0,0:0:0:0:
331,78,83306,2,0,B|235:118|235:118|254:211|254:211|106:260,1,344.999998855591
53,127,83657,2,0,P|133:51|257:80,1,172.499999427796
166,154,83892,2,0,B|87:312|87:312|222:274|222:274|290:340|290:340|437:237,1,517.499998283387
392,120,84361,6,8,L|413:101,7,28.7499988079071
317,108,84595,2,8,L|296:129,7,28.7499988079071
141,57,84829,6,0,L|73:13,1,57.4999976158142
148,143,84946,2,0,L|83:144,1,57.4999976158142
179,226,85064,2,0,L|127:263,1,57.4999976158142
251,275,85181,2,0,L|222:331,1,57.4999976158142
401,161,85298,1,0,0:0:0:0:
405,166,85415,6,8,L|441:164,8,28.7499988079071
41,191,85767,2,0,B|82:172|82:171|82:171|83:217|83:217|106:170|106:170|110:221|110:221|133:170|133:170|133:221|133:221|171:188,1,344.999998855591
253,122,86118,2,0,P|154:97|146:100,1,86.2499997138978
347,197,86236,2,0,P|438:217|445:212,1,86.2499997138978
260,208,86353,2,0,P|234:306|237:314,1,86.2499997138978
334,113,86471,2,0,P|354:22|348:15,1,86.2499997138978
160,328,86704,6,0,B|83:192|51:5|112:-8|194:0|300:217,1,517.499998283387
246,276,87173,2,0,B|333:364|371:297|346:141,1,258.749999141693
135,194,87407,2,0,B|48:282|13:201|32:37,1,258.749999141693
135,69,87642,6,0,B|335:72|335:72|362:280|428:16|467:84|467:84|449:191,1,517.499998283387
151,238,88111,6,8,L|130:256,7,28.7499988079071
226,250,88345,2,8,L|247:229,7,28.7499988079071
222,341,88579,5,0,0:0:0:0:
323,315,88696,1,0,0:0:0:0:
400,252,88814,1,0,0:0:0:0:
453,158,88931,1,0,0:0:0:0:
345,77,89048,1,8,0:0:0:0:
345,77,89107,1,8,0:0:0:0:
345,77,89165,1,8,0:0:0:0:
345,77,89224,1,8,0:0:0:0:
345,77,89282,2,8,P|273:107|242:152,1,114.999995231628
206,306,89517,5,0,0:0:0:0:
59,144,89634,2,0,P|105:242|213:307,1,229.999990463257
241,231,89986,2,0,P|217:115|283:34,1,229.999990463257
375,153,90337,5,0,0:0:0:0:
488,133,90454,2,0,L|362:155,1,114.999995231628
206,153,90689,1,0,0:0:0:0:
93,133,90806,2,0,L|219:155,1,114.999995231628
293,262,91040,1,0,0:0:0:0:
293,262,91099,1,0,0:0:0:0:
293,262,91157,2,0,P|214:328|150:338,1,114.999995231628
88,208,91392,6,0,B|59:90|115:71|170:191|280:152|280:152|311:65|400:168|456:136,1,431.249998569489
344,48,91861,1,8,0:0:0:0:
322,50,91919,1,8,0:0:0:0:
301,56,91978,1,8,0:0:0:0:
281,64,92036,1,8,0:0:0:0:
263,75,92095,1,8,0:0:0:0:
246,89,92153,1,8,0:0:0:0:
232,104,92212,1,8,0:0:0:0:
219,122,92271,1,8,0:0:0:0:
209,142,92329,6,8,P|192:208|192:280,1,114.999995231628
232,352,92564,1,0,0:0:0:0:
232,128,92681,1,0,0:0:0:0:
100,309,92798,1,0,0:0:0:0:
313,240,92915,1,0,0:0:0:0:
100,171,93032,1,0,0:0:0:0:
189,254,93150,5,0,0:0:0:0:
323,171,93267,2,0,L|345:101,1,57.4999976158142
453,109,93384,2,0,L|431:179,1,57.4999976158142
323,171,93501,2,0,L|345:101,1,57.4999976158142
453,109,93618,2,0,L|431:179,1,57.4999976158142
345,294,93736,1,0,0:0:0:0:
216,210,93853,1,0,0:0:0:0:
55,219,93970,1,0,0:0:0:0:
40,64,94087,1,0,0:0:0:0:
40,64,94204,6,0,B|80:152|208:88|208:88|336:296|464:192,1,517.499998283387
480,176,94673,1,0,0:0:0:0:
368,72,94790,1,0,0:0:0:0:
368,72,94849,1,0,0:0:0:0:
368,72,94907,2,0,L|344:168,1,86.2499997138978
240,120,95025,2,0,L|216:216,1,86.2499997138978
128,248,95142,6,0,B|48:304|48:304|384:328|384:328|328:256,1,517.499998283387
144,120,95611,1,8,0:0:0:0:
144,120,95669,1,8,0:0:0:0:
144,120,95728,2,8,L|120:24,1,86.2499997138978
216,224,95845,2,8,L|240:128,1,86.2499997138978
88,288,95962,2,8,L|64:192,1,86.2499997138978
240,336,96079,6,0,B|304:328|304:328|320:248|384:200|384:200|360:160,1,258.749999141693
224,88,96314,2,0,L|152:48,1,57.4999976158142
216,104,96431,2,0,L|160:72,1,57.4999976158142
144,256,96548,1,0,0:0:0:0:
336,136,96665,1,0,0:0:0:0:
144,256,96782,1,0,0:0:0:0:
336,136,96900,1,0,0:0:0:0:
296,272,97017,5,0,0:0:0:0:
152,128,97134,1,0,0:0:0:0:
336,136,97251,1,0,0:0:0:0:
144,256,97368,1,0,0:0:0:0:
112,248,97486,2,0,L|80:304,1,57.4999976158142
176,136,97603,2,0,L|144:80,1,57.4999976158142
248,256,97720,2,0,L|216:312,1,57.4999976158142
312,144,97837,2,0,L|280:88,1,57.4999976158142
408,128,97954,6,0,P|480:320|448:360,1,258.749999141693
272,177,98189,1,0,0:0:0:0:
112,208,98306,2,0,P|200:168|288:184,1,172.499999427796
280,296,98540,1,0,0:0:0:0:
280,296,98599,1,0,0:0:0:0:
280,296,98657,2,0,P|184:344|96:312,1,172.499999427796
40,144,98892,2,0,B|88:104|184:160|184:160|216:248|216:248|272:160|368:232|368:232|368:128,1,517.499998283387
432,328,99361,6,8,L|464:328,7,28.7499988079071
360,328,99595,2,8,L|328:328,7,28.7499988079071
200,240,99829,2,0,L|109:292,1,86.2499997138978
256,128,99946,2,0,L|256:24,1,86.2499997138978
312,240,100064,2,0,L|402:292,1,86.2499997138978
160,144,100181,1,0,0:0:0:0:
56,280,100298,1,0,0:0:0:0:
56,280,100415,6,8,L|32:304,8,28.7499988079071
240,296,100767,2,0,B|280:248|280:192|216:136|216:136|304:80|376:120|376:120|344:192|344:248|408:288,1,517.499998283387
424,136,101236,2,0,P|296:104|168:176,1,258.749999141693
104,104,101470,2,0,P|56:88|32:48,1,86.2499997138978
112,224,101587,2,0,P|64:240|40:280,1,86.2499997138978
208,160,101704,6,0,P|320:80|488:64,1,258.749999141693
448,56,101939,1,0,0:0:0:0:
432,208,102056,2,0,B|336:184|296:256|296:256|200:224,1,258.749999141693
72,160,102290,1,0,0:0:0:0:
72,160,102349,1,0,0:0:0:0:
72,160,102407,2,0,B|64:248|64:248|168:112,1,258.749999141693
264,64,102642,5,12,0:0:0:0:
390,142,102759,2,12,P|326:62|238:78,1,172.499999427796
280,256,102993,5,12,0:0:0:0:
154,178,103110,2,12,P|218:258|306:242,1,172.499999427796
448,296,103345,2,12,L|448:112,1,172.499999427796
280,64,103579,1,12,0:0:0:0:
280,64,103638,1,12,0:0:0:0:
280,64,103696,1,12,0:0:0:0:
184,144,103814,2,12,L|184:240,1,86.2499997138978
352,240,103931,2,12,L|352:336,1,86.2499997138978
232,264,104048,5,12,0:0:0:0:
104,216,104165,2,12,L|40:280,1,86.2499997138978
96,80,104282,1,12,0:0:0:0:
96,80,104341,1,12,0:0:0:0:
96,80,104400,1,12,0:0:0:0:
336,128,104517,1,12,0:0:0:0:
240,272,104751,2,12,L|208:296,6,28.7499988079071
48,200,105454,6,4,P|119:317|242:291,1,258.749999141693
352,264,105689,2,4,B|408:208|464:256|512:192|512:192|464:128|464:128|496:40|496:40|408:24|352:88|336:152|336:152|264:144|264:144|216:56|216:56|160:176|128:24|32:128|32:128,1,948.749996852875
56,200,106392,6,0,P|136:280|248:304,1,229.999990463257
200,152,108267,2,0,P|304:144|432:192,1,229.999990463257
400,296,110142,2,0,P|472:200|440:96,1,229.999990463257
368,80,112017,2,0,P|256:128|144:88,1,229.999990463257
160,192,113892,2,0,B|136:176|136:176|96:224|96:224|168:280|168:280|200:240,1,229.999990463257
64,192,115767,5,0,0:0:0:0:
136,104,116118,2,0,L|200:64,1,57.4999976158142
192,304,116470,2,0,L|264:328,1,57.4999976158142
336,56,116821,2,0,L|400:16,1,57.4999976158142
376,320,117173,2,0,L|448:344,1,57.4999976158142
400,176,117642,2,0,B|423:191|423:191|464:143|464:143|392:87|392:87|360:127,1,229.999990463257
152,88,119517,6,0,L|152:24,1,57.4999976158142
336,120,119868,2,0,L|336:56,1,57.4999976158142
152,224,120220,2,0,L|152:160,1,57.4999976158142
336,256,120571,2,0,L|336:184,1,57.4999976158142
152,360,120923,2,0,L|152:296,1,57.4999976158142
40,160,121392,6,0,P|112:232|158:121,1,258.749999141693
161,125,121861,1,0,0:0:0:0:
464,168,122095,1,0,0:0:0:0:
464,168,122212,2,0,L|352:120,1,86.2499997138978
368,128,122446,1,0,0:0:0:0:
168,264,122564,5,0,0:0:0:0:
168,264,122681,2,0,L|256:264,1,86.2499997138978
264,264,122915,1,0,0:0:0:0:
352,232,123032,1,0,0:0:0:0:
416,168,123150,1,0,0:0:0:0:
192,72,123267,5,0,0:0:0:0:
105,72,123384,2,0,L|193:72,1,86.2499997138978
240,128,123618,1,0,0:0:0:0:
200,192,123736,1,0,0:0:0:0:
136,208,123853,6,0,P|88:232|88:288,1,86.2499997138978
80,272,124087,1,0,0:0:0:0:
128,328,124204,1,0,0:0:0:0:
200,320,124321,6,0,P|272:280|312:280,1,86.2499997138978
288,280,124556,1,0,0:0:0:0:
320,208,124673,1,0,0:0:0:0:
273,138,124790,6,0,P|313:186|321:218,1,86.2499997138978
320,208,125025,1,0,0:0:0:0:
88,256,125142,2,0,L|144:184,1,86.2499997138978
232,72,125376,1,0,0:0:0:0:
232,72,125493,1,0,0:0:0:0:
416,192,125611,6,0,L|304:184,1,86.2499997138978
168,176,125845,1,0,0:0:0:0:
168,176,125962,1,0,0:0:0:0:
24,48,126079,6,0,L|88:112,1,86.2499997138978
272,264,126314,1,0,0:0:0:0:
272,264,126431,1,0,0:0:0:0:
400,64,126548,6,0,L|352:144,1,86.2499997138978
224,352,126782,1,0,0:0:0:0:
224,352,126900,1,0,0:0:0:0:
88,168,127017,2,0,L|168:88,1,86.2499997138978
160,96,127251,1,0,0:0:0:0:
256,152,127368,1,0,0:0:0:0:
344,96,127486,1,0,0:0:0:0:
424,160,127603,1,0,0:0:0:0:
344,280,127720,5,0,0:0:0:0:
344,280,127778,1,0,0:0:0:0:
344,280,127837,1,0,0:0:0:0:
136,280,127954,1,0,0:0:0:0:
136,80,128071,2,0,L|224:80,1,86.2499997138978
232,80,128306,1,0,0:0:0:0:
232,80,128423,1,0,0:0:0:0:
328,80,128540,2,0,P|320:184|280:280,1,172.499999427796
160,144,128892,6,0,B|96:184|96:184|160:232|160:232|112:280|112:280,1,215.624999284744
168,336,129243,2,0,B|208:264|320:304|352:224,1,215.624999284744
352,152,129595,2,0,P|448:160|432:280,1,215.624999284744
376,288,129946,2,0,B|304:352|304:352|256:216,1,215.624999284744
235,171,130298,2,0,P|173:102|127:200,1,215.624999284744
120,248,130650,2,0,B|256:248|256:248|304:320|304:320|432:320,1,344.999998855591
440,320,131236,1,0,0:0:0:0:
497,257,131353,1,0,0:0:0:0:
506,173,131470,1,0,0:0:0:0:
462,100,131587,1,0,0:0:0:0:
376,208,131704,6,0,B|312:208|264:152|200:152,1,172.499999427796
216,56,132056,6,0,B|152:56|104:112|40:112,1,172.499999427796
168,232,132407,1,0,0:0:0:0:
64,232,132525,2,0,L|160:232,1,86.2499997138978
64,232,132759,1,0,0:0:0:0:
128,320,132876,1,0,0:0:0:0:
224,288,132993,1,0,0:0:0:0:
280,208,133111,2,0,P|328:176|360:176,1,86.2499997138978
368,176,133345,1,0,0:0:0:0:
280,208,133462,1,0,0:0:0:0:
208,128,133579,1,0,0:0:0:0:
288,96,133696,6,0,L|456:48,1,172.499999427796
376,296,133931,2,0,L|208:344,1,172.499999427796
48,168,134282,5,0,0:0:0:0:
48,168,134341,1,0,0:0:0:0:
48,168,134400,1,0,0:0:0:0:
48,168,134458,1,0,0:0:0:0:
48,168,134517,2,0,B|136:232|136:232|240:120|240:120|320:184,1,344.999998855591
376,56,134868,2,0,B|456:120|456:120|304:256|496:312,1,344.999998855591
488,312,135220,1,0,0:0:0:0:
224,200,135337,6,0,L|152:136,2,86.2499997138978
352,304,135571,1,0,0:0:0:0:
352,304,135689,1,0,0:0:0:0:
224,312,135806,2,0,B|80:208|128:160|128:160|272:168,1,344.999998855591
464,208,136157,2,0,P|320:104|152:72,1,344.999998855591
256,192,147642,12,0,151275,0:0:0:0:
128,200,151392,5,8,0:0:0:0:
80,64,151626,1,8,0:0:0:0:
264,240,151861,1,8,0:0:0:0:
312,104,152095,1,8,0:0:0:0:
200,272,152329,5,8,0:0:0:0:
152,136,152563,1,8,0:0:0:0:
336,312,152798,1,8,0:0:0:0:
384,176,153032,1,8,0:0:0:0:
88,120,153267,5,8,0:0:0:0:
384,264,153501,1,8,0:0:0:0:
88,120,153736,1,8,0:0:0:0:
384,264,153970,1,8,0:0:0:0:
88,264,154204,5,8,0:0:0:0:
384,120,154438,1,8,0:0:0:0:
88,264,154673,1,8,0:0:0:0:
384,120,154907,1,8,0:0:0:0:
176,152,155142,6,8,L|104:152,1,57.4999976158142
176,152,155376,2,8,L|112:152,1,57.4999976158142
352,192,155611,2,8,L|416:192,1,57.4999976158142
352,192,155845,2,8,L|416:192,1,57.4999976158142
112,64,156079,6,8,L|40:64,1,57.4999976158142
112,64,156313,2,8,L|48:64,1,57.4999976158142
408,272,156548,2,8,L|472:272,1,57.4999976158142
408,272,156782,2,8,L|472:272,1,57.4999976158142
136,144,157017,6,8,L|176:208,1,57.4999976158142
350,256,157251,2,8,L|310:192,1,57.4999976158142
105,95,157486,2,8,L|145:159,1,57.4999976158142
380,304,157720,2,8,L|340:240,1,57.4999976158142
136,240,157954,6,8,L|176:176,1,57.4999976158142
350,128,158188,2,8,L|310:192,1,57.4999976158142
105,289,158423,2,8,L|145:225,1,57.4999976158142
380,80,158657,2,8,L|340:144,1,57.4999976158142
256,64,158892,6,0,L|256:128,1,57.4999976158142
256,304,159126,2,0,L|256:224,1,57.4999976158142
112,96,159361,6,0,L|168:160,1,71.8749970197678
400,288,159595,2,0,L|344:224,1,71.8749970197678
56,192,159829,6,0,L|152:192,1,86.2499997138978
456,192,160064,2,0,L|360:192,1,86.2499997138978
104,320,160298,6,0,L|200:264,1,100.62499678731
408,64,160532,2,0,L|312:120,1,100.62499678731
45,165,160767,6,0,P|119:198|162:195,1,114.999995231628
466,218,161001,2,0,P|392:185|349:188,1,114.999995231628
96,56,161236,6,0,P|168:64|232:88,1,129.374999570847
416,328,161470,2,0,P|344:320|280:296,1,129.374999570847
32,168,161704,6,0,P|104:216|184:216,1,143.749994039536
480,216,161939,2,0,P|408:168|328:168,1,143.749994039536
16,328,162173,6,0,P|112:320|168:280,1,158.124994951487
496,56,162407,2,0,P|400:64|344:104,1,158.124994951487
111,185,162642,5,0,0:0:0:0:
84,140,162759,1,0,0:0:0:0:
87,88,162876,1,0,0:0:0:0:
118,46,162993,1,0,0:0:0:0:
232,104,163111,5,0,0:0:0:0:
281,119,163228,1,0,0:0:0:0:
334,115,163345,1,0,0:0:0:0:
380,91,163462,1,0,0:0:0:0:
456,152,163579,5,0,0:0:0:0:
484,222,163696,1,0,0:0:0:0:
448,290,163814,2,4,L|481:321,6,39.5312487378717
320,144,164048,2,6,L|290:66,1,79.0624974757433
272,192,164165,2,6,L|207:139,1,79.0624974757433
240,248,164282,2,6,L|157:234,1,79.0624974757433
232,312,164400,2,6,L|154:342,1,79.0624974757433
326,239,164517,6,6,L|352:240,15,17.968749254942
312,144,164986,2,6,L|328:136,15,14.3749994039536
240,72,165454,2,6,L|248:56,15,10.7812499642372
328,64,166392,6,8,B|280:152|280:152|168:96|104:216|104:216|296:320,1,517.499998283387
400,304,166861,2,8,L|440:328,1,43.1249998569489
417,277,166919,2,8,L|460:293,1,43.1249998569489
429,247,166978,2,8,L|475:256,1,43.1249998569489
436,216,167036,2,8,L|483:217,1,43.1249998569489
438,185,167094,2,8,L|484:177,1,43.1249998569489
434,153,167153,2,8,L|478:138,1,43.1249998569489
424,123,167212,2,8,L|465:100,1,43.1249998569489
410,94,167271,2,8,L|446:65,1,43.1249998569489
391,69,167329,5,8,0:0:0:0:
304,32,167446,2,0,L|368:16,1,57.4999976158142
144,136,167564,2,0,L|80:120,1,57.4999976158142
368,248,167681,2,0,L|432:264,1,57.4999976158142
368,136,167798,6,0,L|432:120,1,57.4999976158142
144,248,167915,1,0,0:0:0:0:
368,136,168032,1,0,0:0:0:0:
144,248,168150,1,0,0:0:0:0:
184,96,168267,6,0,L|152:48,1,57.4999976158142
328,288,168384,2,0,L|360:336,1,57.4999976158142
184,96,168501,1,0,0:0:0:0:
328,288,168618,1,0,0:0:0:0:
144,248,168736,6,0,L|216:224,1,57.4999976158142
368,136,168853,2,0,L|296:160,1,57.4999976158142
144,248,168970,1,0,0:0:0:0:
368,136,169087,1,0,0:0:0:0:
152,168,169204,6,0,B|232:120|232:120|304:168,1,172.499992847443
368,256,169439,2,0,L|424:304,1,57.4999976158142
240,272,169556,2,0,L|184:320,1,57.4999976158142
48,232,169673,6,0,B|136:88|272:200|272:200|384:80|488:192,1,517.499998283387
464,312,170142,2,0,B|184:256|184:256|384:64,1,517.499998283387
416,88,170611,5,8,0:0:0:0:
416,88,170669,2,8,L|312:56,1,86.2499997138978
328,176,170786,1,8,0:0:0:0:
328,176,170845,2,8,L|224:208,1,86.2499997138978
232,96,170962,2,8,L|128:64,1,86.2499997138978
112,160,171079,1,0,0:0:0:0:
224,328,171196,1,0,0:0:0:0:
224,160,171314,1,0,0:0:0:0:
112,328,171431,1,0,0:0:0:0:
186,203,171548,6,0,L|234:147,1,57.4999976158142
326,181,171665,2,0,L|278:237,1,57.4999976158142
180,259,171782,6,0,L|214:193,1,57.4999976158142
332,125,171899,2,0,L|297:190,1,57.4999976158142
230,288,172017,5,0,0:0:0:0:
43,180,172134,1,0,0:0:0:0:
230,73,172251,1,0,0:0:0:0:
43,180,172368,1,0,0:0:0:0:
144,280,172486,6,0,P|178:289|217:281,1,57.4999976158142
264,160,172603,2,0,P|229:150|190:158,1,57.4999976158142
346,299,172720,6,0,P|380:308|419:300,1,57.4999976158142
466,179,172837,2,0,P|431:169|392:177,1,57.4999976158142
424,40,172954,6,0,B|312:216|200:48|80:272,1,431.249998569489
152,328,173306,2,0,B|232:224|232:224|304:368|504:224,1,431.249998569489
440,168,173657,2,0,P|344:96|208:80,1,258.749999141693
64,48,173892,2,0,B|64:232|64:232|192:136|192:136|192:336,1,517.499998283387
360,280,174361,6,8,L|381:261,7,28.7499988079071
320,232,174595,2,8,L|336:208,7,28.7499988079071
236,254,174829,6,0,L|180:198,1,57.4999976158142
110,167,174946,2,0,L|70:126,1,57.4999976158142
228,132,175064,2,0,L|188:92,1,57.4999976158142
153,295,175181,2,0,L|112:255,1,57.4999976158142
59,203,175298,1,0,0:0:0:0:
59,203,175415,2,8,L|24:167,10,28.7499988079071
288,256,175767,6,0,L|456:192,1,172.499992847443
449,194,176001,2,0,L|320:72,1,172.499992847443
324,75,176236,2,0,P|240:96|168:152,1,172.499992847443
96,184,176470,2,0,L|24:200,1,57.4999976158142
192,240,176587,2,0,L|192:320,1,57.4999976158142
272,352,176704,6,0,B|372:302|372:302|171:225|292:35|480:296|544:231|403:35,1,603.749997997284
320,48,177173,2,0,P|184:72|80:144,1,258.749999141693
96,256,177407,2,0,P|208:184|352:264,1,258.749999141693
448,96,177642,6,0,B|280:336|280:336|160:48,1,603.749997997284
160,49,178111,2,0,P|96:128|96:280,1,258.749999141693
104,296,178345,2,8,L|136:344,7,43.1249998569489
208,232,178579,2,0,L|304:224,1,86.2499997138978
296,152,178696,2,0,L|384:136,1,86.2499997138978
384,64,178814,2,0,L|480:32,1,86.2499997138978
416,248,178931,1,0,0:0:0:0:
416,248,179048,2,0,P|424:304|424:304,14,43.1249998569489,0|0|0|0|0|0|0|8|0|0|0|0|0|0|0,0:0|0:0|0:0|0:0|0:0|0:0|0:0|0:0|0:0|0:0|0:0|0:0|0:0|0:0|0:0,0:0:0:0:
224,280,179517,5,0,0:0:0:0:
224,280,179634,2,0,P|56:232|112:16,1,431.249998569489
184,88,179986,2,0,P|304:144|384:248,1,258.749999141693
304,320,180220,2,0,L|216:320,1,86.2499997138978
232,232,180337,2,0,L|168:168,1,86.2499997138978
96,240,180454,2,0,P|104:112|208:48,1,258.749999141693
360,40,180689,2,0,B|208:128|216:320|216:320|328:184|328:184|416:328|416:328|408:128|520:48,1,948.749996852875
384,104,181392,6,0,B|88:352|88:-32|304:-32|312:312,1,603.749997997284
240,296,181861,2,8,L|243:342,1,43.1249998569489
207,298,181919,2,8,L|201:343,1,43.1249998569489
175,295,181978,2,8,L|162:340,1,43.1249998569489
144,287,182036,2,8,L|123:329,1,43.1249998569489
116,275,182094,2,8,L|87:312,1,43.1249998569489
88,257,182153,2,8,L|54:289,1,43.1249998569489
66,234,182212,2,8,L|26:260,1,43.1249998569489
47,209,182271,2,8,L|4:227,1,43.1249998569489
33,180,182329,5,0,0:0:0:0:
144,64,182446,2,0,L|80:32,1,57.4999976158142
208,168,182564,2,0,L|144:200,1,57.4999976158142
304,64,182681,2,0,L|240:32,1,57.4999976158142
392,152,182798,1,0,0:0:0:0:
288,288,182915,1,0,0:0:0:0:
392,152,183032,1,0,0:0:0:0:
504,280,183150,1,0,0:0:0:0:
408,328,183267,6,0,P|376:288|368:240,1,86.2499997138978
272,304,183384,2,0,B|279:324|264:253|281:207,1,86.2499997138978
184,192,183501,2,0,P|202:144|240:113,1,86.2499997138978
136,62,183618,2,0,B|121:78|176:29|224:21,1,86.2499997138978
304,48,183736,5,0,0:0:0:0:
448,192,183853,1,0,0:0:0:0:
448,48,183970,1,0,0:0:0:0:
304,192,184087,1,0,0:0:0:0:
376,128,184204,2,0,P|336:272|232:320,1,258.749999141693
144,312,184439,2,0,L|40:280,1,86.2499997138978
192,216,184556,2,0,L|192:128,1,86.2499997138978
80,184,184673,6,0,B|80:40|80:40|408:320|408:56,1,603.749997997284
312,64,185142,2,0,B|136:64|136:64|272:256|272:256|80:256,1,603.749997997284
152,344,185611,1,8,0:0:0:0:
152,344,185669,2,8,L|264:320,1,86.2499997138978
248,208,185786,1,8,0:0:0:0:
248,208,185845,2,8,L|332:226,1,86.2499997138978
368,320,185962,2,8,L|480:296,1,86.2499997138978
448,216,186079,5,0,0:0:0:0:
352,72,186196,1,0,0:0:0:0:
448,216,186314,1,0,0:0:0:0:
480,48,186431,1,0,0:0:0:0:
232,96,186548,2,0,B|272:128|272:128|280:176,1,86.2499997138978
192,264,186665,2,0,B|152:232|152:232|144:184,1,86.2499997138978
232,96,186782,2,0,B|272:128|272:128|280:176,1,86.2499997138978
192,264,186899,2,0,B|152:232|152:232|144:184,1,86.2499997138978
109,64,187017,6,0,L|197:89,1,71.8749970197678
296,95,187134,2,0,L|365:75,1,71.8749970197678
162,137,187251,6,0,L|250:162,1,71.8749970197678
349,168,187368,2,0,L|418:148,1,71.8749970197678
91,234,187486,5,0,0:0:0:0:
279,318,187603,2,0,L|188:277,1,86.2499997138978
91,331,187720,5,0,0:0:0:0:
279,247,187837,2,0,L|188:288,1,86.2499997138978
224,152,187954,6,0,B|312:-8|112:88|112:88|296:200,1,431.249998569489
256,280,188306,2,0,B|408:336|464:184|464:184|304:104,1,431.249998569489
240,96,188657,2,0,B|144:96|136:232|32:232,1,258.749999141693
32,312,188892,6,0,B|240:352|312:136|312:136|464:192,1,517.499998283387
448,296,189361,2,8,L|464:328,7,28.7499988079071
352,304,189595,2,8,L|328:272,7,28.7499988079071
216,264,189829,6,0,L|128:232,1,86.2499997138978
312,192,189946,2,0,L|400:160,1,86.2499997138978
224,120,190064,2,0,L|136:88,1,86.2499997138978
304,56,190181,2,0,L|392:24,1,86.2499997138978
424,128,190298,5,0,0:0:0:0:
424,128,190415,2,8,L|464:160,11,43.1249998569489
400,224,190767,6,0,P|280:176|152:216,1,258.749999141693
88,248,191001,2,0,B|16:312|16:312|224:304,1,258.749999141693
272,296,191236,2,0,B|160:128|160:128|208:96,1,258.749999141693
304,64,191470,2,0,P|304:112|264:176,1,86.2499997138978
408,64,191587,2,0,P|406:106|422:146,1,86.2499997138978
352,232,191704,2,0,B|192:232|192:232|136:88|136:88|16:88|16:88|72:248,1,603.749997997284
112,320,192173,2,0,P|248:328|384:280,1,258.749999141693
184,216,192407,2,0,P|305:154|399:45,1,258.749999141693
296,32,192642,6,4,P|280:272|440:328,1,431.249998569489
448,328,192993,1,4,0:0:0:0:
440,240,193111,2,4,L|160:72,1,258.749999141693
200,96,193345,6,4,L|160:72,8,43.1249998569489
88,192,193696,1,4,0:0:0:0:
88,192,193814,2,4,L|184:240,1,86.2499997138978
192,336,193931,1,4,0:0:0:0:
192,336,194048,2,4,L|288:280,1,86.2499997138978
344,184,194165,2,4,L|384:160,4,43.1249998569489
168,88,194400,2,4,L|240:168,1,86.2499997138978
296,232,194517,1,4,0:0:0:0:
296,232,194751,6,4,L|328:272,8,43.1249998569489
112,64,195454,2,4,B|48:184|48:184|104:320,1,258.749999141693
200,312,195689,2,0,B|360:240|488:304|488:304|440:208|496:120|496:120|344:200|232:128|232:128|136:144|56:216,1,948.749996852875
80,104,196392,6,0,B|168:64|296:168|296:168|384:144,1,301.874998998642
360,152,196861,1,0,0:0:0:0:
343,235,196978,1,0,0:0:0:0:
288,300,197095,1,0,0:0:0:0:
288,300,197212,2,0,L|208:232,1,86.2499997138978
72,184,197446,1,0,0:0:0:0:
72,184,197564,2,0,L|160:144,1,86.2499997138978
296,88,197798,1,0,0:0:0:0:
296,88,197915,5,0,0:0:0:0:
382,81,198032,2,0,L|270:89,1,86.2499997138978
120,136,198267,1,0,0:0:0:0:
120,136,198384,1,0,0:0:0:0:
216,248,198501,1,0,0:0:0:0:
216,248,198618,1,0,0:0:0:0:
352,176,198736,2,0,L|440:128,1,86.2499997138978
440,128,198970,5,0,0:0:0:0:
344,56,199087,2,0,P|264:72|176:128,1,172.499999427796
296,208,199439,2,0,P|228:253|126:275,1,172.499999427796
96,112,199790,1,0,0:0:0:0:
32,216,199907,1,0,0:0:0:0:
96,112,200025,1,0,0:0:0:0:
240,120,200142,2,0,B|328:80|328:80|336:264|336:264|416:192|416:192|184:208,1,603.749997997284
168,88,201079,2,0,P|88:136|40:224,1,172.499999427796
168,315,201431,2,0,P|88:267|40:179,1,172.499999427796
296,136,201782,5,0,0:0:0:0:
296,136,201841,1,0,0:0:0:0:
296,136,201900,2,0,B|376:104|376:104|360:352|520:352|528:104,1,517.499998283387
440,40,202720,5,0,0:0:0:0:
440,40,202778,1,0,0:0:0:0:
440,40,202837,1,0,0:0:0:0:
356,172,202954,2,0,L|304:104,1,86.2499997138978
277,243,203189,2,0,L|224:176,1,86.2499997138978
275,343,203423,2,0,P|162:284|112:168,1,258.749999141693
151,131,203892,6,0,P|131:57|164:128,1,215.624999284744
214,186,204243,2,0,P|287:113|409:136,1,215.624999284744
413,161,204595,2,0,P|367:256|439:349,1,215.624999284744
445,300,204946,2,0,P|329:254|221:301,1,215.624999284744
152,292,205298,2,0,B|176:206|176:206|234:187|234:187|259:117,1,215.624999284744
185,68,205650,2,0,P|73:135|24:211,1,215.624999284744
16,248,206001,1,0,0:0:0:0:
16,248,206118,1,0,0:0:0:0:
104,136,206236,5,0,0:0:0:0:
176,88,206353,1,0,0:0:0:0:
224,160,206470,1,0,0:0:0:0:
312,168,206587,1,0,0:0:0:0:
400,224,206704,2,0,P|368:304|280:344,1,172.499999427796
152,320,207056,2,0,P|184:240|272:200,1,172.499999427796
456,104,207407,2,0,L|416:192,1,86.2499997138978
344,336,207642,6,0,L|240:288,1,86.2499997138978
136,232,207876,1,0,0:0:0:0:
136,232,207993,1,0,0:0:0:0:
136,232,208111,2,0,L|200:152,1,86.2499997138978
264,48,208346,1,0,0:0:0:0:
264,48,208463,1,0,0:0:0:0:
320,248,208579,6,0,P|144:296|32:184,1,344.999998855591
224,184,208931,2,0,P|392:80|560:80,1,344.999998855591
432,272,209282,5,4,0:0:0:0:
432,272,209341,1,4,0:0:0:0:
432,272,209400,1,4,0:0:0:0:
432,272,209458,1,4,0:0:0:0:
432,272,209517,2,4,B|264:312|152:336|88:272|112:168|296:200,1,431.249998569489
288,144,209868,2,4,B|376:80|224:0|96:184|96:184|32:96,1,431.249998569489
24,88,210220,1,4,0:0:0:0:
32,224,210337,2,4,L|48:320,1,86.2499997138978
224,336,210454,6,4,B|336:232|240:136|32:32,1,431.249998569489
88,168,210806,2,4,B|122:316|253:281|447:153,1,431.249998569489
336,120,211157,2,4,B|256:72|256:72|272:248,1,258.749999141693
272,328,211392,6,4,P|208:344|144:336,1,114.999995231628
64,176,212329,5,0,0:0:0:0:
216,128,212681,1,0,0:0:0:0:
264,280,213032,1,0,0:0:0:0:
107,308,214204,5,0,0:0:0:0:
314,258,214556,1,0,0:0:0:0:
396,61,214907,1,0,0:0:0:0:
392,312,216079,5,0,0:0:0:0:
192,248,216431,1,0,0:0:0:0:
72,72,216782,1,0,0:0:0:0:
120,272,217954,5,0,0:0:0:0:
264,224,218071,1,0,0:0:0:0:
352,136,218306,1,0,0:0:0:0:
384,64,218540,1,0,0:0:0:0:
256,56,218892,5,0,0:0:0:0:
112,144,219243,1,0,0:0:0:0:
256,232,219595,1,0,0:0:0:0:
416,272,219946,1,0,0:0:0:0:
256,320,220298,1,0,0:0:0:0:
88,280,220650,1,0,0:0:0:0:
160,240,221704,5,0,0:0:0:0:
296,120,222056,1,0,0:0:0:0:
368,264,222407,1,0,0:0:0:0:
120,272,223579,5,0,0:0:0:0:
304,208,223931,1,0,0:0:0:0:
392,40,224282,1,0,0:0:0:0:
232,320,224986,5,0,0:0:0:0:
176,48,225220,1,0,0:0:0:0:
256,192,225337,12,0,226275,0:0:0:0:
256,192,226392,5,0,0:0:0:0:
144,192,227329,5,0,0:0:0:0:
256,328,227681,1,0,0:0:0:0:
376,192,228032,1,0,0:0:0:0:
206,105,229204,5,0,0:0:0:0:
206,278,229556,1,0,0:0:0:0:
355,192,229907,1,0,0:0:0:0:
24,336,231079,5,0,0:0:0:0:
216,304,231431,1,0,0:0:0:0:
352,216,231782,1,0,0:0:0:0:
416,120,232251,1,0,0:0:0:0:
440,56,232720,1,0,0:0:0:0:
276,161,233189,1,0,0:0:0:0:
64,312,233892,5,0,0:0:0:0:
144,248,234126,1,0,0:0:0:0:
232,344,234478,1,0,0:0:0:0:
328,224,234829,1,0,0:0:0:0:
232,144,235181,1,0,0:0:0:0:
160,72,235532,1,0,0:0:0:0:
32,120,236001,1,0,0:0:0:0:
48,72,236939,5,0,0:0:0:0:
168,208,237290,2,0,L|176:248,2,28.7499988079071
360,272,237876,2,0,L|368:312,3,28.7499988079071
96,288,238579,5,0,0:0:0:0:
296,240,238931,1,0,0:0:0:0:
384,80,239282,1,0,0:0:0:0:
128,144,239751,1,0,0:0:0:0:
104,240,241392,5,0,0:0:0:0:
248,80,242329,6,0,P|296:96|320:128,2,86.2499964237214
258,205,244204,6,0,P|286:236|328:248,2,86.2499964237214
72,312,246079,6,0,P|128:312|160:296,1,86.2499964237214
240,256,246782,1,0,0:0:0:0:
304,184,247251,1,0,0:0:0:0:
328,112,247720,1,0,0:0:0:0:
425,274,248189,1,0,0:0:0:0:
82,172,249126,5,0,0:0:0:0:
160,336,249478,1,0,0:0:0:0:
304,272,249829,1,0,0:0:0:0:
384,208,250181,1,0,0:0:0:0:
424,128,250532,1,0,0:0:0:0:
256,192,251001,5,0,0:0:0:0:
256,192,251118,12,0,256392,0:0:0:0:
